  0
SECTION
  2
HEADER
  9
$ACADVER
  1
AC1018
  9
$ACADMAINTVER
 70
   104
  9
$DWGCODEPAGE
  3
ANSI_1252
  9
$LASTSAVEDBY
  1
rperez
  9
$INSBASE
 10
0.0
 20
0.0
 30
0.0
  9
$EXTMIN
 10
-0.1752355615048485
 20
-3.508528264422416
 30
0.0
  9
$EXTMAX
 10
12.69260197251052
 20
6.931471735577583
 30
0.03
  9
$LIMMIN
 10
0.0
 20
0.0
  9
$LIMMAX
 10
12.0
 20
9.0
  9
$ORTHOMODE
 70
     1
  9
$REGENMODE
 70
     1
  9
$FILLMODE
 70
     1
  9
$QTEXTMODE
 70
     0
  9
$MIRRTEXT
 70
     0
  9
$LTSCALE
 40
1.0
  9
$ATTMODE
 70
     1
  9
$TEXTSIZE
 40
0.125
  9
$TRACEWID
 40
0.05
  9
$TEXTSTYLE
  7
ROMANS
  9
$CLAYER
  8
0
  9
$CELTYPE
  6
ByLayer
  9
$CECOLOR
 62
   256
  9
$CELTSCALE
 40
1.0
  9
$DISPSILH
 70
     0
  9
$DIMSCALE
 40
1.0
  9
$DIMASZ
 40
0.18
  9
$DIMEXO
 40
0.0625
  9
$DIMDLI
 40
0.38
  9
$DIMRND
 40
0.0
  9
$DIMDLE
 40
0.0
  9
$DIMEXE
 40
0.125
  9
$DIMTP
 40
0.0
  9
$DIMTM
 40
0.0
  9
$DIMTXT
 40
0.125
  9
$DIMCEN
 40
0.09
  9
$DIMTSZ
 40
0.0
  9
$DIMTOL
 70
     0
  9
$DIMLIM
 70
     0
  9
$DIMTIH
 70
     1
  9
$DIMTOH
 70
     1
  9
$DIMSE1
 70
     0
  9
$DIMSE2
 70
     0
  9
$DIMTAD
 70
     0
  9
$DIMZIN
 70
     0
  9
$DIMBLK
  1

  9
$DIMASO
 70
     1
  9
$DIMSHO
 70
     1
  9
$DIMPOST
  1

  9
$DIMAPOST
  1

  9
$DIMALT
 70
     0
  9
$DIMALTD
 70
     2
  9
$DIMALTF
 40
25.4
  9
$DIMLFAC
 40
1.0
  9
$DIMTOFL
 70
     0
  9
$DIMTVP
 40
0.0
  9
$DIMTIX
 70
     0
  9
$DIMSOXD
 70
     0
  9
$DIMSAH
 70
     0
  9
$DIMBLK1
  1

  9
$DIMBLK2
  1

  9
$DIMSTYLE
  2
Standard
  9
$DIMCLRD
 70
   256
  9
$DIMCLRE
 70
   256
  9
$DIMCLRT
 70
   256
  9
$DIMTFAC
 40
1.0
  9
$DIMGAP
 40
0.09
  9
$DIMJUST
 70
     0
  9
$DIMSD1
 70
     0
  9
$DIMSD2
 70
     0
  9
$DIMTOLJ
 70
     1
  9
$DIMTZIN
 70
     0
  9
$DIMALTZ
 70
     0
  9
$DIMALTTZ
 70
     0
  9
$DIMUPT
 70
     0
  9
$DIMDEC
 70
     4
  9
$DIMTDEC
 70
     4
  9
$DIMALTU
 70
     2
  9
$DIMALTTD
 70
     2
  9
$DIMTXSTY
  7
Arial
  9
$DIMAUNIT
 70
     0
  9
$DIMADEC
 70
     0
  9
$DIMALTRND
 40
0.0
  9
$DIMAZIN
 70
     0
  9
$DIMDSEP
 70
    46
  9
$DIMATFIT
 70
     3
  9
$DIMFRAC
 70
     0
  9
$DIMLDRBLK
  1

  9
$DIMLUNIT
 70
     2
  9
$DIMLWD
 70
    -1
  9
$DIMLWE
 70
    -1
  9
$DIMTMOVE
 70
     2
  9
$LUNITS
 70
     2
  9
$LUPREC
 70
     3
  9
$SKETCHINC
 40
0.1
  9
$FILLETRAD
 40
0.0
  9
$AUNITS
 70
     0
  9
$AUPREC
 70
     0
  9
$MENU
  1
ACAD
  9
$ELEVATION
 40
0.0
  9
$PELEVATION
 40
0.0
  9
$THICKNESS
 40
0.0
  9
$LIMCHECK
 70
     0
  9
$CHAMFERA
 40
0.0
  9
$CHAMFERB
 40
0.0
  9
$CHAMFERC
 40
0.0
  9
$CHAMFERD
 40
0.0
  9
$SKPOLY
 70
     0
  9
$TDCREATE
 40
2449623.385097569
  9
$TDUCREATE
 40
2449623.676764236
  9
$TDUPDATE
 40
2456280.613515857
  9
$TDUUPDATE
 40
2456280.905182523
  9
$TDINDWG
 40
1.5272736227
  9
$TDUSRTIMER
 40
1.5272736227
  9
$USRTIMER
 70
     1
  9
$ANGBASE
 50
0.0
  9
$ANGDIR
 70
     0
  9
$PDMODE
 70
     0
  9
$PDSIZE
 40
0.0
  9
$PLINEWID
 40
0.0
  9
$SPLFRAME
 70
     0
  9
$SPLINETYPE
 70
     6
  9
$SPLINESEGS
 70
     8
  9
$HANDSEED
  5
68CE
  9
$SURFTAB1
 70
     6
  9
$SURFTAB2
 70
     6
  9
$SURFTYPE
 70
     6
  9
$SURFU
 70
     6
  9
$SURFV
 70
     6
  9
$UCSBASE
  2

  9
$UCSNAME
  2

  9
$UCSORG
 10
0.0
 20
0.0
 30
0.0
  9
$UCSXDIR
 10
1.0
 20
0.0
 30
0.0
  9
$UCSYDIR
 10
0.0
 20
1.0
 30
0.0
  9
$UCSORTHOREF
  2

  9
$UCSORTHOVIEW
 70
     0
  9
$UCSORGTOP
 10
0.0
 20
0.0
 30
0.0
  9
$UCSORGBOTTOM
 10
0.0
 20
0.0
 30
0.0
  9
$UCSORGLEFT
 10
0.0
 20
0.0
 30
0.0
  9
$UCSORGRIGHT
 10
0.0
 20
0.0
 30
0.0
  9
$UCSORGFRONT
 10
0.0
 20
0.0
 30
0.0
  9
$UCSORGBACK
 10
0.0
 20
0.0
 30
0.0
  9
$PUCSBASE
  2

  9
$PUCSNAME
  2

  9
$PUCSORG
 10
0.0
 20
0.0
 30
0.0
  9
$PUCSXDIR
 10
1.0
 20
0.0
 30
0.0
  9
$PUCSYDIR
 10
0.0
 20
1.0
 30
0.0
  9
$PUCSORTHOREF
  2

  9
$PUCSORTHOVIEW
 70
     0
  9
$PUCSORGTOP
 10
0.0
 20
0.0
 30
0.0
  9
$PUCSORGBOTTOM
 10
0.0
 20
0.0
 30
0.0
  9
$PUCSORGLEFT
 10
0.0
 20
0.0
 30
0.0
  9
$PUCSORGRIGHT
 10
0.0
 20
0.0
 30
0.0
  9
$PUCSORGFRONT
 10
0.0
 20
0.0
 30
0.0
  9
$PUCSORGBACK
 10
0.0
 20
0.0
 30
0.0
  9
$USERI1
 70
     0
  9
$USERI2
 70
     0
  9
$USERI3
 70
     0
  9
$USERI4
 70
     0
  9
$USERI5
 70
     0
  9
$USERR1
 40
0.0
  9
$USERR2
 40
0.0
  9
$USERR3
 40
0.0
  9
$USERR4
 40
0.0
  9
$USERR5
 40
0.0
  9
$WORLDVIEW
 70
     1
  9
$SHADEDGE
 70
     3
  9
$SHADEDIF
 70
    70
  9
$TILEMODE
 70
     1
  9
$MAXACTVP
 70
    16
  9
$PINSBASE
 10
0.0
 20
0.0
 30
0.0
  9
$PLIMCHECK
 70
     0
  9
$PEXTMIN
 10
1.000000000000000E+20
 20
1.000000000000000E+20
 30
1.000000000000000E+20
  9
$PEXTMAX
 10
-1.000000000000000E+20
 20
-1.000000000000000E+20
 30
-1.000000000000000E+20
  9
$PLIMMIN
 10
0.0
 20
0.0
  9
$PLIMMAX
 10
12.0
 20
9.0
  9
$UNITMODE
 70
     0
  9
$VISRETAIN
 70
     0
  9
$PLINEGEN
 70
     1
  9
$PSLTSCALE
 70
     1
  9
$TREEDEPTH
 70
  3020
  9
$CMLSTYLE
  2
Standard
  9
$CMLJUST
 70
     0
  9
$CMLSCALE
 40
1.0
  9
$PROXYGRAPHICS
 70
     1
  9
$MEASUREMENT
 70
     0
  9
$CELWEIGHT
370
    -1
  9
$ENDCAPS
280
     0
  9
$JOINSTYLE
280
     0
  9
$LWDISPLAY
290
     0
  9
$INSUNITS
 70
     0
  9
$HYPERLINKBASE
  1

  9
$STYLESHEET
  1
LaserJet5Shaded.ctb
  9
$XEDIT
290
     1
  9
$CEPSNTYPE
380
     0
  9
$PSTYLEMODE
290
     1
  9
$FINGERPRINTGUID
  2
{BCE94025-CD6B-4C78-9663-B5CA4FDFDFD5}
  9
$VERSIONGUID
  2
{83AC73CD-4D58-46BB-B961-80C2E8D467BA}
  9
$EXTNAMES
290
     1
  9
$PSVPSCALE
 40
0.0
  9
$OLESTARTUP
290
     1
  9
$SORTENTS
280
    48
  9
$INDEXCTL
280
     0
  9
$HIDETEXT
280
     1
  9
$XCLIPFRAME
290
     0
  9
$HALOGAP
280
     0
  9
$OBSCOLOR
 70
   257
  9
$OBSLTYPE
280
     0
  9
$INTERSECTIONDISPLAY
280
     0
  9
$INTERSECTIONCOLOR
 70
   257
  9
$DIMASSOC
280
     1
  9
$PROJECTNAME
  1

  0
ENDSEC
  0
SECTION
  2
CLASSES
  0
CLASS
  1
ACDBDICTIONARYWDFLT
  2
AcDbDictionaryWithDefault
  3
ObjectDBX Classes
 90
        0
 91
        1
280
     0
281
     0
  0
CLASS
  1
DICTIONARYVAR
  2
AcDbDictionaryVar
  3
ObjectDBX Classes
 90
        0
 91
       16
280
     0
281
     0
  0
CLASS
  1
PLOTSETTINGS
  2
AcDbPlotSettings
  3
ObjectDBX Classes
 90
        0
 91
       79
280
     0
281
     0
  0
CLASS
  1
MATERIAL
  2
AcDbMaterial
  3
ObjectDBX Classes
 90
     1153
 91
        3
280
     0
281
     0
  0
CLASS
  1
VISUALSTYLE
  2
AcDbVisualStyle
  3
ObjectDBX Classes
 90
     4095
 91
       26
280
     0
281
     0
  0
CLASS
  1
TABLESTYLE
  2
AcDbTableStyle
  3
ObjectDBX Classes
 90
     4095
 91
        1
280
     0
281
     0
  0
CLASS
  1
SCALE
  2
AcDbScale
  3
ObjectDBX Classes
 90
     1153
 91
       33
280
     0
281
     0
  0
CLASS
  1
MLEADERSTYLE
  2
AcDbMLeaderStyle
  3
ACDB_MLEADERSTYLE_CLASS
 90
     4095
 91
        1
280
     0
281
     0
  0
CLASS
  1
EXACXREFPANELOBJECT
  2
ExAcXREFPanelObject
  3
EXAC_ESW
 90
     1025
 91
        0
280
     0
281
     0
  0
CLASS
  1
NPOCOLLECTION
  2
AcDbImpNonPersistentObjectsCollection
  3
ObjectDBX Classes
 90
     1153
 91
        0
280
     0
281
     0
  0
CLASS
  1
LAYER_INDEX
  2
AcDbLayerIndex
  3
ObjectDBX Classes
 90
        0
 91
        0
280
     0
281
     0
  0
CLASS
  1
SPATIAL_INDEX
  2
AcDbSpatialIndex
  3
ObjectDBX Classes
 90
        0
 91
        0
280
     0
281
     0
  0
CLASS
  1
IDBUFFER
  2
AcDbIdBuffer
  3
ObjectDBX Classes
 90
        0
 91
        0
280
     0
281
     0
  0
CLASS
  1
CELLSTYLEMAP
  2
AcDbCellStyleMap
  3
ObjectDBX Classes
 90
     1152
 91
        2
280
     0
281
     0
  0
CLASS
  1
SORTENTSTABLE
  2
AcDbSortentsTable
  3
ObjectDBX Classes
 90
        0
 91
        2
280
     0
281
     0
  0
CLASS
  1
AEC_REFEDIT_STATUS_TRACKER
  2
AecDbRefEditStatusTracker
  3
AecArchBase50|Product Desc: Autodesk Architectural Desktop 2007 |Company: Autodesk,Inc. |WEB Address: www.autodesk.com
 90
      129
 91
        0
280
     0
281
     0
  0
CLASS
  1
ACAD_EVALUATION_GRAPH
  2
AcDbEvalGraph
  3
ObjectDBX Classes
 90
     1153
 91
        0
280
     0
281
     0
  0
CLASS
  1
ACAECUSTOBJ
  2
AcAeEditorObj
  3
AcAeEditorObj
 90
     1024
 91
        0
280
     0
281
     0
  0
CLASS
  1
ACDB_DYNAMICBLOCKPURGEPREVENTER_VERSION
  2
AcDbDynamicBlockPurgePreventer
  3
ObjectDBX Classes
 90
     1153
 91
        0
280
     0
281
     0
  0
CLASS
  1
ACDBSECTIONVIEWSTYLE
  2
AcDbSectionViewStyle
  3
ObjectDBX Classes
 90
     1025
 91
        1
280
     0
281
     0
  0
CLASS
  1
ACDBDETAILVIEWSTYLE
  2
AcDbDetailViewStyle
  3
ObjectDBX Classes
 90
     1025
 91
        1
280
     0
281
     0
  0
CLASS
  1
FIELD
  2
AcDbField
  3
ObjectDBX Classes
 90
     1152
 91
        2
280
     0
281
     0
  0
CLASS
  1
FIELDLIST
  2
AcDbFieldList
  3
ObjectDBX Classes
 90
     1152
 91
        1
280
     0
281
     0
  0
ENDSEC
  0
SECTION
  2
TABLES
  0
TABLE
  2
VPORT
  5
8
102
{ACAD_XDICTIONARY
360
6647
102
}
330
0
100
AcDbSymbolTable
 70
     1
  0
VPORT
  5
2035
330
8
100
AcDbSymbolTableRecord
100
AcDbViewportTableRecord
  2
*Active
 70
     0
 10
0.0
 20
0.0
 11
1.0
 21
1.0
 12
6.258683205502833
 22
1.711471735577583
 13
0.0
 23
0.0
 14
0.14
 24
0.14
 15
0.14
 25
0.14
 16
0.0
 26
0.0
 36
1.0
 17
0.0
 27
0.0
 37
0.0
 40
10.51742892459827
 41
2.334158415841584
 42
50.0
 43
0.0
 44
0.0
 50
0.0
 51
0.0
 71
     0
 72
  1000
 73
     1
 74
     1
 75
     0
 76
     0
 77
     0
 78
     0
281
     0
 65
     1
110
0.0
120
0.0
130
0.0
111
1.0
121
0.0
131
0.0
112
0.0
122
1.0
132
0.0
 79
     0
146
0.0
1001
ACAD_NAV_VCDISPLAY
1070
     3
  0
ENDTAB
  0
TABLE
  2
LTYPE
  5
5
330
0
100
AcDbSymbolTable
 70
     3
  0
LTYPE
  5
13
330
5
100
AcDbSymbolTableRecord
100
AcDbLinetypeTableRecord
  2
ByBlock
 70
     0
  3

 72
    65
 73
     0
 40
0.0
  0
LTYPE
  5
14
330
5
100
AcDbSymbolTableRecord
100
AcDbLinetypeTableRecord
  2
ByLayer
 70
     0
  3

 72
    65
 73
     0
 40
0.0
  0
LTYPE
  5
15
330
5
100
AcDbSymbolTableRecord
100
AcDbLinetypeTableRecord
  2
CONTINUOUS
 70
     0
  3
Solid line
 72
    65
 73
     0
 40
0.0
  0
LTYPE
  5
5176
330
5
100
AcDbSymbolTableRecord
100
AcDbLinetypeTableRecord
  2
HIDDEN2
 70
     0
  3
Hidden (.5x) _ _ _ _ _ _ _ _ _ _ _ _ _ _ _ _ _
 72
    65
 73
     2
 40
0.1875
 49
0.125
 74
     0
 49
-0.0625
 74
     0
  0
LTYPE
  5
6700
330
5
100
AcDbSymbolTableRecord
100
AcDbLinetypeTableRecord
  2
PHANTOM2
 70
     0
  3
Phantom (.5x) ___ _ _ ___ _ _ ___ _ _ ___ _ _
 72
    65
 73
     6
 40
1.25
 49
0.625
 74
     0
 49
-0.125
 74
     0
 49
0.125
 74
     0
 49
-0.125
 74
     0
 49
0.125
 74
     0
 49
-0.125
 74
     0
  0
ENDTAB
  0
TABLE
  2
LAYER
  5
2
102
{ACAD_XDICTIONARY
360
1464
102
}
330
0
100
AcDbSymbolTable
 70
     7
  0
LAYER
  5
10
330
2
100
AcDbSymbolTableRecord
100
AcDbLayerTableRecord
  2
0
 70
     0
 62
     7
  6
CONTINUOUS
370
    -3
390
F
  0
LAYER
  5
2F
330
2
100
AcDbSymbolTableRecord
100
AcDbLayerTableRecord
  2
text_bubbles
 70
     0
 62
     6
  6
CONTINUOUS
370
    -3
390
F
  0
LAYER
  5
30
330
2
100
AcDbSymbolTableRecord
100
AcDbLayerTableRecord
  2
image
 70
     0
 62
     7
  6
CONTINUOUS
370
    -3
390
F
  0
LAYER
  5
1559
330
2
100
AcDbSymbolTableRecord
100
AcDbLayerTableRecord
  2
title
 70
     0
 62
     4
  6
CONTINUOUS
370
    -3
390
F
  0
LAYER
  5
42BB
330
2
100
AcDbSymbolTableRecord
100
AcDbLayerTableRecord
  2
defpoints
 70
     1
 62
    -7
  6
CONTINUOUS
290
     0
370
    -3
390
F
  0
LAYER
  5
5099
330
2
100
AcDbSymbolTableRecord
100
AcDbLayerTableRecord
  2
hidden
 70
     0
 62
     8
  6
HIDDEN2
370
    -3
390
F
1001
AcAecLayerStandard
1000

1000

  0
LAYER
  5
5B91
330
2
100
AcDbSymbolTableRecord
100
AcDbLayerTableRecord
  2
shade
 70
     0
 62
     8
  6
CONTINUOUS
370
    -3
390
F
1001
AcAecLayerStandard
1000

1000

  0
ENDTAB
  0
TABLE
  2
STYLE
  5
3
330
0
100
AcDbSymbolTable
 70
     6
  0
STYLE
  5
11
330
3
100
AcDbSymbolTableRecord
100
AcDbTextStyleTableRecord
  2
STANDARD
 70
     0
 40
0.0
 41
1.0
 50
0.0
 71
     0
 42
0.2
  3
txt
  4

  0
STYLE
  5
28
330
3
100
AcDbSymbolTableRecord
100
AcDbTextStyleTableRecord
  2
ROMANS
 70
     0
 40
0.0
 41
1.0
 50
0.0
 71
     0
 42
0.125
  3
romans.shx
  4

  0
STYLE
  5
155A
330
3
100
AcDbSymbolTableRecord
100
AcDbTextStyleTableRecord
  2
L100
 70
     0
 40
0.1
 41
1.0
 50
0.0
 71
     0
 42
0.1
  3
romans.shx
  4

  0
STYLE
  5
155B
330
3
100
AcDbSymbolTableRecord
100
AcDbTextStyleTableRecord
  2
L200
 70
     0
 40
0.2
 41
1.0
 50
0.0
 71
     0
 42
0.081
  3
arial.ttf
  4

1001
ACAD
1000
Arial
1071
       34
  0
STYLE
  5
155C
330
3
100
AcDbSymbolTableRecord
100
AcDbTextStyleTableRecord
  2
L80
 70
     0
 40
0.08
 41
1.0
 50
0.0
 71
     0
 42
0.08
  3
ROMANS
  4

  0
STYLE
  5
213D
330
3
100
AcDbSymbolTableRecord
100
AcDbTextStyleTableRecord
  2
Arial
 70
     0
 40
0.0
 41
1.0
 50
0.0
 71
     0
 42
0.125
  3
arial.ttf
  4

1001
ACAD
1000
Arial
1071
       34
  0
ENDTAB
  0
TABLE
  2
VIEW
  5
6
330
0
100
AcDbSymbolTable
 70
     0
  0
ENDTAB
  0
TABLE
  2
UCS
  5
7
330
0
100
AcDbSymbolTable
 70
     0
  0
ENDTAB
  0
TABLE
  2
APPID
  5
9
330
0
100
AcDbSymbolTable
 70
    21
  0
APPID
  5
12
330
9
100
AcDbSymbolTableRecord
100
AcDbRegAppTableRecord
  2
ACAD
 70
     0
  0
APPID
  5
1463
330
9
100
AcDbSymbolTableRecord
100
AcDbRegAppTableRecord
  2
RAK
 70
     0
  0
APPID
  5
155D
330
9
100
AcDbSymbolTableRecord
100
AcDbRegAppTableRecord
  2
DCO15
 70
     0
  0
APPID
  5
2088
330
9
100
AcDbSymbolTableRecord
100
AcDbRegAppTableRecord
  2
ACAD_MLEADERVER
 70
     0
  0
APPID
  5
209B
330
9
100
AcDbSymbolTableRecord
100
AcDbRegAppTableRecord
  2
ACAD_PSEXT
 70
     0
  0
APPID
  5
213E
330
9
100
AcDbSymbolTableRecord
100
AcDbRegAppTableRecord
  2
BBSI_PltSel
 70
     0
  0
APPID
  5
213F
330
9
100
AcDbSymbolTableRecord
100
AcDbRegAppTableRecord
  2
BBSI_Plots
 70
     0
  0
APPID
  5
2140
330
9
100
AcDbSymbolTableRecord
100
AcDbRegAppTableRecord
  2
BBSI_Bookmarks
 70
     0
  0
APPID
  5
2141
330
9
100
AcDbSymbolTableRecord
100
AcDbRegAppTableRecord
  2
BBSI_BookmarksEx
 70
     0
  0
APPID
  5
227A
330
9
100
AcDbSymbolTableRecord
100
AcDbRegAppTableRecord
  2
ACAD_EXEMPT_FROM_CAD_STANDARDS
 70
     0
  0
APPID
  5
23F1
330
9
100
AcDbSymbolTableRecord
100
AcDbRegAppTableRecord
  2
BBSI_StampsEx
 70
     0
  0
APPID
  5
23F2
330
9
100
AcDbSymbolTableRecord
100
AcDbRegAppTableRecord
  2
BBSI_Attachs
 70
     0
  0
APPID
  5
23F3
330
9
100
AcDbSymbolTableRecord
100
AcDbRegAppTableRecord
  2
BBSI_DigSigs
 70
     0
  0
APPID
  5
25A6
330
9
100
AcDbSymbolTableRecord
100
AcDbRegAppTableRecord
  2
ADE
 70
     0
  0
APPID
  5
42BC
330
9
100
AcDbSymbolTableRecord
100
AcDbRegAppTableRecord
  2
BBSI_Stamp
 70
     0
  0
APPID
  5
481F
330
9
100
AcDbSymbolTableRecord
100
AcDbRegAppTableRecord
  2
AcAecLayerStandard
 70
     0
  0
APPID
  5
4DBA
330
9
100
AcDbSymbolTableRecord
100
AcDbRegAppTableRecord
  2
AcDbDynamicBlockGUID
 70
     0
  0
APPID
  5
4DBB
330
9
100
AcDbSymbolTableRecord
100
AcDbRegAppTableRecord
  2
AcDbBlockRepETag
 70
     0
  0
APPID
  5
5C58
330
9
100
AcDbSymbolTableRecord
100
AcDbRegAppTableRecord
  2
ACAUTHENVIRON
 70
     0
  0
APPID
  5
5C5B
330
9
100
AcDbSymbolTableRecord
100
AcDbRegAppTableRecord
  2
AcDbDynamicBlockTrueName
 70
     0
  0
APPID
  5
671E
330
9
100
AcDbSymbolTableRecord
100
AcDbRegAppTableRecord
  2
ACAD_NAV_VCDISPLAY
 70
     0
  0
ENDTAB
  0
TABLE
  2
DIMSTYLE
  5
A
330
0
100
AcDbSymbolTable
 70
     1
100
AcDbDimStyleTable
 71
     1
340
1455
  0
DIMSTYLE
105
1455
102
{ACAD_REACTORS
330
4408
330
65B2
102
}
330
A
100
AcDbSymbolTableRecord
100
AcDbDimStyleTableRecord
  2
Standard
 70
     0
340
11
  0
ENDTAB
  0
TABLE
  2
BLOCK_RECORD
  5
1
330
0
100
AcDbSymbolTable
 70
     2
  0
BLOCK_RECORD
  5
1E
102
{ACAD_XDICTIONARY
360
20EF
102
}
330
1
100
AcDbSymbolTableRecord
100
AcDbBlockTableRecord
  2
*Model_Space
340
21
  0
BLOCK_RECORD
  5
1A
330
1
100
AcDbSymbolTableRecord
100
AcDbBlockTableRecord
  2
*Paper_Space
340
1D
  0
BLOCK_RECORD
  5
155E
102
{ACAD_XDICTIONARY
360
5C56
102
}
330
1
100
AcDbSymbolTableRecord
100
AcDbBlockTableRecord
  2
titleblock
340
0
102
{BLKREFS
331
156D
102
}
1001
AcDbDynamicBlockGUID
1000
{E549DAC8-C743-491B-A240-85AE38EF5CA4}
1001
AcDbBlockRepETag
1070
     1
1071
       11
  0
BLOCK_RECORD
  5
440B
330
1
100
AcDbSymbolTableRecord
100
AcDbBlockTableRecord
  2
*D1
340
0
  0
ENDTAB
  0
ENDSEC
  0
SECTION
  2
BLOCKS
  0
BLOCK
  5
46
330
1E
100
AcDbEntity
  8
0
100
AcDbBlockBegin
  2
*Model_Space
 70
     0
 10
0.0
 20
0.0
 30
0.0
  3
*Model_Space
  1

  0
ENDBLK
  5
47
330
1E
100
AcDbEntity
  8
0
100
AcDbBlockEnd
  0
BLOCK
  5
44
330
1A
100
AcDbEntity
 67
     1
  8
0
100
AcDbBlockBegin
  2
*Paper_Space
 70
     0
 10
0.0
 20
0.0
 30
0.0
  3
*Paper_Space
  1

  0
ENDBLK
  5
45
330
1A
100
AcDbEntity
 67
     1
  8
0
100
AcDbBlockEnd
  0
BLOCK
  5
156A
330
155E
100
AcDbEntity
  8
0
100
AcDbBlockBegin
  2
titleblock
 70
     2
 10
0.0
 20
0.0
 30
0.0
  3
titleblock
  1

  0
LWPOLYLINE
  5
5C4B
330
155E
100
AcDbEntity
  8
image
100
AcDbPolyline
 90
        4
 70
     1
 43
0.0
 10
0.0
 20
0.0
 10
12.86783753401536
 20
0.0
 10
12.86783753401536
 20
10.44
 10
0.0
 20
10.44
1001
AcDbBlockRepETag
1070
     1
1071
        0
1005
5C4B
  0
ATTDEF
  5
5C4C
330
155E
100
AcDbEntity
  8
title
100
AcDbText
 10
0.5055556038023421
 20
0.7842270964783672
 30
0.0
 40
0.2
  1
D
  7
L200
 72
     4
 11
0.6064423705144839
 21
0.8842270964783672
 31
0.0
100
AcDbAttributeDefinition
  3
#
  2
D
 70
     0
1001
AcDbBlockRepETag
1070
     1
1071
        1
1005
0
  0
ATTDEF
  5
5C4D
330
155E
100
AcDbEntity
  8
title
100
AcDbText
 10
1.231442370514484
 20
1.34371230274675
 30
0.0
 40
0.2
  1

  7
L200
100
AcDbAttributeDefinition
  3
DETAIL TITLE TOP LINE
  2
TITLE1
 70
     0
1001
AcDbBlockRepETag
1070
     1
1071
        2
1005
0
  0
ATTDEF
  5
5C4E
330
155E
100
AcDbEntity
  8
title
100
AcDbText
 10
1.231442370514484
 20
0.9842270964783676
 30
0.0
 40
0.2
  1
TITLE
  7
L200
100
AcDbAttributeDefinition
  3
DETAIL TITLE TOP 2ND LINE
  2
TITLE2
 70
     0
1001
AcDbBlockRepETag
1070
     1
1071
        3
1005
0
  0
ATTDEF
  5
5C4F
330
155E
100
AcDbEntity
  8
title
100
AcDbText
 10
2.713645751168312
 20
0.5927927664583188
 30
0.0
 40
0.2
  1
TITLE2
  7
L200
100
AcDbAttributeDefinition
  3
DETAIL TITLE BOTTOM 1
  2
TITLE3
 70
     0
1001
AcDbBlockRepETag
1070
     1
1071
        4
1005
0
  0
ATTDEF
  5
5C50
330
155E
100
AcDbEntity
  8
title
100
AcDbText
 10
2.713645751168312
 20
0.2692560808167741
 30
0.0
 40
0.2
  1

  7
L200
100
AcDbAttributeDefinition
  3
DETAIL TITLE BOTTOM 2
  2
TITLE4
 70
     0
1001
AcDbBlockRepETag
1070
     1
1071
        5
1005
0
  0
ATTDEF
  5
5C51
330
155E
100
AcDbEntity
  8
title
 62
     7
100
AcDbText
 10
8.677214829966379
 20
0.96960279154464
 30
0.0
 40
0.08
  1
-
  7
L80
 72
     2
 11
8.761024353775903
 21
0.96960279154464
 31
0.0
100
AcDbAttributeDefinition
  3
REVISION DATE
  2
REVISED
 70
     0
1001
AcDbBlockRepETag
1070
     1
1071
        6
1005
0
  0
ATTDEF
  5
5C52
330
155E
100
AcDbEntity
  8
title
 62
     7
100
AcDbText
 10
0.2639423705144838
 20
0.0847116480207215
 30
0.0
 40
0.08
  1
-
  7
L80
100
AcDbAttributeDefinition
  3
DWG-NAME
  2
DWG-NAME
 70
     0
1001
AcDbBlockRepETag
1070
     1
1071
        7
1005
0
  0
LWPOLYLINE
  5
5C53
330
155E
100
AcDbEntity
  8
title
 62
     3
100
AcDbPolyline
 90
        2
 70
     1
 43
0.03
 10
0.6064423705144839
 20
0.5417270964783674
 42
0.9999999999999998
 10
0.6064423705144839
 20
1.226727096478367
 42
0.9999999999999998
1001
AcDbBlockRepETag
1070
     1
1071
        8
1005
5C53
  0
ATTDEF
  5
5C54
330
155E
100
AcDbEntity
  8
title
 62
     7
100
AcDbText
 10
1.231442370514484
 20
0.7005637793954893
 30
0.0
 40
0.1
  1
N.T.S.
  7
L100
100
AcDbAttributeDefinition
  3
SCALE
  2
SCALE
 70
     0
1001
AcDbBlockRepETag
1070
     1
1071
        9
1005
0
  0
LWPOLYLINE
  5
5C55
330
155E
100
AcDbEntity
  8
title
 62
     3
100
AcDbPolyline
 90
        2
 70
     0
 43
0.04
 39
0.03
 10
0.9489423705144833
 20
0.8842270964783672
 10
8.761024353775903
 20
0.8842270964783672
1001
AcDbBlockRepETag
1070
     1
1071
       10
1005
5C55
  0
ENDBLK
  5
156B
330
155E
100
AcDbEntity
  8
0
100
AcDbBlockEnd
  0
BLOCK
  5
440C
330
440B
100
AcDbEntity
  8
0
100
AcDbBlockBegin
  2
*D1
 70
     1
 10
0.0
 20
0.0
 30
0.0
  3
*D1
  1

  0
LINE
  5
659C
330
440B
100
AcDbEntity
  8
image
 62
     0
440
 16777216
370
    -2
100
AcDbLine
 10
1.297183289908897
 20
3.87128935752877
 30
0.0
 11
0.9088841771759355
 21
3.871289357528771
 31
0.0
  0
LINE
  5
659D
330
440B
100
AcDbEntity
  8
image
 62
     0
440
 16777216
370
    -2
100
AcDbLine
 10
1.380471209009576
 20
5.170963438482902
 30
0.0
 11
0.9088841771759357
 21
5.170963438482902
 31
0.0
  0
LINE
  5
659E
330
440B
100
AcDbEntity
  8
image
 62
     0
440
 16777216
370
    -2
100
AcDbLine
 10
1.088884177175935
 20
4.05128935752877
 30
0.0
 11
1.088884177175935
 21
4.446064696185831
 31
0.0
  0
LINE
  5
659F
330
440B
100
AcDbEntity
  8
image
 62
     0
440
 16777216
370
    -2
100
AcDbLine
 10
1.088884177175935
 20
4.990963438482903
 30
0.0
 11
1.088884177175935
 21
4.826064696185832
 31
0.0
  0
SOLID
  5
65A0
330
440B
100
AcDbEntity
  8
image
 62
     0
440
 16777216
100
AcDbTrace
 10
1.058884177175935
 20
4.05128935752877
 30
0.0
 11
1.118884177175935
 21
4.05128935752877
 31
0.0
 12
1.088884177175935
 22
3.87128935752877
 32
0.0
 13
1.088884177175935
 23
3.87128935752877
 33
0.0
  0
SOLID
  5
65A1
330
440B
100
AcDbEntity
  8
image
 62
     0
440
 16777216
100
AcDbTrace
 10
1.058884177175935
 20
4.990963438482903
 30
0.0
 11
1.118884177175935
 21
4.990963438482903
 31
0.0
 12
1.088884177175935
 22
5.170963438482902
 32
0.0
 13
1.088884177175935
 23
5.170963438482902
 33
0.0
  0
MTEXT
  5
65A2
330
440B
100
AcDbEntity
  8
image
 62
     0
440
 16777216
100
AcDbMText
 10
1.088884177175934
 20
4.636064696185831
 30
0.0
 40
0.168
 41
0.0
 71
     5
 72
     1
  1
\A1;4"-6"
  7
ROMANS
 73
     1
 44
1.0
  0
POINT
  5
65A3
330
440B
100
AcDbEntity
  8
defpoints
 62
     0
440
 16777216
100
AcDbPoint
 10
1.359683289908897
 20
3.87128935752877
 30
0.0
  0
POINT
  5
65A4
330
440B
100
AcDbEntity
  8
defpoints
 62
     0
440
 16777216
100
AcDbPoint
 10
1.442971209009576
 20
5.170963438482902
 30
0.0
  0
POINT
  5
65A5
330
440B
100
AcDbEntity
  8
defpoints
 62
     0
440
 16777216
100
AcDbPoint
 10
1.088884177175935
 20
5.170963438482902
 30
0.0
  0
ENDBLK
  5
440D
330
440B
100
AcDbEntity
  8
0
100
AcDbBlockEnd
  0
ENDSEC
  0
SECTION
  2
ENTITIES
  0
CIRCLE
  5
E7C
330
1E
100
AcDbEntity
  8
text_bubbles
100
AcDbCircle
 10
8.010812337741286
 20
4.851700377509705
 30
0.0
 40
0.15625
  0
CIRCLE
  5
E7D
330
1E
100
AcDbEntity
  8
text_bubbles
100
AcDbCircle
 10
8.009127205666283
 20
4.229573015876784
 30
0.0
 40
0.15625
  0
TEXT
  5
E7F
330
1E
100
AcDbEntity
  8
text_bubbles
100
AcDbText
 10
7.946627205666283
 20
4.167073015876784
 30
0.0
 40
0.125
  1
4
  7
ROMANS
 72
     4
 11
8.009127205666283
 21
4.229573015876784
 31
0.0
100
AcDbText
  0
TEXT
  5
E81
330
1E
100
AcDbEntity
  8
text_bubbles
100
AcDbText
 10
7.951288528217477
 20
4.789200377509705
 30
0.0
 40
0.125
  1
3
  7
ROMANS
 72
     4
 11
8.010812337741286
 21
4.851700377509705
 31
0.0
100
AcDbText
  0
CIRCLE
  5
E84
330
1E
100
AcDbEntity
  8
text_bubbles
100
AcDbCircle
 10
8.015594130625469
 20
6.518984309801489
 30
0.0
 40
0.15625
  0
CIRCLE
  5
E85
330
1E
100
AcDbEntity
  8
text_bubbles
100
AcDbCircle
 10
8.027668130771454
 20
5.472013820451726
 30
0.0
 40
0.15625
  0
TEXT
  5
E86
330
1E
100
AcDbEntity
  8
text_bubbles
100
AcDbText
 10
7.968144321247645
 20
5.409513820451726
 30
0.0
 40
0.125
  1
2
  7
ROMANS
 72
     4
 11
8.027668130771454
 21
5.472013820451726
 31
0.0
100
AcDbText
  0
TEXT
  5
E87
330
1E
100
AcDbEntity
  8
text_bubbles
100
AcDbText
 10
7.964998892530231
 20
6.456484309801489
 30
0.0
 40
0.125
  1
1
  7
ROMANS
 72
     4
 11
8.015594130625469
 21
6.518984309801489
 31
0.0
100
AcDbText
  0
INSERT
  5
156D
330
1E
100
AcDbEntity
  8
title
100
AcDbBlockReference
 66
     1
  2
titleblock
 10
-0.1752355615048485
 20
-3.508528264422416
 30
0.0
  0
ATTRIB
  5
156E
330
156D
100
AcDbEntity
  8
title
100
AcDbText
 10
0.3303200422974934
 20
-2.724301167944048
 30
0.0
 40
0.2
  1
D
  7
L200
 72
     4
 11
0.4312068090096354
 21
-2.624301167944048
 31
0.0
100
AcDbAttribute
  2
D
 70
     0
  0
ATTRIB
  5
156F
330
156D
100
AcDbEntity
  8
title
100
AcDbText
 10
1.056206809009635
 20
-2.164815961675665
 30
0.0
 40
0.2
  1

  7
L200
100
AcDbAttribute
  2
TITLE1
 70
     0
  0
ATTRIB
  5
1570
330
156D
100
AcDbEntity
  8
title
100
AcDbText
 10
1.056206809009635
 20
-2.524301167944048
 30
0.0
 40
0.2
  1
XFS SUB-SURFACE DRIPLINE RISER ASSEMBLY
  7
L200
100
AcDbAttribute
  2
TITLE2
 70
     0
  0
ATTRIB
  5
1571
330
156D
100
AcDbEntity
  8
title
100
AcDbText
 10
2.538410189663463
 20
-2.915735497964097
 30
0.0
 40
0.2
  1

  7
L200
100
AcDbAttribute
  2
TITLE3
 70
     0
  0
ATTRIB
  5
1572
330
156D
100
AcDbEntity
  8
title
100
AcDbText
 10
2.538410189663463
 20
-3.239272183605641
 30
0.0
 40
0.2
  1

  7
L200
100
AcDbAttribute
  2
TITLE4
 70
     0
  0
ATTRIB
  5
1573
330
156D
100
AcDbEntity
  8
title
 62
     7
100
AcDbText
 10
7.789598316080578
 20
-2.538925472877775
 30
0.0
 40
0.08
  1
12-18-2012
  7
L80
 72
     2
 11
8.585788792271054
 21
-2.538925472877775
 31
0.0
100
AcDbAttribute
  2
REVISED
 70
     0
  0
ATTRIB
  5
1574
102
{ACAD_XDICTIONARY
360
6719
102
}
330
156D
100
AcDbEntity
  8
title
 62
     7
100
AcDbText
 10
0.0887068090096353
 20
-3.423816616401694
 30
0.0
 40
0.08
  1
XFS Sub-Surface Dripline Riser Assembly
  7
L80
100
AcDbAttribute
  2
DWG-NAME
 70
     0
  0
ATTRIB
  5
1575
330
156D
100
AcDbEntity
  8
title
 62
     7
100
AcDbText
 10
1.056206809009635
 20
-2.807964485026926
 30
0.0
 40
0.1
  1
N.T.S.
  7
L100
100
AcDbAttribute
  2
SCALE
 70
     0
  0
SEQEND
  5
1576
330
156D
100
AcDbEntity
  8
title
  0
MTEXT
  5
23C0
102
{ACAD_XDICTIONARY
360
6642
102
}
330
1E
100
AcDbEntity
  8
text_bubbles
100
AcDbMText
 10
8.376708171341171
 20
6.573803624724004
 30
0.0
 40
0.125
 41
4.250234694380156
 71
     1
 72
     5
  3
\A1;\pi-0.25,l0.25;ON-SURFACE DRIPLINE:\P RAIN BIRD XF SERIES DRIPLINE  \P POTABLE: XFS DRIPLINE\P NON-POTABLE: XFSP DRIPLINE\P\PINLINE DRIP EMITTER OUTLET, SEE PLANS FOR DRIPLINE OUTLET SPACING.\P\PBARB TEE 17x17x17mm\P RAIN BIRD XFF-TEE\P\PBARB COU
  3
PLING 17x17mm\P RAIN BIRD XFF-COUP\P\PBARB ELBOW 17x17mm \P RAIN BIRD XFF-ELBOW\P\PBARB MALE ADAPTER \P 17mm X 1/2" MPT\P  RAIN BIRD XFF-MA-050\P 17mm X 3/4" MPT\P  RAIN BIRD XFF-MA-075\P\PPVC TEE SxSxT\P\PPVC LATERAL SUPPLY HEADER\P\PTIE DOWN STAKE:
  1
\P RAIN BIRD TDS-050 WITH BEND (TYPICAL)\P\PFINISH GRADE \P\PRAIN BIRD XF SERIES BLANK TUBING LENGTH AS REQUIRED
  7
ROMANS
 73
     1
 44
1.0
  0
CIRCLE
  5
4217
330
1E
100
AcDbEntity
  8
text_bubbles
100
AcDbCircle
 10
1.824141865432127
 20
3.091418586307184
 30
0.0
 40
0.15625
  0
TEXT
  5
4218
330
1E
100
AcDbEntity
  8
text_bubbles
100
AcDbText
 10
1.773546627336889
 20
3.028918586307184
 30
0.0
 40
0.125
  1
1
  7
ROMANS
 72
     4
 11
1.824141865432127
 21
3.091418586307184
 31
0.0
100
AcDbText
  0
CIRCLE
  5
4219
330
1E
100
AcDbEntity
  8
text_bubbles
100
AcDbCircle
 10
4.07709897403096
 20
3.10841128556256
 30
0.0
 40
0.15625
  0
TEXT
  5
421A
330
1E
100
AcDbEntity
  8
text_bubbles
100
AcDbText
 10
4.026503735935722
 20
3.04591128556256
 30
0.0
 40
0.125
  1
1
  7
ROMANS
 72
     4
 11
4.07709897403096
 21
3.10841128556256
 31
0.0
100
AcDbText
  0
LWPOLYLINE
  5
436A
330
1E
100
AcDbEntity
  8
image
100
AcDbPolyline
 90
        2
 70
     0
 43
0.0
 10
6.77335351363739
 20
3.871289357528771
 10
6.613768073205205
 20
3.871289357528771
  0
LWPOLYLINE
  5
436B
330
1E
100
AcDbEntity
  8
image
100
AcDbPolyline
 90
        2
 70
     0
 43
0.0
 10
6.77335351363739
 20
4.137322812008429
 10
6.613769622954562
 20
4.137322812008429
  0
LWPOLYLINE
  5
43FC
330
1E
100
AcDbEntity
  8
image
100
AcDbPolyline
 90
        2
 70
     0
 43
0.0
 10
3.814640912896854
 20
4.137322812008429
 10
4.43055018424873
 20
4.137322812008429
  0
LWPOLYLINE
  5
43FD
330
1E
100
AcDbEntity
  8
image
100
AcDbPolyline
 90
        2
 70
     0
 43
0.0
 10
3.814640912896854
 20
3.87128935752877
 10
4.430550184248731
 20
3.871289357528771
  0
DIMENSION
  5
4408
330
1E
100
AcDbEntity
  8
image
100
AcDbDimension
  2
*D1
 10
1.088884177175935
 20
5.170963438482902
 30
0.0
 11
1.088884177175934
 21
4.636064696185831
 31
0.0
 70
   160
  1
4"-6"
 71
     5
 42
1.299674080954131
  3
Standard
100
AcDbAlignedDimension
 13
1.359683289908897
 23
3.87128935752877
 33
0.0
 14
1.442971209009576
 24
5.170963438482902
 34
0.0
 50
90.0
100
AcDbRotatedDimension
1001
ACAD
1000
DSTYLE
1002
{
1070
   340
1005
28
1070
   140
1040
0.168
1002
}
  0
MTEXT
  5
4409
102
{ACAD_XDICTIONARY
360
6644
102
}
330
1E
100
AcDbEntity
  8
text_bubbles
100
AcDbMText
 10
0.5211685749114597
 20
0.3797401808830094
 30
0.0
 40
0.13
 41
6.933197369971814
 71
     1
 72
     5
  3
NOTES:\P\pi-0.52,l0.52;1. PLACE TIE DOWN STAKES EVERY THREE FEET IN SAND, F0UR FEET IN LOAM, AND FIVE FEET IN CLAY.\P2. AT FITTINGS WHERE THERE IS A CHANGE OF DIRECTION SUCH AS TEES OR ELBOWS, USE TIE-DOWN STAKES ON EACH LEG OF THE CHANGE OF DIRECTIO
  1
N.\P3. SAVE YOUR HANDS. USE THE RAIN BIRD FITTINS-TOOL XF INSERTION TOOL FOR FITTING ASSEMBLY.
  7
ROMANS
 73
     1
 44
1.0
  0
CIRCLE
  5
445D
330
1E
100
AcDbEntity
  8
text_bubbles
100
AcDbCircle
 10
4.8820684095635
 20
3.1066535564163
 30
0.0
 40
0.15625
  0
TEXT
  5
445E
330
1E
100
AcDbEntity
  8
text_bubbles
100
AcDbText
 10
4.822544600039691
 20
3.0441535564163
 30
0.0
 40
0.125
  1
2
  7
ROMANS
 72
     4
 11
4.8820684095635
 21
3.1066535564163
 31
0.0
100
AcDbText
  0
CIRCLE
  5
445F
330
1E
100
AcDbEntity
  8
text_bubbles
100
AcDbCircle
 10
5.523004380220438
 20
3.104895854092085
 30
0.0
 40
0.15625
  0
TEXT
  5
4460
330
1E
100
AcDbEntity
  8
text_bubbles
100
AcDbText
 10
5.460504380220438
 20
3.042395854092085
 30
0.0
 40
0.125
  1
4
  7
ROMANS
 72
     4
 11
5.523004380220438
 21
3.104895854092085
 31
0.0
100
AcDbText
  0
CIRCLE
  5
46E1
330
1E
100
AcDbEntity
  8
text_bubbles
100
AcDbCircle
 10
8.009127205666283
 20
3.597474746139656
 30
0.0
 40
0.15625
  0
TEXT
  5
46E2
330
1E
100
AcDbEntity
  8
text_bubbles
100
AcDbText
 10
7.949603396142474
 20
3.534974746139656
 30
0.0
 40
0.125
  1
5
  7
ROMANS
 72
     4
 11
8.009127205666283
 21
3.597474746139656
 31
0.0
100
AcDbText
  0
LWPOLYLINE
  5
46F1
330
1E
100
AcDbEntity
  8
image
100
AcDbPolyline
 90
       15
 70
   129
 43
0.0
 10
6.595971362987178
 20
2.140040930874322
 10
6.595971362987178
 20
2.457614090662093
 10
6.595971362987178
 20
2.484304333215249
 42
0.2780875735635638
 10
6.552033252934085
 20
2.557265920414229
 42
-0.5491840446585564
 10
6.552033252934085
 20
2.757414372627186
 10
6.552033252934085
 20
2.757414372627186
 42
0.2421102928983093
 10
6.595971362987178
 20
2.821222759633492
 10
6.595971362987178
 20
4.137156731178901
 42
-1.018838378198135
 10
6.613768073205205
 20
4.137156731178901
 10
6.613768073205205
 20
2.820137174391729
 42
-0.2433516287801822
 10
6.561078622535307
 20
2.742074064273503
 42
0.5451638288881005
 10
6.561035584257856
 20
2.572633970104405
 42
-0.2760031171111874
 10
6.6137680715841
 20
2.484296737121412
 10
6.613768073205205
 20
2.457614090662093
 10
6.613768073205205
 20
2.140040930874322
 42
-1.018838378198135
  0
LWPOLYLINE
  5
485A
330
1E
100
AcDbEntity
  8
image
100
AcDbPolyline
 90
        2
 70
     0
 43
0.0
 10
6.595971362987178
 20
3.871289357528771
 10
6.252893351587978
 20
3.871289357528771
  0
LWPOLYLINE
  5
485B
330
1E
100
AcDbEntity
  8
image
100
AcDbPolyline
 90
        2
 70
     0
 43
0.0
 10
6.595969813237822
 20
4.137322812008429
 10
6.252893351587969
 20
4.137322812008429
  0
POLYLINE
  5
48D1
330
1E
100
AcDbEntity
  8
image
100
AcDb2dPolyline
 66
     1
 10
0.0
 20
0.0
 30
0.0
 70
   132
 75
     6
  0
VERTEX
  5
48D2
330
48D1
100
AcDbEntity
  8
image
100
AcDbVertex
100
AcDb2dVertex
 10
4.741171282337891
 20
4.137322812008429
 30
0.0
 70
    16
  0
VERTEX
  5
48D9
330
48D1
100
AcDbEntity
  8
image
100
AcDbVertex
100
AcDb2dVertex
 10
4.741171282337891
 20
4.137322812008429
 30
0.0
 70
     8
  0
VERTEX
  5
48DA
330
48D1
100
AcDbEntity
  8
image
100
AcDbVertex
100
AcDb2dVertex
 10
4.755844124210027
 20
4.131166521662066
 30
0.0
 70
     8
  0
VERTEX
  5
48DB
330
48D1
100
AcDbEntity
  8
image
100
AcDbVertex
100
AcDb2dVertex
 10
4.769992452909193
 20
4.125622620766522
 30
0.0
 70
     8
  0
VERTEX
  5
48DC
330
48D1
100
AcDbEntity
  8
image
100
AcDbVertex
100
AcDb2dVertex
 10
4.783652274179701
 20
4.120665852383083
 30
0.0
 70
     8
  0
VERTEX
  5
48DD
330
48D1
100
AcDbEntity
  8
image
100
AcDbVertex
100
AcDb2dVertex
 10
4.796859593765862
 20
4.116270959573038
 30
0.0
 70
     8
  0
VERTEX
  5
48DE
330
48D1
100
AcDbEntity
  8
image
100
AcDbVertex
100
AcDb2dVertex
 10
4.809650417411991
 20
4.112412685397671
 30
0.0
 70
     8
  0
VERTEX
  5
48DF
330
48D1
100
AcDbEntity
  8
image
100
AcDbVertex
100
AcDb2dVertex
 10
4.822060750862399
 20
4.109065772918272
 30
0.0
 70
     8
  0
VERTEX
  5
48E0
330
48D1
100
AcDbEntity
  8
image
100
AcDbVertex
100
AcDb2dVertex
 10
4.834126599861399
 20
4.106204965196127
 30
0.0
 70
     8
  0
VERTEX
  5
48E1
330
48D1
100
AcDbEntity
  8
image
100
AcDbVertex
100
AcDb2dVertex
 10
4.845883970153303
 20
4.103805005292523
 30
0.0
 70
     8
  0
VERTEX
  5
48E2
330
48D1
100
AcDbEntity
  8
image
100
AcDbVertex
100
AcDb2dVertex
 10
4.857375922529462
 20
4.101847600618623
 30
0.0
 70
     8
  0
VERTEX
  5
48E3
330
48D1
100
AcDbEntity
  8
image
100
AcDbVertex
100
AcDb2dVertex
 10
4.868673737969388
 20
4.100342315985097
 30
0.0
 70
     8
  0
VERTEX
  5
48E4
330
48D1
100
AcDbEntity
  8
image
100
AcDbVertex
100
AcDb2dVertex
 10
4.87985575249963
 20
4.099305680552489
 30
0.0
 70
     8
  0
VERTEX
  5
48E5
330
48D1
100
AcDbEntity
  8
image
100
AcDbVertex
100
AcDb2dVertex
 10
4.891000302146736
 20
4.098754223481344
 30
0.0
 70
     8
  0
VERTEX
  5
48E6
330
48D1
100
AcDbEntity
  8
image
100
AcDbVertex
100
AcDb2dVertex
 10
4.902185722937255
 20
4.09870447393221
 30
0.0
 70
     8
  0
VERTEX
  5
48E7
330
48D1
100
AcDbEntity
  8
image
100
AcDbVertex
100
AcDb2dVertex
 10
4.913490350897736
 20
4.09917296106563
 30
0.0
 70
     8
  0
VERTEX
  5
48E8
330
48D1
100
AcDbEntity
  8
image
100
AcDbVertex
100
AcDb2dVertex
 10
4.92499252205473
 20
4.100176214042151
 30
0.0
 70
     8
  0
VERTEX
  5
48E9
330
48D1
100
AcDbEntity
  8
image
100
AcDbVertex
100
AcDb2dVertex
 10
4.936770572434784
 20
4.101730762022317
 30
0.0
 70
     8
  0
VERTEX
  5
48EA
330
48D1
100
AcDbEntity
  8
image
100
AcDbVertex
100
AcDb2dVertex
 10
4.948892620306234
 20
4.103855723125164
 30
0.0
 70
     8
  0
VERTEX
  5
48EB
330
48D1
100
AcDbEntity
  8
image
100
AcDbVertex
100
AcDb2dVertex
 10
4.961385912904552
 20
4.106580571303704
 30
0.0
 70
     8
  0
VERTEX
  5
48EC
330
48D1
100
AcDbEntity
  8
image
100
AcDbVertex
100
AcDb2dVertex
 10
4.974267479707
 20
4.109937369469432
 30
0.0
 70
     8
  0
VERTEX
  5
48ED
330
48D1
100
AcDbEntity
  8
image
100
AcDbVertex
100
AcDb2dVertex
 10
4.987554350190834
 20
4.113958180533852
 30
0.0
 70
     8
  0
VERTEX
  5
48EE
330
48D1
100
AcDbEntity
  8
image
100
AcDbVertex
100
AcDb2dVertex
 10
5.001263553833315
 20
4.118675067408461
 30
0.0
 70
     8
  0
VERTEX
  5
48EF
330
48D1
100
AcDbEntity
  8
image
100
AcDbVertex
100
AcDb2dVertex
 10
5.015412120111701
 20
4.12412009300476
 30
0.0
 70
     8
  0
VERTEX
  5
48F0
330
48D1
100
AcDbEntity
  8
image
100
AcDbVertex
100
AcDb2dVertex
 10
5.030017078503251
 20
4.13032532023425
 30
0.0
 70
     8
  0
VERTEX
  5
48F1
330
48D1
100
AcDbEntity
  8
image
100
AcDbVertex
100
AcDb2dVertex
 10
5.045095458485223
 20
4.13732281200843
 30
0.0
 70
     8
  0
VERTEX
  5
48D3
330
48D1
100
AcDbEntity
  8
image
100
AcDbVertex
100
AcDb2dVertex
 10
4.781030216666938
 20
4.120067067871513
 30
0.0
 70
    16
  0
VERTEX
  5
48D4
330
48D1
100
AcDbEntity
  8
image
100
AcDbVertex
100
AcDb2dVertex
 10
4.848790348422991
 20
4.099158702574356
 30
0.0
 70
    16
  0
VERTEX
  5
48D5
330
48D1
100
AcDbEntity
  8
image
100
AcDbVertex
100
AcDb2dVertex
 10
4.932992276438941
 20
4.095673970937617
 30
0.0
 70
    16
  0
VERTEX
  5
48D6
330
48D1
100
AcDbEntity
  8
image
100
AcDbVertex
100
AcDb2dVertex
 10
5.004240079099613
 20
4.117577980851919
 30
0.0
 70
    16
  0
VERTEX
  5
48D7
330
48D1
100
AcDbEntity
  8
image
100
AcDbVertex
100
AcDb2dVertex
 10
5.045095458485224
 20
4.137322812008429
 30
0.0
 70
    16
  0
SEQEND
  5
48D8
330
48D1
100
AcDbEntity
  8
image
  0
HATCH
  5
490C
330
1E
100
AcDbEntity
  8
shade
100
AcDbHatch
 10
0.0
 20
0.0
 30
0.0
210
0.0
220
0.0
230
1.0
  2
SOLID
 70
     1
 71
     0
 91
        1
 92
        7
 72
     0
 73
     1
 93
       25
 10
4.74117128233789
 20
4.137322812008429
 10
4.755844124210056
 20
4.131166521662055
 10
4.769992452909206
 20
4.125622620766518
 10
4.783652274179698
 20
4.120665852383084
 10
4.79685959376586
 20
4.116270959573038
 10
4.809650417412005
 20
4.112412685397668
 10
4.822060750862386
 20
4.109065772918276
 10
4.83412659986141
 20
4.106204965196124
 10
4.845883970153312
 20
4.103805005292521
 10
4.85737592252945
 20
4.101847600618625
 10
4.868673737969392
 20
4.100342315985097
 10
4.879855752499631
 20
4.099305680552489
 10
4.891000302146734
 20
4.098754223481344
 10
4.902185722937249
 20
4.09870447393221
 10
4.913490350897741
 20
4.099172961065631
 10
4.92499252205473
 20
4.100176214042151
 10
4.936770572434786
 20
4.101730762022317
 10
4.948892620306239
 20
4.103855723125166
 10
4.961385912904556
 20
4.106580571303704
 10
4.974267479706996
 20
4.109937369469431
 10
4.987554350190837
 20
4.113958180533852
 10
5.001263553833313
 20
4.11867506740846
 10
5.0154121201117
 20
4.12412009300476
 10
5.03001707850325
 20
4.13032532023425
 10
5.045095458485223
 20
4.137322812008429
 97
        0
 75
     0
 76
     1
 47
0.0004978185357617
 98
        1
 10
4.871709207360527
 20
4.12255617941437
450
        0
451
        0
460
0.0
461
0.0
452
        0
462
0.0
453
        0
470

1001
ACAD
1010
0.0
1020
0.0
1030
0.0
  0
CIRCLE
  5
4935
330
1E
100
AcDbEntity
  8
text_bubbles
100
AcDbCircle
 10
8.009127205666283
 20
2.963527587535844
 30
0.0
 40
0.15625
  0
TEXT
  5
4936
330
1E
100
AcDbEntity
  8
text_bubbles
100
AcDbText
 10
7.946627205666283
 20
2.901027587535844
 30
0.0
 40
0.125
  1
6
  7
ROMANS
 72
     4
 11
8.009127205666283
 21
2.963527587535844
 31
0.0
100
AcDbText
  0
CIRCLE
  5
4A50
330
1E
100
AcDbEntity
  8
text_bubbles
100
AcDbCircle
 10
7.246194883004436
 20
5.524963939845674
 30
0.0
 40
0.15625
  0
TEXT
  5
4A51
330
1E
100
AcDbEntity
  8
text_bubbles
100
AcDbText
 10
7.118218692528246
 20
5.462463939845674
 30
0.0
 40
0.125
  1
10
  7
ROMANS
 72
     4
 11
7.246194883004436
 21
5.524963939845674
 31
0.0
100
AcDbText
  0
LWPOLYLINE
  5
5112
330
1E
100
AcDbEntity
  8
image
100
AcDbPolyline
 90
       18
 70
   129
 43
0.0
 10
5.607087783438729
 20
3.871306084768601
 10
5.607087783438729
 20
4.137306084768601
 10
5.607087783438729
 20
4.155810424217632
 10
5.675371880613235
 20
4.155810424217632
 10
5.675371880613235
 20
4.217106097199073
 10
5.699676403594287
 20
4.217106097199073
 10
5.72398092657534
 20
4.217106097199073
 10
5.72398092657534
 20
4.155810424217632
 10
5.792265023749845
 20
4.155810424217632
 10
5.792265023749845
 20
4.137306084768601
 10
5.792265023749845
 20
3.871306084768601
 10
5.792265023749845
 20
3.85280174531957
 10
5.72398092657534
 20
3.85280174531957
 10
5.72398092657534
 20
3.79150607233813
 10
5.699676403594287
 20
3.79150607233813
 10
5.675371880613235
 20
3.79150607233813
 10
5.675371880613235
 20
3.85280174531957
 10
5.607087783438729
 20
3.85280174531957
  0
LWPOLYLINE
  5
5113
330
1E
100
AcDbEntity
  8
hidden
 48
0.25
100
AcDbPolyline
 90
        9
 70
   128
 43
0.0
 10
5.927230205990008
 20
4.137306084768601
 10
6.083919151301114
 20
4.137306084768601
 10
6.083919151301114
 20
4.156966955144502
 10
6.252893351587969
 20
4.109549560056967
 10
6.252893351587969
 20
4.0043060847686
 10
6.252893351587969
 20
3.899062609480234
 10
6.083919151301114
 20
3.8516452143927
 10
6.083919151301114
 20
3.871306084768601
 10
5.927230205990008
 20
3.871306084768601
  0
LWPOLYLINE
  5
5115
330
1E
100
AcDbEntity
  8
image
100
AcDbPolyline
 90
        2
 70
   128
 43
0.0
 10
5.72398092657534
 20
4.155810424217632
 10
5.72398092657534
 20
3.85280174531957
  0
LWPOLYLINE
  5
5116
330
1E
100
AcDbEntity
  8
hidden
 48
0.25
100
AcDbPolyline
 90
        3
 70
   128
 43
0.0
 10
5.909690787443626
 20
4.137306084768601
 10
5.909690787443626
 20
4.146815679115482
 10
5.927230205990008
 20
4.137306084768601
  0
LWPOLYLINE
  5
5117
330
1E
100
AcDbEntity
  8
hidden
 48
0.25
100
AcDbPolyline
 90
        3
 70
   128
 43
0.0
 10
5.909690787443626
 20
3.871306084768601
 10
5.909690787443626
 20
3.861796490421721
 10
5.927230205990008
 20
3.871306084768601
  0
LWPOLYLINE
  5
5118
330
1E
100
AcDbEntity
  8
hidden
 48
0.25
100
AcDbPolyline
 90
        2
 70
   128
 43
0.0
 10
5.909690787443626
 20
4.137306084768601
 10
5.909690787443626
 20
3.871306084768601
  0
LWPOLYLINE
  5
5119
330
1E
100
AcDbEntity
  8
hidden
 48
0.25
100
AcDbPolyline
 90
        2
 70
   128
 43
0.0
 10
5.927230205990008
 20
3.871306084768601
 10
5.927230205990008
 20
4.137306084768601
  0
LWPOLYLINE
  5
511A
330
1E
100
AcDbEntity
  8
hidden
 48
0.25
100
AcDbPolyline
 90
        2
 70
   128
 43
0.0
 10
5.792265023749845
 20
4.137306084768601
 10
5.909690787443626
 20
4.137306084768601
  0
LWPOLYLINE
  5
511B
330
1E
100
AcDbEntity
  8
hidden
 48
0.25
100
AcDbPolyline
 90
        2
 70
   128
 43
0.0
 10
5.792265023749845
 20
3.871306084768601
 10
5.909690787443626
 20
3.871306084768601
  0
LWPOLYLINE
  5
511C
330
1E
100
AcDbEntity
  8
hidden
 48
0.25
100
AcDbPolyline
 90
        2
 70
   128
 43
0.0
 10
6.083919151301114
 20
4.137306084768601
 10
6.083919151301114
 20
3.871306084768601
  0
LWPOLYLINE
  5
511D
330
1E
100
AcDbEntity
  8
image
100
AcDbPolyline
 90
        2
 70
   128
 43
0.0
 10
5.792265023749845
 20
4.059787798527741
 10
5.723980926575339
 20
4.059787798527741
  0
LWPOLYLINE
  5
511E
330
1E
100
AcDbEntity
  8
image
100
AcDbPolyline
 90
        2
 70
   128
 43
0.0
 10
5.792265023749845
 20
4.042235317096357
 10
5.723980926575339
 20
4.042235317096357
  0
LWPOLYLINE
  5
5120
330
1E
100
AcDbEntity
  8
hidden
 48
0.25
100
AcDbPolyline
 90
        9
 70
   128
 43
0.0
 10
5.472122601198565
 20
3.871306084768601
 10
5.31543365588746
 20
3.871306084768601
 10
5.31543365588746
 20
3.8516452143927
 10
5.146459455600605
 20
3.899062609480234
 10
5.146459455600605
 20
4.004306084768602
 10
5.146459455600605
 20
4.109549560056967
 10
5.31543365588746
 20
4.156966955144502
 10
5.31543365588746
 20
4.137306084768601
 10
5.472122601198565
 20
4.137306084768601
  0
LWPOLYLINE
  5
5121
330
1E
100
AcDbEntity
  8
image
100
AcDbPolyline
 90
        2
 70
   128
 43
0.0
 10
5.675371880613235
 20
4.155810424217632
 10
5.675371880613235
 20
3.85280174531957
  0
LWPOLYLINE
  5
5122
330
1E
100
AcDbEntity
  8
hidden
 48
0.25
100
AcDbPolyline
 90
        3
 70
   128
 43
0.0
 10
5.489662019744947
 20
4.137306084768601
 10
5.489662019744947
 20
4.146815679115482
 10
5.472122601198565
 20
4.137306084768601
  0
LWPOLYLINE
  5
5123
330
1E
100
AcDbEntity
  8
hidden
 48
0.25
100
AcDbPolyline
 90
        3
 70
   128
 43
0.0
 10
5.489662019744947
 20
3.871306084768601
 10
5.489662019744947
 20
3.861796490421721
 10
5.472122601198565
 20
3.871306084768601
  0
LWPOLYLINE
  5
5124
330
1E
100
AcDbEntity
  8
hidden
 48
0.25
100
AcDbPolyline
 90
        2
 70
   128
 43
0.0
 10
5.489662019744947
 20
4.137306084768601
 10
5.489662019744947
 20
3.871306084768601
  0
LWPOLYLINE
  5
5125
330
1E
100
AcDbEntity
  8
hidden
 48
0.25
100
AcDbPolyline
 90
        2
 70
   128
 43
0.0
 10
5.472122601198565
 20
3.871306084768601
 10
5.472122601198565
 20
4.137306084768601
  0
LWPOLYLINE
  5
5126
330
1E
100
AcDbEntity
  8
hidden
 48
0.25
100
AcDbPolyline
 90
        2
 70
   128
 43
0.0
 10
5.607087783438729
 20
4.137306084768601
 10
5.489662019744947
 20
4.137306084768601
  0
LWPOLYLINE
  5
5127
330
1E
100
AcDbEntity
  8
hidden
 48
0.25
100
AcDbPolyline
 90
        2
 70
   128
 43
0.0
 10
5.607087783438729
 20
3.871306084768601
 10
5.489662019744947
 20
3.871306084768601
  0
LWPOLYLINE
  5
5128
330
1E
100
AcDbEntity
  8
hidden
 48
0.25
100
AcDbPolyline
 90
        2
 70
   128
 43
0.0
 10
5.31543365588746
 20
4.137306084768601
 10
5.31543365588746
 20
3.871306084768601
  0
LWPOLYLINE
  5
5129
330
1E
100
AcDbEntity
  8
image
100
AcDbPolyline
 90
        2
 70
   128
 43
0.0
 10
5.60708778343873
 20
4.059787798527741
 10
5.675371880613235
 20
4.059787798527741
  0
LWPOLYLINE
  5
512A
330
1E
100
AcDbEntity
  8
image
100
AcDbPolyline
 90
        2
 70
   128
 43
0.0
 10
5.60708778343873
 20
4.042235317096357
 10
5.675371880613235
 20
4.042235317096357
  0
LWPOLYLINE
  5
5223
330
1E
100
AcDbEntity
  8
image
100
AcDbPolyline
 90
        7
 70
     0
 43
0.0
 10
5.792265023749845
 20
4.140256219554157
 10
5.894890860632152
 20
4.139855822405847
 42
-0.419204261670485
 10
5.936281089270012
 20
4.141090437928448
 10
6.065078513679505
 20
4.140256219554157
 42
-0.3926161489298506
 10
6.108490145567527
 20
4.156112449080683
 10
6.17941625158638
 20
4.137322812008429
 10
6.252893351587969
 20
4.137322812008429
  0
LWPOLYLINE
  5
5248
330
1E
100
AcDbEntity
  8
image
100
AcDbPolyline
 90
        7
 70
     0
 43
0.0
 10
5.792265023749845
 20
3.868355949983044
 10
5.894890860632152
 20
3.868756347131353
 42
0.419204261670485
 10
5.936281089270012
 20
3.867521731608753
 10
6.065078513679505
 20
3.868355949983044
 42
0.3926161489298506
 10
6.108490145567527
 20
3.852499720456518
 10
6.17941625158638
 20
3.871289357528771
 10
6.252893351587978
 20
3.871289357528771
  0
LWPOLYLINE
  5
526D
330
1E
100
AcDbEntity
  8
image
100
AcDbPolyline
 90
        7
 70
     0
 43
0.0
 10
5.60708778343873
 20
4.140256219554157
 10
5.504461946556423
 20
4.139855822405847
 42
0.419204261670485
 10
5.463071717918562
 20
4.141090437928448
 10
5.334274293509069
 20
4.140256219554157
 42
0.3926161489298506
 10
5.290862661621048
 20
4.156112449080683
 10
5.219936555602194
 20
4.137322812008429
 10
5.146459455600605
 20
4.137322812008429
  0
LWPOLYLINE
  5
526E
330
1E
100
AcDbEntity
  8
image
100
AcDbPolyline
 90
        7
 70
     0
 43
0.0
 10
5.60708778343873
 20
3.868355949983044
 10
5.504461946556423
 20
3.868756347131353
 42
-0.419204261670485
 10
5.463071717918562
 20
3.867521731608753
 10
5.334274293509069
 20
3.868355949983044
 42
-0.3926161489298506
 10
5.290862661621048
 20
3.852499720456518
 10
5.219936555602194
 20
3.871289357528771
 10
5.146459455600616
 20
3.871289357528771
  0
LWPOLYLINE
  5
5834
330
1E
100
AcDbEntity
  8
image
100
AcDbPolyline
 90
       12
 70
   129
 43
0.0
 10
2.88711944192212
 20
3.791506072338127
 10
2.862814918941067
 20
3.791506072338127
 10
2.838510395960015
 20
3.791506072338127
 10
2.838510395960015
 20
3.852801745319567
 10
2.77022629878551
 20
3.852801745319567
 10
2.77022629878551
 20
3.871306084768598
 10
2.77022629878551
 20
4.137306084768598
 10
2.77022629878551
 20
4.155810424217629
 10
2.838510395960015
 20
4.155810424217629
 10
2.838510395960015
 20
4.21710609719907
 10
2.862814918941067
 20
4.21710609719907
 10
2.88711944192212
 20
4.21710609719907
  0
LWPOLYLINE
  5
5835
330
1E
100
AcDbEntity
  8
hidden
 48
0.25
100
AcDbPolyline
 90
        9
 70
   128
 43
0.0
 10
2.635261116545346
 20
3.871306084768598
 10
2.47857217123424
 20
3.871306084768598
 10
2.47857217123424
 20
3.851645214392697
 10
2.309597970947385
 20
3.899062609480233
 10
2.309597970947385
 20
4.004306084768599
 10
2.309597970947385
 20
4.109549560056966
 10
2.47857217123424
 20
4.1569669551445
 10
2.47857217123424
 20
4.137306084768598
 10
2.635261116545346
 20
4.137306084768598
  0
LWPOLYLINE
  5
5836
330
1E
100
AcDbEntity
  8
image
100
AcDbPolyline
 90
        2
 70
   128
 43
0.0
 10
2.838510395960015
 20
3.852801745319567
 10
2.838510395960015
 20
4.155810424217629
  0
LWPOLYLINE
  5
5837
330
1E
100
AcDbEntity
  8
hidden
 48
0.25
100
AcDbPolyline
 90
        3
 70
   128
 43
0.0
 10
2.652800535091728
 20
3.871306084768598
 10
2.652800535091728
 20
3.861796490421717
 10
2.635261116545346
 20
3.871306084768598
  0
LWPOLYLINE
  5
5838
330
1E
100
AcDbEntity
  8
hidden
 48
0.25
100
AcDbPolyline
 90
        3
 70
   128
 43
0.0
 10
2.652800535091728
 20
4.137306084768598
 10
2.652800535091728
 20
4.146815679115479
 10
2.635261116545346
 20
4.137306084768598
  0
LWPOLYLINE
  5
5839
330
1E
100
AcDbEntity
  8
hidden
 48
0.25
100
AcDbPolyline
 90
        2
 70
   128
 43
0.0
 10
2.652800535091728
 20
3.871306084768598
 10
2.652800535091728
 20
4.137306084768598
  0
LWPOLYLINE
  5
583A
330
1E
100
AcDbEntity
  8
hidden
 48
0.25
100
AcDbPolyline
 90
        2
 70
   128
 43
0.0
 10
2.635261116545346
 20
4.137306084768598
 10
2.635261116545346
 20
3.871306084768598
  0
LWPOLYLINE
  5
583B
330
1E
100
AcDbEntity
  8
hidden
 48
0.25
100
AcDbPolyline
 90
        2
 70
   128
 43
0.0
 10
2.77022629878551
 20
3.871306084768598
 10
2.652800535091728
 20
3.871306084768598
  0
LWPOLYLINE
  5
583C
330
1E
100
AcDbEntity
  8
hidden
 48
0.25
100
AcDbPolyline
 90
        2
 70
   128
 43
0.0
 10
2.77022629878551
 20
4.137306084768598
 10
2.652800535091728
 20
4.137306084768598
  0
LWPOLYLINE
  5
583D
330
1E
100
AcDbEntity
  8
hidden
 48
0.25
100
AcDbPolyline
 90
        2
 70
   128
 43
0.0
 10
2.47857217123424
 20
3.871306084768598
 10
2.47857217123424
 20
4.137306084768598
  0
LWPOLYLINE
  5
583E
330
1E
100
AcDbEntity
  8
image
100
AcDbPolyline
 90
        2
 70
   128
 43
0.0
 10
2.77022629878551
 20
3.948824371009458
 10
2.838510395960016
 20
3.948824371009458
  0
LWPOLYLINE
  5
583F
330
1E
100
AcDbEntity
  8
image
100
AcDbPolyline
 90
        2
 70
   128
 43
0.0
 10
2.77022629878551
 20
3.966376852440842
 10
2.838510395960016
 20
3.966376852440842
  0
LWPOLYLINE
  5
5840
330
1E
100
AcDbEntity
  8
image
100
AcDbPolyline
 90
        7
 70
     0
 43
0.0
 10
2.77022629878551
 20
3.868355949983043
 10
2.667600461903202
 20
3.868756347131352
 42
-0.419204261670485
 10
2.626210233265342
 20
3.867521731608752
 10
2.497412808855848
 20
3.868355949983043
 42
-0.3926161489298506
 10
2.454001176967827
 20
3.852499720456518
 10
2.383075070948974
 20
3.871289357528771
 10
2.309597970947385
 20
3.871289357528771
  0
LWPOLYLINE
  5
5841
330
1E
100
AcDbEntity
  8
image
100
AcDbPolyline
 90
        7
 70
     0
 43
0.0
 10
2.77022629878551
 20
4.140256219554156
 10
2.667600461903202
 20
4.139855822405848
 42
0.419204261670485
 10
2.626210233265342
 20
4.141090437928448
 10
2.497412808855848
 20
4.140256219554156
 42
0.3926161489298506
 10
2.454001176967827
 20
4.156112449080683
 10
2.383075070948974
 20
4.13732281200843
 10
2.309597970947385
 20
4.13732281200843
  0
LWPOLYLINE
  5
5842
330
1E
100
AcDbEntity
  8
image
100
AcDbPolyline
 90
       12
 70
   129
 43
0.0
 10
3.23711944192212
 20
3.791506072338127
 10
3.261423964903172
 20
3.791506072338127
 10
3.285728487884224
 20
3.791506072338127
 10
3.285728487884224
 20
3.852801745319567
 10
3.354012585058729
 20
3.852801745319567
 10
3.354012585058729
 20
3.871306084768598
 10
3.354012585058729
 20
4.137306084768598
 10
3.354012585058729
 20
4.155810424217629
 10
3.285728487884224
 20
4.155810424217629
 10
3.285728487884224
 20
4.21710609719907
 10
3.261423964903172
 20
4.21710609719907
 10
3.23711944192212
 20
4.21710609719907
  0
LWPOLYLINE
  5
5843
330
1E
100
AcDbEntity
  8
hidden
 48
0.25
100
AcDbPolyline
 90
        9
 70
   128
 43
0.0
 10
3.488977767298893
 20
3.871306084768598
 10
3.645666712609999
 20
3.871306084768598
 10
3.645666712609999
 20
3.851645214392697
 10
3.814640912896854
 20
3.899062609480232
 10
3.814640912896854
 20
4.004306084768598
 10
3.814640912896854
 20
4.109549560056965
 10
3.645666712609999
 20
4.156966955144499
 10
3.645666712609999
 20
4.137306084768598
 10
3.488977767298893
 20
4.137306084768598
  0
LWPOLYLINE
  5
5844
330
1E
100
AcDbEntity
  8
image
100
AcDbPolyline
 90
        2
 70
   128
 43
0.0
 10
3.285728487884224
 20
3.852801745319567
 10
3.285728487884224
 20
4.155810424217629
  0
LWPOLYLINE
  5
5845
330
1E
100
AcDbEntity
  8
hidden
 48
0.25
100
AcDbPolyline
 90
        3
 70
   128
 43
0.0
 10
3.471438348752511
 20
3.871306084768598
 10
3.471438348752511
 20
3.861796490421717
 10
3.488977767298893
 20
3.871306084768598
  0
LWPOLYLINE
  5
5846
330
1E
100
AcDbEntity
  8
hidden
 48
0.25
100
AcDbPolyline
 90
        3
 70
   128
 43
0.0
 10
3.471438348752511
 20
4.137306084768598
 10
3.471438348752511
 20
4.146815679115479
 10
3.488977767298893
 20
4.137306084768598
  0
LWPOLYLINE
  5
5847
330
1E
100
AcDbEntity
  8
hidden
 48
0.25
100
AcDbPolyline
 90
        2
 70
   128
 43
0.0
 10
3.471438348752511
 20
3.871306084768598
 10
3.471438348752511
 20
4.137306084768598
  0
LWPOLYLINE
  5
5848
330
1E
100
AcDbEntity
  8
hidden
 48
0.25
100
AcDbPolyline
 90
        2
 70
   128
 43
0.0
 10
3.488977767298893
 20
4.137306084768598
 10
3.488977767298893
 20
3.871306084768598
  0
LWPOLYLINE
  5
5849
330
1E
100
AcDbEntity
  8
image
100
AcDbPolyline
 90
        2
 70
   128
 43
0.0
 10
2.88711944192212
 20
3.871306084768598
 10
2.929119441922119
 20
3.871306084768598
  0
LWPOLYLINE
  5
584A
330
1E
100
AcDbEntity
  8
image
100
AcDbPolyline
 90
        2
 70
   128
 43
0.0
 10
3.195119441922119
 20
3.871306084768598
 10
3.23711944192212
 20
3.871306084768598
  0
LWPOLYLINE
  5
584B
330
1E
100
AcDbEntity
  8
hidden
 48
0.25
100
AcDbPolyline
 90
        2
 70
   128
 43
0.0
 10
3.354012585058729
 20
3.871306084768598
 10
3.471438348752511
 20
3.871306084768598
  0
LWPOLYLINE
  5
584C
330
1E
100
AcDbEntity
  8
image
100
AcDbPolyline
 90
        2
 70
   128
 43
0.0
 10
2.88711944192212
 20
4.137306084768598
 10
3.23711944192212
 20
4.137306084768598
  0
LWPOLYLINE
  5
584D
330
1E
100
AcDbEntity
  8
hidden
 48
0.25
100
AcDbPolyline
 90
        2
 70
   128
 43
0.0
 10
3.354012585058729
 20
4.137306084768598
 10
3.471438348752511
 20
4.137306084768598
  0
LWPOLYLINE
  5
584E
330
1E
100
AcDbEntity
  8
hidden
 48
0.25
100
AcDbPolyline
 90
        2
 70
   128
 43
0.0
 10
3.645666712609999
 20
3.871306084768598
 10
3.645666712609999
 20
4.137306084768598
  0
LWPOLYLINE
  5
584F
330
1E
100
AcDbEntity
  8
image
100
AcDbPolyline
 90
        2
 70
   128
 43
0.0
 10
3.354012585058729
 20
3.948824371009458
 10
3.285728487884223
 20
3.948824371009458
  0
LWPOLYLINE
  5
5850
330
1E
100
AcDbEntity
  8
image
100
AcDbPolyline
 90
        2
 70
   128
 43
0.0
 10
3.354012585058729
 20
3.966376852440842
 10
3.285728487884223
 20
3.966376852440842
  0
LWPOLYLINE
  5
5851
330
1E
100
AcDbEntity
  8
image
100
AcDbPolyline
 90
        7
 70
     0
 43
0.0
 10
3.354012585058729
 20
3.868355949983043
 10
3.456638421941037
 20
3.868756347131352
 42
0.419204261670485
 10
3.498028650578898
 20
3.867521731608752
 10
3.62682607498839
 20
3.868355949983043
 42
0.3926161489298506
 10
3.670237706876411
 20
3.852499720456517
 10
3.741163812895265
 20
3.87128935752877
 10
3.814640912896854
 20
3.87128935752877
  0
LWPOLYLINE
  5
5852
330
1E
100
AcDbEntity
  8
image
100
AcDbPolyline
 90
        7
 70
     0
 43
0.0
 10
3.354012585058729
 20
4.140256219554156
 10
3.456638421941037
 20
4.139855822405848
 42
-0.419204261670485
 10
3.498028650578898
 20
4.141090437928448
 10
3.62682607498839
 20
4.140256219554155
 42
-0.3926161489298506
 10
3.670237706876411
 20
4.156112449080682
 10
3.741163812895265
 20
4.137322812008429
 10
3.814640912896854
 20
4.137322812008429
  0
LWPOLYLINE
  5
5853
330
1E
100
AcDbEntity
  8
hidden
 48
0.25
100
AcDbPolyline
 90
        9
 70
   128
 43
0.0
 10
3.195119441922119
 20
3.607540890097963
 10
3.195119441922119
 20
3.450851944786857
 10
3.21478031229802
 20
3.450851944786857
 10
3.167362917210485
 20
3.281877744500003
 10
3.062119441922118
 20
3.281877744500003
 10
2.956875966633751
 20
3.281877744500003
 10
2.909458571546218
 20
3.450851944786857
 10
2.929119441922119
 20
3.450851944786857
 10
2.929119441922119
 20
3.607540890097963
  0
LWPOLYLINE
  5
5854
330
1E
100
AcDbEntity
  8
hidden
 48
0.25
100
AcDbPolyline
 90
        3
 70
   128
 43
0.0
 10
3.195119441922119
 20
3.625080308644346
 10
3.204629036268999
 20
3.625080308644346
 10
3.195119441922119
 20
3.607540890097963
  0
LWPOLYLINE
  5
5855
330
1E
100
AcDbEntity
  8
hidden
 48
0.25
100
AcDbPolyline
 90
        3
 70
   128
 43
0.0
 10
2.929119441922119
 20
3.625080308644346
 10
2.919609847575238
 20
3.625080308644346
 10
2.929119441922119
 20
3.607540890097963
  0
LWPOLYLINE
  5
5856
330
1E
100
AcDbEntity
  8
hidden
 48
0.25
100
AcDbPolyline
 90
        2
 70
   128
 43
0.0
 10
3.195119441922119
 20
3.625080308644346
 10
2.929119441922119
 20
3.625080308644346
  0
LWPOLYLINE
  5
5857
330
1E
100
AcDbEntity
  8
hidden
 48
0.25
100
AcDbPolyline
 90
        2
 70
   128
 43
0.0
 10
2.929119441922119
 20
3.607540890097963
 10
3.195119441922119
 20
3.607540890097963
  0
LWPOLYLINE
  5
5858
330
1E
100
AcDbEntity
  8
image
100
AcDbPolyline
 90
        2
 70
   128
 43
0.0
 10
3.195119441922119
 20
3.871306084768598
 10
3.195119441922119
 20
3.791506072338127
  0
LWPOLYLINE
  5
5859
330
1E
100
AcDbEntity
  8
hidden
 48
0.25
100
AcDbPolyline
 90
        2
 70
   128
 43
0.0
 10
3.195119441922119
 20
3.742506072338127
 10
3.195119441922119
 20
3.625080308644346
  0
LWPOLYLINE
  5
585A
330
1E
100
AcDbEntity
  8
image
100
AcDbPolyline
 90
        2
 70
   128
 43
0.0
 10
2.929119441922119
 20
3.871306084768598
 10
2.929119441922119
 20
3.791506072338127
  0
LWPOLYLINE
  5
585B
330
1E
100
AcDbEntity
  8
hidden
 48
0.25
100
AcDbPolyline
 90
        2
 70
   128
 43
0.0
 10
2.929119441922119
 20
3.742506072338127
 10
2.929119441922119
 20
3.625080308644346
  0
LWPOLYLINE
  5
585C
330
1E
100
AcDbEntity
  8
hidden
 48
0.25
100
AcDbPolyline
 90
        2
 70
   128
 43
0.0
 10
3.195119441922119
 20
3.450851944786857
 10
2.929119441922119
 20
3.450851944786857
  0
LWPOLYLINE
  5
585D
330
1E
100
AcDbEntity
  8
image
100
AcDbPolyline
 90
        7
 70
     0
 43
0.0
 10
3.198069576707675
 20
3.742506072338127
 10
3.197669179559365
 20
3.63988023545582
 42
-0.419204261670485
 10
3.198903795081965
 20
3.598490006817959
 10
3.198069576707674
 20
3.469692582408467
 42
-0.3926161489298506
 10
3.213925806234199
 20
3.426280950520445
 10
3.195136169161947
 20
3.355354844501591
 10
3.195136169161947
 20
3.281877744500003
  0
LWPOLYLINE
  5
585E
330
1E
100
AcDbEntity
  8
image
100
AcDbPolyline
 90
        7
 70
     0
 43
0.0
 10
2.926169307136562
 20
3.742506072338127
 10
2.92656970428487
 20
3.63988023545582
 42
0.419204261670485
 10
2.925335088762269
 20
3.598490006817959
 10
2.926169307136562
 20
3.469692582408467
 42
0.3926161489298506
 10
2.910313077610035
 20
3.426280950520445
 10
2.929102714682287
 20
3.355354844501591
 10
2.929102714682287
 20
3.281877744500003
  0
LWPOLYLINE
  5
585F
330
1E
100
AcDbEntity
  8
image
100
AcDbPolyline
 90
        4
 70
     1
 43
0.0
 10
3.21362378137115
 20
3.742506072338127
 10
2.910615102473089
 20
3.742506072338127
 10
2.910615102473089
 20
3.791506072338127
 10
3.21362378137115
 20
3.791506072338127
  0
LWPOLYLINE
  5
5860
330
1E
100
AcDbEntity
  8
image
100
AcDbPolyline
 90
        2
 70
   128
 43
0.0
 10
3.195119441922119
 20
3.871306084768598
 10
3.083163745719588
 20
4.004306084768598
  0
LWPOLYLINE
  5
5861
330
1E
100
AcDbEntity
  8
image
100
AcDbPolyline
 90
        2
 70
   128
 43
0.0
 10
3.041075138124651
 20
4.004306084768598
 10
2.929119441922119
 20
3.871306084768598
  0
LWPOLYLINE
  5
586B
330
1E
100
AcDbEntity
  8
image
100
AcDbPolyline
 90
       12
 70
   129
 43
0.0
 10
3.27491945435259
 20
1.537561171725352
 10
3.27491945435259
 20
1.561865694706404
 10
3.27491945435259
 20
1.639757461237732
 10
3.21362378137115
 20
1.639757461237732
 10
3.21362378137115
 20
1.654454314861962
 10
3.195119441922119
 20
1.654454314861962
 10
2.929119441922119
 20
1.654454314861962
 10
2.910615102473088
 20
1.654454314861962
 10
2.910615102473088
 20
1.639757461237732
 10
2.849319429491647
 20
1.639757461237732
 10
2.849319429491647
 20
1.561865694706404
 10
2.849319429491647
 20
1.537561171725352
  0
LWPOLYLINE
  5
586C
330
1E
100
AcDbEntity
  8
hidden
 48
0.25
100
AcDbPolyline
 90
        9
 70
   128
 43
0.0
 10
3.195119441922119
 20
1.789419497102126
 10
3.195119441922119
 20
1.946108442413232
 10
3.21478031229802
 20
1.946108442413232
 10
3.167362917210485
 20
2.115082642700087
 10
3.062119441922118
 20
2.115082642700087
 10
2.956875966633751
 20
2.115082642700087
 10
2.909458571546218
 20
1.946108442413232
 10
2.929119441922119
 20
1.946108442413232
 10
2.929119441922119
 20
1.789419497102126
  0
LWPOLYLINE
  5
586D
330
1E
100
AcDbEntity
  8
image
100
AcDbPolyline
 90
        2
 70
   128
 43
0.0
 10
3.21362378137115
 20
1.639757461237732
 10
2.910615102473088
 20
1.639757461237732
  0
LWPOLYLINE
  5
586E
330
1E
100
AcDbEntity
  8
hidden
 48
0.25
100
AcDbPolyline
 90
        3
 70
   128
 43
0.0
 10
3.195119441922119
 20
1.771880078555743
 10
3.204629036268999
 20
1.771880078555743
 10
3.195119441922119
 20
1.789419497102126
  0
LWPOLYLINE
  5
586F
330
1E
100
AcDbEntity
  8
hidden
 48
0.25
100
AcDbPolyline
 90
        3
 70
   128
 43
0.0
 10
2.929119441922119
 20
1.771880078555743
 10
2.919609847575238
 20
1.771880078555743
 10
2.929119441922119
 20
1.789419497102126
  0
LWPOLYLINE
  5
5870
330
1E
100
AcDbEntity
  8
hidden
 48
0.25
100
AcDbPolyline
 90
        2
 70
   128
 43
0.0
 10
3.195119441922119
 20
1.771880078555743
 10
2.929119441922119
 20
1.771880078555743
  0
LWPOLYLINE
  5
5871
330
1E
100
AcDbEntity
  8
hidden
 48
0.25
100
AcDbPolyline
 90
        2
 70
   128
 43
0.0
 10
2.929119441922119
 20
1.789419497102126
 10
3.195119441922119
 20
1.789419497102126
  0
LWPOLYLINE
  5
5872
330
1E
100
AcDbEntity
  8
hidden
 48
0.25
100
AcDbPolyline
 90
        2
 70
   128
 43
0.0
 10
3.195119441922119
 20
1.654454314861962
 10
3.195119441922119
 20
1.771880078555743
  0
LWPOLYLINE
  5
5873
330
1E
100
AcDbEntity
  8
hidden
 48
0.25
100
AcDbPolyline
 90
        2
 70
   128
 43
0.0
 10
2.929119441922119
 20
1.654454314861962
 10
2.929119441922119
 20
1.771880078555743
  0
LWPOLYLINE
  5
5874
330
1E
100
AcDbEntity
  8
hidden
 48
0.25
100
AcDbPolyline
 90
        2
 70
   128
 43
0.0
 10
3.195119441922119
 20
1.946108442413232
 10
2.929119441922119
 20
1.946108442413232
  0
LWPOLYLINE
  5
5875
330
1E
100
AcDbEntity
  8
image
100
AcDbPolyline
 90
        7
 70
     0
 43
0.0
 10
3.198069576707674
 20
1.654454314861962
 10
3.197669179559365
 20
1.757080151744269
 42
0.419204261670485
 10
3.198903795081965
 20
1.79847038038213
 10
3.198069576707674
 20
1.927267804791623
 42
0.3926161489298506
 10
3.213925806234199
 20
1.970679436679644
 10
3.195136169161947
 20
2.041605542698499
 10
3.195136169161947
 20
2.115082642700087
  0
LWPOLYLINE
  5
5876
330
1E
100
AcDbEntity
  8
image
100
AcDbPolyline
 90
        7
 70
     0
 43
0.0
 10
2.926169307136562
 20
1.654454314861962
 10
2.92656970428487
 20
1.757080151744269
 42
-0.419204261670485
 10
2.925335088762269
 20
1.79847038038213
 10
2.926169307136562
 20
1.927267804791623
 42
-0.3926161489298506
 10
2.910313077610035
 20
1.970679436679644
 10
2.929102714682287
 20
2.041605542698499
 10
2.929102714682287
 20
2.115082642700087
  0
LWPOLYLINE
  5
5877
330
1E
100
AcDbEntity
  8
image
100
AcDbPolyline
 90
        4
 70
     1
 43
0.0
 10
3.230326838563397
 20
1.537561171725352
 10
2.893912045280841
 20
1.537561171725352
 10
2.893912045280841
 20
1.519252882289164
 10
3.230326838563397
 20
1.519252882289164
  0
LWPOLYLINE
  5
5878
330
1E
100
AcDbEntity
  8
image
100
AcDbPolyline
 90
        4
 70
     0
 43
0.0
 10
3.222869625130271
 20
1.441786130641401
 10
3.222869625130271
 20
1.519252882289164
 10
2.901369258713967
 20
1.519252882289164
 10
2.901369258713967
 20
1.441786130641401
  0
LWPOLYLINE
  5
587E
330
1E
100
AcDbEntity
  8
image
100
AcDbPolyline
 90
        2
 70
   128
 43
0.0
 10
3.217100079187525
 20
1.459072387042038
 10
2.905710115393444
 20
1.446213547243389
  0
LWPOLYLINE
  5
587F
330
1E
100
AcDbEntity
  8
image
100
AcDbPolyline
 90
        2
 70
   128
 43
0.0
 10
3.217100079187525
 20
1.484072387042039
 10
2.905710115393444
 20
1.471213547243389
  0
LWPOLYLINE
  5
5880
330
1E
100
AcDbEntity
  8
image
100
AcDbPolyline
 90
        2
 70
   128
 43
0.0
 10
3.217100079187525
 20
1.509072387042039
 10
2.905710115393444
 20
1.496213547243389
  0
LWPOLYLINE
  5
5881
330
1E
100
AcDbEntity
  8
image
100
AcDbPolyline
 90
        2
 70
   128
 43
0.0
 10
2.951050207874859
 20
1.639757461237732
 10
2.951050207874859
 20
1.537561171725352
  0
LWPOLYLINE
  5
5882
330
1E
100
AcDbEntity
  8
image
100
AcDbPolyline
 90
        4
 70
     1
 43
0.0
 10
2.862193247919796
 20
1.627112570937452
 10
2.93817638944671
 20
1.627112570937452
 10
2.93817638944671
 20
1.550206062025635
 10
2.862193247919796
 20
1.550206062025635
  0
LWPOLYLINE
  5
5883
330
1E
100
AcDbEntity
  8
image
100
AcDbPolyline
 90
        4
 70
     1
 43
0.0
 10
2.963504190119051
 20
1.627112570937452
 10
3.159754573267842
 20
1.627112570937452
 10
3.159754573267842
 20
1.550206062025635
 10
2.963504190119051
 20
1.550206062025635
  0
LWPOLYLINE
  5
5884
330
1E
100
AcDbEntity
  8
image
100
AcDbPolyline
 90
        2
 70
   128
 43
0.0
 10
3.173188675969378
 20
1.639757461237732
 10
3.173188675969378
 20
1.537561171725352
  0
LWPOLYLINE
  5
5885
330
1E
100
AcDbEntity
  8
image
100
AcDbPolyline
 90
        4
 70
     1
 43
0.0
 10
3.262045635924442
 20
1.627112570937452
 10
3.186062494397527
 20
1.627112570937452
 10
3.186062494397527
 20
1.550206062025635
 10
3.262045635924442
 20
1.550206062025635
  0
LWPOLYLINE
  5
58A3
330
1E
100
AcDbEntity
  8
image
100
AcDbPolyline
 90
       14
 70
   128
 43
0.0
 10
0.3210088031985522
 20
4.143503805425522
 10
0.3210088031985522
 20
4.217106097199073
 10
0.3453133261796043
 20
4.217106097199073
 10
0.3696178491606564
 20
4.217106097199073
 10
0.3696178491606564
 20
4.155810424217632
 10
0.4379019463351616
 20
4.155810424217632
 10
0.4379019463351616
 20
4.137306084768601
 10
0.4379019463351616
 20
3.871306084768601
 10
0.4379019463351616
 20
3.852801745319571
 10
0.3696178491606564
 20
3.852801745319571
 10
0.3696178491606564
 20
3.79150607233813
 10
0.3453133261796043
 20
3.79150607233813
 10
0.3210088031985522
 20
3.79150607233813
 10
0.3210088031985522
 20
3.865108364111679
  0
LWPOLYLINE
  5
58A4
330
1E
100
AcDbEntity
  8
hidden
 48
0.25
100
AcDbPolyline
 90
        9
 70
   128
 43
0.0
 10
0.5728671285753261
 20
4.137306084768601
 10
0.729556073886431
 20
4.137306084768601
 10
0.729556073886431
 20
4.156966955144502
 10
0.898530274173286
 20
4.109549560056967
 10
0.898530274173286
 20
4.0043060847686
 10
0.898530274173286
 20
3.899062609480234
 10
0.729556073886431
 20
3.8516452143927
 10
0.729556073886431
 20
3.871306084768601
 10
0.5728671285753261
 20
3.871306084768601
  0
LWPOLYLINE
  5
58A5
330
1E
100
AcDbEntity
  8
image
100
AcDbPolyline
 90
        2
 70
   128
 43
0.0
 10
0.3696178491606564
 20
4.155810424217632
 10
0.3696178491606564
 20
3.852801745319571
  0
LWPOLYLINE
  5
58A6
330
1E
100
AcDbEntity
  8
hidden
 48
0.25
100
AcDbPolyline
 90
        3
 70
   128
 43
0.0
 10
0.5553277100289434
 20
4.137306084768601
 10
0.5553277100289434
 20
4.146815679115482
 10
0.5728671285753261
 20
4.137306084768601
  0
LWPOLYLINE
  5
58A7
330
1E
100
AcDbEntity
  8
hidden
 48
0.25
100
AcDbPolyline
 90
        3
 70
   128
 43
0.0
 10
0.5553277100289434
 20
3.871306084768601
 10
0.5553277100289434
 20
3.861796490421721
 10
0.5728671285753261
 20
3.871306084768601
  0
LWPOLYLINE
  5
58A8
330
1E
100
AcDbEntity
  8
hidden
 48
0.25
100
AcDbPolyline
 90
        2
 70
   128
 43
0.0
 10
0.5553277100289434
 20
4.137306084768601
 10
0.5553277100289434
 20
3.871306084768601
  0
LWPOLYLINE
  5
58A9
330
1E
100
AcDbEntity
  8
hidden
 48
0.25
100
AcDbPolyline
 90
        2
 70
   128
 43
0.0
 10
0.5728671285753261
 20
3.871306084768601
 10
0.5728671285753261
 20
4.137306084768601
  0
LWPOLYLINE
  5
58AA
330
1E
100
AcDbEntity
  8
hidden
 48
0.25
100
AcDbPolyline
 90
        2
 70
   128
 43
0.0
 10
0.4379019463351616
 20
4.137306084768601
 10
0.5553277100289434
 20
4.137306084768601
  0
LWPOLYLINE
  5
58AB
330
1E
100
AcDbEntity
  8
hidden
 48
0.25
100
AcDbPolyline
 90
        2
 70
   128
 43
0.0
 10
0.4379019463351616
 20
3.871306084768601
 10
0.5553277100289434
 20
3.871306084768601
  0
LWPOLYLINE
  5
58AC
330
1E
100
AcDbEntity
  8
hidden
 48
0.25
100
AcDbPolyline
 90
        2
 70
   128
 43
0.0
 10
0.729556073886431
 20
4.137306084768601
 10
0.729556073886431
 20
3.871306084768601
  0
LWPOLYLINE
  5
58AD
330
1E
100
AcDbEntity
  8
image
100
AcDbPolyline
 90
        2
 70
   128
 43
0.0
 10
0.4379019463351616
 20
4.059787798527741
 10
0.3696178491606555
 20
4.059787798527741
  0
LWPOLYLINE
  5
58AE
330
1E
100
AcDbEntity
  8
image
100
AcDbPolyline
 90
        2
 70
   128
 43
0.0
 10
0.4379019463351616
 20
4.042235317096357
 10
0.3696178491606555
 20
4.042235317096357
  0
LWPOLYLINE
  5
58AF
330
1E
100
AcDbEntity
  8
image
100
AcDbPolyline
 90
        7
 70
     0
 43
0.0
 10
0.4379019463351616
 20
4.140256219554157
 10
0.5405277832174688
 20
4.139855822405847
 42
-0.419204261670485
 10
0.5819180118553301
 20
4.141090437928447
 10
0.710715436264823
 20
4.140256219554157
 42
-0.3926161489298506
 10
0.7541270681528439
 20
4.156112449080682
 10
0.8250531741716972
 20
4.137322812008429
 10
0.898530274173286
 20
4.137322812008429
  0
LWPOLYLINE
  5
58B0
330
1E
100
AcDbEntity
  8
image
100
AcDbPolyline
 90
        7
 70
     0
 43
0.0
 10
0.4379019463351616
 20
3.868355949983044
 10
0.5405277832174688
 20
3.868756347131352
 42
0.419204261670485
 10
0.5819180118553301
 20
3.867521731608752
 10
0.710715436264823
 20
3.868355949983044
 42
0.3926161489298506
 10
0.7541270681528439
 20
3.852499720456517
 10
0.8250531741716972
 20
3.87128935752877
 10
0.898530274173286
 20
3.87128935752877
  0
CIRCLE
  5
58B1
330
1E
100
AcDbEntity
  8
image
100
AcDbCircle
 10
0.1460088031985515
 20
4.0043060847686
 30
0.0
 40
0.1052434752883666
  0
CIRCLE
  5
58B2
330
1E
100
AcDbEntity
  8
image
100
AcDbCircle
 10
0.1460088031985515
 20
4.0043060847686
 30
0.0
 40
0.1330000000000009
  0
CIRCLE
  5
58B3
330
1E
100
AcDbEntity
  8
image
100
AcDbCircle
 10
0.1460088031985515
 20
4.0043060847686
 30
0.0
 40
0.223609045962105
  0
LWPOLYLINE
  5
58B4
102
{ACAD_REACTORS
330
58B5
102
}
330
1E
100
AcDbEntity
  8
image
100
AcDbPolyline
 90
        4
 70
     1
 43
0.0
 10
0.146008416617681
 20
4.109549560056256
 42
-1.0
 10
0.1460088031985515
 20
4.0043060847686
 42
1.0
 10
0.1460089105064101
 20
3.899062609480289
 42
1.0
 10
0.146008416617681
 20
4.109549560056256
  0
HATCH
  5
58B5
330
1E
100
AcDbEntity
  8
shade
100
AcDbHatch
 10
0.0
 20
0.0
 30
0.0
210
0.0
220
0.0
230
1.0
  2
SOLID
 70
     1
 71
     1
 91
        1
 92
        1
 93
        3
 72
     2
 10
0.1460086099081163
 20
4.056927822412428
 40
0.0526217376441831
 50
269.9997895408504
 51
449.9997895408504
 73
     0
 72
     2
 10
0.1460088568524808
 20
3.951684347124444
 40
0.0526217376441832
 50
90.00005841965394
 51
270.000058419654
 73
     1
 72
     2
 10
0.1460086635620456
 20
4.004306084768272
 40
0.1052434752882731
 50
270.0001344394018
 51
450.0001344394018
 73
     1
 97
        1
330
58B4
 75
     0
 76
     1
 98
        1
 10
-5.148971032201405
 20
-8.942352002266952
450
        0
451
        0
460
0.0
461
0.0
452
        0
462
0.0
453
        0
470

  0
LWPOLYLINE
  5
59B0
102
{ACAD_REACTORS
330
5E0D
102
}
330
1E
100
AcDbEntity
  8
image
100
AcDbPolyline
 90
        4
 70
     0
 43
0.0
 10
6.77335351363739
 20
3.871289357528771
 42
0.5
 10
6.77335351363739
 20
4.0043060847686
 42
-0.5
 10
6.77335351363739
 20
4.137322812008429
 42
-0.5
 10
6.77335351363739
 20
4.0043060847686
  0
LWPOLYLINE
  5
5A14
330
1E
100
AcDbEntity
  8
image
100
AcDbPolyline
 90
        8
 70
   129
 43
0.0
 10
2.874619441922119
 20
1.441786130641401
 10
3.249619441922119
 20
1.441786130641401
 10
3.249619441922119
 20
1.191786130641401
 10
3.624619441922119
 20
1.191786130641401
 10
3.624619441922119
 20
0.8167861306414016
 10
2.499619441922119
 20
0.8167861306414016
 10
2.499619441922119
 20
1.191786130641401
 10
2.874619441922119
 20
1.191786130641401
  0
LWPOLYLINE
  5
5A27
330
1E
100
AcDbEntity
  8
image
100
AcDbPolyline
 90
        2
 70
   128
 43
0.0
 10
2.874619441922119
 20
1.191786130641401
 10
3.020376192534628
 20
1.004286130641401
  0
LWPOLYLINE
  5
5A29
330
1E
100
AcDbEntity
  8
image
100
AcDbPolyline
 90
        2
 70
   128
 43
0.0
 10
3.10386269130961
 20
1.004286130641401
 10
3.249619441922119
 20
1.191786130641401
  0
LWPOLYLINE
  5
5A85
330
1E
100
AcDbEntity
  8
image
100
AcDbPolyline
 90
        2
 70
   128
 43
0.0
 10
3.624619441922119
 20
1.16885763197959
 10
4.349795680406133
 20
1.16885763197959
  0
LWPOLYLINE
  5
5A86
330
1E
100
AcDbEntity
  8
image
100
AcDbPolyline
 90
        2
 70
   128
 43
0.0
 10
3.624619441922119
 20
0.8397146293032127
 10
4.349795680406133
 20
0.8397146293032127
  0
LWPOLYLINE
  5
5A90
102
{ACAD_REACTORS
330
5E29
102
}
330
1E
100
AcDbEntity
  8
image
100
AcDbPolyline
 90
        4
 70
     0
 43
0.0
 10
4.349795680406133
 20
1.16885763197959
 42
-0.5
 10
4.349795680406133
 20
1.004286130641401
 42
0.5
 10
4.349795680406133
 20
0.8397146293032127
 42
0.5
 10
4.349795680406133
 20
1.004286130641401
  0
LWPOLYLINE
  5
5A91
330
1E
100
AcDbEntity
  8
image
100
AcDbPolyline
 90
        2
 70
   128
 43
0.0
 10
2.499619441922119
 20
0.8397146293032127
 10
1.774443203438105
 20
0.8397146293032127
  0
LWPOLYLINE
  5
5A92
330
1E
100
AcDbEntity
  8
image
100
AcDbPolyline
 90
        2
 70
   128
 43
0.0
 10
2.499619441922119
 20
1.16885763197959
 10
1.774443203438105
 20
1.16885763197959
  0
LWPOLYLINE
  5
5A93
102
{ACAD_REACTORS
330
5E2A
102
}
330
1E
100
AcDbEntity
  8
image
100
AcDbPolyline
 90
        4
 70
     0
 43
0.0
 10
1.774443203438105
 20
1.16885763197959
 42
0.5
 10
1.774443203438105
 20
1.004286130641401
 42
-0.5
 10
1.774443203438105
 20
0.8397146293032127
 42
-0.5
 10
1.774443203438105
 20
1.004286130641401
  0
LWPOLYLINE
  5
5AAF
330
1E
100
AcDbEntity
  8
image
100
AcDbPolyline
 90
        2
 70
   128
 43
0.0
 10
3.195136169161947
 20
3.281877744500003
 10
3.195136169161947
 20
2.115082642700087
  0
LWPOLYLINE
  5
5AB0
330
1E
100
AcDbEntity
  8
image
100
AcDbPolyline
 90
        2
 70
   128
 43
0.0
 10
2.929102714682287
 20
3.281877744500003
 10
2.929102714682287
 20
2.115082642700087
  0
LWPOLYLINE
  5
5AD5
330
1E
100
AcDbEntity
  8
image
100
AcDbPolyline
 90
        2
 70
   128
 43
0.0
 10
0.898530274173286
 20
4.137322812008429
 10
1.554064122560335
 20
4.137322812008429
  0
LWPOLYLINE
  5
5AD6
330
1E
100
AcDbEntity
  8
image
100
AcDbPolyline
 90
        2
 70
   128
 43
0.0
 10
0.898530274173286
 20
3.87128935752877
 10
1.554064122560335
 20
3.87128935752877
  0
LWPOLYLINE
  5
5B07
330
1E
100
AcDbEntity
  8
image
100
AcDbPolyline
 90
        2
 70
   128
 43
0.0
 10
1.654064122560335
 20
4.13732281200843
 10
2.309597970947385
 20
4.13732281200843
  0
LWPOLYLINE
  5
5B08
330
1E
100
AcDbEntity
  8
image
100
AcDbPolyline
 90
        2
 70
   128
 43
0.0
 10
1.654064122560335
 20
3.871289357528771
 10
2.309597970947385
 20
3.871289357528771
  0
LWPOLYLINE
  5
5B09
102
{ACAD_REACTORS
330
5E09
102
}
330
1E
100
AcDbEntity
  8
image
100
AcDbPolyline
 90
        4
 70
     0
 43
0.0
 10
1.554064122560335
 20
3.87128935752877
 42
0.5
 10
1.554064122560335
 20
4.0043060847686
 42
-0.5
 10
1.554064122560335
 20
4.137322812008429
 42
-0.5
 10
1.554064122560335
 20
4.0043060847686
  0
LWPOLYLINE
  5
5B0B
102
{ACAD_REACTORS
330
5E0A
102
}
330
1E
100
AcDbEntity
  8
image
100
AcDbPolyline
 90
        4
 70
     0
 43
0.0
 10
1.654064122560335
 20
4.13732281200843
 42
0.5
 10
1.654064122560335
 20
4.0043060847686
 42
-0.5
 10
1.654064122560335
 20
3.871289357528771
 42
-0.5
 10
1.654064122560335
 20
4.0043060847686
  0
LWPOLYLINE
  5
5B39
102
{ACAD_REACTORS
330
5E02
102
}
330
1E
100
AcDbEntity
  8
image
100
AcDbPolyline
 90
        4
 70
     0
 43
0.0
 10
4.43055018424873
 20
3.87128935752877
 42
0.5
 10
4.43055018424873
 20
4.0043060847686
 42
-0.5
 10
4.43055018424873
 20
4.137322812008429
 42
-0.5
 10
4.43055018424873
 20
4.0043060847686
  0
LWPOLYLINE
  5
5B3A
102
{ACAD_REACTORS
330
5E03
102
}
330
1E
100
AcDbEntity
  8
image
100
AcDbPolyline
 90
        4
 70
     0
 43
0.0
 10
4.530550184248729
 20
4.13732281200843
 42
0.5
 10
4.530550184248729
 20
4.0043060847686
 42
-0.5
 10
4.530550184248729
 20
3.871289357528771
 42
-0.5
 10
4.530550184248729
 20
4.0043060847686
  0
LWPOLYLINE
  5
5B3B
330
1E
100
AcDbEntity
  8
image
100
AcDbPolyline
 90
        2
 70
     0
 43
0.0
 10
4.530550184248729
 20
4.137322812008429
 10
5.146459455600605
 20
4.137322812008429
  0
LWPOLYLINE
  5
5B3C
330
1E
100
AcDbEntity
  8
image
100
AcDbPolyline
 90
        2
 70
     0
 43
0.0
 10
4.530550184248729
 20
3.871289357528771
 10
5.146459455600605
 20
3.871289357528771
  0
HATCH
  5
5E02
330
1E
100
AcDbEntity
  8
shade
100
AcDbHatch
 10
0.0
 20
0.0
 30
0.0
210
0.0
220
0.0
230
1.0
  2
SOLID
 70
     1
 71
     1
 91
        1
 92
        7
 72
     1
 73
     1
 93
        2
 10
4.43055018424873
 20
4.137322812008429
 42
0.5
 10
4.43055018424873
 20
4.0043060847686
 42
0.5
 97
        1
330
5B39
 75
     0
 76
     1
 47
0.0006942329324523
 98
        1
 10
4.433279363871466
 20
4.095406567080034
450
        0
451
        0
460
0.0
461
0.0
452
        0
462
0.0
453
        0
470

1001
ACAD
1010
0.0
1020
0.0
1030
0.0
  0
HATCH
  5
5E03
330
1E
100
AcDbEntity
  8
shade
100
AcDbHatch
 10
0.0
 20
0.0
 30
0.0
210
0.0
220
0.0
230
1.0
  2
SOLID
 70
     1
 71
     1
 91
        1
 92
        7
 72
     1
 73
     1
 93
        2
 10
4.530550184248729
 20
4.0043060847686
 42
0.5
 10
4.530550184248729
 20
3.871289357528771
 42
0.5
 97
        1
330
5B3A
 75
     0
 76
     1
 47
0.0006942329324523
 98
        1
 10
4.536780554444863
 20
3.960725357244195
450
        0
451
        0
460
0.0
461
0.0
452
        0
462
0.0
453
        0
470

1001
ACAD
1010
0.0
1020
0.0
1030
0.0
  0
HATCH
  5
5E09
330
1E
100
AcDbEntity
  8
shade
100
AcDbHatch
 10
0.0
 20
0.0
 30
0.0
210
0.0
220
0.0
230
1.0
  2
SOLID
 70
     1
 71
     1
 91
        1
 92
        7
 72
     1
 73
     1
 93
        2
 10
1.554064122560335
 20
4.137322812008429
 42
0.5
 10
1.554064122560335
 20
4.0043060847686
 42
0.5
 97
        1
330
5B09
 75
     0
 76
     1
 47
0.0013936530909483
 98
        1
 10
1.56261774100927
 20
4.067122400791912
450
        0
451
        0
460
0.0
461
0.0
452
        0
462
0.0
453
        0
470

1001
ACAD
1010
0.0
1020
0.0
1030
0.0
  0
HATCH
  5
5E0A
330
1E
100
AcDbEntity
  8
shade
100
AcDbHatch
 10
0.0
 20
0.0
 30
0.0
210
0.0
220
0.0
230
1.0
  2
SOLID
 70
     1
 71
     1
 91
        1
 92
        7
 72
     1
 73
     1
 93
        2
 10
1.654064122560335
 20
4.0043060847686
 42
0.5
 10
1.654064122560335
 20
3.871289357528771
 42
0.5
 97
        1
330
5B0B
 75
     0
 76
     1
 47
0.0013936530909483
 98
        1
 10
1.671386240710705
 20
3.947268195821478
450
        0
451
        0
460
0.0
461
0.0
452
        0
462
0.0
453
        0
470

1001
ACAD
1010
0.0
1020
0.0
1030
0.0
  0
HATCH
  5
5E0D
330
1E
100
AcDbEntity
  8
shade
100
AcDbHatch
 10
0.0
 20
0.0
 30
0.0
210
0.0
220
0.0
230
1.0
  2
SOLID
 70
     1
 71
     1
 91
        1
 92
        7
 72
     1
 73
     1
 93
        2
 10
6.773353513637391
 20
4.137322812008429
 42
0.5
 10
6.77335351363739
 20
4.0043060847686
 42
0.5
 97
        1
330
59B0
 75
     0
 76
     1
 47
0.00140408591229
 98
        1
 10
6.779244449211436
 20
4.082984524997979
450
        0
451
        0
460
0.0
461
0.0
452
        0
462
0.0
453
        0
470

1001
ACAD
1010
0.0
1020
0.0
1030
0.0
  0
HATCH
  5
5E29
330
1E
100
AcDbEntity
  8
shade
100
AcDbHatch
 10
0.0
 20
0.0
 30
0.0
210
0.0
220
0.0
230
1.0
  2
SOLID
 70
     1
 71
     1
 91
        1
 92
        7
 72
     1
 73
     1
 93
        2
 10
4.349795680406133
 20
0.8397146293032127
 42
0.5
 10
4.349795680406133
 20
1.004286130641401
 42
0.5
 97
        1
330
5A90
 75
     0
 76
     1
 47
0.0028503726941365
 98
        1
 10
4.347362297156202
 20
0.9040910215639554
450
        0
451
        0
460
0.0
461
0.0
452
        0
462
0.0
453
        0
470

1001
ACAD
1010
0.0
1020
0.0
1030
0.0
  0
HATCH
  5
5E2A
330
1E
100
AcDbEntity
  8
shade
100
AcDbHatch
 10
0.0
 20
0.0
 30
0.0
210
0.0
220
0.0
230
1.0
  2
SOLID
 70
     1
 71
     1
 91
        1
 92
        7
 72
     1
 73
     1
 93
        2
 10
1.774443203438105
 20
0.8397146293032127
 42
0.5000000000000011
 10
1.774443203438105
 20
1.004286130641401
 42
0.5000000000000011
 97
        1
330
5A93
 75
     0
 76
     1
 47
0.0028503726941365
 98
        1
 10
1.744597221851847
 20
0.924228431831276
450
        0
451
        0
460
0.0
461
0.0
452
        0
462
0.0
453
        0
470

1001
ACAD
1010
0.0
1020
0.0
1030
0.0
  0
CIRCLE
  5
5F93
330
1E
100
AcDbEntity
  8
text_bubbles
100
AcDbCircle
 10
8.009127205666283
 20
1.676571928699771
 30
0.0
 40
0.15625
  0
TEXT
  5
5F94
330
1E
100
AcDbEntity
  8
text_bubbles
100
AcDbText
 10
7.949603396142474
 20
1.614071928699771
 30
0.0
 40
0.125
  1
7
  7
ROMANS
 72
     4
 11
8.009127205666283
 21
1.676571928699771
 31
0.0
100
AcDbText
  0
CIRCLE
  5
5F95
330
1E
100
AcDbEntity
  8
text_bubbles
100
AcDbCircle
 10
8.009127205666283
 20
1.264271988898436
 30
0.0
 40
0.15625
  0
TEXT
  5
5F96
330
1E
100
AcDbEntity
  8
text_bubbles
100
AcDbText
 10
7.949603396142474
 20
1.201771988898436
 30
0.0
 40
0.125
  1
8
  7
ROMANS
 72
     4
 11
8.009127205666283
 21
1.264271988898436
 31
0.0
100
AcDbText
  0
CIRCLE
  5
5F97
330
1E
100
AcDbEntity
  8
text_bubbles
100
AcDbCircle
 10
8.009127205666283
 20
0.8405446380692136
 30
0.0
 40
0.15625
  0
TEXT
  5
5F98
330
1E
100
AcDbEntity
  8
text_bubbles
100
AcDbText
 10
7.952579586618664
 20
0.7780446380692137
 30
0.0
 40
0.125
  1
9
  7
ROMANS
 72
     4
 11
8.009127205666283
 21
0.8405446380692136
 31
0.0
100
AcDbText
  0
CIRCLE
  5
5F99
330
1E
100
AcDbEntity
  8
text_bubbles
100
AcDbCircle
 10
8.009127205666283
 20
0.1965389744993009
 30
0.0
 40
0.15625
  0
TEXT
  5
5F9A
330
1E
100
AcDbEntity
  8
text_bubbles
100
AcDbText
 10
7.881151015190092
 20
0.1340389744993009
 30
0.0
 40
0.125
  1
10
  7
ROMANS
 72
     4
 11
8.009127205666283
 21
0.1965389744993009
 31
0.0
100
AcDbText
  0
CIRCLE
  5
5F9B
330
1E
100
AcDbEntity
  8
text_bubbles
100
AcDbCircle
 10
8.009127205666283
 20
-0.2272180813882045
 30
0.0
 40
0.15625
  0
TEXT
  5
5F9C
330
1E
100
AcDbEntity
  8
text_bubbles
100
AcDbText
 10
7.899008158047235
 20
-0.2897180813882045
 30
0.0
 40
0.125
  1
11
  7
ROMANS
 72
     4
 11
8.009127205666283
 21
-0.2272180813882045
 31
0.0
100
AcDbText
  0
LEADER
  5
5FB0
330
1E
100
AcDbEntity
  8
text_bubbles
100
AcDbLeader
  3
Standard
 76
     2
 10
1.912806194968096
 20
3.871289357528771
 30
0.0
 10
1.841792386506808
 20
3.246668454602755
 30
0.0
1001
ACAD
1000
DSTYLE
1002
{
1070
    44
1040
0.125
1070
   140
1040
0.125
1070
   176
1070
   256
1070
   177
1070
   256
1070
   178
1070
   256
1070
   279
1070
     2
1070
   340
1005
213D
1070
   371
1070
    -1
1070
   372
1070
    -1
1002
}
  0
LEADER
  5
5FB1
330
1E
100
AcDbEntity
  8
text_bubbles
100
AcDbLeader
  3
Standard
 76
     2
 10
4.193438256948301
 20
3.871289357528771
 30
0.0
 10
4.100654838226612
 20
3.262875468342892
 30
0.0
1001
ACAD
1000
DSTYLE
1002
{
1070
    44
1040
0.125
1070
   140
1040
0.125
1070
   176
1070
   256
1070
   177
1070
   256
1070
   178
1070
   256
1070
   279
1070
     2
1070
   340
1005
213D
1070
   371
1070
    -1
1070
   372
1070
    -1
1002
}
  0
LEADER
  5
5FB2
330
1E
100
AcDbEntity
  8
text_bubbles
100
AcDbLeader
  3
Standard
 76
     2
 10
4.891000302146736
 20
4.098754223481344
 30
0.0
 10
4.883475072925341
 20
3.262897224442196
 30
0.0
1001
ACAD
1000
DSTYLE
1002
{
1070
    44
1040
0.125
1070
   140
1040
0.125
1070
   176
1070
   256
1070
   177
1070
   256
1070
   178
1070
   256
1070
   279
1070
     2
1070
   340
1005
213D
1070
   371
1070
    -1
1070
   372
1070
    -1
1002
}
  0
CIRCLE
  5
5FB3
330
1E
100
AcDbEntity
  8
text_bubbles
100
AcDbCircle
 10
3.544509907433861
 20
3.091418586307184
 30
0.0
 40
0.15625
  0
TEXT
  5
5FB4
330
1E
100
AcDbEntity
  8
text_bubbles
100
AcDbText
 10
3.484986097910052
 20
3.028918586307184
 30
0.0
 40
0.125
  1
3
  7
ROMANS
 72
     4
 11
3.544509907433861
 21
3.091418586307184
 31
0.0
100
AcDbText
  0
LEADER
  5
5FB6
330
1E
100
AcDbEntity
  8
text_bubbles
100
AcDbLeader
  3
Standard
 76
     2
 10
5.675371880613235
 20
3.826132236252269
 30
0.0
 10
5.555300730106729
 20
3.257771647741773
 30
0.0
1001
ACAD
1000
DSTYLE
1002
{
1070
    44
1040
0.125
1070
   140
1040
0.125
1070
   176
1070
   256
1070
   177
1070
   256
1070
   178
1070
   256
1070
   279
1070
     2
1070
   340
1005
213D
1070
   371
1070
    -1
1070
   372
1070
    -1
1002
}
  0
CIRCLE
  5
5FBC
330
1E
100
AcDbEntity
  8
text_bubbles
100
AcDbCircle
 10
0.388718368044481
 20
3.104895854092085
 30
0.0
 40
0.15625
  0
TEXT
  5
5FBD
330
1E
100
AcDbEntity
  8
text_bubbles
100
AcDbText
 10
0.3291945585206715
 20
3.042395854092085
 30
0.0
 40
0.125
  1
5
  7
ROMANS
 72
     4
 11
0.388718368044481
 21
3.104895854092085
 31
0.0
100
AcDbText
  0
LEADER
  5
5FBE
330
1E
100
AcDbEntity
  8
text_bubbles
100
AcDbLeader
  3
Standard
 76
     2
 10
0.3529719182220048
 20
3.79150607233813
 30
0.0
 10
0.380594648835072
 20
3.260934527779753
 30
0.0
1001
ACAD
1000
DSTYLE
1002
{
1070
    44
1040
0.125
1070
   140
1040
0.125
1070
   176
1070
   256
1070
   177
1070
   256
1070
   178
1070
   256
1070
   279
1070
     2
1070
   340
1005
213D
1070
   371
1070
    -1
1070
   372
1070
    -1
1002
}
  0
CIRCLE
  5
5FC4
330
1E
100
AcDbEntity
  8
text_bubbles
100
AcDbCircle
 10
2.588408035887421
 20
2.091607742717878
 30
0.0
 40
0.15625
  0
TEXT
  5
5FC5
330
1E
100
AcDbEntity
  8
text_bubbles
100
AcDbText
 10
2.525908035887421
 20
2.029107742717878
 30
0.0
 40
0.125
  1
6
  7
ROMANS
 72
     4
 11
2.588408035887421
 21
2.091607742717878
 31
0.0
100
AcDbText
  0
LEADER
  5
5FC6
330
1E
100
AcDbEntity
  8
text_bubbles
100
AcDbLeader
  3
Standard
 76
     2
 10
2.878768264029772
 20
1.639757461237732
 30
0.0
 10
2.672877745707859
 20
1.960158396493368
 30
0.0
1001
ACAD
1000
DSTYLE
1002
{
1070
    44
1040
0.125
1070
   140
1040
0.125
1070
   176
1070
   256
1070
   177
1070
   256
1070
   178
1070
   256
1070
   279
1070
     2
1070
   340
1005
213D
1070
   371
1070
    -1
1070
   372
1070
    -1
1002
}
  0
CIRCLE
  5
5FCC
330
1E
100
AcDbEntity
  8
text_bubbles
100
AcDbCircle
 10
3.700243294539506
 20
2.091607742717878
 30
0.0
 40
0.15625
  0
TEXT
  5
5FCD
330
1E
100
AcDbEntity
  8
text_bubbles
100
AcDbText
 10
3.640719485015696
 20
2.029107742717878
 30
0.0
 40
0.125
  1
7
  7
ROMANS
 72
     4
 11
3.700243294539506
 21
2.091607742717878
 31
0.0
100
AcDbText
  0
LEADER
  5
5FCE
330
1E
100
AcDbEntity
  8
text_bubbles
100
AcDbLeader
  3
Standard
 76
     2
 10
3.477559835450886
 20
1.191786130641401
 30
0.0
 10
3.662707643355144
 20
1.939933297308751
 30
0.0
1001
ACAD
1000
DSTYLE
1002
{
1070
    44
1040
0.125
1070
   140
1040
0.125
1070
   176
1070
   256
1070
   177
1070
   256
1070
   178
1070
   256
1070
   279
1070
     2
1070
   340
1005
213D
1070
   371
1070
    -1
1070
   372
1070
    -1
1002
}
  0
CIRCLE
  5
5FCF
330
1E
100
AcDbEntity
  8
text_bubbles
100
AcDbCircle
 10
4.2792501531489
 20
2.091607742717878
 30
0.0
 40
0.15625
  0
TEXT
  5
5FD0
330
1E
100
AcDbEntity
  8
text_bubbles
100
AcDbText
 10
4.219726343625091
 20
2.029107742717878
 30
0.0
 40
0.125
  1
8
  7
ROMANS
 72
     4
 11
4.2792501531489
 21
2.091607742717878
 31
0.0
100
AcDbText
  0
LEADER
  5
5FD1
330
1E
100
AcDbEntity
  8
text_bubbles
100
AcDbLeader
  3
Standard
 76
     2
 10
4.056721509222178
 20
1.16885763197959
 30
0.0
 10
4.242619324616708
 20
1.939712236197621
 30
0.0
1001
ACAD
1000
DSTYLE
1002
{
1070
    44
1040
0.125
1070
   140
1040
0.125
1070
   176
1070
   256
1070
   177
1070
   256
1070
   178
1070
   256
1070
   279
1070
     2
1070
   340
1005
213D
1070
   371
1070
    -1
1070
   372
1070
    -1
1002
}
  0
CIRCLE
  5
5FD7
330
1E
100
AcDbEntity
  8
text_bubbles
100
AcDbCircle
 10
6.050692482870098
 20
3.104895854092085
 30
0.0
 40
0.15625
  0
TEXT
  5
5FD8
330
1E
100
AcDbEntity
  8
text_bubbles
100
AcDbText
 10
5.994144863822479
 20
3.042395854092085
 30
0.0
 40
0.125
  1
9
  7
ROMANS
 72
     4
 11
6.050692482870098
 21
3.104895854092085
 31
0.0
100
AcDbText
  0
LEADER
  5
5FD9
330
1E
100
AcDbEntity
  8
text_bubbles
100
AcDbLeader
  3
Standard
 76
     2
 10
6.595971362987178
 20
2.881632407096782
 30
0.0
 10
6.195291083661124
 20
3.045690219653482
 30
0.0
1001
ACAD
1000
DSTYLE
1002
{
1070
    44
1040
0.125
1070
   140
1040
0.125
1070
   176
1070
   256
1070
   177
1070
   256
1070
   178
1070
   256
1070
   279
1070
     2
1070
   340
1005
213D
1070
   371
1070
    -1
1070
   372
1070
    -1
1002
}
  0
CIRCLE
  5
5FEE
330
1E
100
AcDbEntity
  8
text_bubbles
100
AcDbCircle
 10
2.588408035887421
 20
2.753170687512603
 30
0.0
 40
0.15625
  0
TEXT
  5
5FEF
330
1E
100
AcDbEntity
  8
text_bubbles
100
AcDbText
 10
2.478288988268373
 20
2.690670687512603
 30
0.0
 40
0.125
  1
11
  7
ROMANS
 72
     4
 11
2.588408035887421
 21
2.753170687512603
 31
0.0
100
AcDbText
  0
LEADER
  5
5FF2
330
1E
100
AcDbEntity
  8
text_bubbles
100
AcDbLeader
  3
Standard
 76
     2
 10
2.929102714682287
 20
2.355425788751509
 30
0.0
 10
2.690054707030359
 20
2.634503013963487
 30
0.0
1001
ACAD
1000
DSTYLE
1002
{
1070
    44
1040
0.125
1070
   140
1040
0.125
1070
   176
1070
   256
1070
   177
1070
   256
1070
   178
1070
   256
1070
   279
1070
     2
1070
   340
1005
213D
1070
   371
1070
    -1
1070
   372
1070
    -1
1002
}
  0
LEADER
  5
6002
330
1E
100
AcDbEntity
  8
text_bubbles
100
AcDbLeader
  3
Standard
 76
     2
 10
3.21362378137115
 20
3.76649770323657
 30
0.0
 10
3.475741208798881
 20
3.231721574828638
 30
0.0
1001
ACAD
1000
DSTYLE
1002
{
1070
    44
1040
0.125
1070
   140
1040
0.125
1070
   176
1070
   256
1070
   177
1070
   256
1070
   178
1070
   256
1070
   279
1070
     2
1070
   340
1005
213D
1070
   371
1070
    -1
1070
   372
1070
    -1
1002
}
  0
HATCH
  5
6348
330
1E
100
AcDbEntity
  8
shade
100
AcDbHatch
 10
0.0
 20
0.0
 30
0.0
210
0.0
220
0.0
230
1.0
  2
EARTH
 70
     0
 71
     0
 91
        2
 92
        7
 72
     1
 73
     1
 93
       35
 10
6.595971362987178
 20
3.871289357528771
 42
0.0
 10
6.252893351587978
 20
3.871289357528771
 42
0.0
 10
6.179416251586379
 20
3.871289357528771
 42
0.0
 10
6.108490145567527
 20
3.852499720456518
 42
-0.1850835546149036
 10
6.08418994982577
 20
3.851721205642316
 42
0.0
 10
6.083919151301114
 20
3.8516452143927
 42
0.0
 10
6.083919151301114
 20
3.851816456448338
 42
-0.1912823718796015
 10
6.065078513679505
 20
3.868355949983044
 42
0.0
 10
5.936281089270012
 20
3.867521731608753
 42
-0.419204261670485
 10
5.894890860632152
 20
3.868756347131353
 42
0.0
 10
5.792265023749845
 20
3.868355949983044
 42
0.0
 10
5.792265023749845
 20
3.85280174531957
 42
0.0
 10
5.72398092657534
 20
3.85280174531957
 42
0.0
 10
5.72398092657534
 20
3.79150607233813
 42
0.0
 10
5.699676403594287
 20
3.79150607233813
 42
0.0
 10
5.675371880613235
 20
3.79150607233813
 42
0.0
 10
5.675371880613235
 20
3.85280174531957
 42
0.0
 10
5.607087783438729
 20
3.85280174531957
 42
0.0
 10
5.607087783438729
 20
3.868355949983044
 42
0.0
 10
5.504461946556423
 20
3.868756347131353
 42
-0.419204261670485
 10
5.463071717918562
 20
3.867521731608753
 42
0.0
 10
5.334274293509069
 20
3.868355949983044
 42
-0.1912823718796053
 10
5.31543365588746
 20
3.851816456448338
 42
0.0
 10
5.31543365588746
 20
3.8516452143927
 42
0.0
 10
5.315162857362805
 20
3.851721205642316
 42
-0.1850835546149071
 10
5.290862661621048
 20
3.852499720456518
 42
0.0
 10
5.219936555602194
 20
3.871289357528771
 42
0.0
 10
5.146459455600616
 20
3.871289357528771
 42
0.0
 10
4.932068091346128
 20
3.871289357528771
 42
0.0
 10
5.036299539464405
 20
3.665505770192738
 42
0.0
 10
5.426226916264425
 20
3.518972333952587
 42
0.0
 10
5.61619153722857
 20
3.455696519138768
 42
0.0
 10
6.236076074479642
 20
3.497325329851935
 42
0.0
 10
6.586010911792756
 20
3.657180003152322
 42
0.0
 10
6.595971362987179
 20
3.670239325154576
 42
0.0
 97
        0
 92
        7
 72
     0
 73
     1
 93
        3
 10
6.749313859232747
 20
3.871289357528771
 10
6.613768073205204
 20
3.871289357528771
 10
6.613768073205204
 20
3.69357290360212
 97
        0
 75
     0
 76
     1
 52
45.0
 41
0.75
 77
     0
 78
     6
 53
45.0
 43
0.0
 44
0.0
 45
0.0
 46
0.2651650429449553
 79
     2
 49
0.1875
 49
-0.1875
 53
45.0
 43
-0.0497184455521791
 44
0.0497184455521791
 45
0.0
 46
0.2651650429449553
 79
     2
 49
0.1875
 49
-0.1875
 53
45.0
 43
-0.0994368911043583
 44
0.0994368911043583
 45
0.0
 46
0.2651650429449553
 79
     2
 49
0.1875
 49
-0.1875
 53
135.0
 43
-0.0994368911043583
 44
0.1325825214724777
 45
-0.2651650429449553
 46
0.0
 79
     2
 49
0.1875
 49
-0.1875
 53
135.0
 43
-0.0497184455521791
 44
0.1823009670246568
 45
-0.2651650429449553
 46
0.0
 79
     2
 49
0.1875
 49
-0.1875
 53
135.0
 43
0.0
 44
0.2320194125768359
 45
-0.2651650429449553
 46
0.0
 79
     2
 49
0.1875
 49
-0.1875
 47
0.0016709373982558
 98
        2
 10
5.827227363072002
 20
3.723879148388568
 10
6.659955598168288
 20
3.819122577165099
1001
ACAD
1010
0.0
1020
0.0
1030
0.0
  0
LWPOLYLINE
  5
6555
102
{ACAD_REACTORS
330
6573
102
}
330
1E
100
AcDbEntity
  8
defpoints
100
AcDbPolyline
 90
       67
 70
     1
 43
0.0
 10
6.542422806458684
 20
5.170963438482902
 10
1.678316495264456
 20
5.170963438482902
 10
1.570610605686263
 20
4.63744619181535
 10
1.671261525811345
 20
4.153916699174839
 10
2.309597970947385
 20
4.153916699174839
 10
2.383075070948973
 20
4.153916699174839
 10
2.454001176967827
 20
4.172706336247092
 42
-0.1850835546149013
 10
2.478301372709584
 20
4.173484851061292
 10
2.47857217123424
 20
4.173560842310909
 10
2.47857217123424
 20
4.17338960025527
 42
-0.1912823718795978
 10
2.497412808855848
 20
4.156850106720565
 10
2.626210233265342
 20
4.157684325094857
 42
-0.419204261670485
 10
2.667600461903202
 20
4.156449709572257
 10
2.77022629878551
 20
4.156850106720565
 10
2.77022629878551
 20
4.172404311384038
 10
2.827367229496795
 20
4.172404311384038
 10
2.827367229496795
 20
4.233699984365479
 10
2.862814918941067
 20
4.233699984365479
 10
2.89986169370059
 20
4.233699984365479
 10
2.89986169370059
 20
4.153899971935008
 10
3.225413035513761
 20
4.153899971935008
 10
3.225413035513761
 20
4.233699984365479
 10
3.261423964903172
 20
4.233699984365479
 10
3.298338968846293
 20
4.233699984365479
 10
3.298338968846293
 20
4.172404311384038
 10
3.354012585058729
 20
4.172404311384038
 10
3.354012585058729
 20
4.156850106720565
 10
3.456638421941037
 20
4.156449709572257
 42
-0.419204261670485
 10
3.498028650578898
 20
4.157684325094857
 10
3.62682607498839
 20
4.156850106720564
 42
-0.1912823718796005
 10
3.645666712609999
 20
4.173389600255269
 10
3.645666712609998
 20
4.173560842310908
 10
3.645937511134655
 20
4.173484851061291
 42
-0.1850835546149013
 10
3.670237706876411
 20
4.172706336247091
 10
3.741163812895265
 20
4.153916699174838
 10
3.814640912896854
 20
4.153916699174838
 10
4.43055018424873
 20
4.153916699174838
 10
4.530550184248729
 20
4.153916699174838
 10
5.146459455600605
 20
4.153916699174838
 10
5.219936555602195
 20
4.153916699174838
 10
5.290862661621048
 20
4.172706336247092
 42
-0.1850835546148777
 10
5.315162857362802
 20
4.173484851061294
 10
5.31543365588746
 20
4.173560842310911
 10
5.31543365588746
 20
4.173389600255271
 42
-0.1912823718796046
 10
5.334274293509069
 20
4.156850106720566
 10
5.463071717918562
 20
4.157684325094857
 42
-0.4192042616704851
 10
5.504461946556423
 20
4.156449709572256
 10
5.607087783438729
 20
4.156850106720566
 10
5.607087783438729
 20
4.172404311384041
 10
5.659208682316081
 20
4.172404311384041
 10
5.659208682316081
 20
4.233699984365482
 10
5.699676403594287
 20
4.233699984365482
 10
5.739344144750436
 20
4.233699984365482
 10
5.739344144750436
 20
4.172404311384041
 10
5.792265023749845
 20
4.172404311384041
 10
5.792265023749845
 20
4.156850106720566
 10
5.894890860632152
 20
4.156449709572256
 42
-0.419204261670485
 10
5.936281089270012
 20
4.157684325094857
 10
6.065078513679505
 20
4.156850106720566
 42
-0.1912823718796009
 10
6.083919151301114
 20
4.173389600255271
 10
6.083919151301114
 20
4.173560842310911
 10
6.084189949825773
 20
4.173484851061294
 42
-0.1850835546148742
 10
6.108490145567527
 20
4.172706336247092
 10
6.17941625158638
 20
4.153916699174838
 10
6.252893351587969
 20
4.153916699174838
 10
6.549477775911794
 20
4.153916699174838
 10
6.650128696036877
 20
4.637446191815351
  0
LWPOLYLINE
  5
6568
330
1E
100
AcDbEntity
  8
image
100
AcDbPolyline
 90
        2
 70
   128
 43
0.0
 10
0.9226363652499799
 20
5.170963438482902
 10
6.783809430626367
 20
5.170963438482902
  0
HATCH
  5
6573
330
1E
100
AcDbEntity
  8
shade
100
AcDbHatch
 10
0.0
 20
0.0
 30
0.0
210
0.0
220
0.0
230
1.0
  2
EARTH
 70
     0
 71
     1
 91
        1
 92
        1
 93
       67
 72
     1
 10
6.542422806458684
 20
5.170963438482902
 11
1.678316495264456
 21
5.170963438482902
 72
     1
 10
1.678316495264456
 20
5.170963438482902
 11
1.570610605686263
 21
4.63744619181535
 72
     1
 10
1.570610605686263
 20
4.63744619181535
 11
1.671261525811345
 21
4.153916699174839
 72
     1
 10
1.671261525811345
 20
4.153916699174839
 11
2.309597970947385
 21
4.153916699174839
 72
     1
 10
2.309597970947385
 20
4.153916699174839
 11
2.383075070948973
 21
4.153916699174839
 72
     1
 10
2.383075070948973
 20
4.153916699174839
 11
2.454001176967827
 21
4.172706336247092
 72
     2
 10
2.467166824373707
 20
4.141396707472649
 40
0.0339650868629738
 50
247.1933265235441
 51
289.1367144337006
 73
     0
 72
     1
 10
2.478301372709584
 20
4.173484851061292
 11
2.47857217123424
 21
4.173560842310909
 72
     1
 10
2.47857217123424
 20
4.173560842310909
 11
2.47857217123424
 21
4.17338960025527
 72
     2
 10
2.467166824373708
 20
4.141396707472649
 40
0.0339650868629735
 50
289.6209612899093
 51
332.9364207434693
 73
     0
 72
     1
 10
2.497412808855848
 20
4.156850106720565
 11
2.626210233265342
 21
4.157684325094857
 72
     2
 10
2.646298451437421
 20
4.13672095022376
 40
0.0290344553128723
 50
226.2212727297077
 51
317.1958279970456
 73
     0
 72
     1
 10
2.667600461903202
 20
4.156449709572257
 11
2.77022629878551
 21
4.156850106720565
 72
     1
 10
2.77022629878551
 20
4.156850106720565
 11
2.77022629878551
 21
4.172404311384038
 72
     1
 10
2.77022629878551
 20
4.172404311384038
 11
2.827367229496795
 21
4.172404311384038
 72
     1
 10
2.827367229496795
 20
4.172404311384038
 11
2.827367229496795
 21
4.233699984365479
 72
     1
 10
2.827367229496795
 20
4.233699984365479
 11
2.862814918941067
 21
4.233699984365479
 72
     1
 10
2.862814918941067
 20
4.233699984365479
 11
2.89986169370059
 21
4.233699984365479
 72
     1
 10
2.89986169370059
 20
4.233699984365479
 11
2.89986169370059
 21
4.153899971935008
 72
     1
 10
2.89986169370059
 20
4.153899971935008
 11
3.225413035513761
 21
4.153899971935008
 72
     1
 10
3.225413035513761
 20
4.153899971935008
 11
3.225413035513761
 21
4.233699984365479
 72
     1
 10
3.225413035513761
 20
4.233699984365479
 11
3.261423964903172
 21
4.233699984365479
 72
     1
 10
3.261423964903172
 20
4.233699984365479
 11
3.298338968846293
 21
4.233699984365479
 72
     1
 10
3.298338968846293
 20
4.233699984365479
 11
3.298338968846293
 21
4.172404311384038
 72
     1
 10
3.298338968846293
 20
4.172404311384038
 11
3.354012585058729
 21
4.172404311384038
 72
     1
 10
3.354012585058729
 20
4.172404311384038
 11
3.354012585058729
 21
4.156850106720565
 72
     1
 10
3.354012585058729
 20
4.156850106720565
 11
3.456638421941037
 21
4.156449709572257
 72
     2
 10
3.477940432406819
 20
4.13672095022376
 40
0.0290344553128723
 50
222.8041720029544
 51
313.7787272702922
 73
     0
 72
     1
 10
3.498028650578898
 20
4.157684325094857
 11
3.62682607498839
 21
4.156850106720564
 72
     2
 10
3.657072059470531
 20
4.141396707472647
 40
0.033965086862974
 50
207.0635792565321
 51
250.3790387100919
 73
     0
 72
     1
 10
3.645666712609999
 20
4.173389600255269
 11
3.645666712609998
 21
4.173560842310908
 72
     1
 10
3.645666712609998
 20
4.173560842310908
 11
3.645937511134655
 21
4.173484851061291
 72
     2
 10
3.657072059470531
 20
4.141396707472648
 40
0.0339650868629738
 50
250.8632855662995
 51
292.8066734764558
 73
     0
 72
     1
 10
3.670237706876411
 20
4.172706336247091
 11
3.741163812895265
 21
4.153916699174838
 72
     1
 10
3.741163812895265
 20
4.153916699174838
 11
3.814640912896854
 21
4.153916699174838
 72
     1
 10
3.814640912896854
 20
4.153916699174838
 11
4.43055018424873
 21
4.153916699174838
 72
     1
 10
4.43055018424873
 20
4.153916699174838
 11
4.530550184248729
 21
4.153916699174838
 72
     1
 10
4.530550184248729
 20
4.153916699174838
 11
5.146459455600605
 21
4.153916699174838
 72
     1
 10
5.146459455600605
 20
4.153916699174838
 11
5.219936555602195
 21
4.153916699174838
 72
     1
 10
5.219936555602195
 20
4.153916699174838
 11
5.290862661621048
 21
4.172706336247092
 72
     2
 10
5.304028309026929
 20
4.14139670747265
 40
0.0339650868629733
 50
247.1933265235422
 51
289.1367144336937
 73
     0
 72
     1
 10
5.315162857362802
 20
4.173484851061294
 11
5.31543365588746
 21
4.173560842310911
 72
     1
 10
5.31543365588746
 20
4.173560842310911
 11
5.31543365588746
 21
4.173389600255271
 72
     2
 10
5.304028309026929
 20
4.141396707472649
 40
0.033965086862974
 50
289.6209612899074
 51
332.9364207434679
 73
     0
 72
     1
 10
5.334274293509069
 20
4.156850106720566
 11
5.463071717918562
 21
4.157684325094857
 72
     2
 10
5.483159936090641
 20
4.136720950223759
 40
0.029034455312873
 50
226.2212727297089
 51
317.1958279970461
 73
     0
 72
     1
 10
5.504461946556423
 20
4.156449709572256
 11
5.607087783438729
 21
4.156850106720566
 72
     1
 10
5.607087783438729
 20
4.156850106720566
 11
5.607087783438729
 21
4.172404311384041
 72
     1
 10
5.607087783438729
 20
4.172404311384041
 11
5.659208682316081
 21
4.172404311384041
 72
     1
 10
5.659208682316081
 20
4.172404311384041
 11
5.659208682316081
 21
4.233699984365482
 72
     1
 10
5.659208682316081
 20
4.233699984365482
 11
5.699676403594287
 21
4.233699984365482
 72
     1
 10
5.699676403594287
 20
4.233699984365482
 11
5.739344144750436
 21
4.233699984365482
 72
     1
 10
5.739344144750436
 20
4.233699984365482
 11
5.739344144750436
 21
4.172404311384041
 72
     1
 10
5.739344144750436
 20
4.172404311384041
 11
5.792265023749845
 21
4.172404311384041
 72
     1
 10
5.792265023749845
 20
4.172404311384041
 11
5.792265023749845
 21
4.156850106720566
 72
     1
 10
5.792265023749845
 20
4.156850106720566
 11
5.894890860632152
 21
4.156449709572256
 72
     2
 10
5.916192871097934
 20
4.13672095022376
 40
0.0290344553128721
 50
222.8041720029525
 51
313.778727270291
 73
     0
 72
     1
 10
5.936281089270012
 20
4.157684325094857
 11
6.065078513679505
 21
4.156850106720566
 72
     2
 10
6.095324498161645
 20
4.141396707472649
 40
0.033965086862974
 50
207.0635792565321
 51
250.3790387100926
 73
     0
 72
     1
 10
6.083919151301114
 20
4.173389600255271
 11
6.083919151301114
 21
4.173560842310911
 72
     1
 10
6.083919151301114
 20
4.173560842310911
 11
6.084189949825773
 21
4.173484851061294
 72
     2
 10
6.095324498161646
 20
4.141396707472649
 40
0.0339650868629742
 50
250.8632855663068
 51
292.8066734764572
 73
     0
 72
     1
 10
6.108490145567527
 20
4.172706336247092
 11
6.17941625158638
 21
4.153916699174838
 72
     1
 10
6.17941625158638
 20
4.153916699174838
 11
6.252893351587969
 21
4.153916699174838
 72
     1
 10
6.252893351587969
 20
4.153916699174838
 11
6.549477775911794
 21
4.153916699174838
 72
     1
 10
6.549477775911794
 20
4.153916699174838
 11
6.650128696036877
 21
4.637446191815351
 72
     1
 10
6.650128696036877
 20
4.637446191815351
 11
6.542422806458684
 21
5.170963438482902
 97
        1
330
6555
 75
     0
 76
     1
 52
45.0
 41
0.75
 77
     0
 78
     6
 53
45.0
 43
0.0
 44
0.0
 45
0.0
 46
0.2651650429449553
 79
     2
 49
0.1875
 49
-0.1875
 53
45.0
 43
-0.0497184455521791
 44
0.0497184455521791
 45
0.0
 46
0.2651650429449553
 79
     2
 49
0.1875
 49
-0.1875
 53
45.0
 43
-0.0994368911043583
 44
0.0994368911043583
 45
0.0
 46
0.2651650429449553
 79
     2
 49
0.1875
 49
-0.1875
 53
135.0
 43
-0.0994368911043583
 44
0.1325825214724777
 45
-0.2651650429449553
 46
0.0
 79
     2
 49
0.1875
 49
-0.1875
 53
135.0
 43
-0.0497184455521791
 44
0.1823009670246568
 45
-0.2651650429449553
 46
0.0
 79
     2
 49
0.1875
 49
-0.1875
 53
135.0
 43
0.0
 44
0.2320194125768359
 45
-0.2651650429449553
 46
0.0
 79
     2
 49
0.1875
 49
-0.1875
 98
        1
 10
0.0
 20
0.0
1001
ACAD
1010
0.0
1020
0.0
1030
0.0
  0
LEADER
  5
65B2
330
1E
100
AcDbEntity
  8
text_bubbles
100
AcDbLeader
  3
Standard
 76
     2
 10
6.783809430626367
 20
5.170963438482902
 30
0.0
 10
7.122129784769168
 20
5.4299801838667
 30
0.0
1001
ACAD
1000
DSTYLE
1002
{
1070
    44
1040
0.125
1070
   140
1040
0.125
1070
   176
1070
   256
1070
   177
1070
   256
1070
   178
1070
   256
1070
   279
1070
     2
1070
   340
1005
213D
1070
   371
1070
    -1
1070
   372
1070
    -1
1002
}
  0
VIEWPORT
  5
4DE
330
1A
100
AcDbEntity
 67
     1
  8
0
100
AcDbViewport
 10
5.249999639556163
 20
4.421496035329548
 30
0.0
 40
20.75717570948875
 41
9.835992049212688
 68
     1
 69
     1
 12
5.249999639556163
 22
4.421496035329548
 13
0.0
 23
0.0
 14
0.5
 24
0.5
 15
0.5
 25
0.5
 16
0.0
 26
0.0
 36
1.0
 17
0.0
 27
0.0
 37
0.0
 42
50.0
 43
0.0
 44
0.0
 45
9.835992049212688
 50
0.0
 51
0.0
 72
   100
 90
   819232
  1

281
     0
 71
     0
 74
     0
110
0.0
120
0.0
130
0.0
111
0.0
121
0.0
131
0.0
112
0.0
122
0.0
132
0.0
 79
     0
146
0.0
170
     0
  0
ENDSEC
  0
SECTION
  2
OBJECTS
  0
DICTIONARY
  5
C
330
0
100
AcDbDictionary
281
     1
  3
ACAD_CIP_PREVIOUS_PRODUCT_INFO
350
6708
  3
ACAD_COLOR
350
2061
  3
ACAD_DETAILVIEWSTYLE
350
6702
  3
ACAD_FIELDLIST
350
671D
  3
ACAD_GROUP
350
D
  3
ACAD_LAYOUT
350
19
  3
ACAD_MATERIAL
350
2037
  3
ACAD_MLEADERSTYLE
350
2086
  3
ACAD_MLINESTYLE
350
16
  3
ACAD_PLOTSETTINGS
350
18
  3
ACAD_PLOTSTYLENAME
350
E
  3
ACAD_SCALELIST
350
2064
  3
ACAD_SECTIONVIEWSTYLE
350
66FF
  3
ACAD_TABLESTYLE
350
2062
  3
ACAD_VISUALSTYLE
350
2050
  3
ACDB_RECOMPOSE_DATA
350
688C
  3
AcDbVariableDictionary
350
1458
  3
AcDsDecomposeData
350
6892
  3
AEC_PROPERTY_SET_DEFS
350
218F
  3
ASE_INDEX_DICTIONARY
350
2BEB
1001
BBSI_PltSel
1000
1
1000

1001
BBSI_Bookmarks
1000
1
1000
1
1000
0
1000
1
1000
0
1000
0
1000
0
1000
0
1000
0
1000
0
1000
0
1001
BBSI_BookmarksEx
1000
0
1000
0
1000

1000
0
1001
BBSI_Plots
1000

1000
User123
1000
215.900009155273
1000
279.399993896484
1000
1
1000
1
1000
1
1000
0
1000
0
1000
1
1000
0
1000
1
1000
1.56885758041751
1000
0
1000
1
1000
LaserJet5Shaded.ctb
1000
0
1000
0
1000
1
1000
1
1000
0
1000
0
1000
0
1000
0
1000
0
1000
0
1000

1000

  0
DICTIONARY
  5
6647
330
8
100
AcDbDictionary
280
     1
281
     1
  0
DICTIONARY
  5
1464
330
2
100
AcDbDictionary
280
     1
281
     1
  3
ACAD_LAYERFILTERS
360
6878
  3
ACAD_LAYERSTATES
360
1465
  0
DICTIONARY
  5
20EF
330
1E
100
AcDbDictionary
280
     1
281
     1
  3
ACAD_SORTENTS
360
21DD
  0
DICTIONARY
  5
5C56
330
155E
100
AcDbDictionary
280
     1
281
     1
  3
ACAD_SORTENTS
360
5C57
  0
DICTIONARY
  5
6719
330
1574
100
AcDbDictionary
280
     1
281
     1
  3
ACAD_FIELD
360
671A
  0
DICTIONARY
  5
6642
330
23C0
100
AcDbDictionary
280
     1
281
     1
  3
ACAD_MTEXT_2008_RT
360
688A
  0
DICTIONARY
  5
6644
330
4409
100
AcDbDictionary
280
     1
281
     1
  3
ACAD_MTEXT_2008_RT
360
688B
  0
XRECORD
  5
6708
102
{ACAD_REACTORS
330
C
102
}
330
C
100
AcDbXrecord
280
     1
300
ACD
300
2013
300
ACD_F_S
  0
DICTIONARY
  5
2061
102
{ACAD_REACTORS
330
C
102
}
330
C
100
AcDbDictionary
281
     1
  0
DICTIONARY
  5
6702
102
{ACAD_REACTORS
330
C
102
}
330
C
100
AcDbDictionary
281
     1
  3
Imperial24
350
6703
  0
FIELDLIST
  5
671D
102
{ACAD_REACTORS
330
C
102
}
330
C
100
AcDbIdSet
 90
        2
330
671B
330
671C
100
AcDbFieldList
  0
DICTIONARY
  5
D
102
{ACAD_REACTORS
330
C
102
}
330
C
100
AcDbDictionary
281
     1
  0
DICTIONARY
  5
19
102
{ACAD_REACTORS
330
C
102
}
330
C
100
AcDbDictionary
281
     1
  3
Layout1
350
1D
  3
Model
350
21
  0
DICTIONARY
  5
2037
102
{ACAD_REACTORS
330
C
102
}
330
C
100
AcDbDictionary
281
     1
  3
ByBlock
350
2040
  3
ByLayer
350
2038
  3
Global
350
2048
  0
DICTIONARY
  5
2086
102
{ACAD_REACTORS
330
C
102
}
330
C
100
AcDbDictionary
281
     1
  3
Standard
350
2087
  0
DICTIONARY
  5
16
102
{ACAD_REACTORS
330
C
102
}
330
C
100
AcDbDictionary
281
     1
  3
Standard
350
17
  0
DICTIONARY
  5
18
102
{ACAD_REACTORS
330
C
102
}
330
C
100
AcDbDictionary
281
     1
  3
1055 24x36 BW
350
60D7
  3
1055 24x36 BW Final
350
60D8
  3
1055 24x36 Color
350
60D9
  3
1055 24x36 Color Shaded
350
60DA
  3
1055 30x42 BW
350
60DB
  3
1055 30x42 BW Final
350
60DC
  3
1055 B&W Draft
350
60DD
  3
1055 B&W Final
350
60DE
  3
1055 BW Half
350
60DF
  3
1055 Color Draft
350
60E0
  3
1055 Color Final
350
60E1
  3
1055+ 24x36 BW
350
60E2
  3
1055+ 24x36 BW Final
350
60E3
  3
1055+ 24x36 Color
350
60E4
  3
1055+ 24x36 Color Shaded
350
60E5
  3
1055+ 30x42 BW
350
60E6
  3
1055+ 30x42 BW Final
350
60E7
  3
1055+ B&W Draft
350
60E8
  3
1055+ B&W Final
350
60E9
  3
1055+ BW Half
350
60EA
  3
1055+ Color Draft
350
60EB
  3
1055+ Color Final
350
60EC
  3
_1055 22x34 True Centered BW
350
60ED
  3
_1055 24x36 True Centered BW
350
60EE
  3
_1055 24x36 True Centered BW Final
350
60EF
  3
_1055 24x36 True Centered Color
350
60F0
  3
_1055 30x42 True Centered BW
350
60F1
  3
_1055+ 22x34 True Centered BW
350
60F2
  3
_1055+ 24x36 True Centered BW
350
60F3
  3
_1055+ 24x36 True Centered BW Final
350
60F4
  3
_1055+ 24x36 True Centered Color
350
60F5
  3
_1055+ 30x42 True Centered BW
350
60F6
  3
DWF BW 11x17 Fit
350
60F7
  3
DWF BW 11x17 Half
350
60F8
  3
DWF BW 22x34
350
60F9
  3
DWF BW 24x36
350
60FA
  3
DWF BW 30x42
350
60FB
  3
DWF BW 36x48
350
60FC
  3
JPEG
350
60FD
  3
Laser5 11x17 Fit
350
60FE
  3
Laser5 11x17 Full
350
60FF
  3
Laser5 11x17 Half
350
6100
  3
Laser5 11x17 Half CDOT
350
6101
  3
Laser5 8x11 Fit
350
6102
  3
Laser5 8x11 Half
350
6103
  3
Laser5 8x11 Portrait Fit
350
6104
  3
LaserJet5 11x17
350
6105
  3
LaserJet5 8.5x11
350
6106
  3
Oki9500 11x17 BW Fit
350
6107
  3
Oki9500 11x17 BW Full
350
6108
  3
Oki9500 11x17 BW Half
350
6109
  3
Oki9500 11x17 Color Fit
350
610A
  3
Oki9500 11x17 Color Full
350
610B
  3
Oki9500 11x17 Color Half
350
610C
  3
Oki9500 8x11 BW Fit
350
610D
  3
Oki9500 8x11 BW Portrait Fit
350
610E
  3
Oki9500 8x11 Color Fit
350
610F
  3
Oki9500 8x11 Color Portrait Fit
350
6110
  3
OKI9500 B&W 11x17
350
6111
  3
OKI9500 B&W 8.5x11
350
6112
  3
OKI9500 Color 11x17
350
6113
  3
OKI9500 Color 8.5x11
350
6114
  3
Oki9600 11x17 BW Fit
350
6115
  3
Oki9600 11x17 BW Full
350
6116
  3
Oki9600 11x17 BW Half
350
6117
  3
Oki9600 11x17 Color Fit
350
6118
  3
Oki9600 11x17 Color Full
350
6119
  3
Oki9600 11x17 Color Half
350
611A
  3
Oki9600 8x11 BW Fit
350
611B
  3
Oki9600 8x11 BW Portrait Fit
350
611C
  3
Oki9600 8x11 Color Fit
350
611D
  3
Oki9600 8x11 Color Portrait Fit
350
611E
  3
OKI9600 B&W 11x17
350
611F
  3
OKI9600 B&W 8.5x11
350
6120
  3
OKI9600 Color 11x17
350
6121
  3
OKI9600 Color 8.5x11
350
6122
  3
PHX Kyocera 11x17 Fit
350
6123
  3
PHX Oki9500 11x17 BW Fit
350
6124
  3
PHX Oki9500 11x17 BW Half
350
6125
  0
ACDBDICTIONARYWDFLT
  5
E
102
{ACAD_REACTORS
330
C
102
}
330
C
100
AcDbDictionary
281
     1
  3
Normal
350
F
100
AcDbDictionaryWithDefault
340
F
  0
DICTIONARY
  5
2064
102
{ACAD_REACTORS
330
C
102
}
330
C
100
AcDbDictionary
281
     1
  3
A0
350
2065
  3
A1
350
2066
  3
A2
350
2067
  3
A3
350
2068
  3
A4
350
2069
  3
A5
350
206A
  3
A6
350
206B
  3
A7
350
206C
  3
A8
350
206D
  3
A9
350
206E
  3
B0
350
206F
  3
B1
350
2070
  3
B2
350
2071
  3
B3
350
2072
  3
B4
350
2073
  3
B5
350
2074
  3
B6
350
2075
  3
B7
350
2076
  3
B8
350
2077
  3
B9
350
2078
  3
C0
350
2079
  3
C1
350
207A
  3
C2
350
207B
  3
C3
350
207C
  3
C4
350
207D
  3
C5
350
207E
  3
C6
350
207F
  3
C7
350
2080
  3
C8
350
2081
  3
C9
350
2082
  3
D0
350
2083
  3
D1
350
2084
  3
D2
350
2085
  0
DICTIONARY
  5
66FF
102
{ACAD_REACTORS
330
C
102
}
330
C
100
AcDbDictionary
281
     1
  3
Imperial24
350
6701
  0
DICTIONARY
  5
2062
102
{ACAD_REACTORS
330
C
102
}
330
C
100
AcDbDictionary
281
     1
  3
Standard
350
2063
  0
DICTIONARY
  5
2050
102
{ACAD_REACTORS
330
C
102
}
330
C
100
AcDbDictionary
281
     1
  3
2dWireframe
350
2056
  3
3D Hidden
350
2058
  3
3dWireframe
350
2057
  3
Basic
350
2055
  3
Brighten
350
205C
  3
ColorChange
350
2060
  3
Conceptual
350
2059
  3
Dim
350
205B
  3
EdgeColorOff
350
66FE
  3
Facepattern
350
205F
  3
Flat
350
2051
  3
FlatWithEdges
350
2052
  3
Gouraud
350
2053
  3
GouraudWithEdges
350
2054
  3
Hidden
350
66F6
  3
JitterOff
350
66FC
  3
Linepattern
350
205E
  3
OverhangOff
350
66FD
  3
Realistic
350
205A
  3
Shaded
350
66FB
  3
Shaded with edges
350
66FA
  3
Shades of Gray
350
66F7
  3
Sketchy
350
66F8
  3
Thicken
350
205D
  3
Wireframe
350
66F5
  3
X-Ray
350
66F9
  0
XRECORD
  5
688C
102
{ACAD_REACTORS
330
C
102
}
330
C
100
AcDbXrecord
280
     1
 90
        1
330
2063
330
23C0
330
4409
  0
DICTIONARY
  5
1458
102
{ACAD_REACTORS
330
C
102
}
330
C
100
AcDbDictionary
281
     1
  3
CANNOSCALE
350
210D
  3
CMLEADERSTYLE
350
210B
  3
CTABLESTYLE
350
210A
  3
CVIEWDETAILSTYLE
350
6760
  3
CVIEWSECTIONSTYLE
350
6761
  3
DIMASSOC
350
145B
  3
HIDETEXT
350
145A
  3
INDEXCTL
350
66F3
  3
LAYEREVAL
350
66F2
  3
LAYERNOTIFY
350
210F
  3
LIGHTINGUNITS
350
210E
  3
MSLTSCALE
350
210C
  3
SORTENTS
350
1459
  3
UPDATETHUMBNAIL
350
2B06
  3
XCLIPFRAME
350
6888
  0
DICTIONARY
  5
6892
102
{ACAD_REACTORS
330
C
102
}
330
C
100
AcDbDictionary
281
     1
  3
AcDsRecords
350
6894
  3
AcDsSchemas
350
6893
1001
ACAD
1070
     2
  0
DICTIONARY
  5
218F
102
{ACAD_REACTORS
330
C
102
}
330
C
100
AcDbDictionary
281
     1
  0
DICTIONARY
  5
2BEB
102
{ACAD_REACTORS
330
C
102
}
330
C
100
AcDbDictionary
281
     1
  3
ASEBlockHierarchyIndexRecord
350
2BEC
1001
DCO15
1040
1676181580.215
  0
DICTIONARY
  5
6878
102
{ACAD_REACTORS
330
1464
102
}
330
1464
100
AcDbDictionary
281
     1
  3
_0100-
350
687C
  3
_0280-
350
687B
  3
_Add Alternate
350
687E
  3
_Bid Alternate
350
687F
  3
_Color 253
350
6881
  3
_Color 8
350
687D
  3
_Color 84
350
6880
  3
_Contours
350
6887
  3
_Demo
350
6882
  3
_Existing
350
6883
  3
_Hardscape
350
6886
  3
_NoXref
350
6879
  3
_Row
350
6884
  3
_Utility
350
6885
  0
DICTIONARY
  5
1465
102
{ACAD_REACTORS
330
1464
102
}
330
1464
100
AcDbDictionary
281
     1
  0
SORTENTSTABLE
  5
21DD
102
{ACAD_REACTORS
330
20EF
102
}
330
20EF
100
AcDbSortentsTable
330
1E
331
5835
  5
583B
331
5116
  5
511C
331
4460
  5
48F3
331
5112
  5
5119
331
5860
  5
586F
331
5FBC
  5
5FBE
331
585C
  5
586B
331
58B3
  5
5A28
331
5858
  5
585E
331
5FB4
  5
5FBC
331
5FB0
  5
5FB2
331
526D
  5
5838
331
4408
  5
4778
331
58AF
  5
58B5
331
5854
  5
585A
331
58AB
  5
58B1
331
5850
  5
5856
331
5A92
  5
5B09
331
58A7
  5
58AD
331
5F9C
  5
5F9E
331
58A3
  5
58A9
331
584C
  5
5852
331
5A86
  5
5AAF
331
5F98
  5
5F9A
331
5FEF
  5
6002
331
5848
  5
584E
331
5F94
  5
5F96
331
6555
  5
6568
331
43FC
  5
456B
331
4936
  5
4BA6
331
485B
  5
4566
331
E86
  5
23B2
331
5883
  5
58A6
331
5844
  5
584A
331
5B39
  5
5F6E
331
5840
  5
5846
331
587F
  5
5885
331
583C
  5
5842
331
5FD7
  5
5FD9
331
5B09
  5
5E0B
331
5838
  5
583E
331
5129
  5
537B
331
5125
  5
5223
331
5121
  5
5127
331
4218
  5
4219
331
5877
  5
5882
331
5873
  5
587E
331
5FCF
  5
5FD1
331
586F
  5
5875
331
5AD5
  5
5B3B
331
586B
  5
5871
331
511D
  5
5124
331
5119
  5
5120
331
5115
  5
511B
331
5834
  5
583A
331
585F
  5
586E
331
585B
  5
5861
331
58B2
  5
5A27
331
5FB3
  5
5FB6
331
6002
  5
631A
331
445F
  5
485B
331
5248
  5
5837
331
5857
  5
585D
331
58AE
  5
58B4
331
5853
  5
5859
331
58AA
  5
58B0
331
58A6
  5
58AC
331
5A91
  5
5B05
331
584F
  5
5855
331
5F9B
  5
5F9D
331
5FF2
  5
6026
331
5A85
  5
5AB0
331
584B
  5
5851
331
6568
  5
6573
331
5F97
  5
5F99
331
5FEE
  5
5FF2
331
5F93
  5
5F95
331
4A51
  5
5117
331
4935
  5
4A65
331
436B
  5
4564
331
485A
  5
43E3
331
E85
  5
23B1
331
E81
  5
1516
331
5847
  5
584D
331
5882
  5
58A5
331
5843
  5
5849
331
5B3C
  5
4777
331
587E
  5
5884
331
5A29
  5
5A93
331
583F
  5
5845
331
583B
  5
5841
331
6348
  5
43E1
331
5B08
  5
5DFF
331
23C0
  5
4217
331
5128
  5
526E
331
5124
  5
512A
331
5120
  5
5126
331
E7D
  5
1498
331
5876
  5
5881
331
5872
  5
5878
331
5FCE
  5
5FD0
331
586E
  5
5874
331
5E03
  5
5F44
331
5FC6
  5
5FCD
331
4217
  5
4218
331
511C
  5
5123
331
46E2
  5
4A51
331
5837
  5
583D
331
5118
  5
511E
331
5FBE
  5
5FC5
331
5AB0
  5
5B3A
331
585E
  5
586D
331
58B5
  5
EA8
331
585A
  5
5860
331
58B1
  5
5A14
331
5FB6
  5
5FBD
331
5FB2
  5
5FB4
331
6573
  5
6555
331
445E
  5
485A
331
58AD
  5
58B3
331
5856
  5
585C
331
5852
  5
5858
331
58A9
  5
58AF
331
58A5
  5
58AB
331
5A90
  5
5B04
331
584E
  5
5854
331
5F9A
  5
5F9C
331
584A
  5
5850
331
5F96
  5
5F98
331
5223
  5
537D
331
48D1
  5
4A64
331
4A50
  5
5116
331
436A
  5
43E2
331
E84
  5
1D4C
331
5885
  5
58A8
331
5846
  5
584C
331
5881
  5
58A4
331
5842
  5
5848
331
5B3B
  5
476F
331
583E
  5
5844
331
5FD9
  5
5FEF
331
5E2A
  5
5AD6
331
583A
  5
5840
331
5B0B
  5
5E0E
331
5E0A
  5
5E05
331
5FD1
  5
5FD8
331
490C
  5
456A
331
5127
  5
526D
331
46F1
  5
4A63
331
5123
  5
5129
331
421A
  5
43E0
331
E7C
  5
1496
331
5875
  5
5880
331
5B07
  5
5B3C
331
5871
  5
5877
331
5FCD
  5
5FCF
331
5A14
  5
5A91
331
586D
  5
5873
331
5E02
  5
5E0F
331
5FC5
  5
5FCC
331
511B
  5
5122
331
46E1
  5
4939
331
5836
  5
583C
331
5117
  5
511D
331
5113
  5
511A
331
5861
  5
5870
331
59B0
  5
5A90
331
5FBD
  5
5FC4
331
5AAF
  5
5B39
331
585D
  5
586C
331
58B4
  5
5A85
331
5859
  5
585F
331
58B0
  5
59B0
331
5FB1
  5
5FB3
331
526E
  5
5839
331
445D
  5
4858
331
4409
  5
4857
331
5855
  5
585B
331
58AC
  5
58B2
331
5851
  5
5857
331
5A93
  5
5B0B
331
58A8
  5
58AE
331
58A4
  5
58AA
331
584D
  5
5853
331
5F99
  5
5F9B
331
5849
  5
584F
331
5F95
  5
5F97
331
43FD
  5
4771
331
E87
  5
26BB
331
5884
  5
58A7
331
5845
  5
584B
331
5880
  5
58A3
331
5841
  5
5847
331
5B3A
  5
5F93
331
5A27
  5
5A92
331
583D
  5
5843
331
5E29
  5
5AD5
331
5FD8
  5
5FEE
331
5878
  5
5883
331
5839
  5
583F
331
5E0D
  5
5A86
331
5E09
  5
5E04
331
5FD0
  5
5FD7
331
156D
  5
26C0
331
512A
  5
537C
331
5126
  5
5248
331
5122
  5
5128
331
4219
  5
421A
331
E7F
  5
1515
331
5874
  5
587F
331
5870
  5
5876
331
5FCC
  5
5FCE
331
5AD6
  5
5DFE
331
586C
  5
5872
331
5FC4
  5
5FC6
331
511E
  5
5125
331
511A
  5
5121
  0
SORTENTSTABLE
  5
5C57
102
{ACAD_REACTORS
330
5C56
102
}
330
5C56
100
AcDbSortentsTable
330
155E
  0
DICTIONARY
  5
671A
102
{ACAD_REACTORS
330
6719
102
}
330
6719
100
AcDbDictionary
280
     1
281
     1
  3
TEXT
360
671B
  0
XRECORD
  5
688A
102
{ACAD_REACTORS
330
6642
102
}
330
6642
100
AcDbXrecord
280
     1
 40
12909131.0
  1
\A1;\pxi-2,l2;ON-SURFACE DRIPLINE:\P RAIN BIRD XF SERIES DRIPLINE  \P POTABLE: XFS DRIPLINE\P NON-POTABLE: XFSP DRIPLINE\P\PINLINE DRIP EMITTER OUTLET, SEE PLANS FOR DRIPLINE OUTLET SPACING.\P\PBARB TEE 17x17x17mm\P RAIN BIRD XFF-TEE\P\PBARB COUPLING
  1
 17x17mm\P RAIN BIRD XFF-COUP\P\PBARB ELBOW 17x17mm \P RAIN BIRD XFF-ELBOW\P\PBARB MALE ADAPTER \P 17mm X 1/2" MPT\P  RAIN BIRD XFF-MA-050\P 17mm X 3/4" MPT\P  RAIN BIRD XFF-MA-075\P\PPVC TEE SxSxT\P\PPVC LATERAL SUPPLY HEADER\P\PTIE DOWN STAKE:\P RA
  1
IN BIRD TDS-050 WITH BEND (TYPICAL)\P\PFINISH GRADE \P\PRAIN BIRD XF SERIES BLANK TUBING LENGTH AS REQUIRED
  0
XRECORD
  5
688B
102
{ACAD_REACTORS
330
6644
102
}
330
6644
100
AcDbXrecord
280
     1
 40
3985417.0
  1
NOTES:\P\pxi-4,l4;1. PLACE TIE DOWN STAKES EVERY THREE FEET IN SAND, F0UR FEET IN LOAM, AND FIVE FEET IN CLAY.\P2. AT FITTINGS WHERE THERE IS A CHANGE OF DIRECTION SUCH AS TEES OR ELBOWS, USE TIE-DOWN STAKES ON EACH LEG OF THE CHANGE OF DIRECTION.\P3
  1
. SAVE YOUR HANDS. USE THE RAIN BIRD FITTINS-TOOL XF INSERTION TOOL FOR FITTING ASSEMBLY.
  0
ACDBDETAILVIEWSTYLE
  5
6703
102
{ACAD_REACTORS
330
6702
102
}
330
6702
100
AcDbModelDocViewStyle
 70
     0
  3
Imperial24
290
     0
100
AcDbDetailViewStyle
 70
     0
 71
     0
 90
        3
 71
     1
340
11
 62
   256
 40
0.24
340
0
 62
   256
 40
0.24
300

 40
0.36
280
     3
 71
     2
340
15
 90
       25
 62
   256
 71
     3
340
11
 62
   256
 40
0.24
 90
        1
 40
0.75
 90
        1
300
%<\AcVar ViewType \f "%tc1">% %<\AcVar ViewDetailId>%\PSCALE %<\AcVar ViewScale \f "%sn">%
 71
     4
340
15
 90
       25
 62
   256
340
15
 90
       25
 62
   256
280
     0
  0
LAYOUT
  5
1D
102
{ACAD_XDICTIONARY
360
2497
102
}
102
{ACAD_REACTORS
330
19
102
}
330
19
100
AcDbPlotSettings
  1

  2
none_device
  4
Letter_(8.50_x_11.00_Inches)
  6

 40
6.349999904632568
 41
6.349999904632568
 42
6.350006103515625
 43
6.350006103515625
 44
215.8999938964844
 45
279.3999938964844
 46
0.0
 47
0.0
 48
0.0
 49
0.0
140
0.0
141
0.0
142
1.0
143
1.0
 70
   688
 72
     0
 73
     1
 74
     5
  7
TRexLJ5Shaded2.ctb
 75
    16
147
1.0
 76
     0
 77
     2
 78
   300
148
0.0
149
0.0
100
AcDbLayout
  1
Layout1
 70
     1
 71
     1
 10
0.0
 20
0.0
 11
12.0
 21
9.0
 12
0.0
 22
0.0
 32
0.0
 14
1.000000000000000E+20
 24
1.000000000000000E+20
 34
1.000000000000000E+20
 15
-1.000000000000000E+20
 25
-1.000000000000000E+20
 35
-1.000000000000000E+20
146
0.0
 13
0.0
 23
0.0
 33
0.0
 16
1.0
 26
0.0
 36
0.0
 17
0.0
 27
1.0
 37
0.0
 76
     0
330
1A
331
4DE
1001
ACAD_PSEXT
1000
None
1000
None
1000
Not applicable
1000
The layout will not be plotted unless a new plotter configuration name is selected.
1070
     0
  0
LAYOUT
  5
21
102
{ACAD_REACTORS
330
19
102
}
330
19
100
AcDbPlotSettings
  1

  2
LaserJet5Shaded.pc3
  4
11x17
  6

 40
5.873749732971191
 41
5.873734951019287
 42
5.873748779296875
 43
5.027069091796875
 44
431.7999877929687
 45
279.3999938964844
 46
44.5567066589447
 47
0.0000000000000013
 48
0.0
 49
0.0
140
0.0
141
0.0
142
1.0
143
0.9876230916917126
 70
 11956
 72
     0
 73
     0
 74
     1
  7
LaserJet5Shaded.ctb
 75
     0
147
1.01253201592025
 76
     0
 77
     2
 78
   300
148
4.450983262223152
149
89.11661791632935
100
AcDbLayout
  1
Model
 70
     1
 71
     0
 10
0.0
 20
0.0
 11
12.0
 21
9.0
 12
0.0
 22
0.0
 32
0.0
 14
0.0
 24
0.0
 34
0.0
 15
0.0
 25
0.0
 35
0.0
146
0.0
 13
0.0
 23
0.0
 33
0.0
 16
1.0
 26
0.0
 36
0.0
 17
0.0
 27
1.0
 37
0.0
 76
     0
330
1E
331
2035
1001
ACAD_PSEXT
1000
LaserJet5Shaded.pc3
1000
HP LaserJet 5Si
1000
CAD Area
1000

1070
     0
  0
MATERIAL
  5
2040
102
{ACAD_XDICTIONARY
360
2041
102
}
102
{ACAD_REACTORS
330
2037
102
}
330
2037
100
AcDbMaterial
  1
ByBlock
 72
     0
 43
0.0208333333333333
 43
0.0
 43
0.0
 43
0.0
 43
0.0
 43
0.0208333333333333
 43
0.0
 43
0.0
 43
0.0
 43
0.0
 43
1.0
 43
0.0
 43
0.0
 43
0.0
 43
0.0
 43
1.0
 77
     0
 47
0.0208333333333333
 47
0.0
 47
0.0
 47
0.0
 47
0.0
 47
0.0208333333333333
 47
0.0
 47
0.0
 47
0.0
 47
0.0
 47
1.0
 47
0.0
 47
0.0
 47
0.0
 47
0.0
 47
1.0
171
     0
 49
0.0208333333333333
 49
0.0
 49
0.0
 49
0.0
 49
0.0
 49
0.0208333333333333
 49
0.0
 49
0.0
 49
0.0
 49
0.0
 49
1.0
 49
0.0
 49
0.0
 49
0.0
 49
0.0
 49
1.0
175
     0
142
0.0208333333333333
142
0.0
142
0.0
142
0.0
142
0.0
142
0.0208333333333333
142
0.0
142
0.0
142
0.0
142
0.0
142
1.0
142
0.0
142
0.0
142
0.0
142
0.0
142
1.0
179
     0
144
0.0208333333333333
144
0.0
144
0.0
144
0.0
144
0.0
144
0.0208333333333333
144
0.0
144
0.0
144
0.0
144
0.0
144
1.0
144
0.0
144
0.0
144
0.0
144
0.0
144
1.0
147
0.0208333333333333
147
0.0
147
0.0
147
0.0
147
0.0
147
0.0208333333333333
147
0.0
147
0.0
147
0.0
147
0.0
147
1.0
147
0.0
147
0.0
147
0.0
147
0.0
147
1.0
  0
MATERIAL
  5
2038
102
{ACAD_XDICTIONARY
360
2039
102
}
102
{ACAD_REACTORS
330
2037
102
}
330
2037
100
AcDbMaterial
  1
ByLayer
 72
     0
 43
0.0208333333333333
 43
0.0
 43
0.0
 43
0.0
 43
0.0
 43
0.0208333333333333
 43
0.0
 43
0.0
 43
0.0
 43
0.0
 43
1.0
 43
0.0
 43
0.0
 43
0.0
 43
0.0
 43
1.0
 77
     0
 47
0.0208333333333333
 47
0.0
 47
0.0
 47
0.0
 47
0.0
 47
0.0208333333333333
 47
0.0
 47
0.0
 47
0.0
 47
0.0
 47
1.0
 47
0.0
 47
0.0
 47
0.0
 47
0.0
 47
1.0
171
     0
 49
0.0208333333333333
 49
0.0
 49
0.0
 49
0.0
 49
0.0
 49
0.0208333333333333
 49
0.0
 49
0.0
 49
0.0
 49
0.0
 49
1.0
 49
0.0
 49
0.0
 49
0.0
 49
0.0
 49
1.0
175
     0
142
0.0208333333333333
142
0.0
142
0.0
142
0.0
142
0.0
142
0.0208333333333333
142
0.0
142
0.0
142
0.0
142
0.0
142
1.0
142
0.0
142
0.0
142
0.0
142
0.0
142
1.0
179
     0
144
0.0208333333333333
144
0.0
144
0.0
144
0.0
144
0.0
144
0.0208333333333333
144
0.0
144
0.0
144
0.0
144
0.0
144
1.0
144
0.0
144
0.0
144
0.0
144
0.0
144
1.0
147
0.0208333333333333
147
0.0
147
0.0
147
0.0
147
0.0
147
0.0208333333333333
147
0.0
147
0.0
147
0.0
147
0.0
147
1.0
147
0.0
147
0.0
147
0.0
147
0.0
147
1.0
  0
MATERIAL
  5
2048
102
{ACAD_XDICTIONARY
360
2049
102
}
102
{ACAD_REACTORS
330
2037
102
}
330
2037
100
AcDbMaterial
  1
Global
 72
     0
 43
0.0208333333333333
 43
0.0
 43
0.0
 43
0.0
 43
0.0
 43
0.0208333333333333
 43
0.0
 43
0.0
 43
0.0
 43
0.0
 43
1.0
 43
0.0
 43
0.0
 43
0.0
 43
0.0
 43
1.0
 77
     0
 47
0.0208333333333333
 47
0.0
 47
0.0
 47
0.0
 47
0.0
 47
0.0208333333333333
 47
0.0
 47
0.0
 47
0.0
 47
0.0
 47
1.0
 47
0.0
 47
0.0
 47
0.0
 47
0.0
 47
1.0
171
     0
 49
0.0208333333333333
 49
0.0
 49
0.0
 49
0.0
 49
0.0
 49
0.0208333333333333
 49
0.0
 49
0.0
 49
0.0
 49
0.0
 49
1.0
 49
0.0
 49
0.0
 49
0.0
 49
0.0
 49
1.0
175
     0
142
0.0208333333333333
142
0.0
142
0.0
142
0.0
142
0.0
142
0.0208333333333333
142
0.0
142
0.0
142
0.0
142
0.0
142
1.0
142
0.0
142
0.0
142
0.0
142
0.0
142
1.0
179
     0
144
0.0208333333333333
144
0.0
144
0.0
144
0.0
144
0.0
144
0.0208333333333333
144
0.0
144
0.0
144
0.0
144
0.0
144
1.0
144
0.0
144
0.0
144
0.0
144
0.0
144
1.0
147
0.0208333333333333
147
0.0
147
0.0
147
0.0
147
0.0
147
0.0208333333333333
147
0.0
147
0.0
147
0.0
147
0.0
147
1.0
147
0.0
147
0.0
147
0.0
147
0.0
147
1.0
  0
MLEADERSTYLE
  5
2087
102
{ACAD_REACTORS
330
2086
102
}
330
2086
100
AcDbMLeaderStyle
170
     2
171
     1
172
     0
 90
        2
 40
0.0
 41
0.0
173
     1
 91
-1056964608
340
13
 92
       -2
290
     1
 42
0.09
291
     1
 43
0.36
  3
Standard
 44
0.18
300

342
11
174
     1
178
     6
175
     1
176
     0
 93
-1056964608
 45
0.18
292
     0
297
     0
 46
0.18
 94
-1056964608
 47
1.0
 49
1.0
140
1.0
293
     1
141
0.0
294
     1
177
     0
142
1.0
295
     0
296
     0
143
0.125
1001
ACAD_MLEADERVER
1070
     2
  0
MLINESTYLE
  5
17
102
{ACAD_REACTORS
330
16
102
}
330
16
100
AcDbMlineStyle
  2
STANDARD
 70
     0
  3

 62
   256
 51
90.0
 52
90.0
 71
     2
 49
0.5
 62
   256
  6
BYLAYER
 49
-0.5
 62
   256
  6
BYLAYER
  0
PLOTSETTINGS
  5
60D7
102
{ACAD_REACTORS
330
18
102
}
330
18
100
AcDbPlotSettings
  1
1055 24x36 BW
  2
1055B&WDraftShaded.pc3
  4
User257
  6

 40
14.98600006103515
 41
8.297271728515625
 42
14.9859619140625
 43
8.29736328125
 44
914.3153076171875
 45
1269.915283203125
 46
0.0
 47
0.0
 48
0.0
 49
0.0
140
0.0
141
0.0
142
1.0
143
1.0
 70
  2800
 72
     0
 73
     2
 74
     1
  7
Full_B&W.ctb
 75
    16
147
1.0
 76
     0
 77
     2
 78
   300
148
-75.74468520391772
149
-27.53050504688192
1001
ACAD_PSEXT
1000
1055B&WDraftShaded.pc3
1000
HP DesignJet 1055CM by HP
1000
FRONT
1000

1070
     0
  0
PLOTSETTINGS
  5
60D8
102
{ACAD_REACTORS
330
18
102
}
330
18
100
AcDbPlotSettings
  1
1055 24x36 BW Final
  2
1055B&WFinalShaded.pc3
  4
User257
  6

 40
14.98600006103515
 41
8.297271728515625
 42
14.9859619140625
 43
8.29736328125
 44
914.357666015625
 45
1269.957641601562
 46
0.0
 47
0.0
 48
0.0
 49
0.0
140
0.0
141
0.0
142
1.0
143
1.0
 70
  2800
 72
     0
 73
     2
 74
     1
  7
Full_B&W.ctb
 75
    16
147
1.0
 76
     0
 77
     2
 78
   300
148
-75.74468520391772
149
-27.53050504688192
1001
ACAD_PSEXT
1000
1055B&WFinalShaded.pc3
1000
HP DesignJet 1055CM by HP
1000
FRONT
1000

1070
     0
  0
PLOTSETTINGS
  5
60D9
102
{ACAD_REACTORS
330
18
102
}
330
18
100
AcDbPlotSettings
  1
1055 24x36 Color
  2
1055ColorDraftShaded.pc3
  4
User257
  6

 40
14.98600006103515
 41
8.297271728515625
 42
14.9859619140625
 43
8.29736328125
 44
914.3153076171875
 45
1269.915283203125
 46
0.0
 47
0.0
 48
0.0
 49
0.0
140
0.0
141
0.0
142
1.0
143
1.0
 70
  2800
 72
     0
 73
     2
 74
     1
  7
Color.ctb
 75
    16
147
1.0
 76
     0
 77
     2
 78
   300
148
-75.74468520391772
149
-27.53050504688192
1001
ACAD_PSEXT
1000
1055ColorDraftShaded.pc3
1000
HP DesignJet 1055CM by HP
1000
FRONT
1000

1070
     0
  0
PLOTSETTINGS
  5
60DA
102
{ACAD_REACTORS
330
18
102
}
330
18
100
AcDbPlotSettings
  1
1055 24x36 Color Shaded
  2
1055ColorDraftShaded.pc3
  4
User257
  6

 40
14.98600006103515
 41
8.297271728515625
 42
14.9859619140625
 43
8.29736328125
 44
914.3153076171875
 45
1269.915283203125
 46
0.0
 47
0.0
 48
0.0
 49
0.0
140
0.0
141
0.0
142
1.0
143
1.0
 70
  2800
 72
     0
 73
     2
 74
     1
  7
Full_Color.ctb
 75
    16
147
1.0
 76
     0
 77
     2
 78
   300
148
-75.74468520391772
149
-27.53050504688192
1001
ACAD_PSEXT
1000
1055ColorDraftShaded.pc3
1000
HP DesignJet 1055CM by HP
1000
FRONT
1000

1070
     0
  0
PLOTSETTINGS
  5
60DB
102
{ACAD_REACTORS
330
18
102
}
330
18
100
AcDbPlotSettings
  1
1055 30x42 BW
  2
1055B&WDraftShaded.pc3
  4
User257
  6

 40
14.98600006103515
 41
8.297271728515625
 42
14.9859619140625
 43
8.29736328125
 44
914.3153076171875
 45
1269.915283203125
 46
0.0
 47
0.0
 48
0.0
 49
0.0
140
0.0
141
0.0
142
1.0
143
1.0
 70
  2800
 72
     0
 73
     1
 74
     1
  7
Full_B&W.ctb
 75
    16
147
1.0
 76
     0
 77
     2
 78
   300
148
-75.74468520391772
149
-27.53050504688192
1001
ACAD_PSEXT
1000
1055B&WDraftShaded.pc3
1000
HP DesignJet 1055CM by HP
1000
FRONT
1000

1070
     0
  0
PLOTSETTINGS
  5
60DC
102
{ACAD_REACTORS
330
18
102
}
330
18
100
AcDbPlotSettings
  1
1055 30x42 BW Final
  2
1055B&WFinalShaded.pc3
  4
User257
  6

 40
14.98600006103515
 41
8.297271728515625
 42
14.9859619140625
 43
8.29736328125
 44
914.357666015625
 45
1269.957641601562
 46
0.0
 47
0.0
 48
0.0
 49
0.0
140
0.0
141
0.0
142
1.0
143
1.0
 70
  2800
 72
     0
 73
     1
 74
     1
  7
Full_B&W.ctb
 75
    16
147
1.0
 76
     0
 77
     2
 78
   300
148
-75.74468520391772
149
-27.53050504688192
1001
ACAD_PSEXT
1000
1055B&WFinalShaded.pc3
1000
HP DesignJet 1055CM by HP
1000
FRONT
1000

1070
     0
  0
PLOTSETTINGS
  5
60DD
102
{ACAD_REACTORS
330
18
102
}
330
18
100
AcDbPlotSettings
  1
1055 B&W Draft
  2
1055B&WDraftShaded.pc3
  4
User257
  6

 40
4.995333194732666
 41
8.297271728515625
 42
4.99530029296875
 43
8.29736328125
 44
914.3153076171875
 45
1269.915283203125
 46
0.0
 47
0.0
 48
0.0
 49
0.0
140
0.0
141
0.0
142
1.0
143
30.0
 70
 11936
 72
     0
 73
     2
 74
     1
  7
Full_B&W.ctb
 75
     0
147
3.484472351238056
 76
     0
 77
     2
 78
   300
148
-119.4582094169044
149
-58.17053554795709
1001
ACAD_PSEXT
1000
1055B&WDraftShaded.pc3
1000
HP DesignJet 1055CM by HP
1000
\\aqua-srv01
1000

1070
     0
  0
PLOTSETTINGS
  5
60DE
102
{ACAD_REACTORS
330
18
102
}
330
18
100
AcDbPlotSettings
  1
1055 B&W Final
  2
1055B&WFinalShaded.pc3
  4
User257
  6

 40
4.995333194732666
 41
8.297271728515625
 42
4.99530029296875
 43
8.29736328125
 44
914.357666015625
 45
1269.957641601562
 46
0.0
 47
0.0
 48
0.0
 49
0.0
140
0.0
141
0.0
142
1.0
143
30.0
 70
 11936
 72
     0
 73
     2
 74
     1
  7
Full_B&W.ctb
 75
     0
147
3.484472351238056
 76
     0
 77
     2
 78
   300
148
-119.4582094169044
149
-58.17053554795709
1001
ACAD_PSEXT
1000
1055B&WFinalShaded.pc3
1000
HP DesignJet 1055CM by HP
1000
\\aqua-srv01
1000

1070
     0
  0
PLOTSETTINGS
  5
60DF
102
{ACAD_REACTORS
330
18
102
}
330
18
100
AcDbPlotSettings
  1
1055 BW Half
  2
1055B&WDraftShaded.pc3
  4
User257
  6

 40
14.98600006103515
 41
8.297271728515625
 42
14.9859619140625
 43
8.29736328125
 44
914.3153076171875
 45
1269.915283203125
 46
0.0
 47
0.0
 48
0.0
 49
0.0
140
0.0
141
0.0
142
1.0
143
2.0
 70
  2800
 72
     0
 73
     2
 74
     1
  7
Full_B&W.ctb
 75
    17
147
0.5
 76
     0
 77
     2
 78
   300
148
-75.74468520391772
149
-27.53050504688192
1001
ACAD_PSEXT
1000
1055B&WDraftShaded.pc3
1000
HP DesignJet 1055CM by HP
1000
FRONT
1000

1070
     0
  0
PLOTSETTINGS
  5
60E0
102
{ACAD_REACTORS
330
18
102
}
330
18
100
AcDbPlotSettings
  1
1055 Color Draft
  2
1055ColorDraftShaded.pc3
  4
User257
  6

 40
4.995333194732666
 41
8.297271728515625
 42
4.99530029296875
 43
8.29736328125
 44
914.3153076171875
 45
1269.915283203125
 46
0.0
 47
0.0
 48
0.0
 49
0.0
140
0.0
141
0.0
142
1.0
143
30.0
 70
 11936
 72
     0
 73
     2
 74
     1
  7
Full_Color.ctb
 75
     0
147
3.484472351238056
 76
     0
 77
     2
 78
   300
148
-119.4582094169044
149
-58.17053554795709
1001
ACAD_PSEXT
1000
1055ColorDraftShaded.pc3
1000
HP DesignJet 1055CM by HP
1000
\\aqua-srv01
1000

1070
     0
  0
PLOTSETTINGS
  5
60E1
102
{ACAD_REACTORS
330
18
102
}
330
18
100
AcDbPlotSettings
  1
1055 Color Final
  2
1055ColorFinalShaded.pc3
  4
User257
  6

 40
4.995333194732666
 41
8.297271728515625
 42
4.99530029296875
 43
8.29736328125
 44
914.357666015625
 45
1269.957641601562
 46
0.0
 47
0.0
 48
0.0
 49
0.0
140
0.0
141
0.0
142
1.0
143
30.0
 70
 11936
 72
     0
 73
     2
 74
     1
  7
Full_Color.ctb
 75
     0
147
3.484472351238056
 76
     0
 77
     2
 78
   300
148
-119.4582094169044
149
-58.17053554795709
1001
ACAD_PSEXT
1000
1055ColorFinalShaded.pc3
1000
HP DesignJet 1055CM by HP
1000
\\aqua-srv01
1000

1070
     0
  0
PLOTSETTINGS
  5
60E2
102
{ACAD_REACTORS
330
18
102
}
330
18
100
AcDbPlotSettings
  1
1055+ 24x36 BW
  2
1055_PLUS_B&WDraftShaded.pc3
  4
User257
  6

 40
14.98600006103515
 41
8.297271728515625
 42
14.9859619140625
 43
8.29736328125
 44
914.3153076171875
 45
1269.915283203125
 46
0.0
 47
0.0
 48
0.0
 49
0.0
140
0.0
141
0.0
142
1.0
143
1.0
 70
  2800
 72
     0
 73
     2
 74
     1
  7
Full_B&W.ctb
 75
    16
147
1.0
 76
     0
 77
     2
 78
   300
148
-75.74468520391772
149
-27.53050504688192
1001
ACAD_PSEXT
1000
1055_PLUS_B&WDraftShaded.pc3
1000
HP DesignJet 1055CM by HP
1000
FRONT
1000

1070
     0
  0
PLOTSETTINGS
  5
60E3
102
{ACAD_REACTORS
330
18
102
}
330
18
100
AcDbPlotSettings
  1
1055+ 24x36 BW Final
  2
1055_PLUS_B&WFinalShaded.pc3
  4
User257
  6

 40
14.98600006103515
 41
8.297271728515625
 42
14.9859619140625
 43
8.29736328125
 44
914.357666015625
 45
1269.957641601562
 46
0.0
 47
0.0
 48
0.0
 49
0.0
140
0.0
141
0.0
142
1.0
143
1.0
 70
  2800
 72
     0
 73
     2
 74
     1
  7
Full_B&W.ctb
 75
    16
147
1.0
 76
     0
 77
     2
 78
   300
148
-75.74468520391772
149
-27.53050504688192
1001
ACAD_PSEXT
1000
1055_PLUS_B&WFinalShaded.pc3
1000
HP DesignJet 1055CM by HP
1000
FRONT
1000

1070
     0
  0
PLOTSETTINGS
  5
60E4
102
{ACAD_REACTORS
330
18
102
}
330
18
100
AcDbPlotSettings
  1
1055+ 24x36 Color
  2
1055_PLUS_ColorDraftShaded.pc3
  4
User257
  6

 40
14.98600006103515
 41
8.297271728515625
 42
14.9859619140625
 43
8.29736328125
 44
914.3153076171875
 45
1269.915283203125
 46
0.0
 47
0.0
 48
0.0
 49
0.0
140
0.0
141
0.0
142
1.0
143
1.0
 70
  2800
 72
     0
 73
     2
 74
     1
  7
Color.ctb
 75
    16
147
1.0
 76
     0
 77
     2
 78
   300
148
-75.74468520391772
149
-27.53050504688192
1001
ACAD_PSEXT
1000
1055_PLUS_ColorDraftShaded.pc3
1000
HP DesignJet 1055CM by HP
1000
FRONT
1000

1070
     0
  0
PLOTSETTINGS
  5
60E5
102
{ACAD_REACTORS
330
18
102
}
330
18
100
AcDbPlotSettings
  1
1055+ 24x36 Color Shaded
  2
1055_PLUS_ColorDraftShaded.pc3
  4
User257
  6

 40
14.98600006103515
 41
8.297271728515625
 42
14.9859619140625
 43
8.29736328125
 44
914.3153076171875
 45
1269.915283203125
 46
0.0
 47
0.0
 48
0.0
 49
0.0
140
0.0
141
0.0
142
1.0
143
1.0
 70
  2800
 72
     0
 73
     2
 74
     1
  7
Full_Color.ctb
 75
    16
147
1.0
 76
     0
 77
     2
 78
   300
148
-75.74468520391772
149
-27.53050504688192
1001
ACAD_PSEXT
1000
1055_PLUS_ColorDraftShaded.pc3
1000
HP DesignJet 1055CM by HP
1000
FRONT
1000

1070
     0
  0
PLOTSETTINGS
  5
60E6
102
{ACAD_REACTORS
330
18
102
}
330
18
100
AcDbPlotSettings
  1
1055+ 30x42 BW
  2
1055_PLUS_B&WDraftShaded.pc3
  4
User257
  6

 40
14.98600006103515
 41
8.297271728515625
 42
14.9859619140625
 43
8.29736328125
 44
914.3153076171875
 45
1269.915283203125
 46
0.0
 47
0.0
 48
0.0
 49
0.0
140
0.0
141
0.0
142
1.0
143
1.0
 70
  2800
 72
     0
 73
     1
 74
     1
  7
Full_B&W.ctb
 75
    16
147
1.0
 76
     0
 77
     2
 78
   300
148
-75.74468520391772
149
-27.53050504688192
1001
ACAD_PSEXT
1000
1055_PLUS_B&WDraftShaded.pc3
1000
HP DesignJet 1055CM by HP
1000
FRONT
1000

1070
     0
  0
PLOTSETTINGS
  5
60E7
102
{ACAD_REACTORS
330
18
102
}
330
18
100
AcDbPlotSettings
  1
1055+ 30x42 BW Final
  2
1055_PLUS_B&WFinalShaded.pc3
  4
User257
  6

 40
14.98600006103515
 41
8.297271728515625
 42
14.9859619140625
 43
8.29736328125
 44
914.357666015625
 45
1269.957641601562
 46
0.0
 47
0.0
 48
0.0
 49
0.0
140
0.0
141
0.0
142
1.0
143
1.0
 70
  2800
 72
     0
 73
     1
 74
     1
  7
Full_B&W.ctb
 75
    16
147
1.0
 76
     0
 77
     2
 78
   300
148
-75.74468520391772
149
-27.53050504688192
1001
ACAD_PSEXT
1000
1055_PLUS_B&WFinalShaded.pc3
1000
HP DesignJet 1055CM by HP
1000
FRONT
1000

1070
     0
  0
PLOTSETTINGS
  5
60E8
102
{ACAD_REACTORS
330
18
102
}
330
18
100
AcDbPlotSettings
  1
1055+ B&W Draft
  2
1055_PLUS_B&WDraftShaded.pc3
  4
User257
  6

 40
4.995333194732666
 41
13.2926607131958
 42
4.99530029296875
 43
13.292724609375
 44
914.3153076171875
 45
1269.915283203125
 46
0.0
 47
0.0
 48
0.0
 49
0.0
140
0.0
141
0.0
142
1.0
143
30.0
 70
 11936
 72
     0
 73
     2
 74
     1
  7
Full_B&W.ctb
 75
     0
147
3.484472351238056
 76
     0
 77
     2
 78
   300
148
-119.4582094169044
149
-58.17053554795709
1001
ACAD_PSEXT
1000
1055_PLUS_B&WDraftShaded.pc3
1000
HP DesignJet 1055CM by HP
1000
\\aqua-srv01
1000

1070
     0
  0
PLOTSETTINGS
  5
60E9
102
{ACAD_REACTORS
330
18
102
}
330
18
100
AcDbPlotSettings
  1
1055+ B&W Final
  2
1055_PLUS_B&WFinalShaded.pc3
  4
User257
  6

 40
4.995333194732666
 41
13.2926607131958
 42
4.99530029296875
 43
13.292724609375
 44
914.357666015625
 45
1269.957641601562
 46
0.0
 47
0.0
 48
0.0
 49
0.0
140
0.0
141
0.0
142
1.0
143
30.0
 70
 11936
 72
     0
 73
     2
 74
     1
  7
Full_B&W.ctb
 75
     0
147
3.484472351238056
 76
     0
 77
     2
 78
   300
148
-119.4582094169044
149
-58.17053554795709
1001
ACAD_PSEXT
1000
1055_PLUS_B&WFinalShaded.pc3
1000
HP DesignJet 1055CM by HP
1000
\\aqua-srv01
1000

1070
     0
  0
PLOTSETTINGS
  5
60EA
102
{ACAD_REACTORS
330
18
102
}
330
18
100
AcDbPlotSettings
  1
1055+ BW Half
  2
1055_PLUS_B&WDraftShaded.pc3
  4
User257
  6

 40
14.98600006103515
 41
8.297271728515625
 42
14.9859619140625
 43
8.29736328125
 44
914.3153076171875
 45
1269.915283203125
 46
0.0
 47
0.0
 48
0.0
 49
0.0
140
0.0
141
0.0
142
1.0
143
2.0
 70
  2800
 72
     0
 73
     2
 74
     1
  7
Full_B&W.ctb
 75
    17
147
0.5
 76
     0
 77
     2
 78
   300
148
-75.74468520391772
149
-27.53050504688192
1001
ACAD_PSEXT
1000
1055_PLUS_B&WDraftShaded.pc3
1000
HP DesignJet 1055CM by HP
1000
FRONT
1000

1070
     0
  0
PLOTSETTINGS
  5
60EB
102
{ACAD_REACTORS
330
18
102
}
330
18
100
AcDbPlotSettings
  1
1055+ Color Draft
  2
1055_PLUS_ColorDraftShaded.pc3
  4
User257
  6

 40
4.995333194732666
 41
8.297271728515625
 42
4.99530029296875
 43
8.29736328125
 44
914.3153076171875
 45
1269.915283203125
 46
0.0
 47
0.0
 48
0.0
 49
0.0
140
0.0
141
0.0
142
1.0
143
30.0
 70
 11936
 72
     0
 73
     2
 74
     1
  7
Full_Color.ctb
 75
     0
147
3.484472351238056
 76
     0
 77
     2
 78
   300
148
-119.4582094169044
149
-58.17053554795709
1001
ACAD_PSEXT
1000
1055_PLUS_ColorDraftShaded.pc3
1000
HP DesignJet 1055CM by HP
1000
\\aqua-srv01
1000

1070
     0
  0
PLOTSETTINGS
  5
60EC
102
{ACAD_REACTORS
330
18
102
}
330
18
100
AcDbPlotSettings
  1
1055+ Color Final
  2
1055_PLUS_ColorFinalShaded.pc3
  4
User257
  6

 40
4.995333194732666
 41
13.2926607131958
 42
4.99530029296875
 43
13.292724609375
 44
914.357666015625
 45
1269.957641601562
 46
0.0
 47
0.0
 48
0.0
 49
0.0
140
0.0
141
0.0
142
1.0
143
30.0
 70
 11936
 72
     0
 73
     2
 74
     1
  7
Full_Color.ctb
 75
     0
147
3.484472351238056
 76
     0
 77
     2
 78
   300
148
-119.4582094169044
149
-58.17053554795709
1001
ACAD_PSEXT
1000
1055_PLUS_ColorFinalShaded.pc3
1000
HP DesignJet 1055CM by HP
1000
\\aqua-srv01
1000

1070
     0
  0
PLOTSETTINGS
  5
60ED
102
{ACAD_REACTORS
330
18
102
}
330
18
100
AcDbPlotSettings
  1
_1055 22x34 True Centered BW
  2
1055B&WDraftShaded 24x36 true.pc3
  4
User1639
  6

 40
0.0
 41
0.0
 42
0.0
 43
0.0
 44
863.6000366210938
 45
558.7999877929687
 46
379.1860116761152
 47
224.9166389522296
 48
0.0
 49
0.0
140
0.0
141
0.0
142
1.0
143
1.0
 70
  2804
 72
     0
 73
     0
 74
     1
  7
Full_B&W.ctb
 75
    16
147
1.0
 76
     0
 77
     2
 78
   300
148
-75.74468520391772
149
-27.53050504688192
1001
ACAD_PSEXT
1000
1055B&WDraftShaded 24x36 true.pc3
1000
HP DesignJet 1055CM by HP
1000
FRONT
1000

1070
     0
  0
PLOTSETTINGS
  5
60EE
102
{ACAD_REACTORS
330
18
102
}
330
18
100
AcDbPlotSettings
  1
_1055 24x36 True Centered BW
  2
1055B&WDraftShaded 24x36 true.pc3
  4
User1308
  6

 40
14.98600006103515
 41
8.297332763671875
 42
14.9859619140625
 43
8.29736328125
 44
914.3153076171875
 45
609.5153198242187
 46
389.5576661866133
 47
241.9769569453936
 48
0.0
 49
0.0
140
0.0
141
0.0
142
1.0
143
1.0
 70
  2804
 72
     0
 73
     0
 74
     1
  7
Full_B&W.ctb
 75
    16
147
1.0
 76
     0
 77
     2
 78
   300
148
-75.74468520391772
149
-27.53050504688192
1001
ACAD_PSEXT
1000
1055B&WDraftShaded 24x36 true.pc3
1000
HP DesignJet 1055CM by HP
1000
FRONT
1000

1070
     0
  0
PLOTSETTINGS
  5
60EF
102
{ACAD_REACTORS
330
18
102
}
330
18
100
AcDbPlotSettings
  1
_1055 24x36 True Centered BW Final
  2
1055B&WFinalShaded 24x36 true.pc3
  4
User1308
  6

 40
14.98600006103515
 41
8.297332763671875
 42
14.9859619140625
 43
8.29736328125
 44
914.357666015625
 45
609.5576782226562
 46
389.578845385832
 47
241.9981361446124
 48
0.0
 49
0.0
140
0.0
141
0.0
142
1.0
143
1.0
 70
  2804
 72
     0
 73
     0
 74
     1
  7
Full_B&W.ctb
 75
    16
147
1.0
 76
     0
 77
     2
 78
   300
148
-75.74468520391772
149
-27.53050504688192
1001
ACAD_PSEXT
1000
1055B&WFinalShaded 24x36 true.pc3
1000
HP DesignJet 1055CM by HP
1000
FRONT
1000

1070
     0
  0
PLOTSETTINGS
  5
60F0
102
{ACAD_REACTORS
330
18
102
}
330
18
100
AcDbPlotSettings
  1
_1055 24x36 True Centered Color
  2
1055ColorDraftShaded 24x36 true.pc3
  4
User1308
  6

 40
14.98600006103515
 41
8.297332763671875
 42
14.9859619140625
 43
8.29736328125
 44
914.3153076171875
 45
609.5153198242187
 46
389.5576661866133
 47
241.9769569453936
 48
0.0
 49
0.0
140
0.0
141
0.0
142
1.0
143
1.0
 70
  2804
 72
     0
 73
     0
 74
     1
  7
Full_Color.ctb
 75
    16
147
1.0
 76
     0
 77
     2
 78
   300
148
-75.74468520391772
149
-27.53050504688192
1001
ACAD_PSEXT
1000
1055ColorDraftShaded 24x36 true.pc3
1000
HP DesignJet 1055CM by HP
1000
FRONT
1000

1070
     0
  0
PLOTSETTINGS
  5
60F1
102
{ACAD_REACTORS
330
18
102
}
330
18
100
AcDbPlotSettings
  1
_1055 30x42 True Centered BW
  2
1055B&WDraftShaded 30x42 true.pc3
  4
User286
  6

 40
0.0
 41
0.0
 42
-0.08465576171875
 43
-0.084716796875
 44
761.9153442382812
 45
1066.71533203125
 46
326.5166450557452
 47
480.7860177796309
 48
0.0
 49
0.0
140
0.0
141
0.0
142
1.0
143
1.0
 70
  2804
 72
     0
 73
     1
 74
     1
  7
Full_B&W.ctb
 75
    16
147
1.0
 76
     0
 77
     2
 78
   300
148
-75.74468520391772
149
-27.53050504688192
1001
ACAD_PSEXT
1000
1055B&WDraftShaded 30x42 true.pc3
1000
HP DesignJet 1055CM by HP
1000
FRONT
1000

1070
     0
  0
PLOTSETTINGS
  5
60F2
102
{ACAD_REACTORS
330
18
102
}
330
18
100
AcDbPlotSettings
  1
_1055+ 22x34 True Centered BW
  2
1055_PLUS_B&WDraftShaded 24x36 true.pc3
  4
User1639
  6

 40
0.0
 41
0.0
 42
0.0
 43
0.0
 44
863.6000366210938
 45
558.7999877929687
 46
379.1860116761152
 47
224.9166389522296
 48
0.0
 49
0.0
140
0.0
141
0.0
142
1.0
143
1.0
 70
  2804
 72
     0
 73
     0
 74
     1
  7
Full_B&W.ctb
 75
    16
147
1.0
 76
     0
 77
     2
 78
   300
148
-75.74468520391772
149
-27.53050504688192
1001
ACAD_PSEXT
1000
1055_PLUS_B&WDraftShaded 24x36 true.pc3
1000
HP DesignJet 1055CM by HP
1000
FRONT
1000

1070
     0
  0
PLOTSETTINGS
  5
60F3
102
{ACAD_REACTORS
330
18
102
}
330
18
100
AcDbPlotSettings
  1
_1055+ 24x36 True Centered BW
  2
1055_PLUS_B&WDraftShaded 24x36 true.pc3
  4
User1308
  6

 40
14.98600006103515
 41
8.297332763671875
 42
14.9859619140625
 43
8.29736328125
 44
914.3153076171875
 45
609.5153198242187
 46
389.5576661866133
 47
241.9769569453936
 48
0.0
 49
0.0
140
0.0
141
0.0
142
1.0
143
1.0
 70
  2804
 72
     0
 73
     0
 74
     1
  7
Full_B&W.ctb
 75
    16
147
1.0
 76
     0
 77
     2
 78
   300
148
-75.74468520391772
149
-27.53050504688192
1001
ACAD_PSEXT
1000
1055_PLUS_B&WDraftShaded 24x36 true.pc3
1000
HP DesignJet 1055CM by HP
1000
FRONT
1000

1070
     0
  0
PLOTSETTINGS
  5
60F4
102
{ACAD_REACTORS
330
18
102
}
330
18
100
AcDbPlotSettings
  1
_1055+ 24x36 True Centered BW Final
  2
1055_PLUS_B&WFinalShaded 24x36 true.pc3
  4
User1308
  6

 40
14.98600006103515
 41
8.297332763671875
 42
14.9859619140625
 43
8.29736328125
 44
914.357666015625
 45
609.5576782226562
 46
389.578845385832
 47
241.9981361446124
 48
0.0
 49
0.0
140
0.0
141
0.0
142
1.0
143
1.0
 70
  2804
 72
     0
 73
     0
 74
     1
  7
Full_B&W.ctb
 75
    16
147
1.0
 76
     0
 77
     2
 78
   300
148
-75.74468520391772
149
-27.53050504688192
1001
ACAD_PSEXT
1000
1055_PLUS_B&WFinalShaded 24x36 true.pc3
1000
HP DesignJet 1055CM by HP
1000
FRONT
1000

1070
     0
  0
PLOTSETTINGS
  5
60F5
102
{ACAD_REACTORS
330
18
102
}
330
18
100
AcDbPlotSettings
  1
_1055+ 24x36 True Centered Color
  2
1055_PLUS_ColorDraftShaded 24x36 true.pc3
  4
User1308
  6

 40
14.98600006103515
 41
8.297332763671875
 42
14.9859619140625
 43
8.29736328125
 44
914.3153076171875
 45
609.5153198242187
 46
389.5576661866133
 47
241.9769569453936
 48
0.0
 49
0.0
140
0.0
141
0.0
142
1.0
143
1.0
 70
  2804
 72
     0
 73
     0
 74
     1
  7
Full_Color.ctb
 75
    16
147
1.0
 76
     0
 77
     2
 78
   300
148
-75.74468520391772
149
-27.53050504688192
1001
ACAD_PSEXT
1000
1055_PLUS_ColorDraftShaded 24x36 true.pc3
1000
HP DesignJet 1055CM by HP
1000
FRONT
1000

1070
     0
  0
PLOTSETTINGS
  5
60F6
102
{ACAD_REACTORS
330
18
102
}
330
18
100
AcDbPlotSettings
  1
_1055+ 30x42 True Centered BW
  2
1055_PLUS_B&WDraftShaded 30x42 true.pc3
  4
User636
  6

 40
0.0
 41
0.0
 42
0.0
 43
0.0
 44
762.0
 45
1066.800048828125
 46
326.5166450557452
 47
480.7860177796309
 48
0.0
 49
0.0
140
0.0
141
0.0
142
1.0
143
1.0
 70
  2804
 72
     0
 73
     1
 74
     1
  7
Full_B&W.ctb
 75
    16
147
1.0
 76
     0
 77
     2
 78
   300
148
-75.74468520391772
149
-27.53050504688192
1001
ACAD_PSEXT
1000
1055_PLUS_B&WDraftShaded 30x42 true.pc3
1000
HP DesignJet 1055CM by HP
1000
Front
1000

1070
     0
  0
PLOTSETTINGS
  5
60F7
102
{ACAD_REACTORS
330
18
102
}
330
18
100
AcDbPlotSettings
  1
DWF BW 11x17 Fit
  2
DWF-BW_11x17.pc3
  4
UserDefinedImperial (17.00 x 11.00Inches)
  6

 40
0.0
 41
0.0
 42
0.0
 43
0.0
 44
431.7999877929687
 45
279.3999938964844
 46
80.99316641155249
 47
0.000000000000005
 48
0.0
 49
0.0
140
0.0
141
0.0
142
1.0
143
0.3900025492802298
 70
  2740
 72
     0
 73
     0
 74
     1
  7
Full_B&W.ctb
 75
     0
147
2.564085803658341
 76
     0
 77
     2
 78
   300
148
-75.74468520391772
149
-27.53050504688192
1001
ACAD_PSEXT
1000
DWF-BW_11x17.pc3
1000
DWF eView (optimized for viewing)
1000
File
1000

1070
     0
  0
PLOTSETTINGS
  5
60F8
102
{ACAD_REACTORS
330
18
102
}
330
18
100
AcDbPlotSettings
  1
DWF BW 11x17 Half
  2
DWF-BW_11x17.pc3
  4
UserDefinedImperial (17.00 x 11.00Inches)
  6

 40
0.0
 41
0.0
 42
0.0
 43
0.0
 44
431.7999877929687
 45
279.3999938964844
 46
189.5929905792686
 47
112.4583194761148
 48
0.0
 49
0.0
140
0.0
141
0.0
142
1.0
143
2.0
 70
  2740
 72
     0
 73
     0
 74
     1
  7
Full_B&W.ctb
 75
    17
147
0.5
 76
     0
 77
     2
 78
   300
148
-75.74468520391772
149
-27.53050504688192
1001
ACAD_PSEXT
1000
DWF-BW_11x17.pc3
1000
DWF eView (optimized for viewing)
1000
File
1000

1070
     0
  0
PLOTSETTINGS
  5
60F9
102
{ACAD_REACTORS
330
18
102
}
330
18
100
AcDbPlotSettings
  1
DWF BW 22x34
  2
DWF-BW_22x34.pc3
  4
UserDefinedImperial (34.00 x 22.00Inches)
  6

 40
0.0
 41
0.0
 42
0.0
 43
0.0
 44
863.5999755859375
 45
558.7999877929687
 46
379.1859811585372
 47
224.9166389522296
 48
0.0
 49
0.0
140
0.0
141
0.0
142
1.0
143
1.0
 70
  2740
 72
     0
 73
     0
 74
     1
  7
Full_B&W.ctb
 75
    16
147
1.0
 76
     0
 77
     2
 78
   300
148
-75.74468520391772
149
-27.53050504688192
1001
ACAD_PSEXT
1000
DWF-BW_22x34.pc3
1000
DWF eView (optimized for viewing)
1000
File
1000

1070
     0
  0
PLOTSETTINGS
  5
60FA
102
{ACAD_REACTORS
330
18
102
}
330
18
100
AcDbPlotSettings
  1
DWF BW 24x36
  2
DWF-BW_24x36.pc3
  4
UserDefinedImperial (36.00 x 24.00Inches)
  6

 40
0.0
 41
0.0
 42
0.0
 43
0.0
 44
914.4000244140626
 45
609.5999755859375
 46
404.5860055725996
 47
250.3166328487139
 48
0.0
 49
0.0
140
0.0
141
0.0
142
1.0
143
1.0
 70
  2740
 72
     0
 73
     0
 74
     1
  7
Full_B&W.ctb
 75
    16
147
1.0
 76
     0
 77
     2
 78
   300
148
-75.74468520391772
149
-27.53050504688192
1001
ACAD_PSEXT
1000
DWF-BW_24x36.pc3
1000
DWF eView (optimized for viewing)
1000
File
1000

1070
     0
  0
PLOTSETTINGS
  5
60FB
102
{ACAD_REACTORS
330
18
102
}
330
18
100
AcDbPlotSettings
  1
DWF BW 30x42
  2
DWF-BW_30x42.pc3
  4
UserDefinedImperial (42.00 x 30.00Inches)
  6

 40
0.0
 41
0.0
 42
0.0
 43
0.0
 44
1066.800048828125
 45
762.0
 46
480.7860177796309
 47
326.5166450557452
 48
0.0
 49
0.0
140
0.0
141
0.0
142
1.0
143
1.0
 70
  2740
 72
     0
 73
     0
 74
     1
  7
Full_B&W.ctb
 75
    16
147
1.0
 76
     0
 77
     2
 78
   300
148
-75.74468520391772
149
-27.53050504688192
1001
ACAD_PSEXT
1000
DWF-BW_30x42.pc3
1000
DWF eView (optimized for viewing)
1000
File
1000

1070
     0
  0
PLOTSETTINGS
  5
60FC
102
{ACAD_REACTORS
330
18
102
}
330
18
100
AcDbPlotSettings
  1
DWF BW 36x48
  2
DWF-BW_36x48.pc3
  4
UserDefinedImperial (48.00 x 36.00Inches)
  6

 40
0.0
 41
0.0
 42
0.0
 43
0.0
 44
1219.199951171875
 45
914.4000244140626
 46
556.9859689515058
 47
402.7166572627765
 48
0.0
 49
0.0
140
0.0
141
0.0
142
1.0
143
1.0
 70
  2740
 72
     0
 73
     0
 74
     1
  7
Full_B&W.ctb
 75
    16
147
1.0
 76
     0
 77
     2
 78
   300
148
-75.74468520391772
149
-27.53050504688192
1001
ACAD_PSEXT
1000
DWF-BW_36x48.pc3
1000
DWF eView (optimized for viewing)
1000
File
1000

1070
     0
  0
PLOTSETTINGS
  5
60FD
102
{ACAD_REACTORS
330
18
102
}
330
18
100
AcDbPlotSettings
  1
JPEG
  2
JPEG.pc3
  4
UserDefinedRaster (1920.00 x 1080.00Pixels)
  6

 40
0.0
 41
0.0
 42
1.0
 43
1.0
 44
1920.0
 45
1080.0
 46
406.3806477588332
 47
0.0000000000000059
 48
0.0
 49
0.0
140
0.0
141
0.0
142
1.0
143
0.0034364301827912
 70
 11956
 72
     2
 73
     0
 74
     1
  7
Full_B&W.ctb
 75
     0
147
290.9996556914617
 76
     0
 77
     2
 78
   300
148
-4.70307911090175
149
-2.2901785648802
1001
ACAD_PSEXT
1000
JPEG.pc3
1000
Independent JPEG Group JFIF (JPEG Compression)
1000
File
1000

1070
     0
  0
PLOTSETTINGS
  5
60FE
102
{ACAD_REACTORS
330
18
102
}
330
18
100
AcDbPlotSettings
  1
Laser5 11x17 Fit
  2
LaserJet5Shaded.pc3
  4
11x17
  6

 40
5.873749732971191
 41
5.027085304260253
 42
5.873748779296875
 43
5.027069091796875
 44
431.7999877929687
 45
279.3999938964844
 46
79.97401308328474
 47
0.0
 48
0.0
 49
0.0
140
0.0
141
0.0
142
1.0
143
0.4045605831172927
 70
  2740
 72
     0
 73
     0
 74
     1
  7
LaserJet5Shaded.ctb
 75
     0
147
2.471817675104729
 76
     0
 77
     2
 78
   300
148
-75.74468520391772
149
-27.53050504688192
1001
ACAD_PSEXT
1000
LaserJet5Shaded.pc3
1000
HP LaserJet 5Si
1000
\\aqua-srv01
1000

1070
     0
  0
PLOTSETTINGS
  5
60FF
102
{ACAD_REACTORS
330
18
102
}
330
18
100
AcDbPlotSettings
  1
Laser5 11x17 Full
  2
LaserJet5Shaded.pc3
  4
11x17
  6

 40
5.873749732971191
 41
5.027085304260253
 42
5.873748779296875
 43
5.027069091796875
 44
431.7999877929687
 45
279.3999938964844
 46
157.4122380059187
 47
80.18956480595884
 48
0.0
 49
0.0
140
0.0
141
0.0
142
1.0
143
1.0
 70
  2724
 72
     0
 73
     0
 74
     1
  7
LaserJet5Shaded.ctb
 75
     0
147
2.433550528115671
 76
     0
 77
     2
 78
   300
148
-75.74468520391772
149
-27.53050504688192
1001
ACAD_PSEXT
1000
LaserJet5Shaded.pc3
1000
HP LaserJet 5Si
1000
\\aqua-srv01
1000

1070
     0
  0
PLOTSETTINGS
  5
6100
102
{ACAD_REACTORS
330
18
102
}
330
18
100
AcDbPlotSettings
  1
Laser5 11x17 Half
  2
LaserJet5Shaded.pc3
  4
11x17
  6

 40
5.873749732971191
 41
5.027085304260253
 42
5.873748779296875
 43
5.027069091796875
 44
431.7999877929687
 45
279.3999938964844
 46
183.7192413231345
 47
107.4312422780862
 48
0.0
 49
0.0
140
0.0
141
0.0
142
1.0
143
2.0
 70
  2740
 72
     0
 73
     0
 74
     1
  7
LaserJet5Shaded.ctb
 75
    17
147
0.5
 76
     0
 77
     2
 78
   300
148
-75.74468520391772
149
-27.53050504688192
1001
ACAD_PSEXT
1000
LaserJet5Shaded.pc3
1000
HP LaserJet 5Si
1000
\\aqua-srv01
1000

1070
     0
  0
PLOTSETTINGS
  5
6101
102
{ACAD_REACTORS
330
18
102
}
330
18
100
AcDbPlotSettings
  1
Laser5 11x17 Half CDOT
  2
LaserJet5Shaded.pc3
  4
11x17
  6

 40
5.873749732971191
 41
5.873734951019287
 42
5.873748779296875
 43
5.027069091796875
 44
431.7999877929687
 45
279.3999938964844
 46
183.7192413231345
 47
107.0079174547067
 48
0.0
 49
0.0
140
0.0
141
0.0
142
1.0
143
2.0
 70
  2740
 72
     0
 73
     0
 74
     1
  7
CDOT-PenTable.ctb
 75
    17
147
0.5
 76
     0
 77
     2
 78
   300
148
-75.74468520391772
149
-27.53050504688192
1001
ACAD_PSEXT
1000
LaserJet5Shaded.pc3
1000
HP LaserJet 5Si
1000
CAD Area
1000

1070
     0
  0
PLOTSETTINGS
  5
6102
102
{ACAD_REACTORS
330
18
102
}
330
18
100
AcDbPlotSettings
  1
Laser5 8x11 Fit
  2
LaserJet5Shaded-8x11.pc3
  4
Letter
  6

 40
5.873749732971191
 41
5.027085304260253
 42
5.873748779296875
 43
5.027084350585937
 44
279.3999938964844
 45
215.8999938964844
 46
34.4346667826652
 47
0.0
 48
0.0
 49
0.0
140
0.0
141
0.0
142
1.0
143
0.5293607985003172
 70
  2740
 72
     0
 73
     0
 74
     1
  7
LaserJet5Shaded.ctb
 75
     0
147
1.889070748784206
 76
     0
 77
     2
 78
   300
148
-75.74468520391772
149
-27.53050504688192
1001
ACAD_PSEXT
1000
LaserJet5Shaded-8x11.pc3
1000
HP LaserJet 5Si
1000
\\aqua-srv01
1000

1070
     0
  0
PLOTSETTINGS
  5
6103
102
{ACAD_REACTORS
330
18
102
}
330
18
100
AcDbPlotSettings
  1
Laser5 8x11 Half
  2
LaserJet5Shaded-8x11.pc3
  4
Letter
  6

 40
5.873749732971191
 41
5.027085304260253
 42
5.873748779296875
 43
5.027084350585937
 44
279.3999938964844
 45
215.8999938964844
 46
107.5192443748923
 47
75.68123464869171
 48
0.0
 49
0.0
140
0.0
141
0.0
142
1.0
143
2.0
 70
  2740
 72
     0
 73
     0
 74
     1
  7
LaserJet5Shaded.ctb
 75
    17
147
0.5
 76
     0
 77
     2
 78
   300
148
-75.74468520391772
149
-27.53050504688192
1001
ACAD_PSEXT
1000
LaserJet5Shaded-8x11.pc3
1000
HP LaserJet 5Si
1000
\\aqua-srv01
1000

1070
     0
  0
PLOTSETTINGS
  5
6104
102
{ACAD_REACTORS
330
18
102
}
330
18
100
AcDbPlotSettings
  1
Laser5 8x11 Portrait Fit
  2
LaserJet5Shaded-8x11.pc3
  4
Letter
  6

 40
5.873749732971191
 41
5.027085304260253
 42
5.873748779296875
 43
5.027084350585937
 44
279.3999938964844
 45
215.8999938964844
 46
27.24653799736659
 47
0.0000000000000029
 48
0.0
 49
0.0
140
0.0
141
0.0
142
1.0
143
0.5111981924167587
 70
  2740
 72
     0
 73
     1
 74
     1
  7
LaserJet5Shaded.ctb
 75
     0
147
1.956188450652308
 76
     0
 77
     2
 78
   300
148
-75.74468520391772
149
-27.53050504688192
1001
ACAD_PSEXT
1000
LaserJet5Shaded-8x11.pc3
1000
HP LaserJet 5Si
1000
\\aqua-srv01
1000

1070
     0
  0
PLOTSETTINGS
  5
6105
102
{ACAD_REACTORS
330
18
102
}
330
18
100
AcDbPlotSettings
  1
LaserJet5 11x17
  2
LaserJet5Shaded.pc3
  4
11x17
  6

 40
7.111999988555908
 41
5.079999923706054
 42
7.11199951171875
 43
5.079986572265625
 44
279.3999938964844
 45
431.7999877929687
 46
0.0
 47
74.88489939702606
 48
0.0
 49
0.0
140
0.0
141
0.0
142
1.0
143
0.3551636250563743
 70
 11956
 72
     0
 73
     1
 74
     1
  7
LaserJet5Shaded.ctb
 75
     0
147
2.815603652658045
 76
     0
 77
     2
 78
   300
148
-119.4582094169044
149
-58.17053554795709
1001
ACAD_PSEXT
1000
LaserJet5Shaded.pc3
1000
HP LaserJet 5Si
1000
\\aqua-srv01
1000

1070
     0
  0
PLOTSETTINGS
  5
6106
102
{ACAD_REACTORS
330
18
102
}
330
18
100
AcDbPlotSettings
  1
LaserJet5 8.5x11
  2
LaserJet5Shaded-8x11.pc3
  4
Letter
  6

 40
5.873749732971191
 41
5.873734951019287
 42
6.55108642578125
 43
5.027084350585937
 44
279.3999938964844
 45
215.8999938964844
 46
28.40045128601757
 47
0.0000000000000046
 48
0.0
 49
0.0
140
0.0
141
0.0
142
1.0
143
0.4594207153946231
 70
 11956
 72
     0
 73
     0
 74
     1
  7
LaserJet5Shaded.ctb
 75
     0
147
2.176654135286525
 76
     0
 77
     2
 78
   300
148
-119.4582094169044
149
-58.17053554795709
1001
ACAD_PSEXT
1000
LaserJet5Shaded-8x11.pc3
1000
HP LaserJet 5Si
1000
CAD Area
1000

1070
     0
  0
PLOTSETTINGS
  5
6107
102
{ACAD_REACTORS
330
18
102
}
330
18
100
AcDbPlotSettings
  1
Oki9500 11x17 BW Fit
  2
OKI DOKI Color Laser.pc3
  4
Tabloid
  6

 40
5.027083396911621
 41
5.027085304260253
 42
5.027099609375
 43
5.027069091796875
 44
431.7999877929687
 45
279.3999938964844
 46
80.82067083627547
 47
0.0
 48
0.0
 49
0.0
140
0.0
141
0.0
142
1.0
143
0.4045605831172927
 70
  2740
 72
     0
 73
     0
 74
     1
  7
OKIB&WShaded.ctb
 75
     0
147
2.471817675104729
 76
     0
 77
     2
 78
   300
148
-75.74468520391772
149
-27.53050504688192
1001
ACAD_PSEXT
1000
OKI DOKI Color Laser.pc3
1000
OKI C9500(PCL)
1000
FRONT
1000

1070
     0
  0
PLOTSETTINGS
  5
6108
102
{ACAD_REACTORS
330
18
102
}
330
18
100
AcDbPlotSettings
  1
Oki9500 11x17 BW Full
  2
OKI DOKI Color Laser.pc3
  4
Tabloid
  6

 40
5.027083396911621
 41
5.027085304260253
 42
5.027099609375
 43
5.027069091796875
 44
431.7999877929687
 45
279.3999938964844
 46
158.2588957589094
 47
80.18956480595884
 48
0.0
 49
0.0
140
0.0
141
0.0
142
1.0
143
1.0
 70
  2724
 72
     0
 73
     0
 74
     1
  7
OKIB&WShaded.ctb
 75
     0
147
2.471817675104729
 76
     0
 77
     2
 78
   300
148
-75.74468520391772
149
-27.53050504688192
1001
ACAD_PSEXT
1000
OKI DOKI Color Laser.pc3
1000
OKI C9500(PCL)
1000
FRONT
1000

1070
     0
  0
PLOTSETTINGS
  5
6109
102
{ACAD_REACTORS
330
18
102
}
330
18
100
AcDbPlotSettings
  1
Oki9500 11x17 BW Half
  2
OKI DOKI Color Laser.pc3
  4
Tabloid
  6

 40
5.027083396911621
 41
5.027085304260253
 42
5.027099609375
 43
5.027069091796875
 44
431.7999877929687
 45
279.3999938964844
 46
184.5658990761252
 47
107.4312422780862
 48
0.0
 49
0.0
140
0.0
141
0.0
142
1.0
143
2.0
 70
  2740
 72
     0
 73
     0
 74
     1
  7
OKIB&WShaded.ctb
 75
    17
147
0.5
 76
     0
 77
     2
 78
   300
148
-75.74468520391772
149
-27.53050504688192
1001
ACAD_PSEXT
1000
OKI DOKI Color Laser.pc3
1000
OKI C9500(PCL)
1000
FRONT
1000

1070
     0
  0
PLOTSETTINGS
  5
610A
102
{ACAD_REACTORS
330
18
102
}
330
18
100
AcDbPlotSettings
  1
Oki9500 11x17 Color Fit
  2
OKI DOKI Color Laser.pc3
  4
Tabloid
  6

 40
5.027083396911621
 41
5.027085304260253
 42
5.027099609375
 43
5.027069091796875
 44
431.7999877929687
 45
279.3999938964844
 46
80.82067083627547
 47
0.0
 48
0.0
 49
0.0
140
0.0
141
0.0
142
1.0
143
0.4045605831172927
 70
  2740
 72
     0
 73
     0
 74
     1
  7
OKIColorShaded.ctb
 75
     0
147
2.471817675104729
 76
     0
 77
     2
 78
   300
148
-75.74468520391772
149
-27.53050504688192
1001
ACAD_PSEXT
1000
OKI DOKI Color Laser.pc3
1000
OKI C9500(PCL)
1000
FRONT
1000

1070
     0
  0
PLOTSETTINGS
  5
610B
102
{ACAD_REACTORS
330
18
102
}
330
18
100
AcDbPlotSettings
  1
Oki9500 11x17 Color Full
  2
OKI DOKI Color Laser.pc3
  4
Tabloid
  6

 40
5.027082920074462
 41
5.027085781097412
 42
5.027099609375
 43
5.027069091796875
 44
431.7999877929687
 45
279.3999938964844
 46
158.258895997328
 47
80.18956456754025
 48
0.0
 49
0.0
140
0.0
141
0.0
142
1.0
143
1.0
 70
  2724
 72
     0
 73
     0
 74
     1
  7
OKIColorShaded.ctb
 75
     0
147
2.471817675104729
 76
     0
 77
     2
 78
   300
148
-75.74468520391772
149
-27.53050504688192
1001
ACAD_PSEXT
1000
OKI DOKI Color Laser.pc3
1000
OKI C9600(PCL)
1000
FRONT
1000

1070
     0
  0
PLOTSETTINGS
  5
610C
102
{ACAD_REACTORS
330
18
102
}
330
18
100
AcDbPlotSettings
  1
Oki9500 11x17 Color Half
  2
OKI DOKI Color Laser.pc3
  4
Tabloid
  6

 40
5.027083396911621
 41
5.027085304260253
 42
5.027099609375
 43
5.027069091796875
 44
431.7999877929687
 45
279.3999938964844
 46
184.5658990761252
 47
107.4312422780862
 48
0.0
 49
0.0
140
0.0
141
0.0
142
1.0
143
2.0
 70
  2740
 72
     0
 73
     0
 74
     1
  7
OKIColorShaded.ctb
 75
    17
147
0.5
 76
     0
 77
     2
 78
   300
148
-75.74468520391772
149
-27.53050504688192
1001
ACAD_PSEXT
1000
OKI DOKI Color Laser.pc3
1000
OKI C9500(PCL)
1000
FRONT
1000

1070
     0
  0
PLOTSETTINGS
  5
610D
102
{ACAD_REACTORS
330
18
102
}
330
18
100
AcDbPlotSettings
  1
Oki9500 8x11 BW Fit
  2
OKI DOKI Color Laser8x11.pc3
  4
Letter
  6

 40
5.027083396911621
 41
5.027085304260253
 42
5.027099609375
 43
5.027084350585937
 44
279.3999938964844
 45
215.8999938964844
 46
35.28132453565591
 47
0.0
 48
0.0
 49
0.0
140
0.0
141
0.0
142
1.0
143
0.5293607985003172
 70
  2740
 72
     0
 73
     0
 74
     1
  7
OKIB&WShaded.ctb
 75
     0
147
1.889070748784206
 76
     0
 77
     2
 78
   300
148
-75.74468520391772
149
-27.53050504688192
1001
ACAD_PSEXT
1000
OKI DOKI Color Laser8x11.pc3
1000
OKI C9500(PCL)
1000
FRONT
1000

1070
     0
  0
PLOTSETTINGS
  5
610E
102
{ACAD_REACTORS
330
18
102
}
330
18
100
AcDbPlotSettings
  1
Oki9500 8x11 BW Portrait Fit
  2
OKI DOKI Color Laser8x11.pc3
  4
Letter
  6

 40
5.027083396911621
 41
5.027085304260253
 42
5.027099609375
 43
5.027084350585937
 44
279.3999938964844
 45
215.8999938964844
 46
28.0931957503573
 47
0.0000000000000029
 48
0.0
 49
0.0
140
0.0
141
0.0
142
1.0
143
0.5111981924167587
 70
  2740
 72
     0
 73
     1
 74
     1
  7
OKIB&WShaded.ctb
 75
     0
147
1.956188450652308
 76
     0
 77
     2
 78
   300
148
-75.74468520391772
149
-27.53050504688192
1001
ACAD_PSEXT
1000
OKI DOKI Color Laser8x11.pc3
1000
OKI C9500(PCL)
1000
FRONT
1000

1070
     0
  0
PLOTSETTINGS
  5
610F
102
{ACAD_REACTORS
330
18
102
}
330
18
100
AcDbPlotSettings
  1
Oki9500 8x11 Color Fit
  2
OKI DOKI Color Laser8x11.pc3
  4
Letter
  6

 40
5.027083396911621
 41
5.027085304260253
 42
5.027099609375
 43
5.027084350585937
 44
279.3999938964844
 45
215.8999938964844
 46
35.28132453565591
 47
0.0
 48
0.0
 49
0.0
140
0.0
141
0.0
142
1.0
143
0.5293607985003172
 70
  2740
 72
     0
 73
     0
 74
     1
  7
OKIColorShaded.ctb
 75
     0
147
1.889070748784206
 76
     0
 77
     2
 78
   300
148
-75.74468520391772
149
-27.53050504688192
1001
ACAD_PSEXT
1000
OKI DOKI Color Laser8x11.pc3
1000
OKI C9500(PCL)
1000
FRONT
1000

1070
     0
  0
PLOTSETTINGS
  5
6110
102
{ACAD_REACTORS
330
18
102
}
330
18
100
AcDbPlotSettings
  1
Oki9500 8x11 Color Portrait Fit
  2
OKI DOKI Color Laser8x11.pc3
  4
Letter
  6

 40
5.027083396911621
 41
5.027085304260253
 42
5.027099609375
 43
5.027084350585937
 44
279.3999938964844
 45
215.8999938964844
 46
28.0931957503573
 47
0.0000000000000029
 48
0.0
 49
0.0
140
0.0
141
0.0
142
1.0
143
0.5111981924167587
 70
  2740
 72
     0
 73
     1
 74
     1
  7
OKIColorShaded.ctb
 75
     0
147
1.956188450652308
 76
     0
 77
     2
 78
   300
148
-75.74468520391772
149
-27.53050504688192
1001
ACAD_PSEXT
1000
OKI DOKI Color Laser8x11.pc3
1000
OKI C9500(PCL)
1000
FRONT
1000

1070
     0
  0
PLOTSETTINGS
  5
6111
102
{ACAD_REACTORS
330
18
102
}
330
18
100
AcDbPlotSettings
  1
OKI9500 B&W 11x17
  2
OKI DOKI Color Laser.pc3
  4
11x17
  6

 40
5.873749732971191
 41
5.873734951019287
 42
5.873748779296875
 43
5.027069091796875
 44
431.7999877929687
 45
279.3999938964844
 46
72.38759962724653
 47
0.0000000000000057
 48
0.0
 49
0.0
140
0.0
141
0.0
142
1.0
143
0.3507677900220671
 70
 11956
 72
     0
 73
     0
 74
     1
  7
OKIB&WShaded.ctb
 75
     0
147
2.850888902704233
 76
     0
 77
     2
 78
   300
148
-119.4582094169044
149
-58.17053554795709
1001
ACAD_PSEXT
1000
OKI DOKI Color Laser.pc3
1000
HP LaserJet 5Si
1000
CAD Area
1000

1070
     0
  0
PLOTSETTINGS
  5
6112
102
{ACAD_REACTORS
330
18
102
}
330
18
100
AcDbPlotSettings
  1
OKI9500 B&W 8.5x11
  2
OKI DOKI Color Laser8x11.pc3
  4
Letter
  6

 40
5.873749732971191
 41
5.873734951019287
 42
6.55108642578125
 43
5.027084350585937
 44
279.3999938964844
 45
215.8999938964844
 46
28.40045128601757
 47
0.0000000000000046
 48
0.0
 49
0.0
140
0.0
141
0.0
142
1.0
143
0.4594207153946231
 70
 11956
 72
     0
 73
     0
 74
     1
  7
OKIB&WShaded.ctb
 75
     0
147
2.176654135286525
 76
     0
 77
     2
 78
   300
148
-119.4582094169044
149
-58.17053554795709
1001
ACAD_PSEXT
1000
OKI DOKI Color Laser8x11.pc3
1000
HP LaserJet 5Si
1000
CAD Area
1000

1070
     0
  0
PLOTSETTINGS
  5
6113
102
{ACAD_REACTORS
330
18
102
}
330
18
100
AcDbPlotSettings
  1
OKI9500 Color 11x17
  2
OKI DOKI Color Laser.pc3
  4
Tabloid
  6

 40
5.027083396911621
 41
5.027085304260253
 42
5.027099609375
 43
5.027069091796875
 44
431.7999877929687
 45
279.3999938964844
 46
72.80024597690952
 47
0.0
 48
0.0
 49
0.0
140
0.0
141
0.0
142
1.0
143
0.349665202263268
 70
 11956
 72
     0
 73
     0
 74
     1
  7
OKIColorShaded.ctb
 75
     0
147
2.859878516727796
 76
     0
 77
     2
 78
   300
148
-119.4582094169044
149
-58.17053554795709
1001
ACAD_PSEXT
1000
OKI DOKI Color Laser.pc3
1000
OKI C9500(PCL)
1000
FRONT
1000

1070
     0
  0
PLOTSETTINGS
  5
6114
102
{ACAD_REACTORS
330
18
102
}
330
18
100
AcDbPlotSettings
  1
OKI9500 Color 8.5x11
  2
OKI DOKI Color Laser8x11.pc3
  4
Letter
  6

 40
5.873749732971191
 41
5.873734951019287
 42
6.55108642578125
 43
5.027084350585937
 44
279.3999938964844
 45
215.8999938964844
 46
28.40045128601757
 47
0.0000000000000046
 48
0.0
 49
0.0
140
0.0
141
0.0
142
1.0
143
0.4594207153946231
 70
 11956
 72
     0
 73
     0
 74
     1
  7
OKIColorShaded.ctb
 75
     0
147
2.176654135286525
 76
     0
 77
     2
 78
   300
148
-119.4582094169044
149
-58.17053554795709
1001
ACAD_PSEXT
1000
OKI DOKI Color Laser8x11.pc3
1000
HP LaserJet 5Si
1000
CAD Area
1000

1070
     0
  0
PLOTSETTINGS
  5
6115
102
{ACAD_REACTORS
330
18
102
}
330
18
100
AcDbPlotSettings
  1
Oki9600 11x17 BW Fit
  2
9600 BW 11x17.pc3
  4
Tabloid
  6

 40
5.027082920074462
 41
5.027085781097412
 42
5.027099609375
 43
5.027069091796875
 44
431.7999877929687
 45
279.3999938964844
 46
80.82067130493244
 47
0.000000000000007
 48
0.0
 49
0.0
140
0.0
141
0.0
142
1.0
143
0.4045605838335077
 70
  2804
 72
     0
 73
     0
 74
     1
  7
OKIB&WShaded.ctb
 75
     0
147
2.47181767072874
 76
     0
 77
     2
 78
   300
148
-75.74468520391772
149
-27.53050504688192
1001
ACAD_PSEXT
1000
9600 BW 11x17.pc3
1000
OKI C9600(PCL)
1000
Expansion Area
1000

1070
     0
  0
PLOTSETTINGS
  5
6116
102
{ACAD_REACTORS
330
18
102
}
330
18
100
AcDbPlotSettings
  1
Oki9600 11x17 BW Full
  2
9600 BW 11x17.pc3
  4
Tabloid
  6

 40
5.027082920074462
 41
5.027085781097412
 42
5.027099609375
 43
5.027069091796875
 44
431.7999877929687
 45
279.3999938964844
 46
158.258895997328
 47
80.18956456754025
 48
0.0
 49
0.0
140
0.0
141
0.0
142
1.0
143
1.0
 70
  2788
 72
     0
 73
     0
 74
     1
  7
OKIB&WShaded.ctb
 75
     0
147
2.47181767072874
 76
     0
 77
     2
 78
   300
148
-75.74468520391772
149
-27.53050504688192
1001
ACAD_PSEXT
1000
9600 BW 11x17.pc3
1000
OKI C9600(PCL)
1000
Expansion Area
1000

1070
     0
  0
PLOTSETTINGS
  5
6117
102
{ACAD_REACTORS
330
18
102
}
330
18
100
AcDbPlotSettings
  1
Oki9600 11x17 BW Half
  2
9600 BW 11x17.pc3
  4
Tabloid
  6

 40
5.027082920074462
 41
5.027085781097412
 42
5.027099609375
 43
5.027069091796875
 44
431.7999877929687
 45
279.3999938964844
 46
184.5658993145439
 47
107.4312420396676
 48
0.0
 49
0.0
140
0.0
141
0.0
142
1.0
143
2.0
 70
  2788
 72
     0
 73
     0
 74
     1
  7
OKIB&WShaded.ctb
 75
     0
147
2.47181767072874
 76
     0
 77
     2
 78
   300
148
-75.74468520391772
149
-27.53050504688192
1001
ACAD_PSEXT
1000
9600 BW 11x17.pc3
1000
OKI C9600(PCL)
1000
Expansion Area
1000

1070
     0
  0
PLOTSETTINGS
  5
6118
102
{ACAD_REACTORS
330
18
102
}
330
18
100
AcDbPlotSettings
  1
Oki9600 11x17 Color Fit
  2
9600 Color 11x17.pc3
  4
Tabloid
  6

 40
5.027082920074462
 41
5.027085781097412
 42
5.027099609375
 43
5.027069091796875
 44
431.7999877929687
 45
279.3999938964844
 46
80.82067130493244
 47
0.000000000000007
 48
0.0
 49
0.0
140
0.0
141
0.0
142
1.0
143
0.4045605838335077
 70
  2804
 72
     0
 73
     0
 74
     1
  7
OKIColorShaded.ctb
 75
     0
147
2.47181767072874
 76
     0
 77
     2
 78
   300
148
-75.74468520391772
149
-27.53050504688192
1001
ACAD_PSEXT
1000
9600 Color 11x17.pc3
1000
OKI C9600(PCL)
1000
Expansion Area
1000

1070
     0
  0
PLOTSETTINGS
  5
6119
102
{ACAD_REACTORS
330
18
102
}
330
18
100
AcDbPlotSettings
  1
Oki9600 11x17 Color Full
  2
9600 Color 11x17.pc3
  4
Tabloid
  6

 40
5.027082920074462
 41
5.027085781097412
 42
5.027099609375
 43
5.027069091796875
 44
431.7999877929687
 45
279.3999938964844
 46
158.258895997328
 47
80.18956456754025
 48
0.0
 49
0.0
140
0.0
141
0.0
142
1.0
143
1.0
 70
  2788
 72
     0
 73
     0
 74
     1
  7
OKIColorShaded.ctb
 75
     0
147
2.47181767072874
 76
     0
 77
     2
 78
   300
148
-75.74468520391772
149
-27.53050504688192
1001
ACAD_PSEXT
1000
9600 Color 11x17.pc3
1000
OKI C9600(PCL)
1000
Expansion Area
1000

1070
     0
  0
PLOTSETTINGS
  5
611A
102
{ACAD_REACTORS
330
18
102
}
330
18
100
AcDbPlotSettings
  1
Oki9600 11x17 Color Half
  2
9600 Color 11x17.pc3
  4
Tabloid
  6

 40
5.027082920074462
 41
5.027085781097412
 42
5.027099609375
 43
5.027069091796875
 44
431.7999877929687
 45
279.3999938964844
 46
184.5658993145439
 47
107.4312420396676
 48
0.0
 49
0.0
140
0.0
141
0.0
142
1.0
143
2.0
 70
  2788
 72
     0
 73
     0
 74
     1
  7
OKIColorShaded.ctb
 75
     0
147
2.47181767072874
 76
     0
 77
     2
 78
   300
148
-75.74468520391772
149
-27.53050504688192
1001
ACAD_PSEXT
1000
9600 Color 11x17.pc3
1000
OKI C9600(PCL)
1000
Expansion Area
1000

1070
     0
  0
PLOTSETTINGS
  5
611B
102
{ACAD_REACTORS
330
18
102
}
330
18
100
AcDbPlotSettings
  1
Oki9600 8x11 BW Fit
  2
9600 BW 8.5x11.pc3
  4
Letter
  6

 40
5.027082920074462
 41
5.027070522308349
 42
5.027099609375
 43
5.027084350585937
 44
279.3999938964844
 45
215.8999938964844
 46
35.28131763668624
 47
0.0000000000000033
 48
0.0
 49
0.0
140
0.0
141
0.0
142
1.0
143
0.5293607604865011
 70
  2804
 72
     0
 73
     0
 74
     1
  7
OKIB&WShaded.ctb
 75
     0
147
1.889070884439876
 76
     0
 77
     2
 78
   300
148
-75.74468520391772
149
-27.53050504688192
1001
ACAD_PSEXT
1000
9600 BW 8.5x11.pc3
1000
OKI C9600(PCL)
1000
Expansion Area
1000

1070
     0
  0
PLOTSETTINGS
  5
611C
102
{ACAD_REACTORS
330
18
102
}
330
18
100
AcDbPlotSettings
  1
Oki9600 8x11 BW Portrait Fit
  2
9600 BW 8.5x11.pc3
  4
Letter
  6

 40
5.027082920074462
 41
5.027070522308349
 42
5.027099609375
 43
5.027084350585937
 44
279.3999938964844
 45
215.8999938964844
 46
28.09318833520237
 47
-0.0000000000000029
 48
0.0
 49
0.0
140
0.0
141
0.0
142
1.0
143
0.5111981557072135
 70
  2804
 72
     0
 73
     1
 74
     1
  7
OKIB&WShaded.ctb
 75
     0
147
1.956188591127753
 76
     0
 77
     2
 78
   300
148
-75.74468520391772
149
-27.53050504688192
1001
ACAD_PSEXT
1000
9600 BW 8.5x11.pc3
1000
OKI C9600(PCL)
1000
Expansion Area
1000

1070
     0
  0
PLOTSETTINGS
  5
611D
102
{ACAD_REACTORS
330
18
102
}
330
18
100
AcDbPlotSettings
  1
Oki9600 8x11 Color Fit
  2
9600 Color 8.5x11.pc3
  4
Letter
  6

 40
5.027082920074462
 41
5.027070522308349
 42
5.027099609375
 43
5.027084350585937
 44
279.3999938964844
 45
215.8999938964844
 46
35.28131763668624
 47
0.0000000000000033
 48
0.0
 49
0.0
140
0.0
141
0.0
142
1.0
143
0.5293607604865011
 70
  2804
 72
     0
 73
     0
 74
     1
  7
OKIColorShaded.ctb
 75
     0
147
1.889070884439876
 76
     0
 77
     2
 78
   300
148
-75.74468520391772
149
-27.53050504688192
1001
ACAD_PSEXT
1000
9600 Color 8.5x11.pc3
1000
OKI C9600(PCL)
1000
Expansion Area
1000

1070
     0
  0
PLOTSETTINGS
  5
611E
102
{ACAD_REACTORS
330
18
102
}
330
18
100
AcDbPlotSettings
  1
Oki9600 8x11 Color Portrait Fit
  2
9600 Color 8.5x11.pc3
  4
Letter
  6

 40
5.027082920074462
 41
5.027070522308349
 42
5.027099609375
 43
5.027084350585937
 44
279.3999938964844
 45
215.8999938964844
 46
28.09318833520237
 47
-0.0000000000000029
 48
0.0
 49
0.0
140
0.0
141
0.0
142
1.0
143
0.5111981557072135
 70
  2804
 72
     0
 73
     1
 74
     1
  7
OKIColorShaded.ctb
 75
     0
147
1.956188591127753
 76
     0
 77
     2
 78
   300
148
-75.74468520391772
149
-27.53050504688192
1001
ACAD_PSEXT
1000
9600 Color 8.5x11.pc3
1000
OKI C9600(PCL)
1000
Expansion Area
1000

1070
     0
  0
PLOTSETTINGS
  5
611F
102
{ACAD_REACTORS
330
18
102
}
330
18
100
AcDbPlotSettings
  1
OKI9600 B&W 11x17
  2
9600 BW 11x17.pc3
  4
Tabloid
  6

 40
5.027082920074462
 41
5.027085781097412
 42
5.027099609375
 43
5.027069091796875
 44
431.7999877929687
 45
279.3999938964844
 46
72.80024645976547
 47
-0.0000000000000027
 48
0.0
 49
0.0
140
0.0
141
0.0
142
1.0
143
0.3496652028822988
 70
 11956
 72
     0
 73
     0
 74
     1
  7
OKIB&WShaded.ctb
 75
     0
147
2.859878511664802
 76
     0
 77
     2
 78
   300
148
-119.4582094169044
149
-58.17053554795709
1001
ACAD_PSEXT
1000
9600 BW 11x17.pc3
1000
OKI C9600(PCL)
1000
Expansion Area
1000

1070
     0
  0
PLOTSETTINGS
  5
6120
102
{ACAD_REACTORS
330
18
102
}
330
18
100
AcDbPlotSettings
  1
OKI9600 B&W 8.5x11
  2
9600 BW 8.5x11.pc3
  4
Letter
  6

 40
5.027082920074462
 41
5.027070522308349
 42
5.027099609375
 43
5.027084350585937
 44
279.3999938964844
 45
215.8999938964844
 46
29.15175911978468
 47
0.0000000000000065
 48
0.0
 49
0.0
140
0.0
141
0.0
142
1.0
143
0.4575310722549676
 70
 11956
 72
     0
 73
     0
 74
     1
  7
OKIB&WShaded.ctb
 75
     0
147
2.185643906262899
 76
     0
 77
     2
 78
   300
148
-119.4582094169044
149
-58.17053554795709
1001
ACAD_PSEXT
1000
9600 BW 8.5x11.pc3
1000
OKI C9600(PCL)
1000
Expansion Area
1000

1070
     0
  0
PLOTSETTINGS
  5
6121
102
{ACAD_REACTORS
330
18
102
}
330
18
100
AcDbPlotSettings
  1
OKI9600 Color 11x17
  2
9600 Color 11x17.pc3
  4
Tabloid
  6

 40
5.027082920074462
 41
5.027085781097412
 42
5.027099609375
 43
5.027069091796875
 44
431.7999877929687
 45
279.3999938964844
 46
72.80024645976547
 47
-0.0000000000000027
 48
0.0
 49
0.0
140
0.0
141
0.0
142
1.0
143
0.3496652028822988
 70
 11956
 72
     0
 73
     0
 74
     1
  7
OKIColorShaded.ctb
 75
     0
147
2.859878511664802
 76
     0
 77
     2
 78
   300
148
-119.4582094169044
149
-58.17053554795709
1001
ACAD_PSEXT
1000
9600 Color 11x17.pc3
1000
OKI C9600(PCL)
1000
Expansion Area
1000

1070
     0
  0
PLOTSETTINGS
  5
6122
102
{ACAD_REACTORS
330
18
102
}
330
18
100
AcDbPlotSettings
  1
OKI9600 Color 8.5x11
  2
9600 Color 8.5x11.pc3
  4
Letter
  6

 40
5.027082920074462
 41
5.027070522308349
 42
5.027099609375
 43
5.027084350585937
 44
279.3999938964844
 45
215.8999938964844
 46
29.15175911978468
 47
0.0000000000000065
 48
0.0
 49
0.0
140
0.0
141
0.0
142
1.0
143
0.4575310722549676
 70
 11956
 72
     0
 73
     0
 74
     1
  7
OKIColorShaded.ctb
 75
     0
147
2.185643906262899
 76
     0
 77
     2
 78
   300
148
-119.4582094169044
149
-58.17053554795709
1001
ACAD_PSEXT
1000
9600 Color 8.5x11.pc3
1000
OKI C9600(PCL)
1000
Expansion Area
1000

1070
     0
  0
PLOTSETTINGS
  5
6123
102
{ACAD_REACTORS
330
18
102
}
330
18
100
AcDbPlotSettings
  1
PHX Kyocera 11x17 Fit
  2
PHX_Kyocera.pc3
  4
Tabloid
  6

 40
4.984749794006347
 41
5.069418907165527
 42
5.069427490234375
 43
4.9847412109375
 44
431.7999877929687
 45
279.3999938964844
 46
80.8206764601584
 47
-0.0000000000000226
 48
0.0
 49
0.0
140
0.0
141
0.0
142
1.0
143
0.4045605917118723
 70
  2740
 72
     0
 73
     0
 74
     1
  7
LaserJet5Shaded.ctb
 75
     0
147
2.471817622592858
 76
     0
 77
     2
 78
   300
148
-75.74468520391772
149
-27.53050504688192
1001
ACAD_PSEXT
1000
PHX_Kyocera.pc3
1000
Kyocera Mita KM-2050 KX
1000
Arizona
1000

1070
     0
  0
PLOTSETTINGS
  5
6124
102
{ACAD_REACTORS
330
18
102
}
330
18
100
AcDbPlotSettings
  1
PHX Oki9500 11x17 BW Fit
  2
PHX OKI BW.pc3
  4
Tabloid
  6

 40
5.027082920074462
 41
5.027085781097412
 42
5.027099609375
 43
5.027069091796875
 44
431.7999877929687
 45
279.3999938964844
 46
80.82067130493246
 47
0.0
 48
0.0
 49
0.0
140
0.0
141
0.0
142
1.0
143
0.4045605838335077
 70
  2740
 72
     0
 73
     0
 74
     1
  7
OKIB&WShaded.ctb
 75
     0
147
2.47181767072874
 76
     0
 77
     2
 78
   300
148
-75.74468520391772
149
-27.53050504688192
1001
ACAD_PSEXT
1000
PHX OKI BW.pc3
1000
OKI C9500(PCL)
1000
Arizona
1000

1070
     0
  0
PLOTSETTINGS
  5
6125
102
{ACAD_REACTORS
330
18
102
}
330
18
100
AcDbPlotSettings
  1
PHX Oki9500 11x17 BW Half
  2
PHX OKI BW.pc3
  4
Tabloid
  6

 40
5.027082920074462
 41
5.027085781097412
 42
5.027099609375
 43
5.027069091796875
 44
431.7999877929687
 45
279.3999938964844
 46
184.5658993145439
 47
107.4312420396676
 48
0.0
 49
0.0
140
0.0
141
0.0
142
1.0
143
2.0
 70
  2724
 72
     0
 73
     0
 74
     1
  7
OKIB&WShaded.ctb
 75
     0
147
2.47181767072874
 76
     0
 77
     2
 78
   300
148
-75.74468520391772
149
-27.53050504688192
1001
ACAD_PSEXT
1000
PHX OKI BW.pc3
1000
OKI C9500(PCL)
1000
Arizona
1000

1070
     0
  0
ACDBPLACEHOLDER
  5
F
102
{ACAD_REACTORS
330
E
102
}
330
E
  0
SCALE
  5
2065
102
{ACAD_REACTORS
330
2064
102
}
330
2064
100
AcDbScale
 70
     0
300
1:1
140
1.0
141
1.0
290
     1
  0
SCALE
  5
2066
102
{ACAD_REACTORS
330
2064
102
}
330
2064
100
AcDbScale
 70
     0
300
1:2
140
1.0
141
2.0
290
     0
  0
SCALE
  5
2067
102
{ACAD_REACTORS
330
2064
102
}
330
2064
100
AcDbScale
 70
     0
300
1:4
140
1.0
141
4.0
290
     0
  0
SCALE
  5
2068
102
{ACAD_REACTORS
330
2064
102
}
330
2064
100
AcDbScale
 70
     0
300
1:5
140
1.0
141
5.0
290
     0
  0
SCALE
  5
2069
102
{ACAD_REACTORS
330
2064
102
}
330
2064
100
AcDbScale
 70
     0
300
1:8
140
1.0
141
8.0
290
     0
  0
SCALE
  5
206A
102
{ACAD_REACTORS
330
2064
102
}
330
2064
100
AcDbScale
 70
     0
300
1:10
140
1.0
141
10.0
290
     0
  0
SCALE
  5
206B
102
{ACAD_REACTORS
330
2064
102
}
330
2064
100
AcDbScale
 70
     0
300
1:16
140
1.0
141
16.0
290
     0
  0
SCALE
  5
206C
102
{ACAD_REACTORS
330
2064
102
}
330
2064
100
AcDbScale
 70
     0
300
1:20
140
1.0
141
20.0
290
     0
  0
SCALE
  5
206D
102
{ACAD_REACTORS
330
2064
102
}
330
2064
100
AcDbScale
 70
     0
300
1:30
140
1.0
141
30.0
290
     0
  0
SCALE
  5
206E
102
{ACAD_REACTORS
330
2064
102
}
330
2064
100
AcDbScale
 70
     0
300
1:40
140
1.0
141
40.0
290
     0
  0
SCALE
  5
206F
102
{ACAD_REACTORS
330
2064
102
}
330
2064
100
AcDbScale
 70
     0
300
1:50
140
1.0
141
50.0
290
     0
  0
SCALE
  5
2070
102
{ACAD_REACTORS
330
2064
102
}
330
2064
100
AcDbScale
 70
     0
300
1:100
140
1.0
141
100.0
290
     0
  0
SCALE
  5
2071
102
{ACAD_REACTORS
330
2064
102
}
330
2064
100
AcDbScale
 70
     0
300
2:1
140
2.0
141
1.0
290
     0
  0
SCALE
  5
2072
102
{ACAD_REACTORS
330
2064
102
}
330
2064
100
AcDbScale
 70
     0
300
4:1
140
4.0
141
1.0
290
     0
  0
SCALE
  5
2073
102
{ACAD_REACTORS
330
2064
102
}
330
2064
100
AcDbScale
 70
     0
300
8:1
140
8.0
141
1.0
290
     0
  0
SCALE
  5
2074
102
{ACAD_REACTORS
330
2064
102
}
330
2064
100
AcDbScale
 70
     0
300
10:1
140
10.0
141
1.0
290
     0
  0
SCALE
  5
2075
102
{ACAD_REACTORS
330
2064
102
}
330
2064
100
AcDbScale
 70
     0
300
100:1
140
100.0
141
1.0
290
     0
  0
SCALE
  5
2076
102
{ACAD_REACTORS
330
2064
102
}
330
2064
100
AcDbScale
 70
     0
300
1/128" = 1'-0"
140
0.0078125
141
12.0
290
     0
  0
SCALE
  5
2077
102
{ACAD_REACTORS
330
2064
102
}
330
2064
100
AcDbScale
 70
     0
300
1/64" = 1'-0"
140
0.015625
141
12.0
290
     0
  0
SCALE
  5
2078
102
{ACAD_REACTORS
330
2064
102
}
330
2064
100
AcDbScale
 70
     0
300
1/32" = 1'-0"
140
0.03125
141
12.0
290
     0
  0
SCALE
  5
2079
102
{ACAD_REACTORS
330
2064
102
}
330
2064
100
AcDbScale
 70
     0
300
1/16" = 1'-0"
140
0.0625
141
12.0
290
     0
  0
SCALE
  5
207A
102
{ACAD_REACTORS
330
2064
102
}
330
2064
100
AcDbScale
 70
     0
300
3/32" = 1'-0"
140
0.09375
141
12.0
290
     0
  0
SCALE
  5
207B
102
{ACAD_REACTORS
330
2064
102
}
330
2064
100
AcDbScale
 70
     0
300
1/8" = 1'-0"
140
0.125
141
12.0
290
     0
  0
SCALE
  5
207C
102
{ACAD_REACTORS
330
2064
102
}
330
2064
100
AcDbScale
 70
     0
300
3/16" = 1'-0"
140
0.1875
141
12.0
290
     0
  0
SCALE
  5
207D
102
{ACAD_REACTORS
330
2064
102
}
330
2064
100
AcDbScale
 70
     0
300
1/4" = 1'-0"
140
0.25
141
12.0
290
     0
  0
SCALE
  5
207E
102
{ACAD_REACTORS
330
2064
102
}
330
2064
100
AcDbScale
 70
     0
300
3/8" = 1'-0"
140
0.375
141
12.0
290
     0
  0
SCALE
  5
207F
102
{ACAD_REACTORS
330
2064
102
}
330
2064
100
AcDbScale
 70
     0
300
1/2" = 1'-0"
140
0.5
141
12.0
290
     0
  0
SCALE
  5
2080
102
{ACAD_REACTORS
330
2064
102
}
330
2064
100
AcDbScale
 70
     0
300
3/4" = 1'-0"
140
0.75
141
12.0
290
     0
  0
SCALE
  5
2081
102
{ACAD_REACTORS
330
2064
102
}
330
2064
100
AcDbScale
 70
     0
300
1" = 1'-0"
140
1.0
141
12.0
290
     0
  0
SCALE
  5
2082
102
{ACAD_REACTORS
330
2064
102
}
330
2064
100
AcDbScale
 70
     0
300
1-1/2" = 1'-0"
140
1.5
141
12.0
290
     0
  0
SCALE
  5
2083
102
{ACAD_REACTORS
330
2064
102
}
330
2064
100
AcDbScale
 70
     0
300
3" = 1'-0"
140
3.0
141
12.0
290
     0
  0
SCALE
  5
2084
102
{ACAD_REACTORS
330
2064
102
}
330
2064
100
AcDbScale
 70
     0
300
6" = 1'-0"
140
6.0
141
12.0
290
     0
  0
SCALE
  5
2085
102
{ACAD_REACTORS
330
2064
102
}
330
2064
100
AcDbScale
 70
     0
300
1'-0" = 1'-0"
140
12.0
141
12.0
290
     0
  0
ACDBSECTIONVIEWSTYLE
  5
6701
102
{ACAD_REACTORS
330
66FF
102
}
330
66FF
100
AcDbModelDocViewStyle
 70
     0
  3
Imperial24
290
     0
100
AcDbSectionViewStyle
 70
     0
 71
     0
 90
       78
 71
     1
340
11
 62
   256
 40
0.24
340
0
340
0
 62
   256
 40
0.24
300
I, O, Q, S, X, Z
 40
0.48
 90
        3
 40
0.18
 90
        1
 71
     2
340
6700
 90
       25
 62
   256
340
15
 90
       50
 62
   256
 40
0.24
 40
0.0
 40
0.24
 71
     3
340
11
 62
   256
 40
0.24
 90
        1
 40
0.75
 90
        1
300
%<\AcVar ViewType \f "%tc1">% %<\AcVar ViewSectionStartId>%-%<\AcVar ViewSectionEndId>%\PSCALE %<\AcVar ViewScale \f "%sn">%
 71
     4
 62
   256
 62
   257
300
ANSI31
 40
1.0
 90
        0
290
     0
290
     0
 90
        6
 40
0.0
 40
1.570796326794896
 40
0.2617993877991494
 40
1.308996938995747
 40
-0.2617993877991494
 40
1.832595714594046
  0
TABLESTYLE
  5
2063
102
{ACAD_XDICTIONARY
360
2107
102
}
102
{ACAD_REACTORS
330
2062
102
}
330
2062
100
AcDbTableStyle
  3
Standard
 70
     0
 71
     0
 40
0.06
 41
0.06
280
     0
281
     0
  7
STANDARD
140
0.18
170
     2
 62
     0
 63
     7
283
     0
274
    -2
284
     1
 64
     0
275
    -2
285
     1
 65
     0
276
    -2
286
     1
 66
     0
277
    -2
287
     1
 67
     0
278
    -2
288
     1
 68
     0
279
    -2
289
     1
 69
     0
  7
STANDARD
140
0.25
170
     5
 62
     0
 63
     7
283
     0
274
    -2
284
     1
 64
     0
275
    -2
285
     1
 65
     0
276
    -2
286
     1
 66
     0
277
    -2
287
     1
 67
     0
278
    -2
288
     1
 68
     0
279
    -2
289
     1
 69
     0
  7
STANDARD
140
0.18
170
     5
 62
     0
 63
     7
283
     0
274
    -2
284
     1
 64
     0
275
    -2
285
     1
 65
     0
276
    -2
286
     1
 66
     0
277
    -2
287
     1
 67
     0
278
    -2
288
     1
 68
     0
279
    -2
289
     1
 69
     0
  0
VISUALSTYLE
  5
2056
102
{ACAD_XDICTIONARY
360
68A2
102
}
102
{ACAD_REACTORS
330
2050
102
}
330
2050
100
AcDbVisualStyle
  2
2dWireframe
 70
     4
 71
     0
 72
     2
 73
     0
 90
        0
 40
-0.6
 41
-30.0
 62
     5
 63
     7
 74
     1
 91
        4
 64
     7
 65
   257
 75
     1
175
     1
 42
1.0
 92
        0
 66
   257
 43
1.0
 76
     1
 77
     6
 78
     2
 67
     7
 79
     5
170
     0
171
     0
290
     0
174
     0
 93
        1
 44
0.0
173
     0
291
     0
 45
0.0
1001
ACAD
1000
AcDbSavedByObjectVersion
1070
     0
  0
VISUALSTYLE
  5
2058
102
{ACAD_XDICTIONARY
360
68A6
102
}
102
{ACAD_REACTORS
330
2050
102
}
330
2050
100
AcDbVisualStyle
  2
3D Hidden
 70
     6
 71
     1
 72
     2
 73
     2
 90
        0
 40
-0.6
 41
-30.0
 62
     5
 63
     7
 74
     2
 91
        2
 64
     7
 65
   257
 75
     2
175
     1
 42
40.0
 92
        0
 66
   257
 43
1.0
 76
     1
 77
     6
 78
     2
 67
     7
 79
     3
170
     0
171
     0
290
     0
174
     0
 93
        1
 44
0.0
173
     0
291
     0
 45
0.0
1001
ACAD
1000
AcDbSavedByObjectVersion
1070
     0
  0
VISUALSTYLE
  5
2057
102
{ACAD_XDICTIONARY
360
68A4
102
}
102
{ACAD_REACTORS
330
2050
102
}
330
2050
100
AcDbVisualStyle
  2
3dWireframe
 70
     5
 71
     0
 72
     2
 73
     0
 90
        0
 40
-0.6
 41
-30.0
 62
     5
 63
     7
 74
     1
 91
        4
 64
     7
 65
   257
 75
     1
175
     1
 42
1.0
 92
        0
 66
   257
 43
1.0
 76
     1
 77
     6
 78
     2
 67
     7
 79
     5
170
     0
171
     0
290
     0
174
     0
 93
        1
 44
0.0
173
     0
291
     0
 45
0.0
1001
ACAD
1000
AcDbSavedByObjectVersion
1070
     0
  0
VISUALSTYLE
  5
2055
102
{ACAD_XDICTIONARY
360
68A0
102
}
102
{ACAD_REACTORS
330
2050
102
}
330
2050
100
AcDbVisualStyle
  2
Basic
 70
     7
 71
     1
 72
     0
 73
     1
 90
        0
 40
-0.6
 41
-30.0
 62
     5
 63
     7
 74
     0
 91
        4
 64
     7
 65
   257
 75
     1
175
     1
 42
1.0
 92
        8
 66
     7
 43
1.0
 76
     1
 77
     6
 78
     2
 67
     7
 79
     5
170
     0
171
     0
290
     0
174
     0
 93
        1
 44
0.0
173
     0
291
     1
 45
0.0
1001
ACAD
1000
AcDbSavedByObjectVersion
1070
     0
  0
VISUALSTYLE
  5
205C
102
{ACAD_XDICTIONARY
360
68AE
102
}
102
{ACAD_REACTORS
330
2050
102
}
330
2050
100
AcDbVisualStyle
  2
Brighten
 70
    12
 71
     2
 72
     2
 73
     0
 90
        0
 40
-0.6
 41
-30.0
 62
     5
 63
     7
 74
     1
 91
        4
 64
     7
 65
   257
 75
     1
175
     1
 42
1.0
 92
        8
 66
     7
 43
1.0
 76
     1
 77
     6
 78
     2
 67
     7
 79
     5
170
     0
171
     0
290
     0
174
     0
 93
        1
 44
50.0
173
     0
291
     1
 45
0.0
1001
ACAD
1000
AcDbSavedByObjectVersion
1070
     0
  0
VISUALSTYLE
  5
2060
102
{ACAD_XDICTIONARY
360
68B6
102
}
102
{ACAD_REACTORS
330
2050
102
}
330
2050
100
AcDbVisualStyle
  2
ColorChange
 70
    16
 71
     2
 72
     2
 73
     3
 90
        0
 40
-0.6
 41
-30.0
 62
     5
 63
     8
 74
     1
 91
        4
 64
     7
 65
   257
 75
     1
175
     1
 42
1.0
 92
        8
 66
     8
 43
1.0
 76
     1
 77
     6
 78
     2
 67
     7
 79
     5
170
     0
171
     0
290
     0
174
     0
 93
        1
 44
0.0
173
     0
291
     1
 45
0.0
1001
ACAD
1000
AcDbSavedByObjectVersion
1070
     0
  0
VISUALSTYLE
  5
2059
102
{ACAD_XDICTIONARY
360
68A8
102
}
102
{ACAD_REACTORS
330
2050
102
}
330
2050
100
AcDbVisualStyle
  2
Conceptual
 70
     9
 71
     3
 72
     2
 73
     0
 90
        0
 40
-0.6
 41
-30.0
 62
     5
 63
     7
 74
     2
 91
        2
 64
     7
 65
   257
 75
     1
175
     1
 42
40.0
 92
        8
 66
     7
 43
1.0
 76
     1
 77
     6
 78
     2
 67
     7
 79
     3
170
     0
171
     0
290
     0
174
     0
 93
        1
 44
0.0
173
     0
291
     0
 45
0.0
1001
ACAD
1000
AcDbSavedByObjectVersion
1070
     0
  0
VISUALSTYLE
  5
205B
102
{ACAD_XDICTIONARY
360
68AC
102
}
102
{ACAD_REACTORS
330
2050
102
}
330
2050
100
AcDbVisualStyle
  2
Dim
 70
    11
 71
     2
 72
     2
 73
     0
 90
        0
 40
-0.6
 41
-30.0
 62
     5
 63
     7
 74
     1
 91
        4
 64
     7
 65
   257
 75
     1
175
     1
 42
1.0
 92
        8
 66
     7
 43
1.0
 76
     1
 77
     6
 78
     2
 67
     7
 79
     5
170
     0
171
     0
290
     0
174
     0
 93
        1
 44
-50.0
173
     0
291
     1
 45
0.0
1001
ACAD
1000
AcDbSavedByObjectVersion
1070
     0
  0
VISUALSTYLE
  5
66FE
102
{ACAD_XDICTIONARY
360
68CC
102
}
102
{ACAD_REACTORS
330
2050
102
}
330
2050
100
AcDbVisualStyle
  2
EdgeColorOff
 70
    22
 71
     2
 72
     2
 73
     0
 90
        0
 40
-0.6
 41
-30.0
 62
     5
 63
     7
421
 16777215
 74
     1
 91
        4
 64
     7
 65
   257
 75
     1
175
     1
 42
1.0
 92
        8
 66
     7
 43
1.0
 76
     1
 77
     6
 78
     2
 67
     7
 79
     5
170
     0
171
     0
290
     0
174
     0
 93
        1
 44
0.0
173
     0
291
     1
 45
0.0
1001
ACAD
1000
AcDbSavedByObjectVersion
1070
     0
  0
VISUALSTYLE
  5
205F
102
{ACAD_XDICTIONARY
360
68B4
102
}
102
{ACAD_REACTORS
330
2050
102
}
330
2050
100
AcDbVisualStyle
  2
Facepattern
 70
    15
 71
     2
 72
     2
 73
     0
 90
        0
 40
-0.6
 41
-30.0
 62
     5
 63
     7
 74
     1
 91
        4
 64
     7
 65
   257
 75
     1
175
     1
 42
1.0
 92
        8
 66
     7
 43
1.0
 76
     1
 77
     6
 78
     2
 67
     7
 79
     5
170
     0
171
     0
290
     0
174
     0
 93
        1
 44
0.0
173
     0
291
     1
 45
0.0
1001
ACAD
1000
AcDbSavedByObjectVersion
1070
     0
  0
VISUALSTYLE
  5
2051
102
{ACAD_XDICTIONARY
360
6898
102
}
102
{ACAD_REACTORS
330
2050
102
}
330
2050
100
AcDbVisualStyle
  2
Flat
 70
     0
 71
     2
 72
     1
 73
     1
 90
        2
 40
-0.6
 41
30.0
 62
     5
 63
     7
 74
     0
 91
        4
 64
     7
 65
   257
 75
     1
175
     1
 42
1.0
 92
        8
 66
     7
 43
1.0
 76
     1
 77
     6
 78
     2
 67
     7
 79
     5
170
     0
171
     0
290
     0
174
     0
 93
       13
 44
0.0
173
     0
291
     1
 45
0.0
1001
ACAD
1000
AcDbSavedByObjectVersion
1070
     0
  0
VISUALSTYLE
  5
2052
102
{ACAD_XDICTIONARY
360
689A
102
}
102
{ACAD_REACTORS
330
2050
102
}
330
2050
100
AcDbVisualStyle
  2
FlatWithEdges
 70
     1
 71
     2
 72
     1
 73
     1
 90
        2
 40
-0.6
 41
30.0
 62
     5
 63
     7
 74
     1
 91
        4
 64
     7
 65
   257
 75
     1
175
     1
 42
1.0
 92
        0
 66
   257
 43
1.0
 76
     1
 77
     6
 78
     2
 67
     7
 79
     5
170
     0
171
     0
290
     0
174
     0
 93
       13
 44
0.0
173
     0
291
     1
 45
0.0
1001
ACAD
1000
AcDbSavedByObjectVersion
1070
     0
  0
VISUALSTYLE
  5
2053
102
{ACAD_XDICTIONARY
360
689C
102
}
102
{ACAD_REACTORS
330
2050
102
}
330
2050
100
AcDbVisualStyle
  2
Gouraud
 70
     2
 71
     2
 72
     2
 73
     1
 90
        2
 40
-0.6
 41
30.0
 62
     5
 63
     7
 74
     0
 91
        4
 64
     7
 65
   257
 75
     1
175
     1
 42
1.0
 92
        0
 66
     7
 43
1.0
 76
     1
 77
     6
 78
     2
 67
     7
 79
     5
170
     0
171
     0
290
     0
174
     0
 93
       13
 44
0.0
173
     0
291
     1
 45
0.0
1001
ACAD
1000
AcDbSavedByObjectVersion
1070
     0
  0
VISUALSTYLE
  5
2054
102
{ACAD_XDICTIONARY
360
689E
102
}
102
{ACAD_REACTORS
330
2050
102
}
330
2050
100
AcDbVisualStyle
  2
GouraudWithEdges
 70
     3
 71
     2
 72
     2
 73
     1
 90
        2
 40
-0.6
 41
30.0
 62
     5
 63
     7
 74
     1
 91
        4
 64
     7
 65
   257
 75
     1
175
     1
 42
1.0
 92
        0
 66
   257
 43
1.0
 76
     1
 77
     6
 78
     2
 67
     7
 79
     5
170
     0
171
     0
290
     0
174
     0
 93
       13
 44
0.0
173
     0
291
     1
 45
0.0
1001
ACAD
1000
AcDbSavedByObjectVersion
1070
     0
  0
VISUALSTYLE
  5
66F6
102
{ACAD_XDICTIONARY
360
68BC
102
}
102
{ACAD_REACTORS
330
2050
102
}
330
2050
100
AcDbVisualStyle
  2
Hidden
 70
     6
 71
     1
 72
     2
 73
     2
 90
        0
 40
-0.6
 41
-30.0
 62
     5
 63
     7
421
 16777215
 74
     2
 91
        2
 64
     7
 65
   257
 75
     2
175
     1
 42
40.0
 92
        0
 66
   257
 43
1.0
 76
     1
 77
     6
 78
     2
 67
     7
 79
     3
170
     0
171
     0
290
     0
174
     0
 93
        1
 44
0.0
173
     0
291
     0
 45
0.0
1001
ACAD
1000
AcDbSavedByObjectVersion
1070
     0
  0
VISUALSTYLE
  5
66FC
102
{ACAD_XDICTIONARY
360
68C8
102
}
102
{ACAD_REACTORS
330
2050
102
}
330
2050
100
AcDbVisualStyle
  2
JitterOff
 70
    20
 71
     2
 72
     2
 73
     0
 90
        0
 40
-0.6
 41
-30.0
 62
     5
 63
     7
421
 16777215
 74
     1
 91
        4
 64
     7
 65
   257
 75
     1
175
     1
 42
1.0
 92
       10
 66
     7
 43
1.0
 76
     1
 77
     6
 78
     2
 67
     7
 79
     5
170
     0
171
     0
290
     0
174
     0
 93
        1
 44
0.0
173
     0
291
     1
 45
0.0
1001
ACAD
1000
AcDbSavedByObjectVersion
1070
     0
  0
VISUALSTYLE
  5
205E
102
{ACAD_XDICTIONARY
360
68B2
102
}
102
{ACAD_REACTORS
330
2050
102
}
330
2050
100
AcDbVisualStyle
  2
Linepattern
 70
    14
 71
     2
 72
     2
 73
     0
 90
        0
 40
-0.6
 41
-30.0
 62
     5
 63
     7
 74
     1
 91
        4
 64
     7
 65
   257
 75
     7
175
     7
 42
1.0
 92
        8
 66
     7
 43
1.0
 76
     1
 77
     6
 78
     2
 67
     7
 79
     5
170
     0
171
     0
290
     0
174
     0
 93
        1
 44
0.0
173
     0
291
     1
 45
0.0
1001
ACAD
1000
AcDbSavedByObjectVersion
1070
     0
  0
VISUALSTYLE
  5
66FD
102
{ACAD_XDICTIONARY
360
68CA
102
}
102
{ACAD_REACTORS
330
2050
102
}
330
2050
100
AcDbVisualStyle
  2
OverhangOff
 70
    21
 71
     2
 72
     2
 73
     0
 90
        0
 40
-0.6
 41
-30.0
 62
     5
 63
     7
421
 16777215
 74
     1
 91
        4
 64
     7
 65
   257
 75
     1
175
     1
 42
1.0
 92
        9
 66
     7
 43
1.0
 76
     1
 77
     6
 78
     2
 67
     7
 79
     5
170
     0
171
     0
290
     0
174
     0
 93
        1
 44
0.0
173
     0
291
     1
 45
0.0
1001
ACAD
1000
AcDbSavedByObjectVersion
1070
     0
  0
VISUALSTYLE
  5
205A
102
{ACAD_XDICTIONARY
360
68AA
102
}
102
{ACAD_REACTORS
330
2050
102
}
330
2050
100
AcDbVisualStyle
  2
Realistic
 70
     8
 71
     2
 72
     2
 73
     0
 90
        0
 40
-0.6
 41
-30.0
 62
     5
 63
     7
 74
     1
 91
        0
 64
     7
 65
   257
 75
     1
175
     1
 42
1.0
 92
        8
 66
     8
 43
1.0
 76
     1
 77
     6
 78
     2
 67
     7
 79
     5
170
     0
171
     0
290
     0
174
     0
 93
       13
 44
0.0
173
     0
291
     0
 45
0.0
1001
ACAD
1000
AcDbSavedByObjectVersion
1070
     0
  0
VISUALSTYLE
  5
66FB
102
{ACAD_XDICTIONARY
360
68C6
102
}
102
{ACAD_REACTORS
330
2050
102
}
330
2050
100
AcDbVisualStyle
  2
Shaded
 70
    27
 71
     2
 72
     2
 73
     1
 90
        2
 40
-0.6
 41
30.0
 62
     5
 63
     7
421
 16777215
 74
     0
 91
        4
 64
     7
 65
   257
 75
     1
175
     1
 42
1.0
 92
        8
 66
   257
 43
1.0
 76
     1
 77
     6
 78
     2
 67
     8
425
  7895160
 79
     3
170
     0
171
     0
290
     0
174
     0
 93
        5
 44
0.0
173
     0
291
     0
 45
0.0
1001
ACAD
1000
AcDbSavedByObjectVersion
1070
     0
  0
VISUALSTYLE
  5
66FA
102
{ACAD_XDICTIONARY
360
68C4
102
}
102
{ACAD_REACTORS
330
2050
102
}
330
2050
100
AcDbVisualStyle
  2
Shaded with edges
 70
    26
 71
     2
 72
     2
 73
     1
 90
        2
 40
-0.6
 41
30.0
 62
     5
 63
     7
421
 16777215
 74
     1
 91
       10
 64
     7
 65
   257
 75
     2
175
     1
 42
1.0
 92
        8
 66
   257
 43
1.0
 76
     1
 77
     6
 78
     2
 67
     7
 79
     3
170
     0
171
     0
290
     0
174
     0
 93
        5
 44
0.0
173
     0
291
     0
 45
0.0
1001
ACAD
1000
AcDbSavedByObjectVersion
1070
     0
  0
VISUALSTYLE
  5
66F7
102
{ACAD_XDICTIONARY
360
68BE
102
}
102
{ACAD_REACTORS
330
2050
102
}
330
2050
100
AcDbVisualStyle
  2
Shades of Gray
 70
    23
 71
     2
 72
     2
 73
     3
 90
        0
 40
-0.6
 41
-30.0
 62
     5
 63
     7
421
 16777215
 74
     2
 91
        2
 64
     7
 65
     7
 75
     1
175
     1
 42
40.0
 92
        8
 66
     7
 43
1.0
 76
     1
 77
     6
 78
     2
 67
     7
 79
     3
170
     0
171
     0
290
     0
174
     0
 93
        1
 44
0.0
173
     0
291
     0
 45
0.0
1001
ACAD
1000
AcDbSavedByObjectVersion
1070
     0
  0
VISUALSTYLE
  5
66F8
102
{ACAD_XDICTIONARY
360
68C0
102
}
102
{ACAD_REACTORS
330
2050
102
}
330
2050
100
AcDbVisualStyle
  2
Sketchy
 70
    24
 71
     1
 72
     2
 73
     2
 90
        0
 40
-0.6
 41
-30.0
 62
     5
 63
     7
421
 16777215
 74
     2
 91
        2
 64
     7
 65
     7
 75
     1
175
     1
 42
40.0
 92
       11
 66
     7
 43
1.0
 76
     1
 77
     6
 78
     2
 67
     7
 79
     6
170
     0
171
     0
290
     0
174
     0
 93
        1
 44
0.0
173
     0
291
     0
 45
0.0
1001
ACAD
1000
AcDbSavedByObjectVersion
1070
     0
  0
VISUALSTYLE
  5
205D
102
{ACAD_XDICTIONARY
360
68B0
102
}
102
{ACAD_REACTORS
330
2050
102
}
330
2050
100
AcDbVisualStyle
  2
Thicken
 70
    13
 71
     2
 72
     2
 73
     0
 90
        0
 40
-0.6
 41
-30.0
 62
     5
 63
     7
 74
     1
 91
        4
 64
     7
 65
   257
 75
     1
175
     1
 42
1.0
 92
       12
 66
     7
 43
1.0
 76
     1
 77
     6
 78
     2
 67
     7
 79
     5
170
     0
171
     0
290
     0
174
     0
 93
        1
 44
0.0
173
     0
291
     1
 45
0.0
1001
ACAD
1000
AcDbSavedByObjectVersion
1070
     0
  0
VISUALSTYLE
  5
66F5
102
{ACAD_XDICTIONARY
360
68BA
102
}
102
{ACAD_REACTORS
330
2050
102
}
330
2050
100
AcDbVisualStyle
  2
Wireframe
 70
     5
 71
     0
 72
     2
 73
     0
 90
        0
 40
-0.6
 41
-30.0
 62
     5
 63
     7
421
 16777215
 74
     1
 91
        4
 64
     7
 65
   257
 75
     1
175
     1
 42
1.0
 92
        0
 66
   257
 43
1.0
 76
     1
 77
     6
 78
     2
 67
     7
 79
     3
170
     0
171
     0
290
     0
174
     0
 93
        1
 44
0.0
173
     0
291
     0
 45
0.0
1001
ACAD
1000
AcDbSavedByObjectVersion
1070
     0
  0
VISUALSTYLE
  5
66F9
102
{ACAD_XDICTIONARY
360
68C2
102
}
102
{ACAD_REACTORS
330
2050
102
}
330
2050
100
AcDbVisualStyle
  2
X-Ray
 70
    25
 71
     2
 72
     2
 73
     1
 90
        1
 40
0.5
 41
-30.0
 62
     5
 63
     7
421
 16777215
 74
     1
 91
        0
 64
     7
 65
   257
 75
     1
175
     1
 42
1.0
 92
        8
 66
     7
 43
1.0
 76
     1
 77
     6
 78
     2
 67
     7
 79
     3
170
     0
171
     0
290
     0
174
     0
 93
       13
 44
0.0
173
     0
291
     0
 45
0.0
1001
ACAD
1000
AcDbSavedByObjectVersion
1070
     0
  0
DICTIONARYVAR
  5
210D
102
{ACAD_REACTORS
330
1458
102
}
330
1458
100
DictionaryVariables
280
     0
  1
1:1
  0
DICTIONARYVAR
  5
210B
102
{ACAD_REACTORS
330
1458
102
}
330
1458
100
DictionaryVariables
280
     0
  1
STANDARD
  0
DICTIONARYVAR
  5
210A
102
{ACAD_REACTORS
330
1458
102
}
330
1458
100
DictionaryVariables
280
     0
  1
STANDARD
  0
DICTIONARYVAR
  5
6760
102
{ACAD_REACTORS
330
1458
102
}
330
1458
100
DictionaryVariables
280
     0
  1
Imperial24
  0
DICTIONARYVAR
  5
6761
102
{ACAD_REACTORS
330
1458
102
}
330
1458
100
DictionaryVariables
280
     0
  1
Imperial24
  0
DICTIONARYVAR
  5
145B
102
{ACAD_REACTORS
330
1458
102
}
330
1458
100
DictionaryVariables
280
     0
  1
1
  0
DICTIONARYVAR
  5
145A
102
{ACAD_REACTORS
330
1458
102
}
330
1458
100
DictionaryVariables
280
     0
  1
1
  0
DICTIONARYVAR
  5
66F3
102
{ACAD_REACTORS
330
1458
102
}
330
1458
100
DictionaryVariables
280
     0
  1
0
  0
DICTIONARYVAR
  5
66F2
102
{ACAD_REACTORS
330
1458
102
}
330
1458
100
DictionaryVariables
280
     0
  1
0
  0
DICTIONARYVAR
  5
210F
102
{ACAD_REACTORS
330
1458
102
}
330
1458
100
DictionaryVariables
280
     0
  1
15
  0
DICTIONARYVAR
  5
210E
102
{ACAD_REACTORS
330
1458
102
}
330
1458
100
DictionaryVariables
280
     0
  1
0
  0
DICTIONARYVAR
  5
210C
102
{ACAD_REACTORS
330
1458
102
}
330
1458
100
DictionaryVariables
280
     0
  1
0
  0
DICTIONARYVAR
  5
1459
102
{ACAD_REACTORS
330
1458
102
}
330
1458
100
DictionaryVariables
280
     0
  1
48
  0
DICTIONARYVAR
  5
2B06
102
{ACAD_REACTORS
330
1458
102
}
330
1458
100
DictionaryVariables
280
     0
  1
0
  0
DICTIONARYVAR
  5
6888
102
{ACAD_REACTORS
330
1458
102
}
330
1458
100
DictionaryVariables
280
     0
  1
2
  0
DICTIONARY
  5
6894
102
{ACAD_REACTORS
330
6892
102
}
330
6892
100
AcDbDictionary
281
     1
  0
DICTIONARY
  5
6893
102
{ACAD_REACTORS
330
6892
102
}
330
6892
100
AcDbDictionary
281
     1
  3
8796060793808
350
688D
  3
8796060793824
350
688E
  3
8796060793840
350
688F
  3
8796060793856
350
6890
  3
8796060793872
350
6891
  0
XRECORD
  5
2BEC
102
{ACAD_REACTORS
330
2BEB
102
}
330
2BEB
100
AcDbXrecord
280
     1
330
156D
330
0
330
0
330
0
330
0
  0
XRECORD
  5
687C
102
{ACAD_REACTORS
330
6878
102
}
330
6878
100
AcDbXrecord
280
     1
  1
_0100-
  1
*0100-*
  1
*
  1
*
 70
     0
  1
*
  1
*
  0
XRECORD
  5
687B
102
{ACAD_REACTORS
330
6878
102
}
330
6878
100
AcDbXrecord
280
     1
  1
_0280-
  1
*0280-*
  1
*
  1
*
 70
     0
  1
*
  1
*
  0
XRECORD
  5
687E
102
{ACAD_REACTORS
330
6878
102
}
330
6878
100
AcDbXrecord
280
     1
  1
_Add Alternate
  1
*add*alt*
  1
*
  1
*
 70
     0
  1
*
  1
*
  0
XRECORD
  5
687F
102
{ACAD_REACTORS
330
6878
102
}
330
6878
100
AcDbXrecord
280
     1
  1
_Bid Alternate
  1
*bid*alt*
  1
*
  1
*
 70
     0
  1
*
  1
*
  0
XRECORD
  5
6881
102
{ACAD_REACTORS
330
6878
102
}
330
6878
100
AcDbXrecord
280
     1
  1
_Color 253
  1
*
  1
253
  1
*
 70
     0
  1
*
  1
*
  0
XRECORD
  5
687D
102
{ACAD_REACTORS
330
6878
102
}
330
6878
100
AcDbXrecord
280
     1
  1
_Color 8
  1
*
  1
8
  1
*
 70
     0
  1
*
  1
*
  0
XRECORD
  5
6880
102
{ACAD_REACTORS
330
6878
102
}
330
6878
100
AcDbXrecord
280
     1
  1
_Color 84
  1
*
  1
84
  1
*
 70
     0
  1
*
  1
*
  0
XRECORD
  5
6887
102
{ACAD_REACTORS
330
6878
102
}
330
6878
100
AcDbXrecord
280
     1
  1
_Contours
  1
*contour*,*cont-*,*cp cont*,*p-cont*
  1
*
  1
*
 70
     0
  1
*
  1
*
  0
XRECORD
  5
6882
102
{ACAD_REACTORS
330
6878
102
}
330
6878
100
AcDbXrecord
280
     1
  1
_Demo
  1
*demo*
  1
*
  1
*
 70
     0
  1
*
  1
*
  0
XRECORD
  5
6883
102
{ACAD_REACTORS
330
6878
102
}
330
6878
100
AcDbXrecord
280
     1
  1
_Existing
  1
*exist*,*ex*
  1
*
  1
*
 70
     0
  1
*
  1
*
  0
XRECORD
  5
6886
102
{ACAD_REACTORS
330
6878
102
}
330
6878
100
AcDbXrecord
280
     1
  1
_Hardscape
  1
*sidewalk*,*sw*,*curb*,*walk*,*-lip*,*tbc*
  1
*
  1
*
 70
     0
  1
*
  1
*
  0
XRECORD
  5
6879
102
{ACAD_REACTORS
330
6878
102
}
330
6878
100
AcDbXrecord
280
     1
  1
_NoXref
  1
~*|*
  1
*
  1
*
 70
     0
  1
*
  1
*
  0
XRECORD
  5
6884
102
{ACAD_REACTORS
330
6878
102
}
330
6878
100
AcDbXrecord
280
     1
  1
_Row
  1
*row*
  1
*
  1
*
 70
     0
  1
*
  1
*
  0
XRECORD
  5
6885
102
{ACAD_REACTORS
330
6878
102
}
330
6878
100
AcDbXrecord
280
     1
  1
_Utility
  1
*ut-*,*utility*,*wat*
  1
*
  1
*
 70
     0
  1
*
  1
*
  0
FIELD
  5
671B
102
{ACAD_REACTORS
330
671A
102
}
330
671A
100
AcDbField
  1
_text
  2
%<\_FldIdx 0>%
 90
        1
360
671C
 97
        0
  4

 91
       63
 92
        0
 94
        9
 95
        2
 96
        0
300

 93
        1
  6
ACFD_FIELDTEXT_CHECKSUM
 90
        2
140
74833.0
  7
ACFD_FIELD_VALUE
 90
        0
 91
        0
301

 98
        0
  0
DICTIONARY
  5
2497
330
1D
100
AcDbDictionary
280
     1
281
     1
  0
DICTIONARY
  5
2041
330
2040
100
AcDbDictionary
280
     1
281
     1
  3
ACAD_XREC_ROUNDTRIP
360
6896
  3
BUMPTILE
360
2043
  3
DIFFUSETILE
360
2042
  3
OPACITYTILE
360
2046
  3
REFLECTIONTILE
360
2045
  3
REFRACTIONTILE
360
2047
  3
SPECULARTILE
360
2044
  0
DICTIONARY
  5
2039
330
2038
100
AcDbDictionary
280
     1
281
     1
  3
ACAD_XREC_ROUNDTRIP
360
6895
  3
BUMPTILE
360
203B
  3
DIFFUSETILE
360
203A
  3
OPACITYTILE
360
203E
  3
REFLECTIONTILE
360
203D
  3
REFRACTIONTILE
360
203F
  3
SPECULARTILE
360
203C
  0
DICTIONARY
  5
2049
330
2048
100
AcDbDictionary
280
     1
281
     1
  3
ACAD_XREC_ROUNDTRIP
360
6897
  3
BUMPTILE
360
204B
  3
DIFFUSETILE
360
204A
  3
OPACITYTILE
360
204E
  3
REFLECTIONTILE
360
204D
  3
REFRACTIONTILE
360
204F
  3
SPECULARTILE
360
204C
  0
DICTIONARY
  5
2107
330
2063
100
AcDbDictionary
280
     1
281
     1
  3
ACAD_ROUNDTRIP_2008_TABLESTYLE_CELLSTYLEMAP
360
6889
  3
ACAD_XREC_ROUNDTRIP
360
68B8
  0
DICTIONARY
  5
68A2
330
2056
100
AcDbDictionary
280
     1
281
     1
  3
ACAD_XREC_ROUNDTRIP
360
68A3
  0
DICTIONARY
  5
68A6
330
2058
100
AcDbDictionary
280
     1
281
     1
  3
ACAD_XREC_ROUNDTRIP
360
68A7
  0
DICTIONARY
  5
68A4
330
2057
100
AcDbDictionary
280
     1
281
     1
  3
ACAD_XREC_ROUNDTRIP
360
68A5
  0
DICTIONARY
  5
68A0
330
2055
100
AcDbDictionary
280
     1
281
     1
  3
ACAD_XREC_ROUNDTRIP
360
68A1
  0
DICTIONARY
  5
68AE
330
205C
100
AcDbDictionary
280
     1
281
     1
  3
ACAD_XREC_ROUNDTRIP
360
68AF
  0
DICTIONARY
  5
68B6
330
2060
100
AcDbDictionary
280
     1
281
     1
  3
ACAD_XREC_ROUNDTRIP
360
68B7
  0
DICTIONARY
  5
68A8
330
2059
100
AcDbDictionary
280
     1
281
     1
  3
ACAD_XREC_ROUNDTRIP
360
68A9
  0
DICTIONARY
  5
68AC
330
205B
100
AcDbDictionary
280
     1
281
     1
  3
ACAD_XREC_ROUNDTRIP
360
68AD
  0
DICTIONARY
  5
68CC
330
66FE
100
AcDbDictionary
280
     1
281
     1
  3
ACAD_XREC_ROUNDTRIP
360
68CD
  0
DICTIONARY
  5
68B4
330
205F
100
AcDbDictionary
280
     1
281
     1
  3
ACAD_XREC_ROUNDTRIP
360
68B5
  0
DICTIONARY
  5
6898
330
2051
100
AcDbDictionary
280
     1
281
     1
  3
ACAD_XREC_ROUNDTRIP
360
6899
  0
DICTIONARY
  5
689A
330
2052
100
AcDbDictionary
280
     1
281
     1
  3
ACAD_XREC_ROUNDTRIP
360
689B
  0
DICTIONARY
  5
689C
330
2053
100
AcDbDictionary
280
     1
281
     1
  3
ACAD_XREC_ROUNDTRIP
360
689D
  0
DICTIONARY
  5
689E
330
2054
100
AcDbDictionary
280
     1
281
     1
  3
ACAD_XREC_ROUNDTRIP
360
689F
  0
DICTIONARY
  5
68BC
330
66F6
100
AcDbDictionary
280
     1
281
     1
  3
ACAD_XREC_ROUNDTRIP
360
68BD
  0
DICTIONARY
  5
68C8
330
66FC
100
AcDbDictionary
280
     1
281
     1
  3
ACAD_XREC_ROUNDTRIP
360
68C9
  0
DICTIONARY
  5
68B2
330
205E
100
AcDbDictionary
280
     1
281
     1
  3
ACAD_XREC_ROUNDTRIP
360
68B3
  0
DICTIONARY
  5
68CA
330
66FD
100
AcDbDictionary
280
     1
281
     1
  3
ACAD_XREC_ROUNDTRIP
360
68CB
  0
DICTIONARY
  5
68AA
330
205A
100
AcDbDictionary
280
     1
281
     1
  3
ACAD_XREC_ROUNDTRIP
360
68AB
  0
DICTIONARY
  5
68C6
330
66FB
100
AcDbDictionary
280
     1
281
     1
  3
ACAD_XREC_ROUNDTRIP
360
68C7
  0
DICTIONARY
  5
68C4
330
66FA
100
AcDbDictionary
280
     1
281
     1
  3
ACAD_XREC_ROUNDTRIP
360
68C5
  0
DICTIONARY
  5
68BE
330
66F7
100
AcDbDictionary
280
     1
281
     1
  3
ACAD_XREC_ROUNDTRIP
360
68BF
  0
DICTIONARY
  5
68C0
330
66F8
100
AcDbDictionary
280
     1
281
     1
  3
ACAD_XREC_ROUNDTRIP
360
68C1
  0
DICTIONARY
  5
68B0
330
205D
100
AcDbDictionary
280
     1
281
     1
  3
ACAD_XREC_ROUNDTRIP
360
68B1
  0
DICTIONARY
  5
68BA
330
66F5
100
AcDbDictionary
280
     1
281
     1
  3
ACAD_XREC_ROUNDTRIP
360
68BB
  0
DICTIONARY
  5
68C2
330
66F9
100
AcDbDictionary
280
     1
281
     1
  3
ACAD_XREC_ROUNDTRIP
360
68C3
  0
XRECORD
  5
688D
102
{ACAD_REACTORS
330
6893
102
}
330
6893
100
AcDbXrecord
280
     1
  1
AcDb_Thumbnail_Schema
102
{ATTRRECORD
341
688E
  2
AcDbDs::TreatedAsObjectData
280
     1
291
     1
102
ATTRRECORD}
102
{ATTRRECORD
341
688F
  2
AcDbDs::Legacy
280
     1
291
     1
102
ATTRRECORD}
  2
AcDbDs::ID
280
    10
 91
        8
102
{ATTRRECORD
341
6890
  2
AcDs:Indexable
280
     1
291
     1
102
ATTRRECORD}
102
{ATTRRECORD
341
6891
  2
AcDbDs::HandleAttribute
280
     7
282
     1
102
ATTRRECORD}
  2
Thumbnail_Data
280
    15
 91
        0
  0
XRECORD
  5
688E
102
{ACAD_REACTORS
330
6893
102
}
330
6893
100
AcDbXrecord
280
     1
  1
AcDbDs::TreatedAsObjectDataSchema
  2
AcDbDs::TreatedAsObjectData
280
     1
 91
        0
  0
XRECORD
  5
688F
102
{ACAD_REACTORS
330
6893
102
}
330
6893
100
AcDbXrecord
280
     1
  1
AcDbDs::LegacySchema
  2
AcDbDs::Legacy
280
     1
 91
        0
  0
XRECORD
  5
6890
102
{ACAD_REACTORS
330
6893
102
}
330
6893
100
AcDbXrecord
280
     1
  1
AcDbDs::IndexedPropertySchema
  2
AcDs:Indexable
280
     1
 91
        0
  0
XRECORD
  5
6891
102
{ACAD_REACTORS
330
6893
102
}
330
6893
100
AcDbXrecord
280
     1
  1
AcDbDs::HandleAttributeSchema
  2
AcDbDs::HandleAttribute
280
     7
 91
        1
284
     1
  0
FIELD
  5
671C
330
671B
100
AcDbField
  1
AcVar
  2
\AcVar Filename \f "%tc4%fn2"
 90
        0
 97
        0
  4
%tc4%fn2
 91
       63
 92
        0
 94
       59
 95
        2
 96
        0
300

 93
        1
  6
Variable
 90
        4
  1
Filename
  7
ACFD_FIELD_VALUE
 90
        4
  1
O:\RAIN BIRD\Details 2012\Drip\XFS_Sub-Surface\XFS Sub-Surface Dripline Riser Assembly.dwg
301
XFS Sub-Surface Dripline Riser Assembly
 98
       39
  0
XRECORD
  5
6896
102
{ACAD_REACTORS
330
2041
102
}
330
2041
100
AcDbXrecord
280
     1
102
MATERIAL
148
0.0
149
0.0
149
0.0
 93
        0
 94
      127
282
     0
 72
     0
 77
     0
171
     0
175
     0
179
     0
273
     0
  0
XRECORD
  5
2043
102
{ACAD_REACTORS
330
2041
102
}
330
2041
100
AcDbXrecord
280
     1
270
     1
271
     1
  0
XRECORD
  5
2042
102
{ACAD_REACTORS
330
2041
102
}
330
2041
100
AcDbXrecord
280
     1
270
     1
271
     1
  0
XRECORD
  5
2046
102
{ACAD_REACTORS
330
2041
102
}
330
2041
100
AcDbXrecord
280
     1
270
     1
271
     1
  0
XRECORD
  5
2045
102
{ACAD_REACTORS
330
2041
102
}
330
2041
100
AcDbXrecord
280
     1
270
     1
271
     1
  0
XRECORD
  5
2047
102
{ACAD_REACTORS
330
2041
102
}
330
2041
100
AcDbXrecord
280
     1
270
     1
271
     1
  0
XRECORD
  5
2044
102
{ACAD_REACTORS
330
2041
102
}
330
2041
100
AcDbXrecord
280
     1
270
     1
271
     1
  0
XRECORD
  5
6895
102
{ACAD_REACTORS
330
2039
102
}
330
2039
100
AcDbXrecord
280
     1
102
MATERIAL
148
0.0
149
0.0
149
0.0
 93
        0
 94
      127
282
     0
 72
     0
 77
     0
171
     0
175
     0
179
     0
273
     0
  0
XRECORD
  5
203B
102
{ACAD_REACTORS
330
2039
102
}
330
2039
100
AcDbXrecord
280
     1
270
     1
271
     1
  0
XRECORD
  5
203A
102
{ACAD_REACTORS
330
2039
102
}
330
2039
100
AcDbXrecord
280
     1
270
     1
271
     1
  0
XRECORD
  5
203E
102
{ACAD_REACTORS
330
2039
102
}
330
2039
100
AcDbXrecord
280
     1
270
     1
271
     1
  0
XRECORD
  5
203D
102
{ACAD_REACTORS
330
2039
102
}
330
2039
100
AcDbXrecord
280
     1
270
     1
271
     1
  0
XRECORD
  5
203F
102
{ACAD_REACTORS
330
2039
102
}
330
2039
100
AcDbXrecord
280
     1
270
     1
271
     1
  0
XRECORD
  5
203C
102
{ACAD_REACTORS
330
2039
102
}
330
2039
100
AcDbXrecord
280
     1
270
     1
271
     1
  0
XRECORD
  5
6897
102
{ACAD_REACTORS
330
2049
102
}
330
2049
100
AcDbXrecord
280
     1
102
MATERIAL
148
0.0
149
0.0
149
0.0
 93
        0
 94
      127
282
     0
 72
     0
 77
     0
171
     0
175
     0
179
     0
273
     0
  0
XRECORD
  5
204B
102
{ACAD_REACTORS
330
2049
102
}
330
2049
100
AcDbXrecord
280
     1
270
     1
271
     1
  0
XRECORD
  5
204A
102
{ACAD_REACTORS
330
2049
102
}
330
2049
100
AcDbXrecord
280
     1
270
     1
271
     1
  0
XRECORD
  5
204E
102
{ACAD_REACTORS
330
2049
102
}
330
2049
100
AcDbXrecord
280
     1
270
     1
271
     1
  0
XRECORD
  5
204D
102
{ACAD_REACTORS
330
2049
102
}
330
2049
100
AcDbXrecord
280
     1
270
     1
271
     1
  0
XRECORD
  5
204F
102
{ACAD_REACTORS
330
2049
102
}
330
2049
100
AcDbXrecord
280
     1
270
     1
271
     1
  0
XRECORD
  5
204C
102
{ACAD_REACTORS
330
2049
102
}
330
2049
100
AcDbXrecord
280
     1
270
     1
271
     1
  0
CELLSTYLEMAP
  5
6889
102
{ACAD_REACTORS
330
2107
102
}
330
2107
100
AcDbCellStyleMap
 90
        3
300
CELLSTYLE
  1
TABLEFORMAT_BEGIN
 90
        5
170
     1
 91
        0
 92
    32768
 62
   257
 93
        1
300
CONTENTFORMAT
  1
CONTENTFORMAT_BEGIN
 90
        0
 91
        0
 92
      512
 93
        0
300

 40
0.0
140
1.0
 94
        5
 62
     0
340
11
144
0.25
309
CONTENTFORMAT_END
171
     0
 94
        0
309
TABLEFORMAT_END
  1
CELLSTYLE_BEGIN
 90
        1
 91
        1
300
_TITLE
309
CELLSTYLE_END
300
CELLSTYLE
  1
TABLEFORMAT_BEGIN
 90
        5
170
     1
 91
        0
 92
        0
 62
   257
 93
        1
300
CONTENTFORMAT
  1
CONTENTFORMAT_BEGIN
 90
        0
 91
        0
 92
      512
 93
        0
300

 40
0.0
140
1.0
 94
        5
 62
     0
340
11
144
0.18
309
CONTENTFORMAT_END
171
     0
 94
        0
309
TABLEFORMAT_END
  1
CELLSTYLE_BEGIN
 90
        2
 91
        1
300
_HEADER
309
CELLSTYLE_END
300
CELLSTYLE
  1
TABLEFORMAT_BEGIN
 90
        5
170
     1
 91
        0
 92
        0
 62
   257
 93
        1
300
CONTENTFORMAT
  1
CONTENTFORMAT_BEGIN
 90
        0
 91
        0
 92
      512
 93
        0
300

 40
0.0
140
1.0
 94
        2
 62
     0
340
11
144
0.18
309
CONTENTFORMAT_END
171
     0
 94
        0
309
TABLEFORMAT_END
  1
CELLSTYLE_BEGIN
 90
        3
 91
        2
300
_DATA
309
CELLSTYLE_END
  0
XRECORD
  5
68B8
102
{ACAD_REACTORS
330
2107
102
}
330
2107
100
AcDbXrecord
280
     1
102
ACAD_ROUNDTRIP_PRE2007_TABLESTYLE
 90
      512
 91
        0
  1

 92
      512
 93
        0
  2

 94
      512
 95
        0
  3

  0
XRECORD
  5
68A3
102
{ACAD_REACTORS
330
68A2
102
}
330
68A2
100
AcDbXrecord
280
     1
102
RTVSPost2010Prop28
280
     1
102
RTVSPost2010PropOp28
 70
     1
102
RTVSPost2010Prop29
280
     1
102
RTVSPost2010PropOp29
 70
     1
102
RTVSPost2010Prop30
280
     0
102
RTVSPost2010PropOp30
 70
     1
102
RTVSPost2010Prop31
280
     0
102
RTVSPost2010PropOp31
 70
     1
102
RTVSPost2010Prop32
280
     0
102
RTVSPost2010PropOp32
 70
     1
102
RTVSPost2010Prop33
280
     0
102
RTVSPost2010PropOp33
 70
     1
102
RTVSPost2010Prop34
280
     0
102
RTVSPost2010PropOp34
 70
     1
102
RTVSPost2010Prop35
280
     0
102
RTVSPost2010PropOp35
 70
     1
102
RTVSPost2010Prop36
280
     0
102
RTVSPost2010PropOp36
 70
     1
102
RTVSPost2010Prop37
 90
       50
102
RTVSPost2010PropOp37
 70
     1
102
RTVSPost2010Prop38
140
0.0
102
RTVSPost2010PropOp38
 70
     1
102
RTVSPost2010Prop39
140
1.0
102
RTVSPost2010PropOp39
 70
     1
102
RTVSPost2010Prop40
 90
        0
102
RTVSPost2010PropOp40
 70
     1
102
RTVSPost2010Prop41ColorIndex
 90
       18
102
RTVSPost2010Prop41ColorRGB
 90
        0
102
RTVSPost2010PropOp41
 70
     1
102
RTVSPost2010Prop42
 90
       50
102
RTVSPost2010PropOp42
 70
     1
102
RTVSPost2010Prop43
 90
        3
102
RTVSPost2010PropOp43
 70
     1
102
RTVSPost2010Prop44ColorIndex
 90
        5
102
RTVSPost2010Prop44ColorRGB
 90
      255
102
RTVSPost2010PropOp44
 70
     1
102
RTVSPost2010Prop45
280
     0
102
RTVSPost2010PropOp45
 70
     1
102
RTVSPost2010Prop46
 90
       50
102
RTVSPost2010PropOp46
 70
     1
102
RTVSPost2010Prop47
 90
       50
102
RTVSPost2010PropOp47
 70
     1
102
RTVSPost2010Prop48
 90
       50
102
RTVSPost2010PropOp48
 70
     1
102
RTVSPost2010Prop49
280
     0
102
RTVSPost2010PropOp49
 70
     1
102
RTVSPost2010Prop50
 90
       50
102
RTVSPost2010PropOp50
 70
     1
102
RTVSPost2010Prop51ColorIndex
 90
      256
102
RTVSPost2010Prop51ColorRGB
 90
-16777216
102
RTVSPost2010PropOp51
 70
     0
102
RTVSPost2010Prop52
140
1.0
102
RTVSPost2010PropOp52
 70
     0
102
RTVSPost2010Prop53
 90
        2
102
RTVSPost2010PropOp53
 70
     1
102
RTVSPost2010Prop54
  1
strokes_ogs.tif
102
RTVSPost2010PropOp54
 70
     1
102
RTVSPost2010Prop55
280
     0
102
RTVSPost2010PropOp55
 70
     1
102
RTVSPost2010Prop56
140
1.0
102
RTVSPost2010PropOp56
 70
     1
102
RTVSPost2010Prop57
140
1.0
102
RTVSPost2010PropOp57
 70
     1
102
RTVSPropertyOp0
 70
     1
102
RTVSPropertyOp1
 70
     1
102
RTVSPropertyOp2
 70
     1
102
RTVSPropertyOp3
 70
     1
102
RTVSPropertyOp4
 70
     1
102
RTVSPropertyOp5
 70
     1
102
RTVSPropertyOp6
 70
     1
102
RTVSPropertyOp7
 70
     1
102
RTVSPropertyOp8
 70
     1
102
RTVSPropertyOp9
 70
     1
102
RTVSPropertyOp10
 70
     1
102
RTVSPropertyOp11
 70
     1
102
RTVSPropertyOp12
 70
     1
102
RTVSPropertyOp13
 70
     1
102
RTVSPropertyOp14
 70
     1
102
RTVSPropertyOp15
 70
     1
102
RTVSPropertyOp16
 70
     1
102
RTVSPropertyOp17
 70
     1
102
RTVSPropertyOp18
 70
     1
102
RTVSPropertyOp19
 70
     1
102
RTVSPropertyOp20
 70
     1
102
RTVSPropertyOp21
 70
     1
102
RTVSPropertyOp22
 70
     1
102
RTVSPropertyOp23
 70
     1
102
RTVSPropertyOp24
 70
     1
102
RTVSPropertyOp25
 70
     1
102
RTVSPropertyOp26
 70
     1
102
RTVSPropertyOp27
 70
     1
102
RTVSPropertyOp28
 70
     1
102
RTVSPropertyOp29
 70
     1
102
RTVSPropertyOp30
 70
     1
102
RTVSPropertyOp31
 70
     1
102
RTVSPropertyOp32
 70
     1
102
RTVSPropertyOp33
 70
     1
102
RTVSPropertyOp34
 70
     1
102
RTVSPropertyOp35
 70
     1
102
RTVSPropertyOp36
 70
     1
102
RTVSPropertyOp37
 70
     1
102
RTVSPropertyOp38
 70
     1
102
RTVSPropertyOp39
 70
     1
102
RTVSPropertyOp40
 70
     1
102
RTVSPropertyOp41
 70
     1
102
RTVSPropertyOp42
 70
     1
102
RTVSPropertyOp43
 70
     1
102
RTVSPropertyOp44
 70
     1
102
RTVSPropertyOp45
 70
     1
102
RTVSPropertyOp46
 70
     1
102
RTVSPropertyOp47
 70
     1
102
RTVSPropertyOp48
 70
     1
102
RTVSPropertyOp49
 70
     1
102
RTVSPropertyOp50
 70
     1
102
RTVSPropertyOp51
 70
     0
102
RTVSPropertyOp52
 70
     0
102
RTVSPropertyOp53
 70
     1
102
RTVSPropertyOp54
 70
     1
102
RTVSPropertyOp55
 70
     1
102
RTVSPropertyOp56
 70
     1
102
RTVSPropertyOp57
 70
     1
102
RTVSPropertyOp58
 70
     1
102
RTVSPropertyOp59
 70
     1
102
RTVSPropertyOp60
 70
     1
102
RTVSPropertyOp61
 70
     1
102
RTVSPropertyOp62
 70
     1
  0
XRECORD
  5
68A7
102
{ACAD_REACTORS
330
68A6
102
}
330
68A6
100
AcDbXrecord
280
     1
102
RTVSPost2010Prop28
280
     0
102
RTVSPost2010PropOp28
 70
     1
102
RTVSPost2010Prop29
280
     1
102
RTVSPost2010PropOp29
 70
     1
102
RTVSPost2010Prop30
280
     1
102
RTVSPost2010PropOp30
 70
     1
102
RTVSPost2010Prop31
280
     0
102
RTVSPost2010PropOp31
 70
     1
102
RTVSPost2010Prop32
280
     0
102
RTVSPost2010PropOp32
 70
     1
102
RTVSPost2010Prop33
280
     0
102
RTVSPost2010PropOp33
 70
     1
102
RTVSPost2010Prop34
280
     0
102
RTVSPost2010PropOp34
 70
     1
102
RTVSPost2010Prop35
280
     0
102
RTVSPost2010PropOp35
 70
     1
102
RTVSPost2010Prop36
280
     0
102
RTVSPost2010PropOp36
 70
     1
102
RTVSPost2010Prop37
 90
       50
102
RTVSPost2010PropOp37
 70
     1
102
RTVSPost2010Prop38
140
0.0
102
RTVSPost2010PropOp38
 70
     1
102
RTVSPost2010Prop39
140
1.0
102
RTVSPost2010PropOp39
 70
     1
102
RTVSPost2010Prop40
 90
        0
102
RTVSPost2010PropOp40
 70
     1
102
RTVSPost2010Prop41ColorIndex
 90
       18
102
RTVSPost2010Prop41ColorRGB
 90
        0
102
RTVSPost2010PropOp41
 70
     1
102
RTVSPost2010Prop42
 90
       50
102
RTVSPost2010PropOp42
 70
     1
102
RTVSPost2010Prop43
 90
        3
102
RTVSPost2010PropOp43
 70
     1
102
RTVSPost2010Prop44ColorIndex
 90
        5
102
RTVSPost2010Prop44ColorRGB
 90
      255
102
RTVSPost2010PropOp44
 70
     1
102
RTVSPost2010Prop45
280
     0
102
RTVSPost2010PropOp45
 70
     1
102
RTVSPost2010Prop46
 90
       50
102
RTVSPost2010PropOp46
 70
     1
102
RTVSPost2010Prop47
 90
       50
102
RTVSPost2010PropOp47
 70
     1
102
RTVSPost2010Prop48
 90
       50
102
RTVSPost2010PropOp48
 70
     1
102
RTVSPost2010Prop49
280
     0
102
RTVSPost2010PropOp49
 70
     1
102
RTVSPost2010Prop50
 90
       50
102
RTVSPost2010PropOp50
 70
     1
102
RTVSPost2010Prop51ColorIndex
 90
      256
102
RTVSPost2010Prop51ColorRGB
 90
-16777216
102
RTVSPost2010PropOp51
 70
     0
102
RTVSPost2010Prop52
140
1.0
102
RTVSPost2010PropOp52
 70
     0
102
RTVSPost2010Prop53
 90
        2
102
RTVSPost2010PropOp53
 70
     1
102
RTVSPost2010Prop54
  1
strokes_ogs.tif
102
RTVSPost2010PropOp54
 70
     1
102
RTVSPost2010Prop55
280
     0
102
RTVSPost2010PropOp55
 70
     1
102
RTVSPost2010Prop56
140
1.0
102
RTVSPost2010PropOp56
 70
     1
102
RTVSPost2010Prop57
140
1.0
102
RTVSPost2010PropOp57
 70
     1
102
RTVSPropertyOp0
 70
     1
102
RTVSPropertyOp1
 70
     1
102
RTVSPropertyOp2
 70
     1
102
RTVSPropertyOp3
 70
     1
102
RTVSPropertyOp4
 70
     1
102
RTVSPropertyOp5
 70
     1
102
RTVSPropertyOp6
 70
     1
102
RTVSPropertyOp7
 70
     1
102
RTVSPropertyOp8
 70
     1
102
RTVSPropertyOp9
 70
     1
102
RTVSPropertyOp10
 70
     1
102
RTVSPropertyOp11
 70
     1
102
RTVSPropertyOp12
 70
     1
102
RTVSPropertyOp13
 70
     1
102
RTVSPropertyOp14
 70
     1
102
RTVSPropertyOp15
 70
     1
102
RTVSPropertyOp16
 70
     1
102
RTVSPropertyOp17
 70
     1
102
RTVSPropertyOp18
 70
     1
102
RTVSPropertyOp19
 70
     1
102
RTVSPropertyOp20
 70
     1
102
RTVSPropertyOp21
 70
     1
102
RTVSPropertyOp22
 70
     1
102
RTVSPropertyOp23
 70
     1
102
RTVSPropertyOp24
 70
     1
102
RTVSPropertyOp25
 70
     1
102
RTVSPropertyOp26
 70
     1
102
RTVSPropertyOp27
 70
     1
102
RTVSPropertyOp28
 70
     1
102
RTVSPropertyOp29
 70
     1
102
RTVSPropertyOp30
 70
     1
102
RTVSPropertyOp31
 70
     1
102
RTVSPropertyOp32
 70
     1
102
RTVSPropertyOp33
 70
     1
102
RTVSPropertyOp34
 70
     1
102
RTVSPropertyOp35
 70
     1
102
RTVSPropertyOp36
 70
     1
102
RTVSPropertyOp37
 70
     1
102
RTVSPropertyOp38
 70
     1
102
RTVSPropertyOp39
 70
     1
102
RTVSPropertyOp40
 70
     1
102
RTVSPropertyOp41
 70
     1
102
RTVSPropertyOp42
 70
     1
102
RTVSPropertyOp43
 70
     1
102
RTVSPropertyOp44
 70
     1
102
RTVSPropertyOp45
 70
     1
102
RTVSPropertyOp46
 70
     1
102
RTVSPropertyOp47
 70
     1
102
RTVSPropertyOp48
 70
     1
102
RTVSPropertyOp49
 70
     1
102
RTVSPropertyOp50
 70
     1
102
RTVSPropertyOp51
 70
     0
102
RTVSPropertyOp52
 70
     0
102
RTVSPropertyOp53
 70
     1
102
RTVSPropertyOp54
 70
     1
102
RTVSPropertyOp55
 70
     1
102
RTVSPropertyOp56
 70
     1
102
RTVSPropertyOp57
 70
     1
102
RTVSPropertyOp58
 70
     1
102
RTVSPropertyOp59
 70
     1
102
RTVSPropertyOp60
 70
     1
102
RTVSPropertyOp61
 70
     1
102
RTVSPropertyOp62
 70
     1
  0
XRECORD
  5
68A5
102
{ACAD_REACTORS
330
68A4
102
}
330
68A4
100
AcDbXrecord
280
     1
102
RTVSPost2010Prop28
280
     0
102
RTVSPost2010PropOp28
 70
     1
102
RTVSPost2010Prop29
280
     1
102
RTVSPost2010PropOp29
 70
     1
102
RTVSPost2010Prop30
280
     1
102
RTVSPost2010PropOp30
 70
     1
102
RTVSPost2010Prop31
280
     0
102
RTVSPost2010PropOp31
 70
     1
102
RTVSPost2010Prop32
280
     0
102
RTVSPost2010PropOp32
 70
     1
102
RTVSPost2010Prop33
280
     0
102
RTVSPost2010PropOp33
 70
     1
102
RTVSPost2010Prop34
280
     0
102
RTVSPost2010PropOp34
 70
     1
102
RTVSPost2010Prop35
280
     0
102
RTVSPost2010PropOp35
 70
     1
102
RTVSPost2010Prop36
280
     0
102
RTVSPost2010PropOp36
 70
     1
102
RTVSPost2010Prop37
 90
       50
102
RTVSPost2010PropOp37
 70
     1
102
RTVSPost2010Prop38
140
0.0
102
RTVSPost2010PropOp38
 70
     1
102
RTVSPost2010Prop39
140
1.0
102
RTVSPost2010PropOp39
 70
     1
102
RTVSPost2010Prop40
 90
        0
102
RTVSPost2010PropOp40
 70
     1
102
RTVSPost2010Prop41ColorIndex
 90
       18
102
RTVSPost2010Prop41ColorRGB
 90
        0
102
RTVSPost2010PropOp41
 70
     1
102
RTVSPost2010Prop42
 90
       50
102
RTVSPost2010PropOp42
 70
     1
102
RTVSPost2010Prop43
 90
        3
102
RTVSPost2010PropOp43
 70
     1
102
RTVSPost2010Prop44ColorIndex
 90
        5
102
RTVSPost2010Prop44ColorRGB
 90
      255
102
RTVSPost2010PropOp44
 70
     1
102
RTVSPost2010Prop45
280
     0
102
RTVSPost2010PropOp45
 70
     1
102
RTVSPost2010Prop46
 90
       50
102
RTVSPost2010PropOp46
 70
     1
102
RTVSPost2010Prop47
 90
       50
102
RTVSPost2010PropOp47
 70
     1
102
RTVSPost2010Prop48
 90
       50
102
RTVSPost2010PropOp48
 70
     1
102
RTVSPost2010Prop49
280
     0
102
RTVSPost2010PropOp49
 70
     1
102
RTVSPost2010Prop50
 90
       50
102
RTVSPost2010PropOp50
 70
     1
102
RTVSPost2010Prop51ColorIndex
 90
      256
102
RTVSPost2010Prop51ColorRGB
 90
-16777216
102
RTVSPost2010PropOp51
 70
     0
102
RTVSPost2010Prop52
140
1.0
102
RTVSPost2010PropOp52
 70
     0
102
RTVSPost2010Prop53
 90
        2
102
RTVSPost2010PropOp53
 70
     1
102
RTVSPost2010Prop54
  1
strokes_ogs.tif
102
RTVSPost2010PropOp54
 70
     1
102
RTVSPost2010Prop55
280
     0
102
RTVSPost2010PropOp55
 70
     1
102
RTVSPost2010Prop56
140
1.0
102
RTVSPost2010PropOp56
 70
     1
102
RTVSPost2010Prop57
140
1.0
102
RTVSPost2010PropOp57
 70
     1
102
RTVSPropertyOp0
 70
     1
102
RTVSPropertyOp1
 70
     1
102
RTVSPropertyOp2
 70
     1
102
RTVSPropertyOp3
 70
     1
102
RTVSPropertyOp4
 70
     1
102
RTVSPropertyOp5
 70
     1
102
RTVSPropertyOp6
 70
     1
102
RTVSPropertyOp7
 70
     1
102
RTVSPropertyOp8
 70
     1
102
RTVSPropertyOp9
 70
     1
102
RTVSPropertyOp10
 70
     1
102
RTVSPropertyOp11
 70
     1
102
RTVSPropertyOp12
 70
     1
102
RTVSPropertyOp13
 70
     1
102
RTVSPropertyOp14
 70
     1
102
RTVSPropertyOp15
 70
     1
102
RTVSPropertyOp16
 70
     1
102
RTVSPropertyOp17
 70
     1
102
RTVSPropertyOp18
 70
     1
102
RTVSPropertyOp19
 70
     1
102
RTVSPropertyOp20
 70
     1
102
RTVSPropertyOp21
 70
     1
102
RTVSPropertyOp22
 70
     1
102
RTVSPropertyOp23
 70
     1
102
RTVSPropertyOp24
 70
     1
102
RTVSPropertyOp25
 70
     1
102
RTVSPropertyOp26
 70
     1
102
RTVSPropertyOp27
 70
     1
102
RTVSPropertyOp28
 70
     1
102
RTVSPropertyOp29
 70
     1
102
RTVSPropertyOp30
 70
     1
102
RTVSPropertyOp31
 70
     1
102
RTVSPropertyOp32
 70
     1
102
RTVSPropertyOp33
 70
     1
102
RTVSPropertyOp34
 70
     1
102
RTVSPropertyOp35
 70
     1
102
RTVSPropertyOp36
 70
     1
102
RTVSPropertyOp37
 70
     1
102
RTVSPropertyOp38
 70
     1
102
RTVSPropertyOp39
 70
     1
102
RTVSPropertyOp40
 70
     1
102
RTVSPropertyOp41
 70
     1
102
RTVSPropertyOp42
 70
     1
102
RTVSPropertyOp43
 70
     1
102
RTVSPropertyOp44
 70
     1
102
RTVSPropertyOp45
 70
     1
102
RTVSPropertyOp46
 70
     1
102
RTVSPropertyOp47
 70
     1
102
RTVSPropertyOp48
 70
     1
102
RTVSPropertyOp49
 70
     1
102
RTVSPropertyOp50
 70
     1
102
RTVSPropertyOp51
 70
     0
102
RTVSPropertyOp52
 70
     0
102
RTVSPropertyOp53
 70
     1
102
RTVSPropertyOp54
 70
     1
102
RTVSPropertyOp55
 70
     1
102
RTVSPropertyOp56
 70
     1
102
RTVSPropertyOp57
 70
     1
102
RTVSPropertyOp58
 70
     1
102
RTVSPropertyOp59
 70
     1
102
RTVSPropertyOp60
 70
     1
102
RTVSPropertyOp61
 70
     1
102
RTVSPropertyOp62
 70
     1
  0
XRECORD
  5
68A1
102
{ACAD_REACTORS
330
68A0
102
}
330
68A0
100
AcDbXrecord
280
     1
102
RTVSPost2010Prop28
280
     0
102
RTVSPost2010PropOp28
 70
     1
102
RTVSPost2010Prop29
280
     1
102
RTVSPost2010PropOp29
 70
     1
102
RTVSPost2010Prop30
280
     1
102
RTVSPost2010PropOp30
 70
     1
102
RTVSPost2010Prop31
280
     0
102
RTVSPost2010PropOp31
 70
     1
102
RTVSPost2010Prop32
280
     0
102
RTVSPost2010PropOp32
 70
     1
102
RTVSPost2010Prop33
280
     0
102
RTVSPost2010PropOp33
 70
     1
102
RTVSPost2010Prop34
280
     0
102
RTVSPost2010PropOp34
 70
     1
102
RTVSPost2010Prop35
280
     0
102
RTVSPost2010PropOp35
 70
     1
102
RTVSPost2010Prop36
280
     0
102
RTVSPost2010PropOp36
 70
     1
102
RTVSPost2010Prop37
 90
       50
102
RTVSPost2010PropOp37
 70
     1
102
RTVSPost2010Prop38
140
0.0
102
RTVSPost2010PropOp38
 70
     1
102
RTVSPost2010Prop39
140
1.0
102
RTVSPost2010PropOp39
 70
     1
102
RTVSPost2010Prop40
 90
        0
102
RTVSPost2010PropOp40
 70
     1
102
RTVSPost2010Prop41ColorIndex
 90
       18
102
RTVSPost2010Prop41ColorRGB
 90
        0
102
RTVSPost2010PropOp41
 70
     1
102
RTVSPost2010Prop42
 90
       50
102
RTVSPost2010PropOp42
 70
     1
102
RTVSPost2010Prop43
 90
        3
102
RTVSPost2010PropOp43
 70
     1
102
RTVSPost2010Prop44ColorIndex
 90
        5
102
RTVSPost2010Prop44ColorRGB
 90
      255
102
RTVSPost2010PropOp44
 70
     1
102
RTVSPost2010Prop45
280
     0
102
RTVSPost2010PropOp45
 70
     1
102
RTVSPost2010Prop46
 90
       50
102
RTVSPost2010PropOp46
 70
     1
102
RTVSPost2010Prop47
 90
       50
102
RTVSPost2010PropOp47
 70
     1
102
RTVSPost2010Prop48
 90
       50
102
RTVSPost2010PropOp48
 70
     1
102
RTVSPost2010Prop49
280
     0
102
RTVSPost2010PropOp49
 70
     1
102
RTVSPost2010Prop50
 90
       50
102
RTVSPost2010PropOp50
 70
     1
102
RTVSPost2010Prop51ColorIndex
 90
      256
102
RTVSPost2010Prop51ColorRGB
 90
-16777216
102
RTVSPost2010PropOp51
 70
     0
102
RTVSPost2010Prop52
140
1.0
102
RTVSPost2010PropOp52
 70
     0
102
RTVSPost2010Prop53
 90
        2
102
RTVSPost2010PropOp53
 70
     1
102
RTVSPost2010Prop54
  1
strokes_ogs.tif
102
RTVSPost2010PropOp54
 70
     1
102
RTVSPost2010Prop55
280
     0
102
RTVSPost2010PropOp55
 70
     1
102
RTVSPost2010Prop56
140
1.0
102
RTVSPost2010PropOp56
 70
     1
102
RTVSPost2010Prop57
140
1.0
102
RTVSPost2010PropOp57
 70
     1
102
RTVSPropertyOp0
 70
     1
102
RTVSPropertyOp1
 70
     1
102
RTVSPropertyOp2
 70
     1
102
RTVSPropertyOp3
 70
     1
102
RTVSPropertyOp4
 70
     1
102
RTVSPropertyOp5
 70
     1
102
RTVSPropertyOp6
 70
     1
102
RTVSPropertyOp7
 70
     1
102
RTVSPropertyOp8
 70
     1
102
RTVSPropertyOp9
 70
     1
102
RTVSPropertyOp10
 70
     1
102
RTVSPropertyOp11
 70
     1
102
RTVSPropertyOp12
 70
     1
102
RTVSPropertyOp13
 70
     1
102
RTVSPropertyOp14
 70
     1
102
RTVSPropertyOp15
 70
     1
102
RTVSPropertyOp16
 70
     1
102
RTVSPropertyOp17
 70
     1
102
RTVSPropertyOp18
 70
     1
102
RTVSPropertyOp19
 70
     1
102
RTVSPropertyOp20
 70
     1
102
RTVSPropertyOp21
 70
     1
102
RTVSPropertyOp22
 70
     1
102
RTVSPropertyOp23
 70
     1
102
RTVSPropertyOp24
 70
     1
102
RTVSPropertyOp25
 70
     1
102
RTVSPropertyOp26
 70
     1
102
RTVSPropertyOp27
 70
     1
102
RTVSPropertyOp28
 70
     1
102
RTVSPropertyOp29
 70
     1
102
RTVSPropertyOp30
 70
     1
102
RTVSPropertyOp31
 70
     1
102
RTVSPropertyOp32
 70
     1
102
RTVSPropertyOp33
 70
     1
102
RTVSPropertyOp34
 70
     1
102
RTVSPropertyOp35
 70
     1
102
RTVSPropertyOp36
 70
     1
102
RTVSPropertyOp37
 70
     1
102
RTVSPropertyOp38
 70
     1
102
RTVSPropertyOp39
 70
     1
102
RTVSPropertyOp40
 70
     1
102
RTVSPropertyOp41
 70
     1
102
RTVSPropertyOp42
 70
     1
102
RTVSPropertyOp43
 70
     1
102
RTVSPropertyOp44
 70
     1
102
RTVSPropertyOp45
 70
     1
102
RTVSPropertyOp46
 70
     1
102
RTVSPropertyOp47
 70
     1
102
RTVSPropertyOp48
 70
     1
102
RTVSPropertyOp49
 70
     1
102
RTVSPropertyOp50
 70
     1
102
RTVSPropertyOp51
 70
     0
102
RTVSPropertyOp52
 70
     0
102
RTVSPropertyOp53
 70
     1
102
RTVSPropertyOp54
 70
     1
102
RTVSPropertyOp55
 70
     1
102
RTVSPropertyOp56
 70
     1
102
RTVSPropertyOp57
 70
     1
102
RTVSPropertyOp58
 70
     1
102
RTVSPropertyOp59
 70
     1
102
RTVSPropertyOp60
 70
     1
102
RTVSPropertyOp61
 70
     1
102
RTVSPropertyOp62
 70
     1
  0
XRECORD
  5
68AF
102
{ACAD_REACTORS
330
68AE
102
}
330
68AE
100
AcDbXrecord
280
     1
102
RTVSPost2010Prop28
280
     0
102
RTVSPost2010PropOp28
 70
     1
102
RTVSPost2010Prop29
280
     1
102
RTVSPost2010PropOp29
 70
     1
102
RTVSPost2010Prop30
280
     1
102
RTVSPost2010PropOp30
 70
     1
102
RTVSPost2010Prop31
280
     0
102
RTVSPost2010PropOp31
 70
     1
102
RTVSPost2010Prop32
280
     0
102
RTVSPost2010PropOp32
 70
     1
102
RTVSPost2010Prop33
280
     0
102
RTVSPost2010PropOp33
 70
     1
102
RTVSPost2010Prop34
280
     0
102
RTVSPost2010PropOp34
 70
     1
102
RTVSPost2010Prop35
280
     0
102
RTVSPost2010PropOp35
 70
     1
102
RTVSPost2010Prop36
280
     0
102
RTVSPost2010PropOp36
 70
     1
102
RTVSPost2010Prop37
 90
       50
102
RTVSPost2010PropOp37
 70
     1
102
RTVSPost2010Prop38
140
0.0
102
RTVSPost2010PropOp38
 70
     1
102
RTVSPost2010Prop39
140
1.0
102
RTVSPost2010PropOp39
 70
     1
102
RTVSPost2010Prop40
 90
        0
102
RTVSPost2010PropOp40
 70
     1
102
RTVSPost2010Prop41ColorIndex
 90
       18
102
RTVSPost2010Prop41ColorRGB
 90
        0
102
RTVSPost2010PropOp41
 70
     1
102
RTVSPost2010Prop42
 90
       50
102
RTVSPost2010PropOp42
 70
     1
102
RTVSPost2010Prop43
 90
        3
102
RTVSPost2010PropOp43
 70
     1
102
RTVSPost2010Prop44ColorIndex
 90
        5
102
RTVSPost2010Prop44ColorRGB
 90
      255
102
RTVSPost2010PropOp44
 70
     1
102
RTVSPost2010Prop45
280
     0
102
RTVSPost2010PropOp45
 70
     1
102
RTVSPost2010Prop46
 90
       50
102
RTVSPost2010PropOp46
 70
     1
102
RTVSPost2010Prop47
 90
       50
102
RTVSPost2010PropOp47
 70
     1
102
RTVSPost2010Prop48
 90
       50
102
RTVSPost2010PropOp48
 70
     1
102
RTVSPost2010Prop49
280
     0
102
RTVSPost2010PropOp49
 70
     1
102
RTVSPost2010Prop50
 90
       50
102
RTVSPost2010PropOp50
 70
     1
102
RTVSPost2010Prop51ColorIndex
 90
      256
102
RTVSPost2010Prop51ColorRGB
 90
-16777216
102
RTVSPost2010PropOp51
 70
     0
102
RTVSPost2010Prop52
140
1.0
102
RTVSPost2010PropOp52
 70
     0
102
RTVSPost2010Prop53
 90
        2
102
RTVSPost2010PropOp53
 70
     1
102
RTVSPost2010Prop54
  1
strokes_ogs.tif
102
RTVSPost2010PropOp54
 70
     1
102
RTVSPost2010Prop55
280
     0
102
RTVSPost2010PropOp55
 70
     1
102
RTVSPost2010Prop56
140
1.0
102
RTVSPost2010PropOp56
 70
     1
102
RTVSPost2010Prop57
140
1.0
102
RTVSPost2010PropOp57
 70
     1
102
RTVSPropertyOp0
 70
     1
102
RTVSPropertyOp1
 70
     1
102
RTVSPropertyOp2
 70
     1
102
RTVSPropertyOp3
 70
     1
102
RTVSPropertyOp4
 70
     1
102
RTVSPropertyOp5
 70
     1
102
RTVSPropertyOp6
 70
     1
102
RTVSPropertyOp7
 70
     1
102
RTVSPropertyOp8
 70
     1
102
RTVSPropertyOp9
 70
     1
102
RTVSPropertyOp10
 70
     1
102
RTVSPropertyOp11
 70
     1
102
RTVSPropertyOp12
 70
     1
102
RTVSPropertyOp13
 70
     1
102
RTVSPropertyOp14
 70
     1
102
RTVSPropertyOp15
 70
     1
102
RTVSPropertyOp16
 70
     1
102
RTVSPropertyOp17
 70
     1
102
RTVSPropertyOp18
 70
     1
102
RTVSPropertyOp19
 70
     1
102
RTVSPropertyOp20
 70
     1
102
RTVSPropertyOp21
 70
     1
102
RTVSPropertyOp22
 70
     1
102
RTVSPropertyOp23
 70
     1
102
RTVSPropertyOp24
 70
     1
102
RTVSPropertyOp25
 70
     1
102
RTVSPropertyOp26
 70
     1
102
RTVSPropertyOp27
 70
     1
102
RTVSPropertyOp28
 70
     1
102
RTVSPropertyOp29
 70
     1
102
RTVSPropertyOp30
 70
     1
102
RTVSPropertyOp31
 70
     1
102
RTVSPropertyOp32
 70
     1
102
RTVSPropertyOp33
 70
     1
102
RTVSPropertyOp34
 70
     1
102
RTVSPropertyOp35
 70
     1
102
RTVSPropertyOp36
 70
     1
102
RTVSPropertyOp37
 70
     1
102
RTVSPropertyOp38
 70
     1
102
RTVSPropertyOp39
 70
     1
102
RTVSPropertyOp40
 70
     1
102
RTVSPropertyOp41
 70
     1
102
RTVSPropertyOp42
 70
     1
102
RTVSPropertyOp43
 70
     1
102
RTVSPropertyOp44
 70
     1
102
RTVSPropertyOp45
 70
     1
102
RTVSPropertyOp46
 70
     1
102
RTVSPropertyOp47
 70
     1
102
RTVSPropertyOp48
 70
     1
102
RTVSPropertyOp49
 70
     1
102
RTVSPropertyOp50
 70
     1
102
RTVSPropertyOp51
 70
     0
102
RTVSPropertyOp52
 70
     0
102
RTVSPropertyOp53
 70
     1
102
RTVSPropertyOp54
 70
     1
102
RTVSPropertyOp55
 70
     1
102
RTVSPropertyOp56
 70
     1
102
RTVSPropertyOp57
 70
     1
102
RTVSPropertyOp58
 70
     1
102
RTVSPropertyOp59
 70
     1
102
RTVSPropertyOp60
 70
     1
102
RTVSPropertyOp61
 70
     1
102
RTVSPropertyOp62
 70
     1
  0
XRECORD
  5
68B7
102
{ACAD_REACTORS
330
68B6
102
}
330
68B6
100
AcDbXrecord
280
     1
102
RTVSPost2010Prop28
280
     0
102
RTVSPost2010PropOp28
 70
     1
102
RTVSPost2010Prop29
280
     1
102
RTVSPost2010PropOp29
 70
     1
102
RTVSPost2010Prop30
280
     1
102
RTVSPost2010PropOp30
 70
     1
102
RTVSPost2010Prop31
280
     0
102
RTVSPost2010PropOp31
 70
     1
102
RTVSPost2010Prop32
280
     0
102
RTVSPost2010PropOp32
 70
     1
102
RTVSPost2010Prop33
280
     0
102
RTVSPost2010PropOp33
 70
     1
102
RTVSPost2010Prop34
280
     0
102
RTVSPost2010PropOp34
 70
     1
102
RTVSPost2010Prop35
280
     0
102
RTVSPost2010PropOp35
 70
     1
102
RTVSPost2010Prop36
280
     0
102
RTVSPost2010PropOp36
 70
     1
102
RTVSPost2010Prop37
 90
       50
102
RTVSPost2010PropOp37
 70
     1
102
RTVSPost2010Prop38
140
0.0
102
RTVSPost2010PropOp38
 70
     1
102
RTVSPost2010Prop39
140
1.0
102
RTVSPost2010PropOp39
 70
     1
102
RTVSPost2010Prop40
 90
        0
102
RTVSPost2010PropOp40
 70
     1
102
RTVSPost2010Prop41ColorIndex
 90
       18
102
RTVSPost2010Prop41ColorRGB
 90
        0
102
RTVSPost2010PropOp41
 70
     1
102
RTVSPost2010Prop42
 90
       50
102
RTVSPost2010PropOp42
 70
     1
102
RTVSPost2010Prop43
 90
        3
102
RTVSPost2010PropOp43
 70
     1
102
RTVSPost2010Prop44ColorIndex
 90
        5
102
RTVSPost2010Prop44ColorRGB
 90
      255
102
RTVSPost2010PropOp44
 70
     1
102
RTVSPost2010Prop45
280
     0
102
RTVSPost2010PropOp45
 70
     1
102
RTVSPost2010Prop46
 90
       50
102
RTVSPost2010PropOp46
 70
     1
102
RTVSPost2010Prop47
 90
       50
102
RTVSPost2010PropOp47
 70
     1
102
RTVSPost2010Prop48
 90
       50
102
RTVSPost2010PropOp48
 70
     1
102
RTVSPost2010Prop49
280
     0
102
RTVSPost2010PropOp49
 70
     1
102
RTVSPost2010Prop50
 90
       50
102
RTVSPost2010PropOp50
 70
     1
102
RTVSPost2010Prop51ColorIndex
 90
      256
102
RTVSPost2010Prop51ColorRGB
 90
-16777216
102
RTVSPost2010PropOp51
 70
     0
102
RTVSPost2010Prop52
140
1.0
102
RTVSPost2010PropOp52
 70
     0
102
RTVSPost2010Prop53
 90
        2
102
RTVSPost2010PropOp53
 70
     1
102
RTVSPost2010Prop54
  1
strokes_ogs.tif
102
RTVSPost2010PropOp54
 70
     1
102
RTVSPost2010Prop55
280
     0
102
RTVSPost2010PropOp55
 70
     1
102
RTVSPost2010Prop56
140
1.0
102
RTVSPost2010PropOp56
 70
     1
102
RTVSPost2010Prop57
140
1.0
102
RTVSPost2010PropOp57
 70
     1
102
RTVSPropertyOp0
 70
     1
102
RTVSPropertyOp1
 70
     1
102
RTVSPropertyOp2
 70
     1
102
RTVSPropertyOp3
 70
     1
102
RTVSPropertyOp4
 70
     1
102
RTVSPropertyOp5
 70
     1
102
RTVSPropertyOp6
 70
     1
102
RTVSPropertyOp7
 70
     1
102
RTVSPropertyOp8
 70
     1
102
RTVSPropertyOp9
 70
     1
102
RTVSPropertyOp10
 70
     1
102
RTVSPropertyOp11
 70
     1
102
RTVSPropertyOp12
 70
     1
102
RTVSPropertyOp13
 70
     1
102
RTVSPropertyOp14
 70
     1
102
RTVSPropertyOp15
 70
     1
102
RTVSPropertyOp16
 70
     1
102
RTVSPropertyOp17
 70
     1
102
RTVSPropertyOp18
 70
     1
102
RTVSPropertyOp19
 70
     1
102
RTVSPropertyOp20
 70
     1
102
RTVSPropertyOp21
 70
     1
102
RTVSPropertyOp22
 70
     1
102
RTVSPropertyOp23
 70
     1
102
RTVSPropertyOp24
 70
     1
102
RTVSPropertyOp25
 70
     1
102
RTVSPropertyOp26
 70
     1
102
RTVSPropertyOp27
 70
     1
102
RTVSPropertyOp28
 70
     1
102
RTVSPropertyOp29
 70
     1
102
RTVSPropertyOp30
 70
     1
102
RTVSPropertyOp31
 70
     1
102
RTVSPropertyOp32
 70
     1
102
RTVSPropertyOp33
 70
     1
102
RTVSPropertyOp34
 70
     1
102
RTVSPropertyOp35
 70
     1
102
RTVSPropertyOp36
 70
     1
102
RTVSPropertyOp37
 70
     1
102
RTVSPropertyOp38
 70
     1
102
RTVSPropertyOp39
 70
     1
102
RTVSPropertyOp40
 70
     1
102
RTVSPropertyOp41
 70
     1
102
RTVSPropertyOp42
 70
     1
102
RTVSPropertyOp43
 70
     1
102
RTVSPropertyOp44
 70
     1
102
RTVSPropertyOp45
 70
     1
102
RTVSPropertyOp46
 70
     1
102
RTVSPropertyOp47
 70
     1
102
RTVSPropertyOp48
 70
     1
102
RTVSPropertyOp49
 70
     1
102
RTVSPropertyOp50
 70
     1
102
RTVSPropertyOp51
 70
     0
102
RTVSPropertyOp52
 70
     0
102
RTVSPropertyOp53
 70
     1
102
RTVSPropertyOp54
 70
     1
102
RTVSPropertyOp55
 70
     1
102
RTVSPropertyOp56
 70
     1
102
RTVSPropertyOp57
 70
     1
102
RTVSPropertyOp58
 70
     1
102
RTVSPropertyOp59
 70
     1
102
RTVSPropertyOp60
 70
     1
102
RTVSPropertyOp61
 70
     1
102
RTVSPropertyOp62
 70
     1
  0
XRECORD
  5
68A9
102
{ACAD_REACTORS
330
68A8
102
}
330
68A8
100
AcDbXrecord
280
     1
102
RTVSPost2010Prop28
280
     0
102
RTVSPost2010PropOp28
 70
     1
102
RTVSPost2010Prop29
280
     1
102
RTVSPost2010PropOp29
 70
     1
102
RTVSPost2010Prop30
280
     1
102
RTVSPost2010PropOp30
 70
     1
102
RTVSPost2010Prop31
280
     0
102
RTVSPost2010PropOp31
 70
     1
102
RTVSPost2010Prop32
280
     0
102
RTVSPost2010PropOp32
 70
     1
102
RTVSPost2010Prop33
280
     0
102
RTVSPost2010PropOp33
 70
     1
102
RTVSPost2010Prop34
280
     0
102
RTVSPost2010PropOp34
 70
     1
102
RTVSPost2010Prop35
280
     0
102
RTVSPost2010PropOp35
 70
     1
102
RTVSPost2010Prop36
280
     0
102
RTVSPost2010PropOp36
 70
     1
102
RTVSPost2010Prop37
 90
       50
102
RTVSPost2010PropOp37
 70
     1
102
RTVSPost2010Prop38
140
0.0
102
RTVSPost2010PropOp38
 70
     1
102
RTVSPost2010Prop39
140
1.0
102
RTVSPost2010PropOp39
 70
     1
102
RTVSPost2010Prop40
 90
        0
102
RTVSPost2010PropOp40
 70
     1
102
RTVSPost2010Prop41ColorIndex
 90
       18
102
RTVSPost2010Prop41ColorRGB
 90
        0
102
RTVSPost2010PropOp41
 70
     1
102
RTVSPost2010Prop42
 90
       50
102
RTVSPost2010PropOp42
 70
     1
102
RTVSPost2010Prop43
 90
        3
102
RTVSPost2010PropOp43
 70
     1
102
RTVSPost2010Prop44ColorIndex
 90
        5
102
RTVSPost2010Prop44ColorRGB
 90
      255
102
RTVSPost2010PropOp44
 70
     1
102
RTVSPost2010Prop45
280
     0
102
RTVSPost2010PropOp45
 70
     1
102
RTVSPost2010Prop46
 90
       50
102
RTVSPost2010PropOp46
 70
     1
102
RTVSPost2010Prop47
 90
       50
102
RTVSPost2010PropOp47
 70
     1
102
RTVSPost2010Prop48
 90
       50
102
RTVSPost2010PropOp48
 70
     1
102
RTVSPost2010Prop49
280
     0
102
RTVSPost2010PropOp49
 70
     1
102
RTVSPost2010Prop50
 90
       50
102
RTVSPost2010PropOp50
 70
     1
102
RTVSPost2010Prop51ColorIndex
 90
      256
102
RTVSPost2010Prop51ColorRGB
 90
-16777216
102
RTVSPost2010PropOp51
 70
     0
102
RTVSPost2010Prop52
140
1.0
102
RTVSPost2010PropOp52
 70
     0
102
RTVSPost2010Prop53
 90
        2
102
RTVSPost2010PropOp53
 70
     1
102
RTVSPost2010Prop54
  1
strokes_ogs.tif
102
RTVSPost2010PropOp54
 70
     1
102
RTVSPost2010Prop55
280
     0
102
RTVSPost2010PropOp55
 70
     1
102
RTVSPost2010Prop56
140
1.0
102
RTVSPost2010PropOp56
 70
     1
102
RTVSPost2010Prop57
140
1.0
102
RTVSPost2010PropOp57
 70
     1
102
RTVSPropertyOp0
 70
     1
102
RTVSPropertyOp1
 70
     1
102
RTVSPropertyOp2
 70
     1
102
RTVSPropertyOp3
 70
     1
102
RTVSPropertyOp4
 70
     1
102
RTVSPropertyOp5
 70
     1
102
RTVSPropertyOp6
 70
     1
102
RTVSPropertyOp7
 70
     1
102
RTVSPropertyOp8
 70
     1
102
RTVSPropertyOp9
 70
     1
102
RTVSPropertyOp10
 70
     1
102
RTVSPropertyOp11
 70
     1
102
RTVSPropertyOp12
 70
     1
102
RTVSPropertyOp13
 70
     1
102
RTVSPropertyOp14
 70
     1
102
RTVSPropertyOp15
 70
     1
102
RTVSPropertyOp16
 70
     1
102
RTVSPropertyOp17
 70
     1
102
RTVSPropertyOp18
 70
     1
102
RTVSPropertyOp19
 70
     1
102
RTVSPropertyOp20
 70
     1
102
RTVSPropertyOp21
 70
     1
102
RTVSPropertyOp22
 70
     1
102
RTVSPropertyOp23
 70
     1
102
RTVSPropertyOp24
 70
     1
102
RTVSPropertyOp25
 70
     1
102
RTVSPropertyOp26
 70
     1
102
RTVSPropertyOp27
 70
     1
102
RTVSPropertyOp28
 70
     1
102
RTVSPropertyOp29
 70
     1
102
RTVSPropertyOp30
 70
     1
102
RTVSPropertyOp31
 70
     1
102
RTVSPropertyOp32
 70
     1
102
RTVSPropertyOp33
 70
     1
102
RTVSPropertyOp34
 70
     1
102
RTVSPropertyOp35
 70
     1
102
RTVSPropertyOp36
 70
     1
102
RTVSPropertyOp37
 70
     1
102
RTVSPropertyOp38
 70
     1
102
RTVSPropertyOp39
 70
     1
102
RTVSPropertyOp40
 70
     1
102
RTVSPropertyOp41
 70
     1
102
RTVSPropertyOp42
 70
     1
102
RTVSPropertyOp43
 70
     1
102
RTVSPropertyOp44
 70
     1
102
RTVSPropertyOp45
 70
     1
102
RTVSPropertyOp46
 70
     1
102
RTVSPropertyOp47
 70
     1
102
RTVSPropertyOp48
 70
     1
102
RTVSPropertyOp49
 70
     1
102
RTVSPropertyOp50
 70
     1
102
RTVSPropertyOp51
 70
     0
102
RTVSPropertyOp52
 70
     0
102
RTVSPropertyOp53
 70
     1
102
RTVSPropertyOp54
 70
     1
102
RTVSPropertyOp55
 70
     1
102
RTVSPropertyOp56
 70
     1
102
RTVSPropertyOp57
 70
     1
102
RTVSPropertyOp58
 70
     1
102
RTVSPropertyOp59
 70
     1
102
RTVSPropertyOp60
 70
     1
102
RTVSPropertyOp61
 70
     1
102
RTVSPropertyOp62
 70
     1
  0
XRECORD
  5
68AD
102
{ACAD_REACTORS
330
68AC
102
}
330
68AC
100
AcDbXrecord
280
     1
102
RTVSPost2010Prop28
280
     0
102
RTVSPost2010PropOp28
 70
     1
102
RTVSPost2010Prop29
280
     1
102
RTVSPost2010PropOp29
 70
     1
102
RTVSPost2010Prop30
280
     1
102
RTVSPost2010PropOp30
 70
     1
102
RTVSPost2010Prop31
280
     0
102
RTVSPost2010PropOp31
 70
     1
102
RTVSPost2010Prop32
280
     0
102
RTVSPost2010PropOp32
 70
     1
102
RTVSPost2010Prop33
280
     0
102
RTVSPost2010PropOp33
 70
     1
102
RTVSPost2010Prop34
280
     0
102
RTVSPost2010PropOp34
 70
     1
102
RTVSPost2010Prop35
280
     0
102
RTVSPost2010PropOp35
 70
     1
102
RTVSPost2010Prop36
280
     0
102
RTVSPost2010PropOp36
 70
     1
102
RTVSPost2010Prop37
 90
       50
102
RTVSPost2010PropOp37
 70
     1
102
RTVSPost2010Prop38
140
0.0
102
RTVSPost2010PropOp38
 70
     1
102
RTVSPost2010Prop39
140
1.0
102
RTVSPost2010PropOp39
 70
     1
102
RTVSPost2010Prop40
 90
        0
102
RTVSPost2010PropOp40
 70
     1
102
RTVSPost2010Prop41ColorIndex
 90
       18
102
RTVSPost2010Prop41ColorRGB
 90
        0
102
RTVSPost2010PropOp41
 70
     1
102
RTVSPost2010Prop42
 90
       50
102
RTVSPost2010PropOp42
 70
     1
102
RTVSPost2010Prop43
 90
        3
102
RTVSPost2010PropOp43
 70
     1
102
RTVSPost2010Prop44ColorIndex
 90
        5
102
RTVSPost2010Prop44ColorRGB
 90
      255
102
RTVSPost2010PropOp44
 70
     1
102
RTVSPost2010Prop45
280
     0
102
RTVSPost2010PropOp45
 70
     1
102
RTVSPost2010Prop46
 90
       50
102
RTVSPost2010PropOp46
 70
     1
102
RTVSPost2010Prop47
 90
       50
102
RTVSPost2010PropOp47
 70
     1
102
RTVSPost2010Prop48
 90
       50
102
RTVSPost2010PropOp48
 70
     1
102
RTVSPost2010Prop49
280
     0
102
RTVSPost2010PropOp49
 70
     1
102
RTVSPost2010Prop50
 90
       50
102
RTVSPost2010PropOp50
 70
     1
102
RTVSPost2010Prop51ColorIndex
 90
      256
102
RTVSPost2010Prop51ColorRGB
 90
-16777216
102
RTVSPost2010PropOp51
 70
     0
102
RTVSPost2010Prop52
140
1.0
102
RTVSPost2010PropOp52
 70
     0
102
RTVSPost2010Prop53
 90
        2
102
RTVSPost2010PropOp53
 70
     1
102
RTVSPost2010Prop54
  1
strokes_ogs.tif
102
RTVSPost2010PropOp54
 70
     1
102
RTVSPost2010Prop55
280
     0
102
RTVSPost2010PropOp55
 70
     1
102
RTVSPost2010Prop56
140
1.0
102
RTVSPost2010PropOp56
 70
     1
102
RTVSPost2010Prop57
140
1.0
102
RTVSPost2010PropOp57
 70
     1
102
RTVSPropertyOp0
 70
     1
102
RTVSPropertyOp1
 70
     1
102
RTVSPropertyOp2
 70
     1
102
RTVSPropertyOp3
 70
     1
102
RTVSPropertyOp4
 70
     1
102
RTVSPropertyOp5
 70
     1
102
RTVSPropertyOp6
 70
     1
102
RTVSPropertyOp7
 70
     1
102
RTVSPropertyOp8
 70
     1
102
RTVSPropertyOp9
 70
     1
102
RTVSPropertyOp10
 70
     1
102
RTVSPropertyOp11
 70
     1
102
RTVSPropertyOp12
 70
     1
102
RTVSPropertyOp13
 70
     1
102
RTVSPropertyOp14
 70
     1
102
RTVSPropertyOp15
 70
     1
102
RTVSPropertyOp16
 70
     1
102
RTVSPropertyOp17
 70
     1
102
RTVSPropertyOp18
 70
     1
102
RTVSPropertyOp19
 70
     1
102
RTVSPropertyOp20
 70
     1
102
RTVSPropertyOp21
 70
     1
102
RTVSPropertyOp22
 70
     1
102
RTVSPropertyOp23
 70
     1
102
RTVSPropertyOp24
 70
     1
102
RTVSPropertyOp25
 70
     1
102
RTVSPropertyOp26
 70
     1
102
RTVSPropertyOp27
 70
     1
102
RTVSPropertyOp28
 70
     1
102
RTVSPropertyOp29
 70
     1
102
RTVSPropertyOp30
 70
     1
102
RTVSPropertyOp31
 70
     1
102
RTVSPropertyOp32
 70
     1
102
RTVSPropertyOp33
 70
     1
102
RTVSPropertyOp34
 70
     1
102
RTVSPropertyOp35
 70
     1
102
RTVSPropertyOp36
 70
     1
102
RTVSPropertyOp37
 70
     1
102
RTVSPropertyOp38
 70
     1
102
RTVSPropertyOp39
 70
     1
102
RTVSPropertyOp40
 70
     1
102
RTVSPropertyOp41
 70
     1
102
RTVSPropertyOp42
 70
     1
102
RTVSPropertyOp43
 70
     1
102
RTVSPropertyOp44
 70
     1
102
RTVSPropertyOp45
 70
     1
102
RTVSPropertyOp46
 70
     1
102
RTVSPropertyOp47
 70
     1
102
RTVSPropertyOp48
 70
     1
102
RTVSPropertyOp49
 70
     1
102
RTVSPropertyOp50
 70
     1
102
RTVSPropertyOp51
 70
     0
102
RTVSPropertyOp52
 70
     0
102
RTVSPropertyOp53
 70
     1
102
RTVSPropertyOp54
 70
     1
102
RTVSPropertyOp55
 70
     1
102
RTVSPropertyOp56
 70
     1
102
RTVSPropertyOp57
 70
     1
102
RTVSPropertyOp58
 70
     1
102
RTVSPropertyOp59
 70
     1
102
RTVSPropertyOp60
 70
     1
102
RTVSPropertyOp61
 70
     1
102
RTVSPropertyOp62
 70
     1
  0
XRECORD
  5
68CD
102
{ACAD_REACTORS
330
68CC
102
}
330
68CC
100
AcDbXrecord
280
     1
102
RTVSPost2010Prop28
280
     0
102
RTVSPost2010PropOp28
 70
     0
102
RTVSPost2010Prop29
280
     1
102
RTVSPost2010PropOp29
 70
     0
102
RTVSPost2010Prop30
280
     1
102
RTVSPost2010PropOp30
 70
     0
102
RTVSPost2010Prop31
280
     0
102
RTVSPost2010PropOp31
 70
     0
102
RTVSPost2010Prop32
280
     0
102
RTVSPost2010PropOp32
 70
     0
102
RTVSPost2010Prop33
280
     0
102
RTVSPost2010PropOp33
 70
     0
102
RTVSPost2010Prop34
280
     0
102
RTVSPost2010PropOp34
 70
     0
102
RTVSPost2010Prop35
280
     0
102
RTVSPost2010PropOp35
 70
     0
102
RTVSPost2010Prop36
280
     0
102
RTVSPost2010PropOp36
 70
     0
102
RTVSPost2010Prop37
 90
       50
102
RTVSPost2010PropOp37
 70
     0
102
RTVSPost2010Prop38
140
0.0
102
RTVSPost2010PropOp38
 70
     0
102
RTVSPost2010Prop39
140
1.0
102
RTVSPost2010PropOp39
 70
     0
102
RTVSPost2010Prop40
 90
        0
102
RTVSPost2010PropOp40
 70
     0
102
RTVSPost2010Prop41ColorIndex
 90
       18
102
RTVSPost2010Prop41ColorRGB
 90
        0
102
RTVSPost2010PropOp41
 70
     0
102
RTVSPost2010Prop42
 90
       50
102
RTVSPost2010PropOp42
 70
     0
102
RTVSPost2010Prop43
 90
        3
102
RTVSPost2010PropOp43
 70
     0
102
RTVSPost2010Prop44ColorIndex
 90
        5
102
RTVSPost2010Prop44ColorRGB
 90
      255
102
RTVSPost2010PropOp44
 70
     0
102
RTVSPost2010Prop45
280
     0
102
RTVSPost2010PropOp45
 70
     0
102
RTVSPost2010Prop46
 90
       50
102
RTVSPost2010PropOp46
 70
     0
102
RTVSPost2010Prop47
 90
       50
102
RTVSPost2010PropOp47
 70
     0
102
RTVSPost2010Prop48
 90
       50
102
RTVSPost2010PropOp48
 70
     0
102
RTVSPost2010Prop49
280
     0
102
RTVSPost2010PropOp49
 70
     0
102
RTVSPost2010Prop50
 90
       50
102
RTVSPost2010PropOp50
 70
     0
102
RTVSPost2010Prop51ColorIndex
 90
      256
102
RTVSPost2010Prop51ColorRGB
 90
-16777216
102
RTVSPost2010PropOp51
 70
     0
102
RTVSPost2010Prop52
140
1.0
102
RTVSPost2010PropOp52
 70
     0
102
RTVSPost2010Prop53
 90
        2
102
RTVSPost2010PropOp53
 70
     0
102
RTVSPost2010Prop54
  1
strokes_ogs.tif
102
RTVSPost2010PropOp54
 70
     0
102
RTVSPost2010Prop55
280
     0
102
RTVSPost2010PropOp55
 70
     0
102
RTVSPost2010Prop56
140
1.0
102
RTVSPost2010PropOp56
 70
     0
102
RTVSPost2010Prop57
140
1.0
102
RTVSPost2010PropOp57
 70
     0
102
RTVSPropertyOp0
 70
     0
102
RTVSPropertyOp1
 70
     0
102
RTVSPropertyOp2
 70
     0
102
RTVSPropertyOp3
 70
     0
102
RTVSPropertyOp4
 70
     0
102
RTVSPropertyOp5
 70
     0
102
RTVSPropertyOp6
 70
     0
102
RTVSPropertyOp7
 70
     0
102
RTVSPropertyOp8
 70
     0
102
RTVSPropertyOp9
 70
     0
102
RTVSPropertyOp10
 70
     0
102
RTVSPropertyOp11
 70
     0
102
RTVSPropertyOp12
 70
     0
102
RTVSPropertyOp13
 70
     0
102
RTVSPropertyOp14
 70
     2
102
RTVSPropertyOp15
 70
     0
102
RTVSPropertyOp16
 70
     0
102
RTVSPropertyOp17
 70
     0
102
RTVSPropertyOp18
 70
     0
102
RTVSPropertyOp19
 70
     0
102
RTVSPropertyOp20
 70
     0
102
RTVSPropertyOp21
 70
     0
102
RTVSPropertyOp22
 70
     0
102
RTVSPropertyOp23
 70
     0
102
RTVSPropertyOp24
 70
     0
102
RTVSPropertyOp25
 70
     0
102
RTVSPropertyOp26
 70
     0
102
RTVSPropertyOp27
 70
     0
102
RTVSPropertyOp28
 70
     0
102
RTVSPropertyOp29
 70
     0
102
RTVSPropertyOp30
 70
     0
102
RTVSPropertyOp31
 70
     0
102
RTVSPropertyOp32
 70
     0
102
RTVSPropertyOp33
 70
     0
102
RTVSPropertyOp34
 70
     0
102
RTVSPropertyOp35
 70
     0
102
RTVSPropertyOp36
 70
     0
102
RTVSPropertyOp37
 70
     0
102
RTVSPropertyOp38
 70
     0
102
RTVSPropertyOp39
 70
     0
102
RTVSPropertyOp40
 70
     0
102
RTVSPropertyOp41
 70
     0
102
RTVSPropertyOp42
 70
     0
102
RTVSPropertyOp43
 70
     0
102
RTVSPropertyOp44
 70
     0
102
RTVSPropertyOp45
 70
     0
102
RTVSPropertyOp46
 70
     0
102
RTVSPropertyOp47
 70
     0
102
RTVSPropertyOp48
 70
     0
102
RTVSPropertyOp49
 70
     0
102
RTVSPropertyOp50
 70
     0
102
RTVSPropertyOp51
 70
     0
102
RTVSPropertyOp52
 70
     0
102
RTVSPropertyOp53
 70
     0
102
RTVSPropertyOp54
 70
     0
102
RTVSPropertyOp55
 70
     0
102
RTVSPropertyOp56
 70
     0
102
RTVSPropertyOp57
 70
     0
102
RTVSPropertyOp58
 70
     0
102
RTVSPropertyOp59
 70
     0
102
RTVSPropertyOp60
 70
     0
102
RTVSPropertyOp61
 70
     0
102
RTVSPropertyOp62
 70
     0
  0
XRECORD
  5
68B5
102
{ACAD_REACTORS
330
68B4
102
}
330
68B4
100
AcDbXrecord
280
     1
102
RTVSPost2010Prop28
280
     0
102
RTVSPost2010PropOp28
 70
     1
102
RTVSPost2010Prop29
280
     1
102
RTVSPost2010PropOp29
 70
     1
102
RTVSPost2010Prop30
280
     1
102
RTVSPost2010PropOp30
 70
     1
102
RTVSPost2010Prop31
280
     0
102
RTVSPost2010PropOp31
 70
     1
102
RTVSPost2010Prop32
280
     0
102
RTVSPost2010PropOp32
 70
     1
102
RTVSPost2010Prop33
280
     0
102
RTVSPost2010PropOp33
 70
     1
102
RTVSPost2010Prop34
280
     0
102
RTVSPost2010PropOp34
 70
     1
102
RTVSPost2010Prop35
280
     0
102
RTVSPost2010PropOp35
 70
     1
102
RTVSPost2010Prop36
280
     0
102
RTVSPost2010PropOp36
 70
     1
102
RTVSPost2010Prop37
 90
       50
102
RTVSPost2010PropOp37
 70
     1
102
RTVSPost2010Prop38
140
0.0
102
RTVSPost2010PropOp38
 70
     1
102
RTVSPost2010Prop39
140
1.0
102
RTVSPost2010PropOp39
 70
     1
102
RTVSPost2010Prop40
 90
        0
102
RTVSPost2010PropOp40
 70
     1
102
RTVSPost2010Prop41ColorIndex
 90
       18
102
RTVSPost2010Prop41ColorRGB
 90
        0
102
RTVSPost2010PropOp41
 70
     1
102
RTVSPost2010Prop42
 90
       50
102
RTVSPost2010PropOp42
 70
     1
102
RTVSPost2010Prop43
 90
        3
102
RTVSPost2010PropOp43
 70
     1
102
RTVSPost2010Prop44ColorIndex
 90
        5
102
RTVSPost2010Prop44ColorRGB
 90
      255
102
RTVSPost2010PropOp44
 70
     1
102
RTVSPost2010Prop45
280
     0
102
RTVSPost2010PropOp45
 70
     1
102
RTVSPost2010Prop46
 90
       50
102
RTVSPost2010PropOp46
 70
     1
102
RTVSPost2010Prop47
 90
       50
102
RTVSPost2010PropOp47
 70
     1
102
RTVSPost2010Prop48
 90
       50
102
RTVSPost2010PropOp48
 70
     1
102
RTVSPost2010Prop49
280
     0
102
RTVSPost2010PropOp49
 70
     1
102
RTVSPost2010Prop50
 90
       50
102
RTVSPost2010PropOp50
 70
     1
102
RTVSPost2010Prop51ColorIndex
 90
      256
102
RTVSPost2010Prop51ColorRGB
 90
-16777216
102
RTVSPost2010PropOp51
 70
     0
102
RTVSPost2010Prop52
140
1.0
102
RTVSPost2010PropOp52
 70
     0
102
RTVSPost2010Prop53
 90
        2
102
RTVSPost2010PropOp53
 70
     1
102
RTVSPost2010Prop54
  1
strokes_ogs.tif
102
RTVSPost2010PropOp54
 70
     1
102
RTVSPost2010Prop55
280
     0
102
RTVSPost2010PropOp55
 70
     1
102
RTVSPost2010Prop56
140
1.0
102
RTVSPost2010PropOp56
 70
     1
102
RTVSPost2010Prop57
140
1.0
102
RTVSPost2010PropOp57
 70
     1
102
RTVSPropertyOp0
 70
     1
102
RTVSPropertyOp1
 70
     1
102
RTVSPropertyOp2
 70
     1
102
RTVSPropertyOp3
 70
     1
102
RTVSPropertyOp4
 70
     1
102
RTVSPropertyOp5
 70
     1
102
RTVSPropertyOp6
 70
     1
102
RTVSPropertyOp7
 70
     1
102
RTVSPropertyOp8
 70
     1
102
RTVSPropertyOp9
 70
     1
102
RTVSPropertyOp10
 70
     1
102
RTVSPropertyOp11
 70
     1
102
RTVSPropertyOp12
 70
     1
102
RTVSPropertyOp13
 70
     1
102
RTVSPropertyOp14
 70
     1
102
RTVSPropertyOp15
 70
     1
102
RTVSPropertyOp16
 70
     1
102
RTVSPropertyOp17
 70
     1
102
RTVSPropertyOp18
 70
     1
102
RTVSPropertyOp19
 70
     1
102
RTVSPropertyOp20
 70
     1
102
RTVSPropertyOp21
 70
     1
102
RTVSPropertyOp22
 70
     1
102
RTVSPropertyOp23
 70
     1
102
RTVSPropertyOp24
 70
     1
102
RTVSPropertyOp25
 70
     1
102
RTVSPropertyOp26
 70
     1
102
RTVSPropertyOp27
 70
     1
102
RTVSPropertyOp28
 70
     1
102
RTVSPropertyOp29
 70
     1
102
RTVSPropertyOp30
 70
     1
102
RTVSPropertyOp31
 70
     1
102
RTVSPropertyOp32
 70
     1
102
RTVSPropertyOp33
 70
     1
102
RTVSPropertyOp34
 70
     1
102
RTVSPropertyOp35
 70
     1
102
RTVSPropertyOp36
 70
     1
102
RTVSPropertyOp37
 70
     1
102
RTVSPropertyOp38
 70
     1
102
RTVSPropertyOp39
 70
     1
102
RTVSPropertyOp40
 70
     1
102
RTVSPropertyOp41
 70
     1
102
RTVSPropertyOp42
 70
     1
102
RTVSPropertyOp43
 70
     1
102
RTVSPropertyOp44
 70
     1
102
RTVSPropertyOp45
 70
     1
102
RTVSPropertyOp46
 70
     1
102
RTVSPropertyOp47
 70
     1
102
RTVSPropertyOp48
 70
     1
102
RTVSPropertyOp49
 70
     1
102
RTVSPropertyOp50
 70
     1
102
RTVSPropertyOp51
 70
     0
102
RTVSPropertyOp52
 70
     0
102
RTVSPropertyOp53
 70
     1
102
RTVSPropertyOp54
 70
     1
102
RTVSPropertyOp55
 70
     1
102
RTVSPropertyOp56
 70
     1
102
RTVSPropertyOp57
 70
     1
102
RTVSPropertyOp58
 70
     1
102
RTVSPropertyOp59
 70
     1
102
RTVSPropertyOp60
 70
     1
102
RTVSPropertyOp61
 70
     1
102
RTVSPropertyOp62
 70
     1
  0
XRECORD
  5
6899
102
{ACAD_REACTORS
330
6898
102
}
330
6898
100
AcDbXrecord
280
     1
102
RTVSPost2010Prop28
280
     0
102
RTVSPost2010PropOp28
 70
     1
102
RTVSPost2010Prop29
280
     1
102
RTVSPost2010PropOp29
 70
     1
102
RTVSPost2010Prop30
280
     1
102
RTVSPost2010PropOp30
 70
     1
102
RTVSPost2010Prop31
280
     0
102
RTVSPost2010PropOp31
 70
     1
102
RTVSPost2010Prop32
280
     0
102
RTVSPost2010PropOp32
 70
     1
102
RTVSPost2010Prop33
280
     0
102
RTVSPost2010PropOp33
 70
     1
102
RTVSPost2010Prop34
280
     0
102
RTVSPost2010PropOp34
 70
     1
102
RTVSPost2010Prop35
280
     0
102
RTVSPost2010PropOp35
 70
     1
102
RTVSPost2010Prop36
280
     0
102
RTVSPost2010PropOp36
 70
     1
102
RTVSPost2010Prop37
 90
       50
102
RTVSPost2010PropOp37
 70
     1
102
RTVSPost2010Prop38
140
0.0
102
RTVSPost2010PropOp38
 70
     1
102
RTVSPost2010Prop39
140
1.0
102
RTVSPost2010PropOp39
 70
     1
102
RTVSPost2010Prop40
 90
        0
102
RTVSPost2010PropOp40
 70
     1
102
RTVSPost2010Prop41ColorIndex
 90
       18
102
RTVSPost2010Prop41ColorRGB
 90
        0
102
RTVSPost2010PropOp41
 70
     1
102
RTVSPost2010Prop42
 90
       50
102
RTVSPost2010PropOp42
 70
     1
102
RTVSPost2010Prop43
 90
        3
102
RTVSPost2010PropOp43
 70
     1
102
RTVSPost2010Prop44ColorIndex
 90
        5
102
RTVSPost2010Prop44ColorRGB
 90
      255
102
RTVSPost2010PropOp44
 70
     1
102
RTVSPost2010Prop45
280
     0
102
RTVSPost2010PropOp45
 70
     1
102
RTVSPost2010Prop46
 90
       50
102
RTVSPost2010PropOp46
 70
     1
102
RTVSPost2010Prop47
 90
       50
102
RTVSPost2010PropOp47
 70
     1
102
RTVSPost2010Prop48
 90
       50
102
RTVSPost2010PropOp48
 70
     1
102
RTVSPost2010Prop49
280
     0
102
RTVSPost2010PropOp49
 70
     1
102
RTVSPost2010Prop50
 90
       50
102
RTVSPost2010PropOp50
 70
     1
102
RTVSPost2010Prop51ColorIndex
 90
      256
102
RTVSPost2010Prop51ColorRGB
 90
-16777216
102
RTVSPost2010PropOp51
 70
     0
102
RTVSPost2010Prop52
140
1.0
102
RTVSPost2010PropOp52
 70
     0
102
RTVSPost2010Prop53
 90
        2
102
RTVSPost2010PropOp53
 70
     1
102
RTVSPost2010Prop54
  1
strokes_ogs.tif
102
RTVSPost2010PropOp54
 70
     1
102
RTVSPost2010Prop55
280
     0
102
RTVSPost2010PropOp55
 70
     1
102
RTVSPost2010Prop56
140
1.0
102
RTVSPost2010PropOp56
 70
     1
102
RTVSPost2010Prop57
140
1.0
102
RTVSPost2010PropOp57
 70
     1
102
RTVSPropertyOp0
 70
     1
102
RTVSPropertyOp1
 70
     1
102
RTVSPropertyOp2
 70
     1
102
RTVSPropertyOp3
 70
     1
102
RTVSPropertyOp4
 70
     1
102
RTVSPropertyOp5
 70
     1
102
RTVSPropertyOp6
 70
     1
102
RTVSPropertyOp7
 70
     1
102
RTVSPropertyOp8
 70
     1
102
RTVSPropertyOp9
 70
     1
102
RTVSPropertyOp10
 70
     1
102
RTVSPropertyOp11
 70
     1
102
RTVSPropertyOp12
 70
     1
102
RTVSPropertyOp13
 70
     1
102
RTVSPropertyOp14
 70
     1
102
RTVSPropertyOp15
 70
     1
102
RTVSPropertyOp16
 70
     1
102
RTVSPropertyOp17
 70
     1
102
RTVSPropertyOp18
 70
     1
102
RTVSPropertyOp19
 70
     1
102
RTVSPropertyOp20
 70
     1
102
RTVSPropertyOp21
 70
     1
102
RTVSPropertyOp22
 70
     1
102
RTVSPropertyOp23
 70
     1
102
RTVSPropertyOp24
 70
     1
102
RTVSPropertyOp25
 70
     1
102
RTVSPropertyOp26
 70
     1
102
RTVSPropertyOp27
 70
     1
102
RTVSPropertyOp28
 70
     1
102
RTVSPropertyOp29
 70
     1
102
RTVSPropertyOp30
 70
     1
102
RTVSPropertyOp31
 70
     1
102
RTVSPropertyOp32
 70
     1
102
RTVSPropertyOp33
 70
     1
102
RTVSPropertyOp34
 70
     1
102
RTVSPropertyOp35
 70
     1
102
RTVSPropertyOp36
 70
     1
102
RTVSPropertyOp37
 70
     1
102
RTVSPropertyOp38
 70
     1
102
RTVSPropertyOp39
 70
     1
102
RTVSPropertyOp40
 70
     1
102
RTVSPropertyOp41
 70
     1
102
RTVSPropertyOp42
 70
     1
102
RTVSPropertyOp43
 70
     1
102
RTVSPropertyOp44
 70
     1
102
RTVSPropertyOp45
 70
     1
102
RTVSPropertyOp46
 70
     1
102
RTVSPropertyOp47
 70
     1
102
RTVSPropertyOp48
 70
     1
102
RTVSPropertyOp49
 70
     1
102
RTVSPropertyOp50
 70
     1
102
RTVSPropertyOp51
 70
     0
102
RTVSPropertyOp52
 70
     0
102
RTVSPropertyOp53
 70
     1
102
RTVSPropertyOp54
 70
     1
102
RTVSPropertyOp55
 70
     1
102
RTVSPropertyOp56
 70
     1
102
RTVSPropertyOp57
 70
     1
102
RTVSPropertyOp58
 70
     1
102
RTVSPropertyOp59
 70
     1
102
RTVSPropertyOp60
 70
     1
102
RTVSPropertyOp61
 70
     1
102
RTVSPropertyOp62
 70
     1
  0
XRECORD
  5
689B
102
{ACAD_REACTORS
330
689A
102
}
330
689A
100
AcDbXrecord
280
     1
102
RTVSPost2010Prop28
280
     0
102
RTVSPost2010PropOp28
 70
     1
102
RTVSPost2010Prop29
280
     1
102
RTVSPost2010PropOp29
 70
     1
102
RTVSPost2010Prop30
280
     1
102
RTVSPost2010PropOp30
 70
     1
102
RTVSPost2010Prop31
280
     0
102
RTVSPost2010PropOp31
 70
     1
102
RTVSPost2010Prop32
280
     0
102
RTVSPost2010PropOp32
 70
     1
102
RTVSPost2010Prop33
280
     0
102
RTVSPost2010PropOp33
 70
     1
102
RTVSPost2010Prop34
280
     0
102
RTVSPost2010PropOp34
 70
     1
102
RTVSPost2010Prop35
280
     0
102
RTVSPost2010PropOp35
 70
     1
102
RTVSPost2010Prop36
280
     0
102
RTVSPost2010PropOp36
 70
     1
102
RTVSPost2010Prop37
 90
       50
102
RTVSPost2010PropOp37
 70
     1
102
RTVSPost2010Prop38
140
0.0
102
RTVSPost2010PropOp38
 70
     1
102
RTVSPost2010Prop39
140
1.0
102
RTVSPost2010PropOp39
 70
     1
102
RTVSPost2010Prop40
 90
        0
102
RTVSPost2010PropOp40
 70
     1
102
RTVSPost2010Prop41ColorIndex
 90
       18
102
RTVSPost2010Prop41ColorRGB
 90
        0
102
RTVSPost2010PropOp41
 70
     1
102
RTVSPost2010Prop42
 90
       50
102
RTVSPost2010PropOp42
 70
     1
102
RTVSPost2010Prop43
 90
        3
102
RTVSPost2010PropOp43
 70
     1
102
RTVSPost2010Prop44ColorIndex
 90
        5
102
RTVSPost2010Prop44ColorRGB
 90
      255
102
RTVSPost2010PropOp44
 70
     1
102
RTVSPost2010Prop45
280
     0
102
RTVSPost2010PropOp45
 70
     1
102
RTVSPost2010Prop46
 90
       50
102
RTVSPost2010PropOp46
 70
     1
102
RTVSPost2010Prop47
 90
       50
102
RTVSPost2010PropOp47
 70
     1
102
RTVSPost2010Prop48
 90
       50
102
RTVSPost2010PropOp48
 70
     1
102
RTVSPost2010Prop49
280
     0
102
RTVSPost2010PropOp49
 70
     1
102
RTVSPost2010Prop50
 90
       50
102
RTVSPost2010PropOp50
 70
     1
102
RTVSPost2010Prop51ColorIndex
 90
      256
102
RTVSPost2010Prop51ColorRGB
 90
-16777216
102
RTVSPost2010PropOp51
 70
     0
102
RTVSPost2010Prop52
140
1.0
102
RTVSPost2010PropOp52
 70
     0
102
RTVSPost2010Prop53
 90
        2
102
RTVSPost2010PropOp53
 70
     1
102
RTVSPost2010Prop54
  1
strokes_ogs.tif
102
RTVSPost2010PropOp54
 70
     1
102
RTVSPost2010Prop55
280
     0
102
RTVSPost2010PropOp55
 70
     1
102
RTVSPost2010Prop56
140
1.0
102
RTVSPost2010PropOp56
 70
     1
102
RTVSPost2010Prop57
140
1.0
102
RTVSPost2010PropOp57
 70
     1
102
RTVSPropertyOp0
 70
     1
102
RTVSPropertyOp1
 70
     1
102
RTVSPropertyOp2
 70
     1
102
RTVSPropertyOp3
 70
     1
102
RTVSPropertyOp4
 70
     1
102
RTVSPropertyOp5
 70
     1
102
RTVSPropertyOp6
 70
     1
102
RTVSPropertyOp7
 70
     1
102
RTVSPropertyOp8
 70
     1
102
RTVSPropertyOp9
 70
     1
102
RTVSPropertyOp10
 70
     1
102
RTVSPropertyOp11
 70
     1
102
RTVSPropertyOp12
 70
     1
102
RTVSPropertyOp13
 70
     1
102
RTVSPropertyOp14
 70
     1
102
RTVSPropertyOp15
 70
     1
102
RTVSPropertyOp16
 70
     1
102
RTVSPropertyOp17
 70
     1
102
RTVSPropertyOp18
 70
     1
102
RTVSPropertyOp19
 70
     1
102
RTVSPropertyOp20
 70
     1
102
RTVSPropertyOp21
 70
     1
102
RTVSPropertyOp22
 70
     1
102
RTVSPropertyOp23
 70
     1
102
RTVSPropertyOp24
 70
     1
102
RTVSPropertyOp25
 70
     1
102
RTVSPropertyOp26
 70
     1
102
RTVSPropertyOp27
 70
     1
102
RTVSPropertyOp28
 70
     1
102
RTVSPropertyOp29
 70
     1
102
RTVSPropertyOp30
 70
     1
102
RTVSPropertyOp31
 70
     1
102
RTVSPropertyOp32
 70
     1
102
RTVSPropertyOp33
 70
     1
102
RTVSPropertyOp34
 70
     1
102
RTVSPropertyOp35
 70
     1
102
RTVSPropertyOp36
 70
     1
102
RTVSPropertyOp37
 70
     1
102
RTVSPropertyOp38
 70
     1
102
RTVSPropertyOp39
 70
     1
102
RTVSPropertyOp40
 70
     1
102
RTVSPropertyOp41
 70
     1
102
RTVSPropertyOp42
 70
     1
102
RTVSPropertyOp43
 70
     1
102
RTVSPropertyOp44
 70
     1
102
RTVSPropertyOp45
 70
     1
102
RTVSPropertyOp46
 70
     1
102
RTVSPropertyOp47
 70
     1
102
RTVSPropertyOp48
 70
     1
102
RTVSPropertyOp49
 70
     1
102
RTVSPropertyOp50
 70
     1
102
RTVSPropertyOp51
 70
     0
102
RTVSPropertyOp52
 70
     0
102
RTVSPropertyOp53
 70
     1
102
RTVSPropertyOp54
 70
     1
102
RTVSPropertyOp55
 70
     1
102
RTVSPropertyOp56
 70
     1
102
RTVSPropertyOp57
 70
     1
102
RTVSPropertyOp58
 70
     1
102
RTVSPropertyOp59
 70
     1
102
RTVSPropertyOp60
 70
     1
102
RTVSPropertyOp61
 70
     1
102
RTVSPropertyOp62
 70
     1
  0
XRECORD
  5
689D
102
{ACAD_REACTORS
330
689C
102
}
330
689C
100
AcDbXrecord
280
     1
102
RTVSPost2010Prop28
280
     0
102
RTVSPost2010PropOp28
 70
     1
102
RTVSPost2010Prop29
280
     1
102
RTVSPost2010PropOp29
 70
     1
102
RTVSPost2010Prop30
280
     1
102
RTVSPost2010PropOp30
 70
     1
102
RTVSPost2010Prop31
280
     0
102
RTVSPost2010PropOp31
 70
     1
102
RTVSPost2010Prop32
280
     0
102
RTVSPost2010PropOp32
 70
     1
102
RTVSPost2010Prop33
280
     0
102
RTVSPost2010PropOp33
 70
     1
102
RTVSPost2010Prop34
280
     0
102
RTVSPost2010PropOp34
 70
     1
102
RTVSPost2010Prop35
280
     0
102
RTVSPost2010PropOp35
 70
     1
102
RTVSPost2010Prop36
280
     0
102
RTVSPost2010PropOp36
 70
     1
102
RTVSPost2010Prop37
 90
       50
102
RTVSPost2010PropOp37
 70
     1
102
RTVSPost2010Prop38
140
0.0
102
RTVSPost2010PropOp38
 70
     1
102
RTVSPost2010Prop39
140
1.0
102
RTVSPost2010PropOp39
 70
     1
102
RTVSPost2010Prop40
 90
        0
102
RTVSPost2010PropOp40
 70
     1
102
RTVSPost2010Prop41ColorIndex
 90
       18
102
RTVSPost2010Prop41ColorRGB
 90
        0
102
RTVSPost2010PropOp41
 70
     1
102
RTVSPost2010Prop42
 90
       50
102
RTVSPost2010PropOp42
 70
     1
102
RTVSPost2010Prop43
 90
        3
102
RTVSPost2010PropOp43
 70
     1
102
RTVSPost2010Prop44ColorIndex
 90
        5
102
RTVSPost2010Prop44ColorRGB
 90
      255
102
RTVSPost2010PropOp44
 70
     1
102
RTVSPost2010Prop45
280
     0
102
RTVSPost2010PropOp45
 70
     1
102
RTVSPost2010Prop46
 90
       50
102
RTVSPost2010PropOp46
 70
     1
102
RTVSPost2010Prop47
 90
       50
102
RTVSPost2010PropOp47
 70
     1
102
RTVSPost2010Prop48
 90
       50
102
RTVSPost2010PropOp48
 70
     1
102
RTVSPost2010Prop49
280
     0
102
RTVSPost2010PropOp49
 70
     1
102
RTVSPost2010Prop50
 90
       50
102
RTVSPost2010PropOp50
 70
     1
102
RTVSPost2010Prop51ColorIndex
 90
      256
102
RTVSPost2010Prop51ColorRGB
 90
-16777216
102
RTVSPost2010PropOp51
 70
     0
102
RTVSPost2010Prop52
140
1.0
102
RTVSPost2010PropOp52
 70
     0
102
RTVSPost2010Prop53
 90
        2
102
RTVSPost2010PropOp53
 70
     1
102
RTVSPost2010Prop54
  1
strokes_ogs.tif
102
RTVSPost2010PropOp54
 70
     1
102
RTVSPost2010Prop55
280
     0
102
RTVSPost2010PropOp55
 70
     1
102
RTVSPost2010Prop56
140
1.0
102
RTVSPost2010PropOp56
 70
     1
102
RTVSPost2010Prop57
140
1.0
102
RTVSPost2010PropOp57
 70
     1
102
RTVSPropertyOp0
 70
     1
102
RTVSPropertyOp1
 70
     1
102
RTVSPropertyOp2
 70
     1
102
RTVSPropertyOp3
 70
     1
102
RTVSPropertyOp4
 70
     1
102
RTVSPropertyOp5
 70
     1
102
RTVSPropertyOp6
 70
     1
102
RTVSPropertyOp7
 70
     1
102
RTVSPropertyOp8
 70
     1
102
RTVSPropertyOp9
 70
     1
102
RTVSPropertyOp10
 70
     1
102
RTVSPropertyOp11
 70
     1
102
RTVSPropertyOp12
 70
     1
102
RTVSPropertyOp13
 70
     1
102
RTVSPropertyOp14
 70
     1
102
RTVSPropertyOp15
 70
     1
102
RTVSPropertyOp16
 70
     1
102
RTVSPropertyOp17
 70
     1
102
RTVSPropertyOp18
 70
     1
102
RTVSPropertyOp19
 70
     1
102
RTVSPropertyOp20
 70
     1
102
RTVSPropertyOp21
 70
     1
102
RTVSPropertyOp22
 70
     1
102
RTVSPropertyOp23
 70
     1
102
RTVSPropertyOp24
 70
     1
102
RTVSPropertyOp25
 70
     1
102
RTVSPropertyOp26
 70
     1
102
RTVSPropertyOp27
 70
     1
102
RTVSPropertyOp28
 70
     1
102
RTVSPropertyOp29
 70
     1
102
RTVSPropertyOp30
 70
     1
102
RTVSPropertyOp31
 70
     1
102
RTVSPropertyOp32
 70
     1
102
RTVSPropertyOp33
 70
     1
102
RTVSPropertyOp34
 70
     1
102
RTVSPropertyOp35
 70
     1
102
RTVSPropertyOp36
 70
     1
102
RTVSPropertyOp37
 70
     1
102
RTVSPropertyOp38
 70
     1
102
RTVSPropertyOp39
 70
     1
102
RTVSPropertyOp40
 70
     1
102
RTVSPropertyOp41
 70
     1
102
RTVSPropertyOp42
 70
     1
102
RTVSPropertyOp43
 70
     1
102
RTVSPropertyOp44
 70
     1
102
RTVSPropertyOp45
 70
     1
102
RTVSPropertyOp46
 70
     1
102
RTVSPropertyOp47
 70
     1
102
RTVSPropertyOp48
 70
     1
102
RTVSPropertyOp49
 70
     1
102
RTVSPropertyOp50
 70
     1
102
RTVSPropertyOp51
 70
     0
102
RTVSPropertyOp52
 70
     0
102
RTVSPropertyOp53
 70
     1
102
RTVSPropertyOp54
 70
     1
102
RTVSPropertyOp55
 70
     1
102
RTVSPropertyOp56
 70
     1
102
RTVSPropertyOp57
 70
     1
102
RTVSPropertyOp58
 70
     1
102
RTVSPropertyOp59
 70
     1
102
RTVSPropertyOp60
 70
     1
102
RTVSPropertyOp61
 70
     1
102
RTVSPropertyOp62
 70
     1
  0
XRECORD
  5
689F
102
{ACAD_REACTORS
330
689E
102
}
330
689E
100
AcDbXrecord
280
     1
102
RTVSPost2010Prop28
280
     0
102
RTVSPost2010PropOp28
 70
     1
102
RTVSPost2010Prop29
280
     1
102
RTVSPost2010PropOp29
 70
     1
102
RTVSPost2010Prop30
280
     1
102
RTVSPost2010PropOp30
 70
     1
102
RTVSPost2010Prop31
280
     0
102
RTVSPost2010PropOp31
 70
     1
102
RTVSPost2010Prop32
280
     0
102
RTVSPost2010PropOp32
 70
     1
102
RTVSPost2010Prop33
280
     0
102
RTVSPost2010PropOp33
 70
     1
102
RTVSPost2010Prop34
280
     0
102
RTVSPost2010PropOp34
 70
     1
102
RTVSPost2010Prop35
280
     0
102
RTVSPost2010PropOp35
 70
     1
102
RTVSPost2010Prop36
280
     0
102
RTVSPost2010PropOp36
 70
     1
102
RTVSPost2010Prop37
 90
       50
102
RTVSPost2010PropOp37
 70
     1
102
RTVSPost2010Prop38
140
0.0
102
RTVSPost2010PropOp38
 70
     1
102
RTVSPost2010Prop39
140
1.0
102
RTVSPost2010PropOp39
 70
     1
102
RTVSPost2010Prop40
 90
        0
102
RTVSPost2010PropOp40
 70
     1
102
RTVSPost2010Prop41ColorIndex
 90
       18
102
RTVSPost2010Prop41ColorRGB
 90
        0
102
RTVSPost2010PropOp41
 70
     1
102
RTVSPost2010Prop42
 90
       50
102
RTVSPost2010PropOp42
 70
     1
102
RTVSPost2010Prop43
 90
        3
102
RTVSPost2010PropOp43
 70
     1
102
RTVSPost2010Prop44ColorIndex
 90
        5
102
RTVSPost2010Prop44ColorRGB
 90
      255
102
RTVSPost2010PropOp44
 70
     1
102
RTVSPost2010Prop45
280
     0
102
RTVSPost2010PropOp45
 70
     1
102
RTVSPost2010Prop46
 90
       50
102
RTVSPost2010PropOp46
 70
     1
102
RTVSPost2010Prop47
 90
       50
102
RTVSPost2010PropOp47
 70
     1
102
RTVSPost2010Prop48
 90
       50
102
RTVSPost2010PropOp48
 70
     1
102
RTVSPost2010Prop49
280
     0
102
RTVSPost2010PropOp49
 70
     1
102
RTVSPost2010Prop50
 90
       50
102
RTVSPost2010PropOp50
 70
     1
102
RTVSPost2010Prop51ColorIndex
 90
      256
102
RTVSPost2010Prop51ColorRGB
 90
-16777216
102
RTVSPost2010PropOp51
 70
     0
102
RTVSPost2010Prop52
140
1.0
102
RTVSPost2010PropOp52
 70
     0
102
RTVSPost2010Prop53
 90
        2
102
RTVSPost2010PropOp53
 70
     1
102
RTVSPost2010Prop54
  1
strokes_ogs.tif
102
RTVSPost2010PropOp54
 70
     1
102
RTVSPost2010Prop55
280
     0
102
RTVSPost2010PropOp55
 70
     1
102
RTVSPost2010Prop56
140
1.0
102
RTVSPost2010PropOp56
 70
     1
102
RTVSPost2010Prop57
140
1.0
102
RTVSPost2010PropOp57
 70
     1
102
RTVSPropertyOp0
 70
     1
102
RTVSPropertyOp1
 70
     1
102
RTVSPropertyOp2
 70
     1
102
RTVSPropertyOp3
 70
     1
102
RTVSPropertyOp4
 70
     1
102
RTVSPropertyOp5
 70
     1
102
RTVSPropertyOp6
 70
     1
102
RTVSPropertyOp7
 70
     1
102
RTVSPropertyOp8
 70
     1
102
RTVSPropertyOp9
 70
     1
102
RTVSPropertyOp10
 70
     1
102
RTVSPropertyOp11
 70
     1
102
RTVSPropertyOp12
 70
     1
102
RTVSPropertyOp13
 70
     1
102
RTVSPropertyOp14
 70
     1
102
RTVSPropertyOp15
 70
     1
102
RTVSPropertyOp16
 70
     1
102
RTVSPropertyOp17
 70
     1
102
RTVSPropertyOp18
 70
     1
102
RTVSPropertyOp19
 70
     1
102
RTVSPropertyOp20
 70
     1
102
RTVSPropertyOp21
 70
     1
102
RTVSPropertyOp22
 70
     1
102
RTVSPropertyOp23
 70
     1
102
RTVSPropertyOp24
 70
     1
102
RTVSPropertyOp25
 70
     1
102
RTVSPropertyOp26
 70
     1
102
RTVSPropertyOp27
 70
     1
102
RTVSPropertyOp28
 70
     1
102
RTVSPropertyOp29
 70
     1
102
RTVSPropertyOp30
 70
     1
102
RTVSPropertyOp31
 70
     1
102
RTVSPropertyOp32
 70
     1
102
RTVSPropertyOp33
 70
     1
102
RTVSPropertyOp34
 70
     1
102
RTVSPropertyOp35
 70
     1
102
RTVSPropertyOp36
 70
     1
102
RTVSPropertyOp37
 70
     1
102
RTVSPropertyOp38
 70
     1
102
RTVSPropertyOp39
 70
     1
102
RTVSPropertyOp40
 70
     1
102
RTVSPropertyOp41
 70
     1
102
RTVSPropertyOp42
 70
     1
102
RTVSPropertyOp43
 70
     1
102
RTVSPropertyOp44
 70
     1
102
RTVSPropertyOp45
 70
     1
102
RTVSPropertyOp46
 70
     1
102
RTVSPropertyOp47
 70
     1
102
RTVSPropertyOp48
 70
     1
102
RTVSPropertyOp49
 70
     1
102
RTVSPropertyOp50
 70
     1
102
RTVSPropertyOp51
 70
     0
102
RTVSPropertyOp52
 70
     0
102
RTVSPropertyOp53
 70
     1
102
RTVSPropertyOp54
 70
     1
102
RTVSPropertyOp55
 70
     1
102
RTVSPropertyOp56
 70
     1
102
RTVSPropertyOp57
 70
     1
102
RTVSPropertyOp58
 70
     1
102
RTVSPropertyOp59
 70
     1
102
RTVSPropertyOp60
 70
     1
102
RTVSPropertyOp61
 70
     1
102
RTVSPropertyOp62
 70
     1
  0
XRECORD
  5
68BD
102
{ACAD_REACTORS
330
68BC
102
}
330
68BC
100
AcDbXrecord
280
     1
102
RTVSPost2010Prop28
280
     0
102
RTVSPost2010PropOp28
 70
     1
102
RTVSPost2010Prop29
280
     1
102
RTVSPost2010PropOp29
 70
     1
102
RTVSPost2010Prop30
280
     1
102
RTVSPost2010PropOp30
 70
     1
102
RTVSPost2010Prop31
280
     0
102
RTVSPost2010PropOp31
 70
     1
102
RTVSPost2010Prop32
280
     0
102
RTVSPost2010PropOp32
 70
     1
102
RTVSPost2010Prop33
280
     0
102
RTVSPost2010PropOp33
 70
     1
102
RTVSPost2010Prop34
280
     0
102
RTVSPost2010PropOp34
 70
     1
102
RTVSPost2010Prop35
280
     0
102
RTVSPost2010PropOp35
 70
     1
102
RTVSPost2010Prop36
280
     0
102
RTVSPost2010PropOp36
 70
     1
102
RTVSPost2010Prop37
 90
       50
102
RTVSPost2010PropOp37
 70
     1
102
RTVSPost2010Prop38
140
0.0
102
RTVSPost2010PropOp38
 70
     1
102
RTVSPost2010Prop39
140
1.0
102
RTVSPost2010PropOp39
 70
     1
102
RTVSPost2010Prop40
 90
        0
102
RTVSPost2010PropOp40
 70
     1
102
RTVSPost2010Prop41ColorIndex
 90
       18
102
RTVSPost2010Prop41ColorRGB
 90
        0
102
RTVSPost2010PropOp41
 70
     1
102
RTVSPost2010Prop42
 90
       50
102
RTVSPost2010PropOp42
 70
     1
102
RTVSPost2010Prop43
 90
        3
102
RTVSPost2010PropOp43
 70
     1
102
RTVSPost2010Prop44ColorIndex
 90
        5
102
RTVSPost2010Prop44ColorRGB
 90
      255
102
RTVSPost2010PropOp44
 70
     1
102
RTVSPost2010Prop45
280
     0
102
RTVSPost2010PropOp45
 70
     1
102
RTVSPost2010Prop46
 90
       50
102
RTVSPost2010PropOp46
 70
     1
102
RTVSPost2010Prop47
 90
       50
102
RTVSPost2010PropOp47
 70
     1
102
RTVSPost2010Prop48
 90
       50
102
RTVSPost2010PropOp48
 70
     1
102
RTVSPost2010Prop49
280
     0
102
RTVSPost2010PropOp49
 70
     1
102
RTVSPost2010Prop50
 90
       50
102
RTVSPost2010PropOp50
 70
     1
102
RTVSPost2010Prop51ColorIndex
 90
      256
102
RTVSPost2010Prop51ColorRGB
 90
-16777216
102
RTVSPost2010PropOp51
 70
     0
102
RTVSPost2010Prop52
140
1.0
102
RTVSPost2010PropOp52
 70
     0
102
RTVSPost2010Prop53
 90
        2
102
RTVSPost2010PropOp53
 70
     1
102
RTVSPost2010Prop54
  1
strokes_ogs.tif
102
RTVSPost2010PropOp54
 70
     1
102
RTVSPost2010Prop55
280
     0
102
RTVSPost2010PropOp55
 70
     1
102
RTVSPost2010Prop56
140
1.0
102
RTVSPost2010PropOp56
 70
     1
102
RTVSPost2010Prop57
140
1.0
102
RTVSPost2010PropOp57
 70
     1
102
RTVSPropertyOp0
 70
     1
102
RTVSPropertyOp1
 70
     1
102
RTVSPropertyOp2
 70
     1
102
RTVSPropertyOp3
 70
     1
102
RTVSPropertyOp4
 70
     1
102
RTVSPropertyOp5
 70
     1
102
RTVSPropertyOp6
 70
     1
102
RTVSPropertyOp7
 70
     1
102
RTVSPropertyOp8
 70
     1
102
RTVSPropertyOp9
 70
     1
102
RTVSPropertyOp10
 70
     1
102
RTVSPropertyOp11
 70
     1
102
RTVSPropertyOp12
 70
     1
102
RTVSPropertyOp13
 70
     1
102
RTVSPropertyOp14
 70
     1
102
RTVSPropertyOp15
 70
     1
102
RTVSPropertyOp16
 70
     1
102
RTVSPropertyOp17
 70
     1
102
RTVSPropertyOp18
 70
     1
102
RTVSPropertyOp19
 70
     1
102
RTVSPropertyOp20
 70
     1
102
RTVSPropertyOp21
 70
     1
102
RTVSPropertyOp22
 70
     1
102
RTVSPropertyOp23
 70
     1
102
RTVSPropertyOp24
 70
     1
102
RTVSPropertyOp25
 70
     1
102
RTVSPropertyOp26
 70
     1
102
RTVSPropertyOp27
 70
     1
102
RTVSPropertyOp28
 70
     1
102
RTVSPropertyOp29
 70
     1
102
RTVSPropertyOp30
 70
     1
102
RTVSPropertyOp31
 70
     1
102
RTVSPropertyOp32
 70
     1
102
RTVSPropertyOp33
 70
     1
102
RTVSPropertyOp34
 70
     1
102
RTVSPropertyOp35
 70
     1
102
RTVSPropertyOp36
 70
     1
102
RTVSPropertyOp37
 70
     1
102
RTVSPropertyOp38
 70
     1
102
RTVSPropertyOp39
 70
     1
102
RTVSPropertyOp40
 70
     1
102
RTVSPropertyOp41
 70
     1
102
RTVSPropertyOp42
 70
     1
102
RTVSPropertyOp43
 70
     1
102
RTVSPropertyOp44
 70
     1
102
RTVSPropertyOp45
 70
     1
102
RTVSPropertyOp46
 70
     1
102
RTVSPropertyOp47
 70
     1
102
RTVSPropertyOp48
 70
     1
102
RTVSPropertyOp49
 70
     1
102
RTVSPropertyOp50
 70
     1
102
RTVSPropertyOp51
 70
     0
102
RTVSPropertyOp52
 70
     0
102
RTVSPropertyOp53
 70
     1
102
RTVSPropertyOp54
 70
     1
102
RTVSPropertyOp55
 70
     1
102
RTVSPropertyOp56
 70
     1
102
RTVSPropertyOp57
 70
     1
102
RTVSPropertyOp58
 70
     1
102
RTVSPropertyOp59
 70
     1
102
RTVSPropertyOp60
 70
     1
102
RTVSPropertyOp61
 70
     1
102
RTVSPropertyOp62
 70
     1
  0
XRECORD
  5
68C9
102
{ACAD_REACTORS
330
68C8
102
}
330
68C8
100
AcDbXrecord
280
     1
102
RTVSPost2010Prop28
280
     0
102
RTVSPost2010PropOp28
 70
     0
102
RTVSPost2010Prop29
280
     1
102
RTVSPost2010PropOp29
 70
     0
102
RTVSPost2010Prop30
280
     1
102
RTVSPost2010PropOp30
 70
     0
102
RTVSPost2010Prop31
280
     0
102
RTVSPost2010PropOp31
 70
     0
102
RTVSPost2010Prop32
280
     0
102
RTVSPost2010PropOp32
 70
     0
102
RTVSPost2010Prop33
280
     0
102
RTVSPost2010PropOp33
 70
     0
102
RTVSPost2010Prop34
280
     0
102
RTVSPost2010PropOp34
 70
     0
102
RTVSPost2010Prop35
280
     0
102
RTVSPost2010PropOp35
 70
     0
102
RTVSPost2010Prop36
280
     0
102
RTVSPost2010PropOp36
 70
     0
102
RTVSPost2010Prop37
 90
       50
102
RTVSPost2010PropOp37
 70
     0
102
RTVSPost2010Prop38
140
0.0
102
RTVSPost2010PropOp38
 70
     0
102
RTVSPost2010Prop39
140
1.0
102
RTVSPost2010PropOp39
 70
     0
102
RTVSPost2010Prop40
 90
        0
102
RTVSPost2010PropOp40
 70
     0
102
RTVSPost2010Prop41ColorIndex
 90
       18
102
RTVSPost2010Prop41ColorRGB
 90
        0
102
RTVSPost2010PropOp41
 70
     0
102
RTVSPost2010Prop42
 90
       50
102
RTVSPost2010PropOp42
 70
     0
102
RTVSPost2010Prop43
 90
        3
102
RTVSPost2010PropOp43
 70
     0
102
RTVSPost2010Prop44ColorIndex
 90
        5
102
RTVSPost2010Prop44ColorRGB
 90
      255
102
RTVSPost2010PropOp44
 70
     0
102
RTVSPost2010Prop45
280
     0
102
RTVSPost2010PropOp45
 70
     0
102
RTVSPost2010Prop46
 90
       50
102
RTVSPost2010PropOp46
 70
     0
102
RTVSPost2010Prop47
 90
       50
102
RTVSPost2010PropOp47
 70
     0
102
RTVSPost2010Prop48
 90
       50
102
RTVSPost2010PropOp48
 70
     0
102
RTVSPost2010Prop49
280
     0
102
RTVSPost2010PropOp49
 70
     0
102
RTVSPost2010Prop50
 90
       50
102
RTVSPost2010PropOp50
 70
     0
102
RTVSPost2010Prop51ColorIndex
 90
      256
102
RTVSPost2010Prop51ColorRGB
 90
-16777216
102
RTVSPost2010PropOp51
 70
     0
102
RTVSPost2010Prop52
140
1.0
102
RTVSPost2010PropOp52
 70
     0
102
RTVSPost2010Prop53
 90
        2
102
RTVSPost2010PropOp53
 70
     0
102
RTVSPost2010Prop54
  1
strokes_ogs.tif
102
RTVSPost2010PropOp54
 70
     0
102
RTVSPost2010Prop55
280
     0
102
RTVSPost2010PropOp55
 70
     0
102
RTVSPost2010Prop56
140
1.0
102
RTVSPost2010PropOp56
 70
     0
102
RTVSPost2010Prop57
140
1.0
102
RTVSPost2010PropOp57
 70
     0
102
RTVSPropertyOp0
 70
     0
102
RTVSPropertyOp1
 70
     0
102
RTVSPropertyOp2
 70
     0
102
RTVSPropertyOp3
 70
     0
102
RTVSPropertyOp4
 70
     0
102
RTVSPropertyOp5
 70
     0
102
RTVSPropertyOp6
 70
     0
102
RTVSPropertyOp7
 70
     0
102
RTVSPropertyOp8
 70
     0
102
RTVSPropertyOp9
 70
     0
102
RTVSPropertyOp10
 70
     0
102
RTVSPropertyOp11
 70
     0
102
RTVSPropertyOp12
 70
     0
102
RTVSPropertyOp13
 70
     0
102
RTVSPropertyOp14
 70
     2
102
RTVSPropertyOp15
 70
     0
102
RTVSPropertyOp16
 70
     0
102
RTVSPropertyOp17
 70
     0
102
RTVSPropertyOp18
 70
     0
102
RTVSPropertyOp19
 70
     0
102
RTVSPropertyOp20
 70
     0
102
RTVSPropertyOp21
 70
     0
102
RTVSPropertyOp22
 70
     0
102
RTVSPropertyOp23
 70
     0
102
RTVSPropertyOp24
 70
     0
102
RTVSPropertyOp25
 70
     0
102
RTVSPropertyOp26
 70
     0
102
RTVSPropertyOp27
 70
     0
102
RTVSPropertyOp28
 70
     0
102
RTVSPropertyOp29
 70
     0
102
RTVSPropertyOp30
 70
     0
102
RTVSPropertyOp31
 70
     0
102
RTVSPropertyOp32
 70
     0
102
RTVSPropertyOp33
 70
     0
102
RTVSPropertyOp34
 70
     0
102
RTVSPropertyOp35
 70
     0
102
RTVSPropertyOp36
 70
     0
102
RTVSPropertyOp37
 70
     0
102
RTVSPropertyOp38
 70
     0
102
RTVSPropertyOp39
 70
     0
102
RTVSPropertyOp40
 70
     0
102
RTVSPropertyOp41
 70
     0
102
RTVSPropertyOp42
 70
     0
102
RTVSPropertyOp43
 70
     0
102
RTVSPropertyOp44
 70
     0
102
RTVSPropertyOp45
 70
     0
102
RTVSPropertyOp46
 70
     0
102
RTVSPropertyOp47
 70
     0
102
RTVSPropertyOp48
 70
     0
102
RTVSPropertyOp49
 70
     0
102
RTVSPropertyOp50
 70
     0
102
RTVSPropertyOp51
 70
     0
102
RTVSPropertyOp52
 70
     0
102
RTVSPropertyOp53
 70
     0
102
RTVSPropertyOp54
 70
     0
102
RTVSPropertyOp55
 70
     0
102
RTVSPropertyOp56
 70
     0
102
RTVSPropertyOp57
 70
     0
102
RTVSPropertyOp58
 70
     0
102
RTVSPropertyOp59
 70
     0
102
RTVSPropertyOp60
 70
     0
102
RTVSPropertyOp61
 70
     0
102
RTVSPropertyOp62
 70
     0
  0
XRECORD
  5
68B3
102
{ACAD_REACTORS
330
68B2
102
}
330
68B2
100
AcDbXrecord
280
     1
102
RTVSPost2010Prop28
280
     0
102
RTVSPost2010PropOp28
 70
     1
102
RTVSPost2010Prop29
280
     1
102
RTVSPost2010PropOp29
 70
     1
102
RTVSPost2010Prop30
280
     1
102
RTVSPost2010PropOp30
 70
     1
102
RTVSPost2010Prop31
280
     0
102
RTVSPost2010PropOp31
 70
     1
102
RTVSPost2010Prop32
280
     0
102
RTVSPost2010PropOp32
 70
     1
102
RTVSPost2010Prop33
280
     0
102
RTVSPost2010PropOp33
 70
     1
102
RTVSPost2010Prop34
280
     0
102
RTVSPost2010PropOp34
 70
     1
102
RTVSPost2010Prop35
280
     0
102
RTVSPost2010PropOp35
 70
     1
102
RTVSPost2010Prop36
280
     0
102
RTVSPost2010PropOp36
 70
     1
102
RTVSPost2010Prop37
 90
       50
102
RTVSPost2010PropOp37
 70
     1
102
RTVSPost2010Prop38
140
0.0
102
RTVSPost2010PropOp38
 70
     1
102
RTVSPost2010Prop39
140
1.0
102
RTVSPost2010PropOp39
 70
     1
102
RTVSPost2010Prop40
 90
        0
102
RTVSPost2010PropOp40
 70
     1
102
RTVSPost2010Prop41ColorIndex
 90
       18
102
RTVSPost2010Prop41ColorRGB
 90
        0
102
RTVSPost2010PropOp41
 70
     1
102
RTVSPost2010Prop42
 90
       50
102
RTVSPost2010PropOp42
 70
     1
102
RTVSPost2010Prop43
 90
        3
102
RTVSPost2010PropOp43
 70
     1
102
RTVSPost2010Prop44ColorIndex
 90
        5
102
RTVSPost2010Prop44ColorRGB
 90
      255
102
RTVSPost2010PropOp44
 70
     1
102
RTVSPost2010Prop45
280
     0
102
RTVSPost2010PropOp45
 70
     1
102
RTVSPost2010Prop46
 90
       50
102
RTVSPost2010PropOp46
 70
     1
102
RTVSPost2010Prop47
 90
       50
102
RTVSPost2010PropOp47
 70
     1
102
RTVSPost2010Prop48
 90
       50
102
RTVSPost2010PropOp48
 70
     1
102
RTVSPost2010Prop49
280
     0
102
RTVSPost2010PropOp49
 70
     1
102
RTVSPost2010Prop50
 90
       50
102
RTVSPost2010PropOp50
 70
     1
102
RTVSPost2010Prop51ColorIndex
 90
      256
102
RTVSPost2010Prop51ColorRGB
 90
-16777216
102
RTVSPost2010PropOp51
 70
     0
102
RTVSPost2010Prop52
140
1.0
102
RTVSPost2010PropOp52
 70
     0
102
RTVSPost2010Prop53
 90
        2
102
RTVSPost2010PropOp53
 70
     1
102
RTVSPost2010Prop54
  1
strokes_ogs.tif
102
RTVSPost2010PropOp54
 70
     1
102
RTVSPost2010Prop55
280
     0
102
RTVSPost2010PropOp55
 70
     1
102
RTVSPost2010Prop56
140
1.0
102
RTVSPost2010PropOp56
 70
     1
102
RTVSPost2010Prop57
140
1.0
102
RTVSPost2010PropOp57
 70
     1
102
RTVSPropertyOp0
 70
     1
102
RTVSPropertyOp1
 70
     1
102
RTVSPropertyOp2
 70
     1
102
RTVSPropertyOp3
 70
     1
102
RTVSPropertyOp4
 70
     1
102
RTVSPropertyOp5
 70
     1
102
RTVSPropertyOp6
 70
     1
102
RTVSPropertyOp7
 70
     1
102
RTVSPropertyOp8
 70
     1
102
RTVSPropertyOp9
 70
     1
102
RTVSPropertyOp10
 70
     1
102
RTVSPropertyOp11
 70
     1
102
RTVSPropertyOp12
 70
     1
102
RTVSPropertyOp13
 70
     1
102
RTVSPropertyOp14
 70
     1
102
RTVSPropertyOp15
 70
     1
102
RTVSPropertyOp16
 70
     1
102
RTVSPropertyOp17
 70
     1
102
RTVSPropertyOp18
 70
     1
102
RTVSPropertyOp19
 70
     1
102
RTVSPropertyOp20
 70
     1
102
RTVSPropertyOp21
 70
     1
102
RTVSPropertyOp22
 70
     1
102
RTVSPropertyOp23
 70
     1
102
RTVSPropertyOp24
 70
     1
102
RTVSPropertyOp25
 70
     1
102
RTVSPropertyOp26
 70
     1
102
RTVSPropertyOp27
 70
     1
102
RTVSPropertyOp28
 70
     1
102
RTVSPropertyOp29
 70
     1
102
RTVSPropertyOp30
 70
     1
102
RTVSPropertyOp31
 70
     1
102
RTVSPropertyOp32
 70
     1
102
RTVSPropertyOp33
 70
     1
102
RTVSPropertyOp34
 70
     1
102
RTVSPropertyOp35
 70
     1
102
RTVSPropertyOp36
 70
     1
102
RTVSPropertyOp37
 70
     1
102
RTVSPropertyOp38
 70
     1
102
RTVSPropertyOp39
 70
     1
102
RTVSPropertyOp40
 70
     1
102
RTVSPropertyOp41
 70
     1
102
RTVSPropertyOp42
 70
     1
102
RTVSPropertyOp43
 70
     1
102
RTVSPropertyOp44
 70
     1
102
RTVSPropertyOp45
 70
     1
102
RTVSPropertyOp46
 70
     1
102
RTVSPropertyOp47
 70
     1
102
RTVSPropertyOp48
 70
     1
102
RTVSPropertyOp49
 70
     1
102
RTVSPropertyOp50
 70
     1
102
RTVSPropertyOp51
 70
     0
102
RTVSPropertyOp52
 70
     0
102
RTVSPropertyOp53
 70
     1
102
RTVSPropertyOp54
 70
     1
102
RTVSPropertyOp55
 70
     1
102
RTVSPropertyOp56
 70
     1
102
RTVSPropertyOp57
 70
     1
102
RTVSPropertyOp58
 70
     1
102
RTVSPropertyOp59
 70
     1
102
RTVSPropertyOp60
 70
     1
102
RTVSPropertyOp61
 70
     1
102
RTVSPropertyOp62
 70
     1
  0
XRECORD
  5
68CB
102
{ACAD_REACTORS
330
68CA
102
}
330
68CA
100
AcDbXrecord
280
     1
102
RTVSPost2010Prop28
280
     0
102
RTVSPost2010PropOp28
 70
     0
102
RTVSPost2010Prop29
280
     1
102
RTVSPost2010PropOp29
 70
     0
102
RTVSPost2010Prop30
280
     1
102
RTVSPost2010PropOp30
 70
     0
102
RTVSPost2010Prop31
280
     0
102
RTVSPost2010PropOp31
 70
     0
102
RTVSPost2010Prop32
280
     0
102
RTVSPost2010PropOp32
 70
     0
102
RTVSPost2010Prop33
280
     0
102
RTVSPost2010PropOp33
 70
     0
102
RTVSPost2010Prop34
280
     0
102
RTVSPost2010PropOp34
 70
     0
102
RTVSPost2010Prop35
280
     0
102
RTVSPost2010PropOp35
 70
     0
102
RTVSPost2010Prop36
280
     0
102
RTVSPost2010PropOp36
 70
     0
102
RTVSPost2010Prop37
 90
       50
102
RTVSPost2010PropOp37
 70
     0
102
RTVSPost2010Prop38
140
0.0
102
RTVSPost2010PropOp38
 70
     0
102
RTVSPost2010Prop39
140
1.0
102
RTVSPost2010PropOp39
 70
     0
102
RTVSPost2010Prop40
 90
        0
102
RTVSPost2010PropOp40
 70
     0
102
RTVSPost2010Prop41ColorIndex
 90
       18
102
RTVSPost2010Prop41ColorRGB
 90
        0
102
RTVSPost2010PropOp41
 70
     0
102
RTVSPost2010Prop42
 90
       50
102
RTVSPost2010PropOp42
 70
     0
102
RTVSPost2010Prop43
 90
        3
102
RTVSPost2010PropOp43
 70
     0
102
RTVSPost2010Prop44ColorIndex
 90
        5
102
RTVSPost2010Prop44ColorRGB
 90
      255
102
RTVSPost2010PropOp44
 70
     0
102
RTVSPost2010Prop45
280
     0
102
RTVSPost2010PropOp45
 70
     0
102
RTVSPost2010Prop46
 90
       50
102
RTVSPost2010PropOp46
 70
     0
102
RTVSPost2010Prop47
 90
       50
102
RTVSPost2010PropOp47
 70
     0
102
RTVSPost2010Prop48
 90
       50
102
RTVSPost2010PropOp48
 70
     0
102
RTVSPost2010Prop49
280
     0
102
RTVSPost2010PropOp49
 70
     0
102
RTVSPost2010Prop50
 90
       50
102
RTVSPost2010PropOp50
 70
     0
102
RTVSPost2010Prop51ColorIndex
 90
      256
102
RTVSPost2010Prop51ColorRGB
 90
-16777216
102
RTVSPost2010PropOp51
 70
     0
102
RTVSPost2010Prop52
140
1.0
102
RTVSPost2010PropOp52
 70
     0
102
RTVSPost2010Prop53
 90
        2
102
RTVSPost2010PropOp53
 70
     0
102
RTVSPost2010Prop54
  1
strokes_ogs.tif
102
RTVSPost2010PropOp54
 70
     0
102
RTVSPost2010Prop55
280
     0
102
RTVSPost2010PropOp55
 70
     0
102
RTVSPost2010Prop56
140
1.0
102
RTVSPost2010PropOp56
 70
     0
102
RTVSPost2010Prop57
140
1.0
102
RTVSPost2010PropOp57
 70
     0
102
RTVSPropertyOp0
 70
     0
102
RTVSPropertyOp1
 70
     0
102
RTVSPropertyOp2
 70
     0
102
RTVSPropertyOp3
 70
     0
102
RTVSPropertyOp4
 70
     0
102
RTVSPropertyOp5
 70
     0
102
RTVSPropertyOp6
 70
     0
102
RTVSPropertyOp7
 70
     0
102
RTVSPropertyOp8
 70
     0
102
RTVSPropertyOp9
 70
     0
102
RTVSPropertyOp10
 70
     0
102
RTVSPropertyOp11
 70
     0
102
RTVSPropertyOp12
 70
     0
102
RTVSPropertyOp13
 70
     0
102
RTVSPropertyOp14
 70
     2
102
RTVSPropertyOp15
 70
     0
102
RTVSPropertyOp16
 70
     0
102
RTVSPropertyOp17
 70
     0
102
RTVSPropertyOp18
 70
     0
102
RTVSPropertyOp19
 70
     0
102
RTVSPropertyOp20
 70
     0
102
RTVSPropertyOp21
 70
     0
102
RTVSPropertyOp22
 70
     0
102
RTVSPropertyOp23
 70
     0
102
RTVSPropertyOp24
 70
     0
102
RTVSPropertyOp25
 70
     0
102
RTVSPropertyOp26
 70
     0
102
RTVSPropertyOp27
 70
     0
102
RTVSPropertyOp28
 70
     0
102
RTVSPropertyOp29
 70
     0
102
RTVSPropertyOp30
 70
     0
102
RTVSPropertyOp31
 70
     0
102
RTVSPropertyOp32
 70
     0
102
RTVSPropertyOp33
 70
     0
102
RTVSPropertyOp34
 70
     0
102
RTVSPropertyOp35
 70
     0
102
RTVSPropertyOp36
 70
     0
102
RTVSPropertyOp37
 70
     0
102
RTVSPropertyOp38
 70
     0
102
RTVSPropertyOp39
 70
     0
102
RTVSPropertyOp40
 70
     0
102
RTVSPropertyOp41
 70
     0
102
RTVSPropertyOp42
 70
     0
102
RTVSPropertyOp43
 70
     0
102
RTVSPropertyOp44
 70
     0
102
RTVSPropertyOp45
 70
     0
102
RTVSPropertyOp46
 70
     0
102
RTVSPropertyOp47
 70
     0
102
RTVSPropertyOp48
 70
     0
102
RTVSPropertyOp49
 70
     0
102
RTVSPropertyOp50
 70
     0
102
RTVSPropertyOp51
 70
     0
102
RTVSPropertyOp52
 70
     0
102
RTVSPropertyOp53
 70
     0
102
RTVSPropertyOp54
 70
     0
102
RTVSPropertyOp55
 70
     0
102
RTVSPropertyOp56
 70
     0
102
RTVSPropertyOp57
 70
     0
102
RTVSPropertyOp58
 70
     0
102
RTVSPropertyOp59
 70
     0
102
RTVSPropertyOp60
 70
     0
102
RTVSPropertyOp61
 70
     0
102
RTVSPropertyOp62
 70
     0
  0
XRECORD
  5
68AB
102
{ACAD_REACTORS
330
68AA
102
}
330
68AA
100
AcDbXrecord
280
     1
102
RTVSPost2010Prop28
280
     0
102
RTVSPost2010PropOp28
 70
     1
102
RTVSPost2010Prop29
280
     1
102
RTVSPost2010PropOp29
 70
     1
102
RTVSPost2010Prop30
280
     1
102
RTVSPost2010PropOp30
 70
     1
102
RTVSPost2010Prop31
280
     0
102
RTVSPost2010PropOp31
 70
     1
102
RTVSPost2010Prop32
280
     0
102
RTVSPost2010PropOp32
 70
     1
102
RTVSPost2010Prop33
280
     0
102
RTVSPost2010PropOp33
 70
     1
102
RTVSPost2010Prop34
280
     0
102
RTVSPost2010PropOp34
 70
     1
102
RTVSPost2010Prop35
280
     0
102
RTVSPost2010PropOp35
 70
     1
102
RTVSPost2010Prop36
280
     0
102
RTVSPost2010PropOp36
 70
     1
102
RTVSPost2010Prop37
 90
       50
102
RTVSPost2010PropOp37
 70
     1
102
RTVSPost2010Prop38
140
0.0
102
RTVSPost2010PropOp38
 70
     1
102
RTVSPost2010Prop39
140
1.0
102
RTVSPost2010PropOp39
 70
     1
102
RTVSPost2010Prop40
 90
        0
102
RTVSPost2010PropOp40
 70
     1
102
RTVSPost2010Prop41ColorIndex
 90
       18
102
RTVSPost2010Prop41ColorRGB
 90
        0
102
RTVSPost2010PropOp41
 70
     1
102
RTVSPost2010Prop42
 90
       50
102
RTVSPost2010PropOp42
 70
     1
102
RTVSPost2010Prop43
 90
        3
102
RTVSPost2010PropOp43
 70
     1
102
RTVSPost2010Prop44ColorIndex
 90
        5
102
RTVSPost2010Prop44ColorRGB
 90
      255
102
RTVSPost2010PropOp44
 70
     1
102
RTVSPost2010Prop45
280
     0
102
RTVSPost2010PropOp45
 70
     1
102
RTVSPost2010Prop46
 90
       50
102
RTVSPost2010PropOp46
 70
     1
102
RTVSPost2010Prop47
 90
       50
102
RTVSPost2010PropOp47
 70
     1
102
RTVSPost2010Prop48
 90
       50
102
RTVSPost2010PropOp48
 70
     1
102
RTVSPost2010Prop49
280
     0
102
RTVSPost2010PropOp49
 70
     1
102
RTVSPost2010Prop50
 90
       50
102
RTVSPost2010PropOp50
 70
     1
102
RTVSPost2010Prop51ColorIndex
 90
      256
102
RTVSPost2010Prop51ColorRGB
 90
-16777216
102
RTVSPost2010PropOp51
 70
     0
102
RTVSPost2010Prop52
140
1.0
102
RTVSPost2010PropOp52
 70
     0
102
RTVSPost2010Prop53
 90
        2
102
RTVSPost2010PropOp53
 70
     1
102
RTVSPost2010Prop54
  1
strokes_ogs.tif
102
RTVSPost2010PropOp54
 70
     1
102
RTVSPost2010Prop55
280
     0
102
RTVSPost2010PropOp55
 70
     1
102
RTVSPost2010Prop56
140
1.0
102
RTVSPost2010PropOp56
 70
     1
102
RTVSPost2010Prop57
140
1.0
102
RTVSPost2010PropOp57
 70
     1
102
RTVSPropertyOp0
 70
     1
102
RTVSPropertyOp1
 70
     1
102
RTVSPropertyOp2
 70
     1
102
RTVSPropertyOp3
 70
     1
102
RTVSPropertyOp4
 70
     1
102
RTVSPropertyOp5
 70
     1
102
RTVSPropertyOp6
 70
     1
102
RTVSPropertyOp7
 70
     1
102
RTVSPropertyOp8
 70
     1
102
RTVSPropertyOp9
 70
     1
102
RTVSPropertyOp10
 70
     1
102
RTVSPropertyOp11
 70
     1
102
RTVSPropertyOp12
 70
     1
102
RTVSPropertyOp13
 70
     1
102
RTVSPropertyOp14
 70
     1
102
RTVSPropertyOp15
 70
     1
102
RTVSPropertyOp16
 70
     1
102
RTVSPropertyOp17
 70
     1
102
RTVSPropertyOp18
 70
     1
102
RTVSPropertyOp19
 70
     1
102
RTVSPropertyOp20
 70
     1
102
RTVSPropertyOp21
 70
     1
102
RTVSPropertyOp22
 70
     1
102
RTVSPropertyOp23
 70
     1
102
RTVSPropertyOp24
 70
     1
102
RTVSPropertyOp25
 70
     1
102
RTVSPropertyOp26
 70
     1
102
RTVSPropertyOp27
 70
     1
102
RTVSPropertyOp28
 70
     1
102
RTVSPropertyOp29
 70
     1
102
RTVSPropertyOp30
 70
     1
102
RTVSPropertyOp31
 70
     1
102
RTVSPropertyOp32
 70
     1
102
RTVSPropertyOp33
 70
     1
102
RTVSPropertyOp34
 70
     1
102
RTVSPropertyOp35
 70
     1
102
RTVSPropertyOp36
 70
     1
102
RTVSPropertyOp37
 70
     1
102
RTVSPropertyOp38
 70
     1
102
RTVSPropertyOp39
 70
     1
102
RTVSPropertyOp40
 70
     1
102
RTVSPropertyOp41
 70
     1
102
RTVSPropertyOp42
 70
     1
102
RTVSPropertyOp43
 70
     1
102
RTVSPropertyOp44
 70
     1
102
RTVSPropertyOp45
 70
     1
102
RTVSPropertyOp46
 70
     1
102
RTVSPropertyOp47
 70
     1
102
RTVSPropertyOp48
 70
     1
102
RTVSPropertyOp49
 70
     1
102
RTVSPropertyOp50
 70
     1
102
RTVSPropertyOp51
 70
     0
102
RTVSPropertyOp52
 70
     0
102
RTVSPropertyOp53
 70
     1
102
RTVSPropertyOp54
 70
     1
102
RTVSPropertyOp55
 70
     1
102
RTVSPropertyOp56
 70
     1
102
RTVSPropertyOp57
 70
     1
102
RTVSPropertyOp58
 70
     1
102
RTVSPropertyOp59
 70
     1
102
RTVSPropertyOp60
 70
     1
102
RTVSPropertyOp61
 70
     1
102
RTVSPropertyOp62
 70
     1
  0
XRECORD
  5
68C7
102
{ACAD_REACTORS
330
68C6
102
}
330
68C6
100
AcDbXrecord
280
     1
102
RTVSPost2010Prop28
280
     0
102
RTVSPost2010PropOp28
 70
     1
102
RTVSPost2010Prop29
280
     1
102
RTVSPost2010PropOp29
 70
     1
102
RTVSPost2010Prop30
280
     1
102
RTVSPost2010PropOp30
 70
     1
102
RTVSPost2010Prop31
280
     0
102
RTVSPost2010PropOp31
 70
     1
102
RTVSPost2010Prop32
280
     0
102
RTVSPost2010PropOp32
 70
     1
102
RTVSPost2010Prop33
280
     0
102
RTVSPost2010PropOp33
 70
     1
102
RTVSPost2010Prop34
280
     0
102
RTVSPost2010PropOp34
 70
     1
102
RTVSPost2010Prop35
280
     0
102
RTVSPost2010PropOp35
 70
     1
102
RTVSPost2010Prop36
280
     0
102
RTVSPost2010PropOp36
 70
     1
102
RTVSPost2010Prop37
 90
       50
102
RTVSPost2010PropOp37
 70
     1
102
RTVSPost2010Prop38
140
0.0
102
RTVSPost2010PropOp38
 70
     1
102
RTVSPost2010Prop39
140
1.0
102
RTVSPost2010PropOp39
 70
     1
102
RTVSPost2010Prop40
 90
        0
102
RTVSPost2010PropOp40
 70
     1
102
RTVSPost2010Prop41ColorIndex
 90
       18
102
RTVSPost2010Prop41ColorRGB
 90
        0
102
RTVSPost2010PropOp41
 70
     1
102
RTVSPost2010Prop42
 90
       50
102
RTVSPost2010PropOp42
 70
     1
102
RTVSPost2010Prop43
 90
        3
102
RTVSPost2010PropOp43
 70
     1
102
RTVSPost2010Prop44ColorIndex
 90
        5
102
RTVSPost2010Prop44ColorRGB
 90
      255
102
RTVSPost2010PropOp44
 70
     1
102
RTVSPost2010Prop45
280
     0
102
RTVSPost2010PropOp45
 70
     1
102
RTVSPost2010Prop46
 90
       50
102
RTVSPost2010PropOp46
 70
     1
102
RTVSPost2010Prop47
 90
       50
102
RTVSPost2010PropOp47
 70
     1
102
RTVSPost2010Prop48
 90
       50
102
RTVSPost2010PropOp48
 70
     1
102
RTVSPost2010Prop49
280
     0
102
RTVSPost2010PropOp49
 70
     1
102
RTVSPost2010Prop50
 90
       50
102
RTVSPost2010PropOp50
 70
     1
102
RTVSPost2010Prop51ColorIndex
 90
      256
102
RTVSPost2010Prop51ColorRGB
 90
-16777216
102
RTVSPost2010PropOp51
 70
     0
102
RTVSPost2010Prop52
140
1.0
102
RTVSPost2010PropOp52
 70
     0
102
RTVSPost2010Prop53
 90
        2
102
RTVSPost2010PropOp53
 70
     1
102
RTVSPost2010Prop54
  1
strokes_ogs.tif
102
RTVSPost2010PropOp54
 70
     1
102
RTVSPost2010Prop55
280
     0
102
RTVSPost2010PropOp55
 70
     1
102
RTVSPost2010Prop56
140
1.0
102
RTVSPost2010PropOp56
 70
     1
102
RTVSPost2010Prop57
140
1.0
102
RTVSPost2010PropOp57
 70
     1
102
RTVSPropertyOp0
 70
     1
102
RTVSPropertyOp1
 70
     1
102
RTVSPropertyOp2
 70
     1
102
RTVSPropertyOp3
 70
     1
102
RTVSPropertyOp4
 70
     1
102
RTVSPropertyOp5
 70
     1
102
RTVSPropertyOp6
 70
     1
102
RTVSPropertyOp7
 70
     1
102
RTVSPropertyOp8
 70
     1
102
RTVSPropertyOp9
 70
     1
102
RTVSPropertyOp10
 70
     1
102
RTVSPropertyOp11
 70
     1
102
RTVSPropertyOp12
 70
     1
102
RTVSPropertyOp13
 70
     1
102
RTVSPropertyOp14
 70
     1
102
RTVSPropertyOp15
 70
     1
102
RTVSPropertyOp16
 70
     1
102
RTVSPropertyOp17
 70
     1
102
RTVSPropertyOp18
 70
     1
102
RTVSPropertyOp19
 70
     1
102
RTVSPropertyOp20
 70
     1
102
RTVSPropertyOp21
 70
     1
102
RTVSPropertyOp22
 70
     1
102
RTVSPropertyOp23
 70
     1
102
RTVSPropertyOp24
 70
     1
102
RTVSPropertyOp25
 70
     1
102
RTVSPropertyOp26
 70
     1
102
RTVSPropertyOp27
 70
     1
102
RTVSPropertyOp28
 70
     1
102
RTVSPropertyOp29
 70
     1
102
RTVSPropertyOp30
 70
     1
102
RTVSPropertyOp31
 70
     1
102
RTVSPropertyOp32
 70
     1
102
RTVSPropertyOp33
 70
     1
102
RTVSPropertyOp34
 70
     1
102
RTVSPropertyOp35
 70
     1
102
RTVSPropertyOp36
 70
     1
102
RTVSPropertyOp37
 70
     1
102
RTVSPropertyOp38
 70
     1
102
RTVSPropertyOp39
 70
     1
102
RTVSPropertyOp40
 70
     1
102
RTVSPropertyOp41
 70
     1
102
RTVSPropertyOp42
 70
     1
102
RTVSPropertyOp43
 70
     1
102
RTVSPropertyOp44
 70
     1
102
RTVSPropertyOp45
 70
     1
102
RTVSPropertyOp46
 70
     1
102
RTVSPropertyOp47
 70
     1
102
RTVSPropertyOp48
 70
     1
102
RTVSPropertyOp49
 70
     1
102
RTVSPropertyOp50
 70
     1
102
RTVSPropertyOp51
 70
     0
102
RTVSPropertyOp52
 70
     0
102
RTVSPropertyOp53
 70
     1
102
RTVSPropertyOp54
 70
     1
102
RTVSPropertyOp55
 70
     1
102
RTVSPropertyOp56
 70
     1
102
RTVSPropertyOp57
 70
     1
102
RTVSPropertyOp58
 70
     1
102
RTVSPropertyOp59
 70
     1
102
RTVSPropertyOp60
 70
     1
102
RTVSPropertyOp61
 70
     1
102
RTVSPropertyOp62
 70
     1
  0
XRECORD
  5
68C5
102
{ACAD_REACTORS
330
68C4
102
}
330
68C4
100
AcDbXrecord
280
     1
102
RTVSPost2010Prop28
280
     0
102
RTVSPost2010PropOp28
 70
     1
102
RTVSPost2010Prop29
280
     1
102
RTVSPost2010PropOp29
 70
     1
102
RTVSPost2010Prop30
280
     1
102
RTVSPost2010PropOp30
 70
     1
102
RTVSPost2010Prop31
280
     0
102
RTVSPost2010PropOp31
 70
     1
102
RTVSPost2010Prop32
280
     0
102
RTVSPost2010PropOp32
 70
     1
102
RTVSPost2010Prop33
280
     0
102
RTVSPost2010PropOp33
 70
     1
102
RTVSPost2010Prop34
280
     0
102
RTVSPost2010PropOp34
 70
     1
102
RTVSPost2010Prop35
280
     0
102
RTVSPost2010PropOp35
 70
     1
102
RTVSPost2010Prop36
280
     0
102
RTVSPost2010PropOp36
 70
     1
102
RTVSPost2010Prop37
 90
       50
102
RTVSPost2010PropOp37
 70
     1
102
RTVSPost2010Prop38
140
0.0
102
RTVSPost2010PropOp38
 70
     1
102
RTVSPost2010Prop39
140
1.0
102
RTVSPost2010PropOp39
 70
     1
102
RTVSPost2010Prop40
 90
        0
102
RTVSPost2010PropOp40
 70
     1
102
RTVSPost2010Prop41ColorIndex
 90
       18
102
RTVSPost2010Prop41ColorRGB
 90
        0
102
RTVSPost2010PropOp41
 70
     1
102
RTVSPost2010Prop42
 90
       50
102
RTVSPost2010PropOp42
 70
     1
102
RTVSPost2010Prop43
 90
        3
102
RTVSPost2010PropOp43
 70
     1
102
RTVSPost2010Prop44ColorIndex
 90
        5
102
RTVSPost2010Prop44ColorRGB
 90
      255
102
RTVSPost2010PropOp44
 70
     1
102
RTVSPost2010Prop45
280
     0
102
RTVSPost2010PropOp45
 70
     1
102
RTVSPost2010Prop46
 90
       50
102
RTVSPost2010PropOp46
 70
     1
102
RTVSPost2010Prop47
 90
       50
102
RTVSPost2010PropOp47
 70
     1
102
RTVSPost2010Prop48
 90
       50
102
RTVSPost2010PropOp48
 70
     1
102
RTVSPost2010Prop49
280
     0
102
RTVSPost2010PropOp49
 70
     1
102
RTVSPost2010Prop50
 90
       50
102
RTVSPost2010PropOp50
 70
     1
102
RTVSPost2010Prop51ColorIndex
 90
      256
102
RTVSPost2010Prop51ColorRGB
 90
-16777216
102
RTVSPost2010PropOp51
 70
     0
102
RTVSPost2010Prop52
140
1.0
102
RTVSPost2010PropOp52
 70
     0
102
RTVSPost2010Prop53
 90
        2
102
RTVSPost2010PropOp53
 70
     1
102
RTVSPost2010Prop54
  1
strokes_ogs.tif
102
RTVSPost2010PropOp54
 70
     1
102
RTVSPost2010Prop55
280
     0
102
RTVSPost2010PropOp55
 70
     1
102
RTVSPost2010Prop56
140
1.0
102
RTVSPost2010PropOp56
 70
     1
102
RTVSPost2010Prop57
140
1.0
102
RTVSPost2010PropOp57
 70
     1
102
RTVSPropertyOp0
 70
     1
102
RTVSPropertyOp1
 70
     1
102
RTVSPropertyOp2
 70
     1
102
RTVSPropertyOp3
 70
     1
102
RTVSPropertyOp4
 70
     1
102
RTVSPropertyOp5
 70
     1
102
RTVSPropertyOp6
 70
     1
102
RTVSPropertyOp7
 70
     1
102
RTVSPropertyOp8
 70
     1
102
RTVSPropertyOp9
 70
     1
102
RTVSPropertyOp10
 70
     1
102
RTVSPropertyOp11
 70
     1
102
RTVSPropertyOp12
 70
     1
102
RTVSPropertyOp13
 70
     1
102
RTVSPropertyOp14
 70
     1
102
RTVSPropertyOp15
 70
     1
102
RTVSPropertyOp16
 70
     1
102
RTVSPropertyOp17
 70
     1
102
RTVSPropertyOp18
 70
     1
102
RTVSPropertyOp19
 70
     1
102
RTVSPropertyOp20
 70
     1
102
RTVSPropertyOp21
 70
     1
102
RTVSPropertyOp22
 70
     1
102
RTVSPropertyOp23
 70
     1
102
RTVSPropertyOp24
 70
     1
102
RTVSPropertyOp25
 70
     1
102
RTVSPropertyOp26
 70
     1
102
RTVSPropertyOp27
 70
     1
102
RTVSPropertyOp28
 70
     1
102
RTVSPropertyOp29
 70
     1
102
RTVSPropertyOp30
 70
     1
102
RTVSPropertyOp31
 70
     1
102
RTVSPropertyOp32
 70
     1
102
RTVSPropertyOp33
 70
     1
102
RTVSPropertyOp34
 70
     1
102
RTVSPropertyOp35
 70
     1
102
RTVSPropertyOp36
 70
     1
102
RTVSPropertyOp37
 70
     1
102
RTVSPropertyOp38
 70
     1
102
RTVSPropertyOp39
 70
     1
102
RTVSPropertyOp40
 70
     1
102
RTVSPropertyOp41
 70
     1
102
RTVSPropertyOp42
 70
     1
102
RTVSPropertyOp43
 70
     1
102
RTVSPropertyOp44
 70
     1
102
RTVSPropertyOp45
 70
     1
102
RTVSPropertyOp46
 70
     1
102
RTVSPropertyOp47
 70
     1
102
RTVSPropertyOp48
 70
     1
102
RTVSPropertyOp49
 70
     1
102
RTVSPropertyOp50
 70
     1
102
RTVSPropertyOp51
 70
     0
102
RTVSPropertyOp52
 70
     0
102
RTVSPropertyOp53
 70
     1
102
RTVSPropertyOp54
 70
     1
102
RTVSPropertyOp55
 70
     1
102
RTVSPropertyOp56
 70
     1
102
RTVSPropertyOp57
 70
     1
102
RTVSPropertyOp58
 70
     1
102
RTVSPropertyOp59
 70
     1
102
RTVSPropertyOp60
 70
     1
102
RTVSPropertyOp61
 70
     1
102
RTVSPropertyOp62
 70
     1
  0
XRECORD
  5
68BF
102
{ACAD_REACTORS
330
68BE
102
}
330
68BE
100
AcDbXrecord
280
     1
102
RTVSPost2010Prop28
280
     0
102
RTVSPost2010PropOp28
 70
     1
102
RTVSPost2010Prop29
280
     1
102
RTVSPost2010PropOp29
 70
     1
102
RTVSPost2010Prop30
280
     1
102
RTVSPost2010PropOp30
 70
     1
102
RTVSPost2010Prop31
280
     0
102
RTVSPost2010PropOp31
 70
     1
102
RTVSPost2010Prop32
280
     0
102
RTVSPost2010PropOp32
 70
     1
102
RTVSPost2010Prop33
280
     0
102
RTVSPost2010PropOp33
 70
     1
102
RTVSPost2010Prop34
280
     0
102
RTVSPost2010PropOp34
 70
     1
102
RTVSPost2010Prop35
280
     0
102
RTVSPost2010PropOp35
 70
     1
102
RTVSPost2010Prop36
280
     0
102
RTVSPost2010PropOp36
 70
     1
102
RTVSPost2010Prop37
 90
       50
102
RTVSPost2010PropOp37
 70
     1
102
RTVSPost2010Prop38
140
0.0
102
RTVSPost2010PropOp38
 70
     1
102
RTVSPost2010Prop39
140
1.0
102
RTVSPost2010PropOp39
 70
     1
102
RTVSPost2010Prop40
 90
        0
102
RTVSPost2010PropOp40
 70
     1
102
RTVSPost2010Prop41ColorIndex
 90
       18
102
RTVSPost2010Prop41ColorRGB
 90
        0
102
RTVSPost2010PropOp41
 70
     1
102
RTVSPost2010Prop42
 90
       50
102
RTVSPost2010PropOp42
 70
     1
102
RTVSPost2010Prop43
 90
        3
102
RTVSPost2010PropOp43
 70
     1
102
RTVSPost2010Prop44ColorIndex
 90
        5
102
RTVSPost2010Prop44ColorRGB
 90
      255
102
RTVSPost2010PropOp44
 70
     1
102
RTVSPost2010Prop45
280
     0
102
RTVSPost2010PropOp45
 70
     1
102
RTVSPost2010Prop46
 90
       50
102
RTVSPost2010PropOp46
 70
     1
102
RTVSPost2010Prop47
 90
       50
102
RTVSPost2010PropOp47
 70
     1
102
RTVSPost2010Prop48
 90
       50
102
RTVSPost2010PropOp48
 70
     1
102
RTVSPost2010Prop49
280
     0
102
RTVSPost2010PropOp49
 70
     1
102
RTVSPost2010Prop50
 90
       50
102
RTVSPost2010PropOp50
 70
     1
102
RTVSPost2010Prop51ColorIndex
 90
      256
102
RTVSPost2010Prop51ColorRGB
 90
-16777216
102
RTVSPost2010PropOp51
 70
     0
102
RTVSPost2010Prop52
140
1.0
102
RTVSPost2010PropOp52
 70
     0
102
RTVSPost2010Prop53
 90
        2
102
RTVSPost2010PropOp53
 70
     1
102
RTVSPost2010Prop54
  1
strokes_ogs.tif
102
RTVSPost2010PropOp54
 70
     1
102
RTVSPost2010Prop55
280
     0
102
RTVSPost2010PropOp55
 70
     1
102
RTVSPost2010Prop56
140
1.0
102
RTVSPost2010PropOp56
 70
     1
102
RTVSPost2010Prop57
140
1.0
102
RTVSPost2010PropOp57
 70
     1
102
RTVSPropertyOp0
 70
     1
102
RTVSPropertyOp1
 70
     1
102
RTVSPropertyOp2
 70
     1
102
RTVSPropertyOp3
 70
     1
102
RTVSPropertyOp4
 70
     1
102
RTVSPropertyOp5
 70
     1
102
RTVSPropertyOp6
 70
     1
102
RTVSPropertyOp7
 70
     1
102
RTVSPropertyOp8
 70
     1
102
RTVSPropertyOp9
 70
     1
102
RTVSPropertyOp10
 70
     1
102
RTVSPropertyOp11
 70
     1
102
RTVSPropertyOp12
 70
     1
102
RTVSPropertyOp13
 70
     1
102
RTVSPropertyOp14
 70
     1
102
RTVSPropertyOp15
 70
     1
102
RTVSPropertyOp16
 70
     1
102
RTVSPropertyOp17
 70
     1
102
RTVSPropertyOp18
 70
     1
102
RTVSPropertyOp19
 70
     1
102
RTVSPropertyOp20
 70
     1
102
RTVSPropertyOp21
 70
     1
102
RTVSPropertyOp22
 70
     1
102
RTVSPropertyOp23
 70
     1
102
RTVSPropertyOp24
 70
     1
102
RTVSPropertyOp25
 70
     1
102
RTVSPropertyOp26
 70
     1
102
RTVSPropertyOp27
 70
     1
102
RTVSPropertyOp28
 70
     1
102
RTVSPropertyOp29
 70
     1
102
RTVSPropertyOp30
 70
     1
102
RTVSPropertyOp31
 70
     1
102
RTVSPropertyOp32
 70
     1
102
RTVSPropertyOp33
 70
     1
102
RTVSPropertyOp34
 70
     1
102
RTVSPropertyOp35
 70
     1
102
RTVSPropertyOp36
 70
     1
102
RTVSPropertyOp37
 70
     1
102
RTVSPropertyOp38
 70
     1
102
RTVSPropertyOp39
 70
     1
102
RTVSPropertyOp40
 70
     1
102
RTVSPropertyOp41
 70
     1
102
RTVSPropertyOp42
 70
     1
102
RTVSPropertyOp43
 70
     1
102
RTVSPropertyOp44
 70
     1
102
RTVSPropertyOp45
 70
     1
102
RTVSPropertyOp46
 70
     1
102
RTVSPropertyOp47
 70
     1
102
RTVSPropertyOp48
 70
     1
102
RTVSPropertyOp49
 70
     1
102
RTVSPropertyOp50
 70
     1
102
RTVSPropertyOp51
 70
     0
102
RTVSPropertyOp52
 70
     0
102
RTVSPropertyOp53
 70
     1
102
RTVSPropertyOp54
 70
     1
102
RTVSPropertyOp55
 70
     1
102
RTVSPropertyOp56
 70
     1
102
RTVSPropertyOp57
 70
     1
102
RTVSPropertyOp58
 70
     1
102
RTVSPropertyOp59
 70
     1
102
RTVSPropertyOp60
 70
     1
102
RTVSPropertyOp61
 70
     1
102
RTVSPropertyOp62
 70
     1
  0
XRECORD
  5
68C1
102
{ACAD_REACTORS
330
68C0
102
}
330
68C0
100
AcDbXrecord
280
     1
102
RTVSPost2010Prop28
280
     0
102
RTVSPost2010PropOp28
 70
     1
102
RTVSPost2010Prop29
280
     1
102
RTVSPost2010PropOp29
 70
     1
102
RTVSPost2010Prop30
280
     1
102
RTVSPost2010PropOp30
 70
     1
102
RTVSPost2010Prop31
280
     0
102
RTVSPost2010PropOp31
 70
     1
102
RTVSPost2010Prop32
280
     0
102
RTVSPost2010PropOp32
 70
     1
102
RTVSPost2010Prop33
280
     0
102
RTVSPost2010PropOp33
 70
     1
102
RTVSPost2010Prop34
280
     0
102
RTVSPost2010PropOp34
 70
     1
102
RTVSPost2010Prop35
280
     0
102
RTVSPost2010PropOp35
 70
     1
102
RTVSPost2010Prop36
280
     0
102
RTVSPost2010PropOp36
 70
     1
102
RTVSPost2010Prop37
 90
       50
102
RTVSPost2010PropOp37
 70
     1
102
RTVSPost2010Prop38
140
0.0
102
RTVSPost2010PropOp38
 70
     1
102
RTVSPost2010Prop39
140
1.0
102
RTVSPost2010PropOp39
 70
     1
102
RTVSPost2010Prop40
 90
        0
102
RTVSPost2010PropOp40
 70
     1
102
RTVSPost2010Prop41ColorIndex
 90
       18
102
RTVSPost2010Prop41ColorRGB
 90
        0
102
RTVSPost2010PropOp41
 70
     1
102
RTVSPost2010Prop42
 90
       50
102
RTVSPost2010PropOp42
 70
     1
102
RTVSPost2010Prop43
 90
        3
102
RTVSPost2010PropOp43
 70
     1
102
RTVSPost2010Prop44ColorIndex
 90
        5
102
RTVSPost2010Prop44ColorRGB
 90
      255
102
RTVSPost2010PropOp44
 70
     1
102
RTVSPost2010Prop45
280
     0
102
RTVSPost2010PropOp45
 70
     1
102
RTVSPost2010Prop46
 90
       50
102
RTVSPost2010PropOp46
 70
     1
102
RTVSPost2010Prop47
 90
       50
102
RTVSPost2010PropOp47
 70
     1
102
RTVSPost2010Prop48
 90
       50
102
RTVSPost2010PropOp48
 70
     1
102
RTVSPost2010Prop49
280
     0
102
RTVSPost2010PropOp49
 70
     1
102
RTVSPost2010Prop50
 90
       50
102
RTVSPost2010PropOp50
 70
     1
102
RTVSPost2010Prop51ColorIndex
 90
      256
102
RTVSPost2010Prop51ColorRGB
 90
-16777216
102
RTVSPost2010PropOp51
 70
     0
102
RTVSPost2010Prop52
140
1.0
102
RTVSPost2010PropOp52
 70
     0
102
RTVSPost2010Prop53
 90
        2
102
RTVSPost2010PropOp53
 70
     1
102
RTVSPost2010Prop54
  1
strokes_ogs.tif
102
RTVSPost2010PropOp54
 70
     1
102
RTVSPost2010Prop55
280
     0
102
RTVSPost2010PropOp55
 70
     1
102
RTVSPost2010Prop56
140
1.0
102
RTVSPost2010PropOp56
 70
     1
102
RTVSPost2010Prop57
140
1.0
102
RTVSPost2010PropOp57
 70
     1
102
RTVSPropertyOp0
 70
     1
102
RTVSPropertyOp1
 70
     1
102
RTVSPropertyOp2
 70
     1
102
RTVSPropertyOp3
 70
     1
102
RTVSPropertyOp4
 70
     1
102
RTVSPropertyOp5
 70
     1
102
RTVSPropertyOp6
 70
     1
102
RTVSPropertyOp7
 70
     1
102
RTVSPropertyOp8
 70
     1
102
RTVSPropertyOp9
 70
     1
102
RTVSPropertyOp10
 70
     1
102
RTVSPropertyOp11
 70
     1
102
RTVSPropertyOp12
 70
     1
102
RTVSPropertyOp13
 70
     1
102
RTVSPropertyOp14
 70
     1
102
RTVSPropertyOp15
 70
     1
102
RTVSPropertyOp16
 70
     1
102
RTVSPropertyOp17
 70
     1
102
RTVSPropertyOp18
 70
     1
102
RTVSPropertyOp19
 70
     1
102
RTVSPropertyOp20
 70
     1
102
RTVSPropertyOp21
 70
     1
102
RTVSPropertyOp22
 70
     1
102
RTVSPropertyOp23
 70
     1
102
RTVSPropertyOp24
 70
     1
102
RTVSPropertyOp25
 70
     1
102
RTVSPropertyOp26
 70
     1
102
RTVSPropertyOp27
 70
     1
102
RTVSPropertyOp28
 70
     1
102
RTVSPropertyOp29
 70
     1
102
RTVSPropertyOp30
 70
     1
102
RTVSPropertyOp31
 70
     1
102
RTVSPropertyOp32
 70
     1
102
RTVSPropertyOp33
 70
     1
102
RTVSPropertyOp34
 70
     1
102
RTVSPropertyOp35
 70
     1
102
RTVSPropertyOp36
 70
     1
102
RTVSPropertyOp37
 70
     1
102
RTVSPropertyOp38
 70
     1
102
RTVSPropertyOp39
 70
     1
102
RTVSPropertyOp40
 70
     1
102
RTVSPropertyOp41
 70
     1
102
RTVSPropertyOp42
 70
     1
102
RTVSPropertyOp43
 70
     1
102
RTVSPropertyOp44
 70
     1
102
RTVSPropertyOp45
 70
     1
102
RTVSPropertyOp46
 70
     1
102
RTVSPropertyOp47
 70
     1
102
RTVSPropertyOp48
 70
     1
102
RTVSPropertyOp49
 70
     1
102
RTVSPropertyOp50
 70
     1
102
RTVSPropertyOp51
 70
     0
102
RTVSPropertyOp52
 70
     0
102
RTVSPropertyOp53
 70
     1
102
RTVSPropertyOp54
 70
     1
102
RTVSPropertyOp55
 70
     1
102
RTVSPropertyOp56
 70
     1
102
RTVSPropertyOp57
 70
     1
102
RTVSPropertyOp58
 70
     1
102
RTVSPropertyOp59
 70
     1
102
RTVSPropertyOp60
 70
     1
102
RTVSPropertyOp61
 70
     1
102
RTVSPropertyOp62
 70
     1
  0
XRECORD
  5
68B1
102
{ACAD_REACTORS
330
68B0
102
}
330
68B0
100
AcDbXrecord
280
     1
102
RTVSPost2010Prop28
280
     0
102
RTVSPost2010PropOp28
 70
     1
102
RTVSPost2010Prop29
280
     1
102
RTVSPost2010PropOp29
 70
     1
102
RTVSPost2010Prop30
280
     1
102
RTVSPost2010PropOp30
 70
     1
102
RTVSPost2010Prop31
280
     0
102
RTVSPost2010PropOp31
 70
     1
102
RTVSPost2010Prop32
280
     0
102
RTVSPost2010PropOp32
 70
     1
102
RTVSPost2010Prop33
280
     0
102
RTVSPost2010PropOp33
 70
     1
102
RTVSPost2010Prop34
280
     0
102
RTVSPost2010PropOp34
 70
     1
102
RTVSPost2010Prop35
280
     0
102
RTVSPost2010PropOp35
 70
     1
102
RTVSPost2010Prop36
280
     0
102
RTVSPost2010PropOp36
 70
     1
102
RTVSPost2010Prop37
 90
       50
102
RTVSPost2010PropOp37
 70
     1
102
RTVSPost2010Prop38
140
0.0
102
RTVSPost2010PropOp38
 70
     1
102
RTVSPost2010Prop39
140
1.0
102
RTVSPost2010PropOp39
 70
     1
102
RTVSPost2010Prop40
 90
        0
102
RTVSPost2010PropOp40
 70
     1
102
RTVSPost2010Prop41ColorIndex
 90
       18
102
RTVSPost2010Prop41ColorRGB
 90
        0
102
RTVSPost2010PropOp41
 70
     1
102
RTVSPost2010Prop42
 90
       50
102
RTVSPost2010PropOp42
 70
     1
102
RTVSPost2010Prop43
 90
        3
102
RTVSPost2010PropOp43
 70
     1
102
RTVSPost2010Prop44ColorIndex
 90
        5
102
RTVSPost2010Prop44ColorRGB
 90
      255
102
RTVSPost2010PropOp44
 70
     1
102
RTVSPost2010Prop45
280
     0
102
RTVSPost2010PropOp45
 70
     1
102
RTVSPost2010Prop46
 90
       50
102
RTVSPost2010PropOp46
 70
     1
102
RTVSPost2010Prop47
 90
       50
102
RTVSPost2010PropOp47
 70
     1
102
RTVSPost2010Prop48
 90
       50
102
RTVSPost2010PropOp48
 70
     1
102
RTVSPost2010Prop49
280
     0
102
RTVSPost2010PropOp49
 70
     1
102
RTVSPost2010Prop50
 90
       50
102
RTVSPost2010PropOp50
 70
     1
102
RTVSPost2010Prop51ColorIndex
 90
      256
102
RTVSPost2010Prop51ColorRGB
 90
-16777216
102
RTVSPost2010PropOp51
 70
     0
102
RTVSPost2010Prop52
140
1.0
102
RTVSPost2010PropOp52
 70
     0
102
RTVSPost2010Prop53
 90
        2
102
RTVSPost2010PropOp53
 70
     1
102
RTVSPost2010Prop54
  1
strokes_ogs.tif
102
RTVSPost2010PropOp54
 70
     1
102
RTVSPost2010Prop55
280
     0
102
RTVSPost2010PropOp55
 70
     1
102
RTVSPost2010Prop56
140
1.0
102
RTVSPost2010PropOp56
 70
     1
102
RTVSPost2010Prop57
140
1.0
102
RTVSPost2010PropOp57
 70
     1
102
RTVSPropertyOp0
 70
     1
102
RTVSPropertyOp1
 70
     1
102
RTVSPropertyOp2
 70
     1
102
RTVSPropertyOp3
 70
     1
102
RTVSPropertyOp4
 70
     1
102
RTVSPropertyOp5
 70
     1
102
RTVSPropertyOp6
 70
     1
102
RTVSPropertyOp7
 70
     1
102
RTVSPropertyOp8
 70
     1
102
RTVSPropertyOp9
 70
     1
102
RTVSPropertyOp10
 70
     1
102
RTVSPropertyOp11
 70
     1
102
RTVSPropertyOp12
 70
     1
102
RTVSPropertyOp13
 70
     1
102
RTVSPropertyOp14
 70
     1
102
RTVSPropertyOp15
 70
     1
102
RTVSPropertyOp16
 70
     1
102
RTVSPropertyOp17
 70
     1
102
RTVSPropertyOp18
 70
     1
102
RTVSPropertyOp19
 70
     1
102
RTVSPropertyOp20
 70
     1
102
RTVSPropertyOp21
 70
     1
102
RTVSPropertyOp22
 70
     1
102
RTVSPropertyOp23
 70
     1
102
RTVSPropertyOp24
 70
     1
102
RTVSPropertyOp25
 70
     1
102
RTVSPropertyOp26
 70
     1
102
RTVSPropertyOp27
 70
     1
102
RTVSPropertyOp28
 70
     1
102
RTVSPropertyOp29
 70
     1
102
RTVSPropertyOp30
 70
     1
102
RTVSPropertyOp31
 70
     1
102
RTVSPropertyOp32
 70
     1
102
RTVSPropertyOp33
 70
     1
102
RTVSPropertyOp34
 70
     1
102
RTVSPropertyOp35
 70
     1
102
RTVSPropertyOp36
 70
     1
102
RTVSPropertyOp37
 70
     1
102
RTVSPropertyOp38
 70
     1
102
RTVSPropertyOp39
 70
     1
102
RTVSPropertyOp40
 70
     1
102
RTVSPropertyOp41
 70
     1
102
RTVSPropertyOp42
 70
     1
102
RTVSPropertyOp43
 70
     1
102
RTVSPropertyOp44
 70
     1
102
RTVSPropertyOp45
 70
     1
102
RTVSPropertyOp46
 70
     1
102
RTVSPropertyOp47
 70
     1
102
RTVSPropertyOp48
 70
     1
102
RTVSPropertyOp49
 70
     1
102
RTVSPropertyOp50
 70
     1
102
RTVSPropertyOp51
 70
     0
102
RTVSPropertyOp52
 70
     0
102
RTVSPropertyOp53
 70
     1
102
RTVSPropertyOp54
 70
     1
102
RTVSPropertyOp55
 70
     1
102
RTVSPropertyOp56
 70
     1
102
RTVSPropertyOp57
 70
     1
102
RTVSPropertyOp58
 70
     1
102
RTVSPropertyOp59
 70
     1
102
RTVSPropertyOp60
 70
     1
102
RTVSPropertyOp61
 70
     1
102
RTVSPropertyOp62
 70
     1
  0
XRECORD
  5
68BB
102
{ACAD_REACTORS
330
68BA
102
}
330
68BA
100
AcDbXrecord
280
     1
102
RTVSPost2010Prop28
280
     0
102
RTVSPost2010PropOp28
 70
     1
102
RTVSPost2010Prop29
280
     1
102
RTVSPost2010PropOp29
 70
     1
102
RTVSPost2010Prop30
280
     1
102
RTVSPost2010PropOp30
 70
     1
102
RTVSPost2010Prop31
280
     0
102
RTVSPost2010PropOp31
 70
     1
102
RTVSPost2010Prop32
280
     0
102
RTVSPost2010PropOp32
 70
     1
102
RTVSPost2010Prop33
280
     0
102
RTVSPost2010PropOp33
 70
     1
102
RTVSPost2010Prop34
280
     0
102
RTVSPost2010PropOp34
 70
     1
102
RTVSPost2010Prop35
280
     0
102
RTVSPost2010PropOp35
 70
     1
102
RTVSPost2010Prop36
280
     0
102
RTVSPost2010PropOp36
 70
     1
102
RTVSPost2010Prop37
 90
       50
102
RTVSPost2010PropOp37
 70
     1
102
RTVSPost2010Prop38
140
0.0
102
RTVSPost2010PropOp38
 70
     1
102
RTVSPost2010Prop39
140
1.0
102
RTVSPost2010PropOp39
 70
     1
102
RTVSPost2010Prop40
 90
        0
102
RTVSPost2010PropOp40
 70
     1
102
RTVSPost2010Prop41ColorIndex
 90
       18
102
RTVSPost2010Prop41ColorRGB
 90
        0
102
RTVSPost2010PropOp41
 70
     1
102
RTVSPost2010Prop42
 90
       50
102
RTVSPost2010PropOp42
 70
     1
102
RTVSPost2010Prop43
 90
        3
102
RTVSPost2010PropOp43
 70
     1
102
RTVSPost2010Prop44ColorIndex
 90
        5
102
RTVSPost2010Prop44ColorRGB
 90
      255
102
RTVSPost2010PropOp44
 70
     1
102
RTVSPost2010Prop45
280
     0
102
RTVSPost2010PropOp45
 70
     1
102
RTVSPost2010Prop46
 90
       50
102
RTVSPost2010PropOp46
 70
     1
102
RTVSPost2010Prop47
 90
       50
102
RTVSPost2010PropOp47
 70
     1
102
RTVSPost2010Prop48
 90
       50
102
RTVSPost2010PropOp48
 70
     1
102
RTVSPost2010Prop49
280
     0
102
RTVSPost2010PropOp49
 70
     1
102
RTVSPost2010Prop50
 90
       50
102
RTVSPost2010PropOp50
 70
     1
102
RTVSPost2010Prop51ColorIndex
 90
      256
102
RTVSPost2010Prop51ColorRGB
 90
-16777216
102
RTVSPost2010PropOp51
 70
     0
102
RTVSPost2010Prop52
140
1.0
102
RTVSPost2010PropOp52
 70
     0
102
RTVSPost2010Prop53
 90
        2
102
RTVSPost2010PropOp53
 70
     1
102
RTVSPost2010Prop54
  1
strokes_ogs.tif
102
RTVSPost2010PropOp54
 70
     1
102
RTVSPost2010Prop55
280
     0
102
RTVSPost2010PropOp55
 70
     1
102
RTVSPost2010Prop56
140
1.0
102
RTVSPost2010PropOp56
 70
     1
102
RTVSPost2010Prop57
140
1.0
102
RTVSPost2010PropOp57
 70
     1
102
RTVSPropertyOp0
 70
     1
102
RTVSPropertyOp1
 70
     1
102
RTVSPropertyOp2
 70
     1
102
RTVSPropertyOp3
 70
     1
102
RTVSPropertyOp4
 70
     1
102
RTVSPropertyOp5
 70
     1
102
RTVSPropertyOp6
 70
     1
102
RTVSPropertyOp7
 70
     1
102
RTVSPropertyOp8
 70
     1
102
RTVSPropertyOp9
 70
     1
102
RTVSPropertyOp10
 70
     1
102
RTVSPropertyOp11
 70
     1
102
RTVSPropertyOp12
 70
     1
102
RTVSPropertyOp13
 70
     1
102
RTVSPropertyOp14
 70
     1
102
RTVSPropertyOp15
 70
     1
102
RTVSPropertyOp16
 70
     1
102
RTVSPropertyOp17
 70
     1
102
RTVSPropertyOp18
 70
     1
102
RTVSPropertyOp19
 70
     1
102
RTVSPropertyOp20
 70
     1
102
RTVSPropertyOp21
 70
     1
102
RTVSPropertyOp22
 70
     1
102
RTVSPropertyOp23
 70
     1
102
RTVSPropertyOp24
 70
     1
102
RTVSPropertyOp25
 70
     1
102
RTVSPropertyOp26
 70
     1
102
RTVSPropertyOp27
 70
     1
102
RTVSPropertyOp28
 70
     1
102
RTVSPropertyOp29
 70
     1
102
RTVSPropertyOp30
 70
     1
102
RTVSPropertyOp31
 70
     1
102
RTVSPropertyOp32
 70
     1
102
RTVSPropertyOp33
 70
     1
102
RTVSPropertyOp34
 70
     1
102
RTVSPropertyOp35
 70
     1
102
RTVSPropertyOp36
 70
     1
102
RTVSPropertyOp37
 70
     1
102
RTVSPropertyOp38
 70
     1
102
RTVSPropertyOp39
 70
     1
102
RTVSPropertyOp40
 70
     1
102
RTVSPropertyOp41
 70
     1
102
RTVSPropertyOp42
 70
     1
102
RTVSPropertyOp43
 70
     1
102
RTVSPropertyOp44
 70
     1
102
RTVSPropertyOp45
 70
     1
102
RTVSPropertyOp46
 70
     1
102
RTVSPropertyOp47
 70
     1
102
RTVSPropertyOp48
 70
     1
102
RTVSPropertyOp49
 70
     1
102
RTVSPropertyOp50
 70
     1
102
RTVSPropertyOp51
 70
     0
102
RTVSPropertyOp52
 70
     0
102
RTVSPropertyOp53
 70
     1
102
RTVSPropertyOp54
 70
     1
102
RTVSPropertyOp55
 70
     1
102
RTVSPropertyOp56
 70
     1
102
RTVSPropertyOp57
 70
     1
102
RTVSPropertyOp58
 70
     1
102
RTVSPropertyOp59
 70
     1
102
RTVSPropertyOp60
 70
     1
102
RTVSPropertyOp61
 70
     1
102
RTVSPropertyOp62
 70
     1
  0
XRECORD
  5
68C3
102
{ACAD_REACTORS
330
68C2
102
}
330
68C2
100
AcDbXrecord
280
     1
102
RTVSPost2010Prop28
280
     0
102
RTVSPost2010PropOp28
 70
     1
102
RTVSPost2010Prop29
280
     1
102
RTVSPost2010PropOp29
 70
     1
102
RTVSPost2010Prop30
280
     1
102
RTVSPost2010PropOp30
 70
     1
102
RTVSPost2010Prop31
280
     0
102
RTVSPost2010PropOp31
 70
     1
102
RTVSPost2010Prop32
280
     0
102
RTVSPost2010PropOp32
 70
     1
102
RTVSPost2010Prop33
280
     0
102
RTVSPost2010PropOp33
 70
     1
102
RTVSPost2010Prop34
280
     0
102
RTVSPost2010PropOp34
 70
     1
102
RTVSPost2010Prop35
280
     0
102
RTVSPost2010PropOp35
 70
     1
102
RTVSPost2010Prop36
280
     0
102
RTVSPost2010PropOp36
 70
     1
102
RTVSPost2010Prop37
 90
       50
102
RTVSPost2010PropOp37
 70
     1
102
RTVSPost2010Prop38
140
0.0
102
RTVSPost2010PropOp38
 70
     1
102
RTVSPost2010Prop39
140
1.0
102
RTVSPost2010PropOp39
 70
     1
102
RTVSPost2010Prop40
 90
        0
102
RTVSPost2010PropOp40
 70
     1
102
RTVSPost2010Prop41ColorIndex
 90
       18
102
RTVSPost2010Prop41ColorRGB
 90
        0
102
RTVSPost2010PropOp41
 70
     1
102
RTVSPost2010Prop42
 90
       50
102
RTVSPost2010PropOp42
 70
     1
102
RTVSPost2010Prop43
 90
        3
102
RTVSPost2010PropOp43
 70
     1
102
RTVSPost2010Prop44ColorIndex
 90
        5
102
RTVSPost2010Prop44ColorRGB
 90
      255
102
RTVSPost2010PropOp44
 70
     1
102
RTVSPost2010Prop45
280
     0
102
RTVSPost2010PropOp45
 70
     1
102
RTVSPost2010Prop46
 90
       50
102
RTVSPost2010PropOp46
 70
     1
102
RTVSPost2010Prop47
 90
       50
102
RTVSPost2010PropOp47
 70
     1
102
RTVSPost2010Prop48
 90
       50
102
RTVSPost2010PropOp48
 70
     1
102
RTVSPost2010Prop49
280
     0
102
RTVSPost2010PropOp49
 70
     1
102
RTVSPost2010Prop50
 90
       50
102
RTVSPost2010PropOp50
 70
     1
102
RTVSPost2010Prop51ColorIndex
 90
      256
102
RTVSPost2010Prop51ColorRGB
 90
-16777216
102
RTVSPost2010PropOp51
 70
     0
102
RTVSPost2010Prop52
140
1.0
102
RTVSPost2010PropOp52
 70
     0
102
RTVSPost2010Prop53
 90
        2
102
RTVSPost2010PropOp53
 70
     1
102
RTVSPost2010Prop54
  1
strokes_ogs.tif
102
RTVSPost2010PropOp54
 70
     1
102
RTVSPost2010Prop55
280
     0
102
RTVSPost2010PropOp55
 70
     1
102
RTVSPost2010Prop56
140
1.0
102
RTVSPost2010PropOp56
 70
     1
102
RTVSPost2010Prop57
140
1.0
102
RTVSPost2010PropOp57
 70
     1
102
RTVSPropertyOp0
 70
     1
102
RTVSPropertyOp1
 70
     1
102
RTVSPropertyOp2
 70
     1
102
RTVSPropertyOp3
 70
     1
102
RTVSPropertyOp4
 70
     1
102
RTVSPropertyOp5
 70
     1
102
RTVSPropertyOp6
 70
     1
102
RTVSPropertyOp7
 70
     1
102
RTVSPropertyOp8
 70
     1
102
RTVSPropertyOp9
 70
     1
102
RTVSPropertyOp10
 70
     1
102
RTVSPropertyOp11
 70
     1
102
RTVSPropertyOp12
 70
     1
102
RTVSPropertyOp13
 70
     1
102
RTVSPropertyOp14
 70
     1
102
RTVSPropertyOp15
 70
     1
102
RTVSPropertyOp16
 70
     1
102
RTVSPropertyOp17
 70
     1
102
RTVSPropertyOp18
 70
     1
102
RTVSPropertyOp19
 70
     1
102
RTVSPropertyOp20
 70
     1
102
RTVSPropertyOp21
 70
     1
102
RTVSPropertyOp22
 70
     1
102
RTVSPropertyOp23
 70
     1
102
RTVSPropertyOp24
 70
     1
102
RTVSPropertyOp25
 70
     1
102
RTVSPropertyOp26
 70
     1
102
RTVSPropertyOp27
 70
     1
102
RTVSPropertyOp28
 70
     1
102
RTVSPropertyOp29
 70
     1
102
RTVSPropertyOp30
 70
     1
102
RTVSPropertyOp31
 70
     1
102
RTVSPropertyOp32
 70
     1
102
RTVSPropertyOp33
 70
     1
102
RTVSPropertyOp34
 70
     1
102
RTVSPropertyOp35
 70
     1
102
RTVSPropertyOp36
 70
     1
102
RTVSPropertyOp37
 70
     1
102
RTVSPropertyOp38
 70
     1
102
RTVSPropertyOp39
 70
     1
102
RTVSPropertyOp40
 70
     1
102
RTVSPropertyOp41
 70
     1
102
RTVSPropertyOp42
 70
     1
102
RTVSPropertyOp43
 70
     1
102
RTVSPropertyOp44
 70
     1
102
RTVSPropertyOp45
 70
     1
102
RTVSPropertyOp46
 70
     1
102
RTVSPropertyOp47
 70
     1
102
RTVSPropertyOp48
 70
     1
102
RTVSPropertyOp49
 70
     1
102
RTVSPropertyOp50
 70
     1
102
RTVSPropertyOp51
 70
     0
102
RTVSPropertyOp52
 70
     0
102
RTVSPropertyOp53
 70
     1
102
RTVSPropertyOp54
 70
     1
102
RTVSPropertyOp55
 70
     1
102
RTVSPropertyOp56
 70
     1
102
RTVSPropertyOp57
 70
     1
102
RTVSPropertyOp58
 70
     1
102
RTVSPropertyOp59
 70
     1
102
RTVSPropertyOp60
 70
     1
102
RTVSPropertyOp61
 70
     1
102
RTVSPropertyOp62
 70
     1
  0
ENDSEC
  0
EOF
