  0
SECTION
  2
HEADER
  9
$ACADVER
  1
AC1015
  9
$ACADMAINTVER
 70
    13
  9
$DWGCODEPAGE
  3
ANSI_1252
  9
$INSBASE
 10
0.0
 20
0.0
 30
0.0
  9
$EXTMIN
 10
0.0
 20
0.0
 30
0.0
  9
$EXTMAX
 10
16.49
 20
10.44
 30
0.03
  9
$LIMMIN
 10
0.0
 20
0.0
  9
$LIMMAX
 10
11.00555555555599
 20
8.505555555555599
  9
$ORTHOMODE
 70
     0
  9
$REGENMODE
 70
     1
  9
$FILLMODE
 70
     1
  9
$QTEXTMODE
 70
     0
  9
$MIRRTEXT
 70
     0
  9
$LTSCALE
 40
1.0
  9
$ATTMODE
 70
     1
  9
$TEXTSIZE
 40
0.081
  9
$TRACEWID
 40
0.05
  9
$TEXTSTYLE
  7
L200
  9
$CLAYER
  8
TEXT_BUBBLES
  9
$CELTYPE
  6
ByLayer
  9
$CECOLOR
 62
   256
  9
$CELTSCALE
 40
1.0
  9
$DISPSILH
 70
     0
  9
$DIMSCALE
 40
1.0
  9
$DIMASZ
 40
0.18
  9
$DIMEXO
 40
0.0625
  9
$DIMDLI
 40
0.38
  9
$DIMRND
 40
0.0
  9
$DIMDLE
 40
0.0
  9
$DIMEXE
 40
0.18
  9
$DIMTP
 40
0.0
  9
$DIMTM
 40
0.0
  9
$DIMTXT
 40
0.18
  9
$DIMCEN
 40
0.09
  9
$DIMTSZ
 40
0.0
  9
$DIMTOL
 70
     0
  9
$DIMLIM
 70
     0
  9
$DIMTIH
 70
     1
  9
$DIMTOH
 70
     1
  9
$DIMSE1
 70
     0
  9
$DIMSE2
 70
     0
  9
$DIMTAD
 70
     0
  9
$DIMZIN
 70
     0
  9
$DIMBLK
  1

  9
$DIMASO
 70
     1
  9
$DIMSHO
 70
     1
  9
$DIMPOST
  1

  9
$DIMAPOST
  1

  9
$DIMALT
 70
     0
  9
$DIMALTD
 70
     2
  9
$DIMALTF
 40
25.4
  9
$DIMLFAC
 40
1.0
  9
$DIMTOFL
 70
     0
  9
$DIMTVP
 40
0.0
  9
$DIMTIX
 70
     0
  9
$DIMSOXD
 70
     0
  9
$DIMSAH
 70
     0
  9
$DIMBLK1
  1

  9
$DIMBLK2
  1

  9
$DIMSTYLE
  2
STANDARD
  9
$DIMCLRD
 70
     0
  9
$DIMCLRE
 70
     0
  9
$DIMCLRT
 70
     0
  9
$DIMTFAC
 40
1.0
  9
$DIMGAP
 40
0.09
  9
$DIMJUST
 70
     0
  9
$DIMSD1
 70
     0
  9
$DIMSD2
 70
     0
  9
$DIMTOLJ
 70
     1
  9
$DIMTZIN
 70
     0
  9
$DIMALTZ
 70
     0
  9
$DIMALTTZ
 70
     0
  9
$DIMUPT
 70
     0
  9
$DIMDEC
 70
     2
  9
$DIMTDEC
 70
     2
  9
$DIMALTU
 70
     2
  9
$DIMALTTD
 70
     2
  9
$DIMTXSTY
  7
STANDARD
  9
$DIMAUNIT
 70
     0
  9
$DIMADEC
 70
     0
  9
$DIMALTRND
 40
0.0
  9
$DIMAZIN
 70
     0
  9
$DIMDSEP
 70
    46
  9
$DIMATFIT
 70
     3
  9
$DIMFRAC
 70
     0
  9
$DIMLDRBLK
  1

  9
$DIMLUNIT
 70
     2
  9
$DIMLWD
 70
    -2
  9
$DIMLWE
 70
    -2
  9
$DIMTMOVE
 70
     2
  9
$LUNITS
 70
     2
  9
$LUPREC
 70
     2
  9
$SKETCHINC
 40
0.1
  9
$FILLETRAD
 40
0.0
  9
$AUNITS
 70
     0
  9
$AUPREC
 70
     2
  9
$MENU
  1
.
  9
$ELEVATION
 40
0.0
  9
$PELEVATION
 40
0.0
  9
$THICKNESS
 40
0.0
  9
$LIMCHECK
 70
     0
  9
$CHAMFERA
 40
0.25
  9
$CHAMFERB
 40
0.25
  9
$CHAMFERC
 40
0.0
  9
$CHAMFERD
 40
0.0
  9
$SKPOLY
 70
     0
  9
$TDCREATE
 40
2451268.344501365
  9
$TDUCREATE
 40
2451268.636168032
  9
$TDUPDATE
 40
2453033.703219514
  9
$TDUUPDATE
 40
2453033.994886180
  9
$TDINDWG
 40
0.3079868750
  9
$TDUSRTIMER
 40
0.3079868750
  9
$USRTIMER
 70
     1
  9
$ANGBASE
 50
0.0
  9
$ANGDIR
 70
     0
  9
$PDMODE
 70
     0
  9
$PDSIZE
 40
0.0
  9
$PLINEWID
 40
0.0
  9
$SPLFRAME
 70
     0
  9
$SPLINETYPE
 70
     6
  9
$SPLINESEGS
 70
     8
  9
$HANDSEED
  5
3063
  9
$SURFTAB1
 70
     6
  9
$SURFTAB2
 70
     6
  9
$SURFTYPE
 70
     6
  9
$SURFU
 70
     6
  9
$SURFV
 70
     6
  9
$UCSBASE
  2

  9
$UCSNAME
  2

  9
$UCSORG
 10
0.0
 20
0.0
 30
0.0
  9
$UCSXDIR
 10
1.0
 20
0.0
 30
0.0
  9
$UCSYDIR
 10
0.0
 20
1.0
 30
0.0
  9
$UCSORTHOREF
  2

  9
$UCSORTHOVIEW
 70
     0
  9
$UCSORGTOP
 10
0.0
 20
0.0
 30
0.0
  9
$UCSORGBOTTOM
 10
0.0
 20
0.0
 30
0.0
  9
$UCSORGLEFT
 10
0.0
 20
0.0
 30
0.0
  9
$UCSORGRIGHT
 10
0.0
 20
0.0
 30
0.0
  9
$UCSORGFRONT
 10
0.0
 20
0.0
 30
0.0
  9
$UCSORGBACK
 10
0.0
 20
0.0
 30
0.0
  9
$PUCSBASE
  2

  9
$PUCSNAME
  2

  9
$PUCSORG
 10
0.0
 20
0.0
 30
0.0
  9
$PUCSXDIR
 10
1.0
 20
0.0
 30
0.0
  9
$PUCSYDIR
 10
0.0
 20
1.0
 30
0.0
  9
$PUCSORTHOREF
  2

  9
$PUCSORTHOVIEW
 70
     0
  9
$PUCSORGTOP
 10
0.0
 20
0.0
 30
0.0
  9
$PUCSORGBOTTOM
 10
0.0
 20
0.0
 30
0.0
  9
$PUCSORGLEFT
 10
0.0
 20
0.0
 30
0.0
  9
$PUCSORGRIGHT
 10
0.0
 20
0.0
 30
0.0
  9
$PUCSORGFRONT
 10
0.0
 20
0.0
 30
0.0
  9
$PUCSORGBACK
 10
0.0
 20
0.0
 30
0.0
  9
$USERI1
 70
     0
  9
$USERI2
 70
     0
  9
$USERI3
 70
     0
  9
$USERI4
 70
     0
  9
$USERI5
 70
     0
  9
$USERR1
 40
0.0
  9
$USERR2
 40
0.0
  9
$USERR3
 40
0.0
  9
$USERR4
 40
0.0
  9
$USERR5
 40
0.0
  9
$WORLDVIEW
 70
     1
  9
$SHADEDGE
 70
     3
  9
$SHADEDIF
 70
    70
  9
$TILEMODE
 70
     1
  9
$MAXACTVP
 70
    48
  9
$PINSBASE
 10
0.0
 20
0.0
 30
0.0
  9
$PLIMCHECK
 70
     0
  9
$PEXTMIN
 10
1.000000000000000E+20
 20
1.000000000000000E+20
 30
1.000000000000000E+20
  9
$PEXTMAX
 10
-1.000000000000000E+20
 20
-1.000000000000000E+20
 30
-1.000000000000000E+20
  9
$PLIMMIN
 10
0.0
 20
0.0
  9
$PLIMMAX
 10
12.0
 20
9.0
  9
$UNITMODE
 70
     0
  9
$VISRETAIN
 70
     1
  9
$PLINEGEN
 70
     1
  9
$PSLTSCALE
 70
     1
  9
$TREEDEPTH
 70
  3020
  9
$CMLSTYLE
  2
Standard
  9
$CMLJUST
 70
     0
  9
$CMLSCALE
 40
1.0
  9
$PROXYGRAPHICS
 70
     1
  9
$MEASUREMENT
 70
     0
  9
$CELWEIGHT
370
    -1
  9
$ENDCAPS
280
     0
  9
$JOINSTYLE
280
     0
  9
$LWDISPLAY
290
     0
  9
$INSUNITS
 70
     0
  9
$HYPERLINKBASE
  1

  9
$STYLESHEET
  1
8500Color.ctb
  9
$XEDIT
290
     1
  9
$CEPSNTYPE
380
     0
  9
$PSTYLEMODE
290
     1
  9
$FINGERPRINTGUID
  2
{C69D4CB4-D04A-492E-8C3D-572827E91FBF}
  9
$VERSIONGUID
  2
{01F6BB94-9F5C-49B7-9941-C7AE6A75322B}
  9
$EXTNAMES
290
     1
  9
$PSVPSCALE
 40
0.0
  9
$OLESTARTUP
290
     0
  0
ENDSEC
  0
SECTION
  2
CLASSES
  0
CLASS
  1
ACDBDICTIONARYWDFLT
  2
AcDbDictionaryWithDefault
  3
AutoCAD 2000
 90
        0
280
     0
281
     0
  0
CLASS
  1
ACDBPLACEHOLDER
  2
AcDbPlaceHolder
  3
AutoCAD 2000
 90
        0
280
     0
281
     0
  0
CLASS
  1
LAYOUT
  2
AcDbLayout
  3
AutoCAD 2000
 90
        0
280
     0
281
     0
  0
CLASS
  1
DICTIONARYVAR
  2
AcDbDictionaryVar
  3
AutoCAD 2000
 90
        0
280
     0
281
     0
  0
CLASS
  1
PLOTSETTINGS
  2
AcDbPlotSettings
  3
AutoCAD 2000
 90
        0
280
     0
281
     0
  0
CLASS
  1
DIMASSOC
  2
AcDbDimAssoc
  3
"AcDbDimAssoc|Product Desc:     AcDim ARX App For Dimension|Company:          Autodesk, Inc.|WEB Address:      www.autodesk.com"
 90
        0
280
     0
281
     0
  0
ENDSEC
  0
SECTION
  2
TABLES
  0
TABLE
  2
VPORT
  5
25FD
330
0
100
AcDbSymbolTable
 70
     2
  0
VPORT
  5
3062
330
25FD
100
AcDbSymbolTableRecord
100
AcDbViewportTableRecord
  2
*Active
 70
     0
 10
0.0
 20
0.0
 11
1.0
 21
1.0
 12
8.24500003839377
 22
5.220000024307517
 13
0.0
 23
0.0
 14
1.0
 24
1.0
 15
0.0
 25
0.0
 16
0.0
 26
0.0
 36
1.0
 17
0.0
 27
0.0
 37
0.0
 40
11.0072450655855
 41
1.505548705302096
 42
50.0
 43
0.0
 44
0.0
 50
0.0
 51
0.0
 71
     0
 72
 10000
 73
     1
 74
     1
 75
     0
 76
     0
 77
     0
 78
     0
281
     0
 65
     1
110
0.0
120
0.0
130
0.0
111
1.0
121
0.0
131
0.0
112
0.0
122
1.0
132
0.0
 79
     0
146
0.0
  0
ENDTAB
  0
TABLE
  2
LTYPE
  5
25FA
330
0
100
AcDbSymbolTable
 70
     2
  0
LTYPE
  5
2608
330
25FA
100
AcDbSymbolTableRecord
100
AcDbLinetypeTableRecord
  2
ByBlock
 70
     0
  3

 72
    65
 73
     0
 40
0.0
  0
LTYPE
  5
2609
330
25FA
100
AcDbSymbolTableRecord
100
AcDbLinetypeTableRecord
  2
ByLayer
 70
     0
  3

 72
    65
 73
     0
 40
0.0
  0
LTYPE
  5
260A
330
25FA
100
AcDbSymbolTableRecord
100
AcDbLinetypeTableRecord
  2
CONTINUOUS
 70
     0
  3
___________________________
 72
    65
 73
     0
 40
0.0
  0
LTYPE
  5
263D
330
25FA
100
AcDbSymbolTableRecord
100
AcDbLinetypeTableRecord
  2
HIDDEN2
 70
     0
  3
 
 72
    65
 73
     2
 40
0.1875
 49
0.125
 74
     0
 49
-0.0625
 74
     0
  0
ENDTAB
  0
TABLE
  2
LAYER
  5
25F7
102
{ACAD_XDICTIONARY
360
300E
102
}
330
0
100
AcDbSymbolTable
 70
     5
  0
LAYER
  5
2605
330
25F7
100
AcDbSymbolTableRecord
100
AcDbLayerTableRecord
  2
0
 70
     0
 62
     7
  6
CONTINUOUS
370
    -3
390
2604
  0
LAYER
  5
2654
330
25F7
100
AcDbSymbolTableRecord
100
AcDbLayerTableRecord
  2
Image
 70
     0
 62
     7
  6
CONTINUOUS
370
    -3
390
2604
  0
LAYER
  5
2655
330
25F7
100
AcDbSymbolTableRecord
100
AcDbLayerTableRecord
  2
TEXT_BUBBLES
 70
     0
 62
     6
  6
CONTINUOUS
370
    -3
390
2604
1001
RAK
1000
{EFB-CP-BUBBLES
1070
     0
1070
     6
1000
CONTINUOUS
1000
EFB-CP-BUBBLES}
1000
{EFB-CP-LEADERS
1070
     0
1070
    -6
1000
CONTINUOUS
1000
EFB-CP-LEADERS}
1000
{EFB-CP-BSP-BUBBLES
1070
     0
1070
     6
1000
CONTINUOUS
1000
EFB-CP-BSP-BUBBLES}
1000
{EFB-CP-BSP-LEADERS
1070
     0
1070
    -6
1000
CONTINUOUS
1000
EFB-CP-BSP-LEADERS}
1000
{EFB-CP-NP-BUBBLES
1070
     0
1070
     6
1000
CONTINUOUS
1000
EFB-CP-NP-BUBBLES}
1000
{EFB-CP-NP-LEADERS
1070
     0
1070
    -6
1000
CONTINUOUS
1000
EFB-CP-NP-LEADERS}
1000
{EFB-CP-PRS-BUBBLES
1070
     0
1070
     6
1000
CONTINUOUS
1000
EFB-CP-PRS-BUBBLES}
1000
{EFB-CP-PRS-LEADERS
1070
     0
1070
    -6
1000
CONTINUOUS
1000
EFB-CP-PRS-LEADERS}
1000
{EFB-CP-PRS-BSP-BUBBLES
1070
     0
1070
     6
1000
CONTINUOUS
1000
EFB-CP-PRS-BSP-BUBBLES}
1000
{EFB-CP-PRS-BSP-LEADERS
1070
     0
1070
    -6
1000
CONTINUOUS
1000
EFB-CP-PRS-BSP-LEADERS}
1000
{EFB-CP-PRS-NP-BUBBLES
1070
     0
1070
     6
1000
CONTINUOUS
1000
EFB-CP-PRS-NP-BUBBLES}
1000
{EFB-CP-PRS-NP-LEADERS
1070
     0
1070
    -6
1000
CONTINUOUS
1000
EFB-CP-PRS-NP-LEADERS}
  0
LAYER
  5
2656
330
25F7
100
AcDbSymbolTableRecord
100
AcDbLayerTableRecord
  2
DEFPOINTS
 70
     0
 62
     7
  6
CONTINUOUS
290
     0
370
    -3
390
2604
  0
LAYER
  5
2AE9
330
25F7
100
AcDbSymbolTableRecord
100
AcDbLayerTableRecord
  2
TITLE
 70
     0
 62
     4
  6
CONTINUOUS
370
    -3
390
2604
  0
ENDTAB
  0
TABLE
  2
STYLE
  5
25F8
330
0
100
AcDbSymbolTable
 70
     5
  0
STYLE
  5
2606
330
25F8
100
AcDbSymbolTableRecord
100
AcDbTextStyleTableRecord
  2
STANDARD
 70
     0
 40
0.0
 41
0.0
 50
0.0
 71
     0
 42
0.0
  3
TXT.shx
  4

  0
STYLE
  5
2657
330
25F8
100
AcDbSymbolTableRecord
100
AcDbTextStyleTableRecord
  2
ROMANS
 70
     0
 40
0.0
 41
1.0
 50
0.0
 71
     0
 42
0.1
  3
romans
  4

  0
STYLE
  5
2AEA
330
25F8
100
AcDbSymbolTableRecord
100
AcDbTextStyleTableRecord
  2
L100
 70
     0
 40
0.1
 41
1.0
 50
0.0
 71
     0
 42
0.1
  3
SIMPLEX
  4

  0
STYLE
  5
2AEB
330
25F8
100
AcDbSymbolTableRecord
100
AcDbTextStyleTableRecord
  2
L200
 70
     0
 40
0.2
 41
1.0
 50
0.0
 71
     0
 42
0.081
  3
ARIAL.TTF
  4

1001
ACAD
1000
Arial
1071
       34
  0
STYLE
  5
2AEC
330
25F8
100
AcDbSymbolTableRecord
100
AcDbTextStyleTableRecord
  2
L80
 70
     0
 40
0.08
 41
1.0
 50
0.0
 71
     0
 42
0.08
  3
ROMANS
  4

  0
ENDTAB
  0
TABLE
  2
VIEW
  5
25FB
330
0
100
AcDbSymbolTable
 70
     1
  0
VIEW
  5
2F39
330
25FB
100
AcDbSymbolTableRecord
100
AcDbViewTableRecord
  2
PS1
 70
     0
 40
10.44
 10
8.244999999999999
 20
5.219999999999999
 41
16.49
 11
0.0
 21
0.0
 31
1.0
 12
0.0
 22
0.0
 32
0.0
 42
50.0
 43
0.0
 44
0.0
 50
0.0
 71
     0
281
     0
 72
     1
110
0.0
120
0.0
130
0.0
111
1.0
121
0.0
131
0.0
112
0.0
122
1.0
132
0.0
 79
     0
146
0.0
  0
ENDTAB
  0
TABLE
  2
UCS
  5
25FC
330
0
100
AcDbSymbolTable
 70
     0
  0
ENDTAB
  0
TABLE
  2
APPID
  5
25FE
330
0
100
AcDbSymbolTable
 70
    28
  0
APPID
  5
2607
330
25FE
100
AcDbSymbolTableRecord
100
AcDbRegAppTableRecord
  2
ACAD
 70
     0
  0
APPID
  5
2658
330
25FE
100
AcDbSymbolTableRecord
100
AcDbRegAppTableRecord
  2
RAK
 70
     0
  0
APPID
  5
2AED
330
25FE
100
AcDbSymbolTableRecord
100
AcDbRegAppTableRecord
  2
CLSI_CADWRITER
 70
     0
  0
APPID
  5
2AEE
330
25FE
100
AcDbSymbolTableRecord
100
AcDbRegAppTableRecord
  2
WID_Sprinkler
 70
     0
  0
APPID
  5
2AEF
330
25FE
100
AcDbSymbolTableRecord
100
AcDbRegAppTableRecord
  2
WID_Valve
 70
     0
  0
APPID
  5
2AF0
330
25FE
100
AcDbSymbolTableRecord
100
AcDbRegAppTableRecord
  2
WID_Fitting
 70
     0
  0
APPID
  5
2AF1
330
25FE
100
AcDbSymbolTableRecord
100
AcDbRegAppTableRecord
  2
WID_HPNode
 70
     0
  0
APPID
  5
2AF2
330
25FE
100
AcDbSymbolTableRecord
100
AcDbRegAppTableRecord
  2
WID_Node
 70
     0
  0
APPID
  5
2AF3
330
25FE
100
AcDbSymbolTableRecord
100
AcDbRegAppTableRecord
  2
WID_Conduit
 70
     0
  0
APPID
  5
2AF4
330
25FE
100
AcDbSymbolTableRecord
100
AcDbRegAppTableRecord
  2
WID_SprinklerSection
 70
     0
  0
APPID
  5
2AF5
330
25FE
100
AcDbSymbolTableRecord
100
AcDbRegAppTableRecord
  2
WID_MainLineSection
 70
     0
  0
APPID
  5
2AF6
330
25FE
100
AcDbSymbolTableRecord
100
AcDbRegAppTableRecord
  2
WID_ManifoldSection
 70
     0
  0
APPID
  5
2AF7
330
25FE
100
AcDbSymbolTableRecord
100
AcDbRegAppTableRecord
  2
WID_DripSection
 70
     0
  0
APPID
  5
2AF8
330
25FE
100
AcDbSymbolTableRecord
100
AcDbRegAppTableRecord
  2
WID_HPSection
 70
     0
  0
APPID
  5
2AF9
330
25FE
100
AcDbSymbolTableRecord
100
AcDbRegAppTableRecord
  2
WID_Sleeve
 70
     0
  0
APPID
  5
2AFA
330
25FE
100
AcDbSymbolTableRecord
100
AcDbRegAppTableRecord
  2
WID_Layout
 70
     0
  0
APPID
  5
2AFB
330
25FE
100
AcDbSymbolTableRecord
100
AcDbRegAppTableRecord
  2
WID_Island
 70
     0
  0
APPID
  5
2AFC
330
25FE
100
AcDbSymbolTableRecord
100
AcDbRegAppTableRecord
  2
WID_Controller
 70
     0
  0
APPID
  5
2AFD
330
25FE
100
AcDbSymbolTableRecord
100
AcDbRegAppTableRecord
  2
WID_SprinklerLateral
 70
     0
  0
APPID
  5
2AFE
330
25FE
100
AcDbSymbolTableRecord
100
AcDbRegAppTableRecord
  2
WID_HPDripLateral
 70
     0
  0
APPID
  5
2AFF
330
25FE
100
AcDbSymbolTableRecord
100
AcDbRegAppTableRecord
  2
WID_LabelPipeSize
 70
     0
  0
APPID
  5
2B00
330
25FE
100
AcDbSymbolTableRecord
100
AcDbRegAppTableRecord
  2
WID_LabelPipeSegment
 70
     0
  0
APPID
  5
2B01
330
25FE
100
AcDbSymbolTableRecord
100
AcDbRegAppTableRecord
  2
WID_LabelValveDesignator
 70
     0
  0
APPID
  5
2B02
330
25FE
100
AcDbSymbolTableRecord
100
AcDbRegAppTableRecord
  2
WID_CheckArc
 70
     0
  0
APPID
  5
2B03
330
25FE
100
AcDbSymbolTableRecord
100
AcDbRegAppTableRecord
  2
WID_ObjectType
 70
     0
  0
APPID
  5
2B04
330
25FE
100
AcDbSymbolTableRecord
100
AcDbRegAppTableRecord
  2
WID_DripLateral
 70
     0
  0
APPID
  5
2B05
330
25FE
100
AcDbSymbolTableRecord
100
AcDbRegAppTableRecord
  2
ABNSLEADERTOOLS
 70
     0
  0
APPID
  5
2B06
330
25FE
100
AcDbSymbolTableRecord
100
AcDbRegAppTableRecord
  2
DCO15
 70
     0
  0
ENDTAB
  0
TABLE
  2
DIMSTYLE
  5
25FF
330
0
100
AcDbSymbolTable
 70
     1
100
AcDbDimStyleTable
 71
     1
340
2643
  0
DIMSTYLE
105
2643
102
{ACAD_REACTORS
330
2BA9
330
2EA5
330
2EDD
330
3049
102
}
330
25FF
100
AcDbSymbolTableRecord
100
AcDbDimStyleTableRecord
  2
STANDARD
 70
     0
271
     2
272
     2
279
     2
340
2606
  0
ENDTAB
  0
TABLE
  2
BLOCK_RECORD
  5
25F6
330
0
100
AcDbSymbolTable
 70
     8
  0
BLOCK_RECORD
  5
2613
330
25F6
100
AcDbSymbolTableRecord
100
AcDbBlockTableRecord
  2
*Model_Space
340
2616
  0
BLOCK_RECORD
  5
260F
330
25F6
100
AcDbSymbolTableRecord
100
AcDbBlockTableRecord
  2
*Paper_Space
340
2612
  0
BLOCK_RECORD
  5
264F
330
25F6
100
AcDbSymbolTableRecord
100
AcDbBlockTableRecord
  2
bubble
340
0
310
2800000020000000200000000100080000000000000400000000000000000000000000000000000000000000000080000080000000808000800000008000800080800000C0C0C000C0DCC000F0CAA6000020400000206000002080000020A0000020C0000020E00000400000004020000040400000406000004080000040A0
310
000040C0000040E00000600000006020000060400000606000006080000060A0000060C0000060E00000800000008020000080400000806000008080000080A0000080C0000080E00000A0000000A0200000A0400000A0600000A0800000A0A00000A0C00000A0E00000C0000000C0200000C0400000C0600000C0800000C0
310
A00000C0C00000C0E00000E0000000E0200000E0400000E0600000E0800000E0A00000E0C00000E0E00040000000400020004000400040006000400080004000A0004000C0004000E00040200000402020004020400040206000402080004020A0004020C0004020E000404000004040200040404000404060004040800040
310
40A0004040C0004040E00040600000406020004060400040606000406080004060A0004060C0004060E00040800000408020004080400040806000408080004080A0004080C0004080E00040A0000040A0200040A0400040A0600040A0800040A0A00040A0C00040A0E00040C0000040C0200040C0400040C0600040C08000
310
40C0A00040C0C00040C0E00040E0000040E0200040E0400040E0600040E0800040E0A00040E0C00040E0E00080000000800020008000400080006000800080008000A0008000C0008000E00080200000802020008020400080206000802080008020A0008020C0008020E00080400000804020008040400080406000804080
310
008040A0008040C0008040E00080600000806020008060400080606000806080008060A0008060C0008060E00080800000808020008080400080806000808080008080A0008080C0008080E00080A0000080A0200080A0400080A0600080A0800080A0A00080A0C00080A0E00080C0000080C0200080C0400080C0600080C0
310
800080C0A00080C0C00080C0E00080E0000080E0200080E0400080E0600080E0800080E0A00080E0C00080E0E000C0000000C0002000C0004000C0006000C0008000C000A000C000C000C000E000C0200000C0202000C0204000C0206000C0208000C020A000C020C000C020E000C0400000C0402000C0404000C0406000C0
310
408000C040A000C040C000C040E000C0600000C0602000C0604000C0606000C0608000C060A000C060C000C060E000C0800000C0802000C0804000C0806000C0808000C080A000C080C000C080E000C0A00000C0A02000C0A04000C0A06000C0A08000C0A0A000C0A0C000C0A0E000C0C00000C0C02000C0C04000C0C06000
310
C0C08000C0C0A000F0FBFF00A4A0A000808080000000FF0000FF000000FFFF00FF000000FF00FF00FFFF0000FFFFFF0008080808080808080808080808080808080808080808080808080808080808080808080808080808080808080808080808080808080808080808080808080808080808080808080808080808FDFDFD
310
08080808080808080808080808080808080808080808080808080808FD080808FDFDFDFDFDFD0808080808080808080808080808080808080808FDFD08080808080808080808FDFDFDFD080808080808080808080808080808FD08080808080808080808080808080808FD08080808080808080808080808FD080808080808
310
0808080808080808080808FD0808080808080808080808FDFD08080808080808080808080808080808080808FD080808080808080808FD080808080808080808080808080808080808080808FD0808080808080808FD08FD0808080808080808FD0808FD0808080808080808FDFD08080808080808FD0808FD080808080808
310
FD08080808FD080808080808FD08FD08080808080808FD0808FD080808080808FD08080808FD080808080808FD0808FD080808080808FD080808FD08080808FD080808080808FD08080808FD080808FD080808080808FD08080808FD0808FD0808080808080808FD0808FD0808080808FD0808080808FD08080808FD0808FD
310
0808080808080808FD0808FD0808080808FD0808080808FD0808080808FDFD08080808080808080808FDFD08080808080808FD08080808FD0808080808FDFD08080808080808080808FDFD08080808080808FD08080808FD08080808FD0808FD0808080808080808FD0808FD0808080808FD0808080808FD08080808FD0808
310
FD0808080808080808FD0808FD0808080808FD0808080808FD080808FD08080808FD080808080808FD08080808FD080808FD080808080808FD0808FD080808080808FD08080808FD080808080808FD0808FD080808080808FD0808FD080808080808FD08080808FD080808080808FD08FD08080808080808FD08FD08080808
310
08080808FD0808FD0808080808080808FDFD0808080808080808FD080808080808080808080808080808080808080808FD08080808080808080808FDFD08080808080808080808080808080808080808FD080808080808080808080808FD0808080808080808080808080808080808FD0808080808080808080808080808FD
310
08080808080808080808080808080808FD080808080808080808080808080808FDFD0808080808080808080808FDFDFD080808080808080808080808080808080808FD08080808FDFDFDFDFDFD08080808080808080808080808080808080808080808FDFDFDFD080808080808080808080808080808080808080808080808
310
0808080808080808080808080808080808080808080808080808080808080808080808080808080808080808080808080808080808080808
102
{BLKREFS
331
2777
331
2789
331
279D
331
2B5D
331
2B60
331
2B63
331
2B66
331
2B69
331
2B6C
331
2B6F
331
2B72
331
2B75
331
2B78
331
2B7B
331
2B7E
331
2B87
331
2DED
331
2DF4
331
2DFE
331
2E01
331
2E08
331
2E0D
331
2E12
331
2E19
331
2E9F
331
2F71
331
2F74
102
}
  0
BLOCK_RECORD
  5
29F3
330
25F6
100
AcDbSymbolTableRecord
100
AcDbBlockTableRecord
  2
TITLBLK
340
0
102
{BLKREFS
331
2B8D
102
}
  0
BLOCK_RECORD
  5
2A14
330
25F6
100
AcDbSymbolTableRecord
100
AcDbBlockTableRecord
  2
PlotLayout2002
340
0
102
{BLKREFS
331
2A18
331
2F5E
102
}
  0
BLOCK_RECORD
  5
2A17
330
25F6
100
AcDbSymbolTableRecord
100
AcDbBlockTableRecord
  2
wid
340
0
102
{BLKREFS
331
2B8A
331
2B8B
102
}
  0
BLOCK_RECORD
  5
2BAA
330
25F6
100
AcDbSymbolTableRecord
100
AcDbBlockTableRecord
  2
*D4
340
0
  0
BLOCK_RECORD
  5
2EA6
330
25F6
100
AcDbSymbolTableRecord
100
AcDbBlockTableRecord
  2
*D5
340
0
  0
BLOCK_RECORD
  5
2EDE
330
25F6
100
AcDbSymbolTableRecord
100
AcDbBlockTableRecord
  2
*D6
340
0
  0
BLOCK_RECORD
  5
2F5D
330
25F6
100
AcDbSymbolTableRecord
100
AcDbBlockTableRecord
  2
pagesetups
340
0
102
{BLKREFS
331
2F62
102
}
  0
ENDTAB
  0
ENDSEC
  0
SECTION
  2
BLOCKS
  0
BLOCK
  5
2649
330
2613
100
AcDbEntity
  8
0
100
AcDbBlockBegin
  2
*Model_Space
 70
     0
 10
0.0
 20
0.0
 30
0.0
  3
*Model_Space
  1

  0
ENDBLK
  5
264A
330
2613
100
AcDbEntity
  8
0
100
AcDbBlockEnd
  0
BLOCK
  5
2647
330
260F
100
AcDbEntity
 67
     1
  8
0
100
AcDbBlockBegin
  2
*Paper_Space
 70
     0
 10
0.0
 20
0.0
 30
0.0
  3
*Paper_Space
  1

  0
ENDBLK
  5
2648
330
260F
100
AcDbEntity
 67
     1
  8
0
100
AcDbBlockEnd
  0
BLOCK
  5
2652
330
264F
100
AcDbEntity
  8
0
100
AcDbBlockBegin
  2
bubble
 70
     2
 10
0.0
 20
0.0
 30
0.0
  3
bubble
  1

  0
CIRCLE
  5
2650
330
264F
100
AcDbEntity
  8
TEXT_BUBBLES
100
AcDbCircle
 10
0.0
 20
0.0
 30
0.0
 40
0.1398891854377198
  0
ATTDEF
  5
2651
330
264F
100
AcDbEntity
  8
TEXT_BUBBLES
100
AcDbText
 10
0.0
 20
0.0
 30
0.0
 40
0.125
  1

  7
ROMANS
 72
     4
 11
0.0
 21
0.0
 31
0.0
100
AcDbAttributeDefinition
  3
Number
  2
XX
 70
     0
  0
ENDBLK
  5
2653
330
264F
100
AcDbEntity
  8
0
100
AcDbBlockEnd
  0
BLOCK
  5
29FE
330
29F3
100
AcDbEntity
  8
0
100
AcDbBlockBegin
  2
TITLBLK
 70
     2
 10
0.0
 20
0.0
 30
0.0
  3
TITLBLK
  1

  0
LWPOLYLINE
  5
29F4
330
29F3
100
AcDbEntity
  8
TITLE
 62
     3
100
AcDbPolyline
 90
        2
 70
     0
 43
0.04
 39
0.03
 10
0.3424999999999994
 20
-0.0000000000000003
 10
7.654581983261419
 20
-0.0000000000000003
  0
ATTDEF
  5
29F5
330
29F3
100
AcDbEntity
  8
TITLE
100
AcDbText
 10
0.625
 20
0.0999999999999998
 30
0.0
 40
0.2
  1
TITLE
  7
L200
100
AcDbAttributeDefinition
  3
DETAIL TITLE TOP 2ND LINE
  2
TITLE2
 70
     0
  0
LWPOLYLINE
  5
29F6
330
29F3
100
AcDbEntity
  8
TITLE
 62
     3
100
AcDbPolyline
 90
        2
 70
     1
 43
0.03
 10
0.0
 20
-0.3425000000000002
 42
0.9999999999999998
 10
0.0
 20
0.3425000000000002
 42
0.9999999999999998
  0
ATTDEF
  5
29F7
330
29F3
100
AcDbEntity
  8
TITLE
100
AcDbText
 10
-0.0776944065484311
 20
-0.1000000000000003
 30
0.0
 40
0.2
  1
#
  7
L200
 72
     4
 11
0.0
 21
-0.0000000000000003
 31
0.0
100
AcDbAttributeDefinition
  3
#
  2
#
 70
     0
  0
ATTDEF
  5
29F8
330
29F3
100
AcDbEntity
  8
TITLE
 62
     7
100
AcDbText
 10
0.625
 20
-0.1836633170828782
 30
0.0
 40
0.1
  1
N.T.S.
  7
L100
100
AcDbAttributeDefinition
  3
SCALE
  2
SCALE
 70
     0
  0
ATTDEF
  5
29F9
330
29F3
100
AcDbEntity
  8
TITLE
100
AcDbText
 10
2.107203380653828
 20
-0.2914343300200487
 30
0.0
 40
0.2
  1
TITLE2
  7
L200
100
AcDbAttributeDefinition
  3
DETAIL TITLE BOTTOM 1
  2
TITLE3
 70
     0
  0
ATTDEF
  5
29FA
330
29F3
100
AcDbEntity
  8
TITLE
 62
     7
100
AcDbText
 10
7.570772459451895
 20
-0.1618486459795794
 30
0.0
 40
0.08
  1
-
  7
L80
 72
     2
 11
7.654581983261419
 21
-0.1618486459795794
 31
0.0
100
AcDbAttributeDefinition
  3
DWG-NAME
  2
DWG-NAME
 70
     0
  0
ATTDEF
  5
29FB
330
29F3
100
AcDbEntity
  8
TITLE
 62
     7
100
AcDbText
 10
7.570772459451895
 20
0.0853756950662722
 30
0.0
 40
0.08
  1
-
  7
L80
 72
     2
 11
7.654581983261419
 21
0.0853756950662722
 31
0.0
100
AcDbAttributeDefinition
  3
REVISION DATE
  2
REVISED
 70
     0
  0
ATTDEF
  5
29FC
330
29F3
100
AcDbEntity
  8
TITLE
100
AcDbText
 10
0.625
 20
0.459485206268383
 30
0.0
 40
0.2
  1
TITLE
  7
L200
100
AcDbAttributeDefinition
  3
DETAIL TITLE TOP LINE
  2
TITLE1
 70
     0
  0
ATTDEF
  5
29FD
330
29F3
100
AcDbEntity
  8
TITLE
100
AcDbText
 10
2.107203380653828
 20
-0.6149710156615936
 30
0.0
 40
0.2
  1
TITLE2
  7
L200
100
AcDbAttributeDefinition
  3
DETAIL TITLE BOTTOM 2
  2
TITLE4
 70
     0
  0
ENDBLK
  5
29FF
330
29F3
100
AcDbEntity
  8
0
100
AcDbBlockEnd
  0
BLOCK
  5
2A15
330
2A14
100
AcDbEntity
  8
0
100
AcDbBlockBegin
  2
PlotLayout2002
 70
     0
 10
0.0
 20
0.0
 30
0.0
  3
PlotLayout2002
  1

  0
ENDBLK
  5
2A16
330
2A14
100
AcDbEntity
  8
0
100
AcDbBlockEnd
  0
BLOCK
  5
2A19
330
2A17
100
AcDbEntity
  8
0
 62
    40
100
AcDbBlockBegin
  2
wid
 70
     0
 10
0.0
 20
0.0
 30
0.0
  3
wid
  1

  0
INSERT
  5
2A18
330
2A17
100
AcDbEntity
  8
0
100
AcDbBlockReference
  2
PlotLayout2002
 10
0.0
 20
0.0
 30
0.0
  0
ENDBLK
  5
2A1A
330
2A17
100
AcDbEntity
  8
0
 62
    40
100
AcDbBlockEnd
  0
BLOCK
  5
2BB5
330
2BAA
100
AcDbEntity
  8
0
100
AcDbBlockBegin
  2
*D4
 70
     1
 10
0.0
 20
0.0
 30
0.0
  3
*D4
  1

  0
LINE
  5
2F2D
330
2BAA
100
AcDbEntity
  8
Image
  6
Continuous
 62
     0
370
    -2
100
AcDbLine
 10
3.718383105555329
 20
6.352154707303609
 30
0.0
 11
3.718383105555329
 21
7.260906703665378
 31
0.0
  0
LINE
  5
2F2E
330
2BAA
100
AcDbEntity
  8
Image
  6
Continuous
 62
     0
370
    -2
100
AcDbLine
 10
5.805362719491654
 20
6.541419212259288
 30
0.0
 11
5.805362719491654
 21
7.260906703665378
 31
0.0
  0
LINE
  5
2F2F
330
2BAA
100
AcDbEntity
  8
Image
  6
Continuous
 62
     0
370
    -2
100
AcDbLine
 10
3.538383105555328
 20
7.080906703665378
 30
0.0
 11
3.358383105555329
 21
7.080906703665378
 31
0.0
  0
LINE
  5
2F30
330
2BAA
100
AcDbEntity
  8
Image
  6
Continuous
 62
     0
370
    -2
100
AcDbLine
 10
5.985362719491654
 20
7.080906703665378
 30
0.0
 11
6.165362719491654
 21
7.080906703665378
 31
0.0
  0
SOLID
  5
2F31
330
2BAA
100
AcDbEntity
  8
Image
  6
Continuous
 62
     0
100
AcDbTrace
 10
3.538383105555328
 20
7.110906703665379
 30
0.0
 11
3.538383105555328
 21
7.050906703665378
 31
0.0
 12
3.718383105555329
 22
7.080906703665378
 32
0.0
 13
3.718383105555329
 23
7.080906703665378
 33
0.0
  0
SOLID
  5
2F32
330
2BAA
100
AcDbEntity
  8
Image
  6
Continuous
 62
     0
100
AcDbTrace
 10
5.985362719491654
 20
7.110906703665379
 30
0.0
 11
5.985362719491654
 21
7.050906703665378
 31
0.0
 12
5.805362719491654
 22
7.080906703665378
 32
0.0
 13
5.805362719491654
 23
7.080906703665378
 33
0.0
  0
MTEXT
  5
2F33
330
2BAA
100
AcDbEntity
  8
Image
  6
Continuous
 62
     0
100
AcDbMText
 10
4.761872912523491
 20
7.080906703665378
 30
0.0
 40
0.125
 41
0.0
 71
     5
 72
     1
  1
\A1;MAXIMUM 2 FEET
  7
ROMANS
 73
     1
 44
1.0
  0
POINT
  5
2F34
330
2BAA
100
AcDbEntity
  8
DEFPOINTS
  6
Continuous
 62
     0
100
AcDbPoint
 10
3.718383105555329
 20
6.289654707303609
 30
0.0
  0
POINT
  5
2F35
330
2BAA
100
AcDbEntity
  8
DEFPOINTS
  6
Continuous
 62
     0
100
AcDbPoint
 10
5.805362719491654
 20
6.478919212259288
 30
0.0
  0
POINT
  5
2F36
330
2BAA
100
AcDbEntity
  8
DEFPOINTS
  6
Continuous
 62
     0
100
AcDbPoint
 10
5.805362719491654
 20
7.080906703665378
 30
0.0
  0
ENDBLK
  5
2BB6
330
2BAA
100
AcDbEntity
  8
0
100
AcDbBlockEnd
  0
BLOCK
  5
2EB1
330
2EA6
100
AcDbEntity
  8
0
100
AcDbBlockBegin
  2
*D5
 70
     1
 10
0.0
 20
0.0
 30
0.0
  3
*D5
  1

  0
LINE
  5
2F23
330
2EA6
100
AcDbEntity
  8
Image
  6
Continuous
 62
     0
370
    -2
100
AcDbLine
 10
5.306729296066389
 20
4.30348742709434
 30
0.0
 11
5.306729296066389
 21
3.616404268478558
 31
0.0
  0
LINE
  5
2F24
330
2EA6
100
AcDbEntity
  8
Image
  6
Continuous
 62
     0
370
    -2
100
AcDbLine
 10
8.180214671756871
 20
4.30348742709434
 30
0.0
 11
8.180214671756871
 21
3.616404268478558
 31
0.0
  0
LINE
  5
2F25
330
2EA6
100
AcDbEntity
  8
Image
  6
Continuous
 62
     0
370
    -2
100
AcDbLine
 10
5.486729296066389
 20
3.796404268478558
 30
0.0
 11
6.507638650578297
 21
3.796404268478558
 31
0.0
  0
LINE
  5
2F26
330
2EA6
100
AcDbEntity
  8
Image
  6
Continuous
 62
     0
370
    -2
100
AcDbLine
 10
8.000214671756872
 20
3.796404268478558
 30
0.0
 11
6.979305317244964
 21
3.796404268478558
 31
0.0
  0
SOLID
  5
2F27
330
2EA6
100
AcDbEntity
  8
Image
  6
Continuous
 62
     0
100
AcDbTrace
 10
5.486729296066389
 20
3.826404268478558
 30
0.0
 11
5.486729296066389
 21
3.766404268478559
 31
0.0
 12
5.306729296066389
 22
3.796404268478558
 32
0.0
 13
5.306729296066389
 23
3.796404268478558
 33
0.0
  0
SOLID
  5
2F28
330
2EA6
100
AcDbEntity
  8
Image
  6
Continuous
 62
     0
100
AcDbTrace
 10
8.000214671756872
 20
3.826404268478558
 30
0.0
 11
8.000214671756872
 21
3.766404268478559
 31
0.0
 12
8.180214671756871
 22
3.796404268478558
 32
0.0
 13
8.180214671756871
 23
3.796404268478558
 33
0.0
  0
MTEXT
  5
2F29
330
2EA6
100
AcDbEntity
  8
Image
  6
Continuous
 62
     0
100
AcDbMText
 10
6.74347198391163
 20
3.796404268478558
 30
0.0
 40
0.125
 41
0.0
 71
     5
 72
     1
  1
\A1;32"
  7
ROMANS
 73
     1
 44
1.0
  0
POINT
  5
2F2A
330
2EA6
100
AcDbEntity
  8
DEFPOINTS
  6
Continuous
 62
     0
100
AcDbPoint
 10
5.306729296066389
 20
4.36598742709434
 30
0.0
  0
POINT
  5
2F2B
330
2EA6
100
AcDbEntity
  8
DEFPOINTS
  6
Continuous
 62
     0
100
AcDbPoint
 10
8.180214671756871
 20
4.36598742709434
 30
0.0
  0
POINT
  5
2F2C
330
2EA6
100
AcDbEntity
  8
DEFPOINTS
  6
Continuous
 62
     0
100
AcDbPoint
 10
8.180214671756871
 20
3.796404268478558
 30
0.0
  0
ENDBLK
  5
2EB2
330
2EA6
100
AcDbEntity
  8
0
100
AcDbBlockEnd
  0
BLOCK
  5
2EE9
330
2EDE
100
AcDbEntity
  8
0
100
AcDbBlockBegin
  2
*D6
 70
     1
 10
0.0
 20
0.0
 30
0.0
  3
*D6
  1

  0
LINE
  5
2F19
330
2EDE
100
AcDbEntity
  8
Image
  6
Continuous
 62
     0
370
    -2
100
AcDbLine
 10
8.242714671756871
 20
4.36598742709434
 30
0.0
 11
9.252485355743795
 21
4.36598742709434
 31
0.0
  0
LINE
  5
2F1A
330
2EDE
100
AcDbEntity
  8
Image
  6
Continuous
 62
     0
370
    -2
100
AcDbLine
 10
8.493437648744521
 20
6.478919212259288
 30
0.0
 11
9.252485355743797
 21
6.478919212259288
 31
0.0
  0
LINE
  5
2F1B
330
2EDE
100
AcDbEntity
  8
Image
  6
Continuous
 62
     0
370
    -2
100
AcDbLine
 10
9.072485355743795
 20
4.54598742709434
 30
0.0
 11
9.072485355743797
 21
5.258048557772053
 31
0.0
  0
LINE
  5
2F1C
330
2EDE
100
AcDbEntity
  8
Image
  6
Continuous
 62
     0
370
    -2
100
AcDbLine
 10
9.072485355743797
 20
6.298919212259288
 30
0.0
 11
9.072485355743797
 21
5.586858081581576
 31
0.0
  0
SOLID
  5
2F1D
330
2EDE
100
AcDbEntity
  8
Image
  6
Continuous
 62
     0
100
AcDbTrace
 10
9.042485355743796
 20
4.54598742709434
 30
0.0
 11
9.102485355743795
 21
4.54598742709434
 31
0.0
 12
9.072485355743795
 22
4.36598742709434
 32
0.0
 13
9.072485355743795
 23
4.36598742709434
 33
0.0
  0
SOLID
  5
2F1E
330
2EDE
100
AcDbEntity
  8
Image
  6
Continuous
 62
     0
100
AcDbTrace
 10
9.042485355743798
 20
6.298919212259288
 30
0.0
 11
9.102485355743796
 21
6.298919212259288
 31
0.0
 12
9.072485355743797
 22
6.478919212259288
 32
0.0
 13
9.072485355743797
 23
6.478919212259288
 33
0.0
  0
MTEXT
  5
2F1F
330
2EDE
100
AcDbEntity
  8
Image
  6
Continuous
 62
     0
100
AcDbMText
 10
9.072485355743795
 20
5.422453319676815
 30
0.0
 40
0.125
 41
0.0
 71
     5
 72
     1
  1
\A1;24"
  7
ROMANS
 73
     1
 44
1.0
  0
POINT
  5
2F20
330
2EDE
100
AcDbEntity
  8
DEFPOINTS
  6
Continuous
 62
     0
100
AcDbPoint
 10
8.180214671756871
 20
4.36598742709434
 30
0.0
  0
POINT
  5
2F21
330
2EDE
100
AcDbEntity
  8
DEFPOINTS
  6
Continuous
 62
     0
100
AcDbPoint
 10
8.430937648744521
 20
6.478919212259288
 30
0.0
  0
POINT
  5
2F22
330
2EDE
100
AcDbEntity
  8
DEFPOINTS
  6
Continuous
 62
     0
100
AcDbPoint
 10
9.072485355743797
 20
6.478919212259288
 30
0.0
  0
ENDBLK
  5
2EEA
330
2EDE
100
AcDbEntity
  8
0
100
AcDbBlockEnd
  0
BLOCK
  5
2F5F
330
2F5D
100
AcDbEntity
  8
0
100
AcDbBlockBegin
  2
pagesetups
 70
     0
 10
0.0
 20
0.0
 30
0.0
  3
pagesetups
  1

  0
INSERT
  5
2F5E
330
2F5D
100
AcDbEntity
  8
0
100
AcDbBlockReference
  2
PlotLayout2002
 10
0.0
 20
0.0
 30
0.0
  0
ENDBLK
  5
2F60
330
2F5D
100
AcDbEntity
  8
0
100
AcDbBlockEnd
  0
ENDSEC
  0
SECTION
  2
ENTITIES
  0
LINE
  5
270E
330
2613
100
AcDbEntity
  8
Image
100
AcDbLine
 10
1.348451571218458
 20
6.597411212268216
 30
0.0
 11
1.37478880828316
 21
6.28164434422133
 31
0.0
  0
LINE
  5
270F
330
2613
100
AcDbEntity
  8
Image
100
AcDbLine
 10
1.380107855180966
 20
6.577149995348538
 30
0.0
 11
1.304359811404331
 21
6.288360578450149
 31
0.0
  0
LINE
  5
2710
330
2613
100
AcDbEntity
  8
Image
100
AcDbLine
 10
1.371714338976826
 20
6.548744478932301
 30
0.0
 11
1.298477205265751
 21
6.281644344221327
 31
0.0
  0
LINE
  5
2711
330
2613
100
AcDbEntity
  8
Image
100
AcDbLine
 10
1.357831927570568
 20
6.59135275355665
 30
0.0
 11
1.320062609358934
 21
6.281644344221327
 31
0.0
  0
LWPOLYLINE
  5
2712
330
2613
100
AcDbEntity
  8
Image
100
AcDbPolyline
 90
        2
 70
     0
 43
0.0
 10
1.496655239790147
 20
6.281644344221327
 10
1.250617438216476
 20
6.281644344221327
  0
LINE
  5
2713
330
2613
100
AcDbEntity
  8
Image
100
AcDbLine
 10
1.547591183127124
 20
6.529746883401035
 30
0.0
 11
1.347022993172831
 21
6.281644344221327
 31
0.0
  0
LINE
  5
2714
330
2613
100
AcDbEntity
  8
Image
100
AcDbLine
 10
1.359229072975551
 20
5.157838630732085
 30
0.0
 11
1.306028100363324
 21
5.157838630732085
 31
0.0
  0
LINE
  5
2715
330
2613
100
AcDbEntity
  8
Image
100
AcDbLine
 10
1.383836901376024
 20
5.131312885008489
 30
0.0
 11
1.306028100363324
 21
5.131312885008489
 31
0.0
  0
HATCH
  5
2717
330
2613
100
AcDbEntity
  8
Image
100
AcDbHatch
 10
0.0
 20
0.0
 30
0.0
210
0.0
220
0.0
230
1.0
  2
EARTH
 70
     0
 71
     0
 91
        2
 92
        1
 93
        5
 72
     1
 10
4.020154417981359
 20
6.281644344221327
 11
3.761945215557518
 21
6.281644344221327
 72
     1
 10
3.761945215557517
 20
6.281644344221327
 11
3.761945215557517
 21
6.024346324369541
 72
     1
 10
3.761945215557517
 20
6.02434632436954
 11
3.920525715817433
 21
5.976676235851111
 72
     1
 10
3.920525715817433
 20
5.976676235851112
 11
4.020154417981357
 21
6.037952600251276
 72
     1
 10
4.020154417981359
 20
6.037952600251276
 11
4.020154417981359
 21
6.281644344221327
 97
        0
 92
        1
 93
        5
 72
     1
 10
1.238446037366305
 20
6.281644344221327
 11
1.496655239790146
 21
6.281644344221327
 72
     1
 10
1.496655239790147
 20
6.281644344221327
 11
1.496655239790147
 21
6.024346324369541
 72
     1
 10
1.496655239790147
 20
6.02434632436954
 11
1.338074739530231
 21
5.976676235851111
 72
     1
 10
1.338074739530231
 20
5.976676235851112
 11
1.238446037366306
 21
6.037952600251276
 72
     1
 10
1.238446037366305
 20
6.037952600251276
 11
1.238446037366305
 21
6.281644344221327
 97
        0
 75
     0
 76
     1
 52
45.0
 41
0.5129894343033756
 77
     0
 78
     6
 53
45.0
 43
-14.26808992969886
 44
3.030920483095907
 45
0.0
 46
0.1813691538364839
 79
     2
 49
0.1282473585758439
 49
-0.1282473585758439
 53
45.0
 43
-14.3020966460432
 44
3.064927199440248
 45
0.0
 46
0.1813691538364839
 79
     2
 49
0.1282473585758439
 49
-0.1282473585758439
 53
45.0
 43
-14.33610336238754
 44
3.098933915784589
 45
0.0
 46
0.1813691538364839
 79
     2
 49
0.1282473585758439
 49
-0.1282473585758439
 53
135.0
 43
-14.33610336238754
 44
3.121605060014149
 45
-0.1813691538364838
 46
0.0
 79
     2
 49
0.1282473585758439
 49
-0.1282473585758439
 53
135.0
 43
-14.3020966460432
 44
3.155611776358491
 45
-0.1813691538364838
 46
0.0
 79
     2
 49
0.1282473585758439
 49
-0.1282473585758439
 53
135.0
 43
-14.26808992969886
 44
3.189618492702831
 45
-0.1813691538364838
 46
0.0
 79
     2
 49
0.1282473585758439
 49
-0.1282473585758439
 98
        1
 10
-10.58748487039678
 20
-2.196169725347541
  0
LINE
  5
2718
330
2613
100
AcDbEntity
  8
Image
100
AcDbLine
 10
1.07630977029488
 20
4.254466101353852
 30
0.0
 11
1.503651139443579
 21
4.254466101353852
 31
0.0
  0
LWPOLYLINE
  5
2719
330
2613
100
AcDbEntity
  8
Image
100
AcDbPolyline
 90
        2
 70
     0
 43
0.0
 10
1.076309770294887
 20
4.254466101353852
 10
1.503651139443579
 20
4.445374401301195
  0
LWPOLYLINE
  5
271A
330
2613
100
AcDbEntity
  8
Image
100
AcDbPolyline
 90
        2
 70
     0
 43
0.0
 10
1.076309770294887
 20
4.445374401301194
 10
1.503651139443579
 20
4.254466101353852
  0
LINE
  5
271B
330
2613
100
AcDbEntity
  8
Image
100
AcDbLine
 10
1.503651139443579
 20
4.445374401301197
 30
0.0
 11
1.07630977029488
 21
4.445374401301194
 31
0.0
  0
LINE
  5
271C
330
2613
100
AcDbEntity
  8
Image
100
AcDbLine
 10
1.406806159269489
 20
5.437073694537319
 30
0.0
 11
1.351379872992932
 21
4.591956055295375
 31
0.0
  0
LINE
  5
271D
330
2613
100
AcDbEntity
  8
Image
100
AcDbLine
 10
1.306028100363324
 20
5.157838630732085
 30
0.0
 11
1.213713952071696
 21
4.733426699154554
 31
0.0
  0
LINE
  5
271E
330
2613
100
AcDbEntity
  8
Image
  6
Continuous
100
AcDbLine
 10
1.076309770294887
 20
4.445374401301194
 30
0.0
 11
1.07630977029488
 21
4.254466101353852
 31
0.0
  0
LINE
  5
271F
330
2613
100
AcDbEntity
  8
Image
100
AcDbLine
 10
1.213713952071696
 20
4.733426699154554
 30
0.0
 11
1.213713952071696
 21
4.591956055295376
 31
0.0
  0
LINE
  5
2720
330
2613
100
AcDbEntity
  8
Image
100
AcDbLine
 10
1.351379872992932
 20
4.591956055295375
 30
0.0
 11
1.343319356081266
 21
4.455175527226639
 31
0.0
  0
LINE
  5
2721
330
2613
100
AcDbEntity
  8
Image
100
AcDbLine
 10
1.213713952071696
 20
4.591956055295376
 30
0.0
 11
1.213713952071696
 21
4.455175527226639
 31
0.0
  0
LINE
  5
2722
330
2613
100
AcDbEntity
  8
Image
100
AcDbLine
 10
1.343319356081266
 20
4.455175527226639
 30
0.0
 11
1.213713952071696
 21
4.455175527226639
 31
0.0
  0
LINE
  5
2723
330
2613
100
AcDbEntity
  8
Image
100
AcDbLine
 10
1.2879812749179
 20
6.597411212268216
 30
0.0
 11
1.314318511982598
 21
6.28164434422133
 31
0.0
  0
LINE
  5
2724
330
2613
100
AcDbEntity
  8
Image
100
AcDbLine
 10
1.319637558880405
 20
6.577149995348538
 30
0.0
 11
1.24388951510377
 21
6.281644344221327
 31
0.0
  0
LINE
  5
2725
330
2613
100
AcDbEntity
  8
Image
100
AcDbLine
 10
1.249679407300938
 20
6.631243376701817
 30
0.0
 11
1.249679407300938
 21
6.281644344221327
 31
0.0
  0
LINE
  5
2726
330
2613
100
AcDbEntity
  8
Image
100
AcDbLine
 10
1.249379034038835
 20
6.567681489876456
 30
0.0
 11
1.276436601871079
 21
6.281644344221327
 31
0.0
  0
LINE
  5
2727
330
2613
100
AcDbEntity
  8
Image
100
AcDbLine
 10
1.109500890939539
 20
6.608688600412765
 30
0.0
 11
1.265374334791875
 21
6.281644344221327
 31
0.0
  0
LINE
  5
2728
330
2613
100
AcDbEntity
  8
Image
100
AcDbLine
 10
1.206038250743191
 20
6.619965988557291
 30
0.0
 11
1.287558270229173
 21
6.281644344221327
 31
0.0
  0
LINE
  5
272A
330
2613
100
AcDbEntity
  8
Image
100
AcDbLine
 10
3.950812680963803
 20
5.157838630732085
 30
0.0
 11
4.043126829255427
 21
4.733426699154554
 31
0.0
  0
LINE
  5
272B
330
2613
100
AcDbEntity
  8
Image
100
AcDbLine
 10
3.850034622057631
 20
5.437073694537319
 30
0.0
 11
3.905485150978364
 21
4.591482485172845
 31
0.0
  0
LWPOLYLINE
  5
2733
330
2613
100
AcDbEntity
  8
Image
100
AcDbPolyline
 90
       16
 70
     1
 43
0.0
 10
2.886983830496358
 20
4.388435067112238
 42
0.0846731520301792
 10
2.883723514873462
 20
4.407549394223556
 42
0.0916544813065032
 10
2.874801155047233
 20
4.423107897723959
 42
0.1036340346640379
 10
2.860952919489339
 20
4.433872953312841
 42
0.1140536254072521
 10
2.845389574751994
 20
4.437469854409188
 42
0.1140536254072534
 10
2.829826230014649
 20
4.433872953312841
 42
0.1036340346640368
 10
2.815977994456748
 20
4.423107897723959
 42
0.0916544813065076
 10
2.807055634630529
 20
4.407549394223556
 42
0.0846731520301862
 10
2.803795319007637
 20
4.388435067112238
 42
0.0846731520301835
 10
2.807055634630529
 20
4.36932074000091
 42
0.091654481306508
 10
2.815977994456748
 20
4.353762236500518
 42
0.103634034664036
 10
2.829826230014649
 20
4.342997180911638
 42
0.1140536254072547
 10
2.845389574751994
 20
4.339400279815286
 42
0.1140536254072534
 10
2.860952919489339
 20
4.342997180911638
 42
0.1036340346640367
 10
2.874801155047233
 20
4.353762236500518
 42
0.0916544813065066
 10
2.883723514873462
 20
4.36932074000091
 42
0.0846731520301858
  0
LWPOLYLINE
  5
2734
330
2613
100
AcDbEntity
  8
Image
100
AcDbPolyline
 90
       16
 70
     1
 43
0.0
 10
2.546884972485248
 20
4.365670447436304
 42
0.1833035428166229
 10
2.543551102216159
 20
4.359959183170172
 42
0.1024612315138192
 10
2.543995340593333
 20
4.348401267598315
 42
0.0615734602679465
 10
2.548489923923458
 20
4.336660881087658
 42
0.0478438451985803
 10
2.557400072827583
 20
4.323185637603552
 42
0.0478438451985776
 10
2.56870898923324
 20
4.311649548570482
 42
0.061573460267943
 10
2.579246858845142
 20
4.30479453151916
 42
0.1024612315138217
 10
2.590455067933792
 20
4.301938168599839
 42
0.1833035428166229
 10
2.596738147691194
 20
4.304001209862342
 42
0.1833035428166234
 10
2.60007201796029
 20
4.309712474128472
 42
0.102461231513819
 10
2.599627779583119
 20
4.32127038970032
 42
0.0615734602679484
 10
2.595133196252991
 20
4.333010776210985
 42
0.0478438451985819
 10
2.586223047348873
 20
4.34648601969509
 42
0.0478438451985799
 10
2.574914130943202
 20
4.35802210872816
 42
0.0615734602679431
 10
2.564376261331307
 20
4.364877125779472
 42
0.1024612315138189
 10
2.553168052242654
 20
4.367733488698803
 42
0.183303542816622
  0
LWPOLYLINE
  5
2735
330
2613
100
AcDbEntity
  8
Image
100
AcDbPolyline
 90
       16
 70
     1
 43
0.0
 10
2.014953695094487
 20
4.368004349378196
 42
0.0846731520301792
 10
2.011693379471591
 20
4.387118676489528
 42
0.0916544813065032
 10
2.002771019645368
 20
4.402677179989908
 42
0.1036340346640379
 10
1.98892278408746
 20
4.413442235578813
 42
0.1140536254072521
 10
1.973359439350122
 20
4.417039136675146
 42
0.1140536254072534
 10
1.957796094612785
 20
4.413442235578813
 42
0.1036340346640368
 10
1.943947859054883
 20
4.402677179989908
 42
0.0916544813065076
 10
1.935025499228661
 20
4.387118676489528
 42
0.0846731520301862
 10
1.931765183605758
 20
4.368004349378196
 42
0.0846731520301835
 10
1.935025499228661
 20
4.348890022266882
 42
0.091654481306508
 10
1.943947859054883
 20
4.333331518766488
 42
0.103634034664036
 10
1.957796094612785
 20
4.322566463177595
 42
0.1140536254072547
 10
1.973359439350122
 20
4.318969562081244
 42
0.1140536254072534
 10
1.98892278408746
 20
4.322566463177595
 42
0.1036340346640367
 10
2.002771019645368
 20
4.333331518766488
 42
0.0916544813065066
 10
2.011693379471591
 20
4.348890022266882
 42
0.0846731520301858
  0
LWPOLYLINE
  5
2736
330
2613
100
AcDbEntity
  8
Image
100
AcDbPolyline
 90
       16
 70
     1
 43
0.0
 10
2.164465995748379
 20
4.439853636715087
 42
0.1096021439183502
 10
2.144812395407871
 20
4.436502651169298
 42
0.1024204874116924
 10
2.127126674290341
 20
4.424626712625617
 42
0.0936695383243779
 10
2.115106903282423
 20
4.406617747551514
 42
0.0882994724157594
 10
2.109974101592889
 20
4.384252915893657
 42
0.088299472415759
 10
2.112873341338588
 20
4.36149053998152
 42
0.0936695383243767
 10
2.123056022112596
 20
4.342382669080308
 42
0.1024204874116938
 10
2.139482582867319
 20
4.328818350095865
 42
0.1096021439183517
 10
2.158709224230904
 20
4.323542994908921
 42
0.109602143918351
 10
2.178362824571415
 20
4.326893980454709
 42
0.1024204874116929
 10
2.196048545688949
 20
4.338769918998396
 42
0.0936695383243769
 10
2.208068316696859
 20
4.356778884072497
 42
0.0882994724157586
 10
2.213201118386397
 20
4.379143715730346
 42
0.0882994724157589
 10
2.210301878640702
 20
4.401906091642485
 42
0.0936695383243761
 10
2.200119197866701
 20
4.4210139625437
 42
0.102420487411692
 10
2.18369263711197
 20
4.434578281528146
 42
0.1096021439183503
  0
LWPOLYLINE
  5
2737
330
2613
100
AcDbEntity
  8
Image
100
AcDbPolyline
 90
       16
 70
     1
 43
0.0
 10
2.228794891348837
 20
4.375601312613529
 42
0.1615511064879552
 10
2.220784561802506
 20
4.364943020901431
 42
0.1061532262602322
 10
2.218536622257857
 20
4.345072225311634
 42
0.0703450477663066
 10
2.223622479861074
 20
4.324228591685214
 42
0.0566056099584688
 10
2.236216323882313
 20
4.300780068995759
 42
0.0566056099584683
 10
2.253747908948565
 20
4.280753046036402
 42
0.0703450477663069
 10
2.271477466789303
 20
4.268670588128994
 42
0.1061532262602343
 10
2.290871900517085
 20
4.263796402048606
 42
0.1615511064879549
 10
2.30366455168868
 20
4.267553081122336
 42
0.1615511064879543
 10
2.31167488123501
 20
4.278211372834439
 42
0.106153226260232
 10
2.313922820779655
 20
4.298082168424231
 42
0.0703450477663075
 10
2.308836963176442
 20
4.31892580205065
 42
0.0566056099584687
 10
2.296243119155196
 20
4.342374324740122
 42
0.05660560995847
 10
2.278711534088945
 20
4.362401347699476
 42
0.0703450477663058
 10
2.260981976248213
 20
4.374483805606873
 42
0.1061532262602316
 10
2.241587542520424
 20
4.379357991687275
 42
0.1615511064879538
  0
LINE
  5
2738
330
2613
100
AcDbEntity
  8
Image
100
AcDbLine
 10
1.503651139443579
 20
4.254466101353852
 30
0.0
 11
1.503651139443579
 21
4.445374401301194
 31
0.0
  0
LWPOLYLINE
  5
2739
330
2613
100
AcDbEntity
  8
Image
100
AcDbPolyline
 90
       16
 70
     1
 43
0.0
 10
1.602687834508557
 20
4.348464265188018
 42
0.1096021439183502
 10
1.583034234168056
 20
4.34511327964223
 42
0.1024204874116924
 10
1.565348513050523
 20
4.333237341098536
 42
0.0936695383243779
 10
1.553328742042605
 20
4.315228376024448
 42
0.0882994724157594
 10
1.548195940353064
 20
4.292863544366587
 42
0.088299472415759
 10
1.551095180098766
 20
4.270101168454454
 42
0.0936695383243767
 10
1.561277860872774
 20
4.250993297553241
 42
0.1024204874116938
 10
1.577704421627498
 20
4.237428978568786
 42
0.1096021439183517
 10
1.596931062991085
 20
4.232153623381853
 42
0.109602143918351
 10
1.616584663331597
 20
4.235504608927641
 42
0.1024204874116929
 10
1.634270384449134
 20
4.247380547471324
 42
0.0936695383243769
 10
1.646290155457045
 20
4.265389512545423
 42
0.0882994724157586
 10
1.651422957146582
 20
4.287754344203284
 42
0.0882994724157589
 10
1.648523717400887
 20
4.310516720115417
 42
0.0936695383243761
 10
1.638341036626872
 20
4.329624591016619
 42
0.102420487411692
 10
1.621914475872149
 20
4.343188910001083
 42
0.1096021439183503
  0
LWPOLYLINE
  5
273A
330
2613
100
AcDbEntity
  8
Image
100
AcDbPolyline
 90
       16
 70
     1
 43
0.0
 10
1.849217355479034
 20
4.339569344585591
 42
0.0708989349029243
 10
1.837352317827637
 20
4.328570595830525
 42
0.0824870853856804
 10
1.830465550070339
 20
4.31646148891402
 42
0.1068139206260733
 10
1.828613270937733
 20
4.303287370717626
 42
0.1340008839894652
 10
1.83216813188299
 20
4.293223564587664
 42
0.1340008839894659
 10
1.840342331641739
 20
4.286360643309842
 42
0.106813920626075
 10
1.853327751582202
 20
4.283468032515514
 42
0.0824870853856831
 10
1.867084172259016
 20
4.285663238797587
 42
0.0708989349029243
 10
1.881549390922831
 20
4.292909551077247
 42
0.0708989349029259
 10
1.893414428574228
 20
4.303908299832322
 42
0.0824870853856834
 10
1.900301196331536
 20
4.316017406748819
 42
0.1068139206260768
 10
1.902153475464135
 20
4.329191524945215
 42
0.1340008839894672
 10
1.898598614518878
 20
4.339255331075175
 42
0.1340008839894638
 10
1.890424414760126
 20
4.346118252353006
 42
0.1068139206260751
 10
1.877438994819659
 20
4.349010863147334
 42
0.082487085385683
 10
1.863682574142856
 20
4.346815656865251
 42
0.0708989349029251
  0
LWPOLYLINE
  5
273B
330
2613
100
AcDbEntity
  8
Image
100
AcDbPolyline
 90
       16
 70
     1
 43
0.0
 10
1.725411594731696
 20
4.304241275402732
 42
0.0708989349029243
 10
1.713546557080292
 20
4.29324252664767
 42
0.0824870853856804
 10
1.706659789322994
 20
4.281133419731165
 42
0.1068139206260733
 10
1.704807510190388
 20
4.267959301534771
 42
0.1340008839894652
 10
1.708362371135653
 20
4.257895495404813
 42
0.1340008839894659
 10
1.716536570894401
 20
4.251032574126991
 42
0.106813920626075
 10
1.729521990834864
 20
4.248139963332661
 42
0.0824870853856831
 10
1.743278411511671
 20
4.250335169614736
 42
0.0708989349029243
 10
1.757743630175486
 20
4.257581481894396
 42
0.0708989349029259
 10
1.769608667826883
 20
4.268580230649469
 42
0.0824870853856834
 10
1.776495435584191
 20
4.280689337565968
 42
0.1068139206260768
 10
1.77834771471679
 20
4.293863455762362
 42
0.1340008839894672
 10
1.774792853771533
 20
4.303927261892322
 42
0.1340008839894638
 10
1.766618654012781
 20
4.310790183170151
 42
0.1068139206260751
 10
1.753633234072321
 20
4.313682793964485
 42
0.082487085385683
 10
1.739876813395511
 20
4.3114875876824
 42
0.0708989349029251
  0
LWPOLYLINE
  5
273C
330
2613
100
AcDbEntity
  8
Image
100
AcDbPolyline
 90
       16
 70
     1
 43
0.0
 10
1.978044309997176
 20
4.256248448365798
 42
0.0846731520301792
 10
1.974783994374281
 20
4.27536277547712
 42
0.0916544813065032
 10
1.965861634548058
 20
4.29092127897751
 42
0.1036340346640379
 10
1.952013398990153
 20
4.301686334566403
 42
0.1140536254072521
 10
1.936450054252816
 20
4.305283235662754
 42
0.1140536254072534
 10
1.920886709515475
 20
4.301686334566403
 42
0.1036340346640368
 10
1.90703847395757
 20
4.29092127897751
 42
0.0916544813065076
 10
1.898116114131344
 20
4.27536277547712
 42
0.0846731520301862
 10
1.894855798508455
 20
4.256248448365798
 42
0.0846731520301835
 10
1.898116114131344
 20
4.237134121254484
 42
0.091654481306508
 10
1.90703847395757
 20
4.22157561775408
 42
0.103634034664036
 10
1.920886709515475
 20
4.210810562165187
 42
0.1140536254072547
 10
1.936450054252816
 20
4.207213661068852
 42
0.1140536254072534
 10
1.952013398990157
 20
4.210810562165187
 42
0.1036340346640367
 10
1.965861634548058
 20
4.22157561775408
 42
0.0916544813065066
 10
1.974783994374281
 20
4.237134121254484
 42
0.0846731520301858
  0
LWPOLYLINE
  5
273D
330
2613
100
AcDbEntity
  8
Image
100
AcDbPolyline
 90
       16
 70
     1
 43
0.0
 10
2.023203952195519
 20
4.281008168999997
 42
0.0708989349029243
 10
2.011338914544122
 20
4.270009420244932
 42
0.0824870853856804
 10
2.004452146786817
 20
4.25790031332843
 42
0.1068139206260733
 10
2.002599867654215
 20
4.244726195132031
 42
0.1340008839894652
 10
2.006154728599472
 20
4.234662389002073
 42
0.1340008839894659
 10
2.014328928358224
 20
4.227799467724253
 42
0.106813920626075
 10
2.027314348298684
 20
4.224906856929921
 42
0.0824870853856831
 10
2.041070768975497
 20
4.227102063211994
 42
0.0708989349029243
 10
2.055535987639313
 20
4.234348375491657
 42
0.0708989349029259
 10
2.06740102529071
 20
4.245347124246732
 42
0.0824870853856834
 10
2.074287793048011
 20
4.25745623116323
 42
0.1068139206260768
 10
2.076140072180617
 20
4.270630349359635
 42
0.1340008839894672
 10
2.072585211235352
 20
4.280694155489584
 42
0.1340008839894638
 10
2.064411011476611
 20
4.287557076767413
 42
0.1068139206260751
 10
2.051425591536141
 20
4.290449687561755
 42
0.082487085385683
 10
2.037669170859334
 20
4.288254481279661
 42
0.0708989349029251
  0
LWPOLYLINE
  5
273E
330
2613
100
AcDbEntity
  8
Image
100
AcDbPolyline
 90
       16
 70
     1
 43
0.0
 10
2.43365480568784
 20
4.310289144917032
 42
0.1833035428166229
 10
2.430320935418748
 20
4.304577880650905
 42
0.1024612315138192
 10
2.430765173795922
 20
4.293019965079043
 42
0.0615734602679465
 10
2.435259757126051
 20
4.281279578568387
 42
0.0478438451985803
 10
2.444169906030168
 20
4.267804335084285
 42
0.0478438451985776
 10
2.455478822435839
 20
4.256268246051213
 42
0.061573460267943
 10
2.466016692047734
 20
4.249413228999886
 42
0.1024612315138217
 10
2.477224901136381
 20
4.246556866080569
 42
0.1833035428166229
 10
2.483507980893786
 20
4.248619907343073
 42
0.1833035428166234
 10
2.486841851162882
 20
4.2543311716092
 42
0.102461231513819
 10
2.486397612785701
 20
4.265889087181049
 42
0.0615734602679484
 10
2.481903029455583
 20
4.277629473691714
 42
0.0478438451985819
 10
2.472992880551462
 20
4.291104717175819
 42
0.0478438451985799
 10
2.461683964145795
 20
4.302640806208891
 42
0.0615734602679431
 10
2.4511460945339
 20
4.309495823260204
 42
0.1024612315138189
 10
2.43993788544525
 20
4.312352186179532
 42
0.183303542816622
  0
LWPOLYLINE
  5
273F
330
2613
100
AcDbEntity
  8
Image
100
AcDbPolyline
 90
       16
 70
     1
 43
0.0
 10
2.155173551471097
 20
4.298015916718469
 42
0.1615511064879552
 10
2.147163221924767
 20
4.287357625006363
 42
0.1061532262602322
 10
2.144915282380122
 20
4.267486829416565
 42
0.0703450477663066
 10
2.150001139983334
 20
4.246643195790145
 42
0.0566056099584688
 10
2.162594984004574
 20
4.223194673100687
 42
0.0566056099584683
 10
2.180126569070825
 20
4.203167650141335
 42
0.0703450477663069
 10
2.197856126911556
 20
4.191085192233932
 42
0.1061532262602343
 10
2.217250560639353
 20
4.186211006153545
 42
0.1615511064879549
 10
2.23004321181094
 20
4.189967685227264
 42
0.1615511064879543
 10
2.23805354135727
 20
4.200625976939377
 42
0.106153226260232
 10
2.240301480901916
 20
4.220496772529171
 42
0.0703450477663075
 10
2.235215623298696
 20
4.241340406155588
 42
0.0566056099584687
 10
2.222621779277464
 20
4.264788928845051
 42
0.05660560995847
 10
2.205090194211212
 20
4.2848159518044
 42
0.0703450477663058
 10
2.187360636370474
 20
4.296898409711815
 42
0.1061532262602316
 10
2.167966202642684
 20
4.301772595792202
 42
0.1615511064879538
  0
LWPOLYLINE
  5
2740
330
2613
100
AcDbEntity
  8
Image
100
AcDbPolyline
 90
       16
 70
     1
 43
0.0
 10
2.410870463311734
 20
4.263637391466934
 42
0.0846731520301792
 10
2.407610147688846
 20
4.28275171857825
 42
0.0916544813065032
 10
2.398687787862623
 20
4.298310222078644
 42
0.1036340346640379
 10
2.384839552304715
 20
4.309075277667535
 42
0.1140536254072521
 10
2.369276207567377
 20
4.312672178763889
 42
0.1140536254072534
 10
2.35371286283004
 20
4.309075277667535
 42
0.1036340346640368
 10
2.339864627272138
 20
4.298310222078644
 42
0.0916544813065076
 10
2.330942267445909
 20
4.28275171857825
 42
0.0846731520301862
 10
2.327681951823013
 20
4.263637391466934
 42
0.0846731520301835
 10
2.330942267445909
 20
4.244523064355604
 42
0.091654481306508
 10
2.339864627272138
 20
4.228964560855214
 42
0.103634034664036
 10
2.35371286283004
 20
4.218199505266321
 42
0.1140536254072547
 10
2.369276207567377
 20
4.214602604169973
 42
0.1140536254072534
 10
2.384839552304715
 20
4.218199505266321
 42
0.1036340346640367
 10
2.398687787862623
 20
4.228964560855214
 42
0.0916544813065066
 10
2.407610147688846
 20
4.244523064355604
 42
0.0846731520301858
  0
LWPOLYLINE
  5
2741
330
2613
100
AcDbEntity
  8
Image
100
AcDbPolyline
 90
       16
 70
     1
 43
0.0
 10
2.657807541273847
 20
4.315485537990596
 42
0.1615511064879552
 10
2.649797211727513
 20
4.30482724627849
 42
0.1061532262602322
 10
2.647549272182867
 20
4.284956450688692
 42
0.0703450477663066
 10
2.652635129786087
 20
4.264112817062283
 42
0.0566056099584688
 10
2.66522897380732
 20
4.240664294372813
 42
0.0566056099584683
 10
2.682760558873571
 20
4.220637271413457
 42
0.0703450477663069
 10
2.700490116714316
 20
4.208554813506049
 42
0.1061532262602343
 10
2.719884550442099
 20
4.203680627425661
 42
0.1615511064879549
 10
2.732677201613693
 20
4.207437306499393
 42
0.1615511064879543
 10
2.740687531160023
 20
4.218095598211492
 42
0.106153226260232
 10
2.742935470704669
 20
4.237966393801299
 42
0.0703450477663075
 10
2.737849613101449
 20
4.258810027427704
 42
0.0566056099584687
 10
2.725255769080213
 20
4.28225855011718
 42
0.05660560995847
 10
2.707724184013958
 20
4.30228557307652
 42
0.0703450477663058
 10
2.68999462617322
 20
4.31436803098394
 42
0.1061532262602316
 10
2.670600192445437
 20
4.31924221706433
 42
0.1615511064879538
  0
LWPOLYLINE
  5
2742
330
2613
100
AcDbEntity
  8
Image
100
AcDbPolyline
 90
       16
 70
     1
 43
0.0
 10
2.529873291663488
 20
4.28382579640265
 42
0.0708989349029243
 10
2.518008254012087
 20
4.272827047647588
 42
0.0824870853856804
 10
2.511121486254786
 20
4.26071794073108
 42
0.1068139206260733
 10
2.50926920712218
 20
4.247543822534687
 42
0.1340008839894652
 10
2.512824068067448
 20
4.237480016404726
 42
0.1340008839894659
 10
2.52099826782619
 20
4.230617095126904
 42
0.106813920626075
 10
2.533983687766653
 20
4.227724484332574
 42
0.0824870853856831
 10
2.547740108443466
 20
4.229919690614648
 42
0.0708989349029243
 10
2.562205327107278
 20
4.23716600289431
 42
0.0708989349029259
 10
2.574070364758686
 20
4.248164751649381
 42
0.0824870853856834
 10
2.580957132515987
 20
4.260273858565881
 42
0.1068139206260768
 10
2.582809411648586
 20
4.273447976762277
 42
0.1340008839894672
 10
2.579254550703321
 20
4.283511782892238
 42
0.1340008839894638
 10
2.57108035094458
 20
4.290374704170066
 42
0.1068139206260751
 10
2.558094931004113
 20
4.293267314964397
 42
0.082487085385683
 10
2.544338510327307
 20
4.291072108682314
 42
0.0708989349029251
  0
LWPOLYLINE
  5
2743
330
2613
100
AcDbEntity
  8
Image
100
AcDbPolyline
 90
       16
 70
     1
 43
0.0
 10
2.795576601261327
 20
4.300867428810535
 42
0.0708989349029243
 10
2.783711563609916
 20
4.289868680055459
 42
0.0824870853856804
 10
2.776824795852618
 20
4.277759573138965
 42
0.1068139206260733
 10
2.774972516720016
 20
4.264585454942563
 42
0.1340008839894652
 10
2.77852737766528
 20
4.254521648812609
 42
0.1340008839894659
 10
2.786701577424022
 20
4.247658727534775
 42
0.106813920626075
 10
2.799686997364492
 20
4.244766116740446
 42
0.0824870853856831
 10
2.813443418041302
 20
4.24696132302253
 42
0.0708989349029243
 10
2.827908636705114
 20
4.25420763530219
 42
0.0708989349029259
 10
2.839773674356518
 20
4.265206384057268
 42
0.0824870853856834
 10
2.846660442113815
 20
4.277315490973762
 42
0.1068139206260768
 10
2.848512721246425
 20
4.290489609170162
 42
0.1340008839894672
 10
2.84495786030116
 20
4.300553415300122
 42
0.1340008839894638
 10
2.836783660542419
 20
4.30741633657794
 42
0.1068139206260751
 10
2.823798240601949
 20
4.310308947372279
 42
0.082487085385683
 10
2.810041819925139
 20
4.308113741090197
 42
0.0708989349029251
  0
LWPOLYLINE
  5
2744
330
2613
100
AcDbEntity
  8
Image
100
AcDbPolyline
 90
       16
 70
     1
 43
0.0
 10
1.56965757571006
 20
4.430874941820976
 42
0.1833035428166229
 10
1.566323705440971
 20
4.425163677554857
 42
0.1024612315138192
 10
1.566767943818145
 20
4.413605761982998
 42
0.0615734602679465
 10
1.571262527148263
 20
4.401865375472334
 42
0.0478438451985803
 10
1.580172676052388
 20
4.388390131988238
 42
0.0478438451985776
 10
1.591481592458055
 20
4.376854042955168
 42
0.061573460267943
 10
1.60201946206995
 20
4.369999025903846
 42
0.1024612315138217
 10
1.6132276711586
 20
4.367142662984523
 42
0.1833035428166229
 10
1.61951075091601
 20
4.369205704247017
 42
0.1833035428166234
 10
1.622844621185095
 20
4.37491696851316
 42
0.102461231513819
 10
1.622400382807924
 20
4.386474884085007
 42
0.0615734602679484
 10
1.617905799477799
 20
4.398215270595661
 42
0.0478438451985819
 10
1.608995650573682
 20
4.411690514079767
 42
0.0478438451985799
 10
1.597686734168011
 20
4.423226603112837
 42
0.0615734602679431
 10
1.587148864556116
 20
4.430081620164159
 42
0.1024612315138189
 10
1.575940655467462
 20
4.432937983083478
 42
0.183303542816622
  0
LWPOLYLINE
  5
2745
330
2613
100
AcDbEntity
  8
Image
100
AcDbPolyline
 90
       16
 70
     1
 43
0.0
 10
1.722633067650196
 20
4.380470448765588
 42
0.0846731520301792
 10
1.7193727520273
 20
4.399584775876919
 42
0.0916544813065032
 10
1.710450392201078
 20
4.415143279377307
 42
0.1036340346640379
 10
1.696602156643177
 20
4.425908334966193
 42
0.1140536254072521
 10
1.681038811905832
 20
4.429505236062542
 42
0.1140536254072534
 10
1.665475467168487
 20
4.425908334966193
 42
0.1036340346640368
 10
1.651627231610586
 20
4.415143279377307
 42
0.0916544813065076
 10
1.642704871784371
 20
4.399584775876919
 42
0.0846731520301862
 10
1.639444556161468
 20
4.380470448765588
 42
0.0846731520301835
 10
1.642704871784371
 20
4.361356121654273
 42
0.091654481306508
 10
1.651627231610586
 20
4.345797618153879
 42
0.103634034664036
 10
1.665475467168487
 20
4.335032562564986
 42
0.1140536254072547
 10
1.681038811905832
 20
4.331435661468635
 42
0.1140536254072534
 10
1.696602156643177
 20
4.335032562564986
 42
0.1036340346640367
 10
1.710450392201078
 20
4.345797618153879
 42
0.0916544813065066
 10
1.7193727520273
 20
4.361356121654273
 42
0.0846731520301858
  0
LWPOLYLINE
  5
2746
330
2613
100
AcDbEntity
  8
Image
100
AcDbPolyline
 90
       16
 70
     1
 43
0.0
 10
1.827924773195494
 20
4.374476927718001
 42
0.1847277609904711
 10
1.834868282698199
 20
4.370539503815209
 42
0.1021404146396031
 10
1.848954049621159
 20
4.371287612749565
 42
0.0610262113808276
 10
1.863209382481361
 20
4.376957209127983
 42
0.0473278026433084
 10
1.879567146554773
 20
4.388029056729774
 42
0.0473278026433059
 10
1.893551106082725
 20
4.40197936607111
 42
0.0610262113808241
 10
1.90183132699887
 20
4.414894348828719
 42
0.1021404146396033
 10
1.90524781335733
 20
4.428579966014227
 42
0.1847277609904728
 10
1.902704536004417
 20
4.436146165291962
 42
0.1847277609904705
 10
1.895761026501723
 20
4.440083589194749
 42
0.1021404146396031
 10
1.881675259578759
 20
4.439335480260394
 42
0.0610262113808276
 10
1.867419926718554
 20
4.433665883881991
 42
0.0473278026433085
 10
1.851062162645146
 20
4.422594036280196
 42
0.0473278026433093
 10
1.83707820311719
 20
4.40864372693885
 42
0.0610262113808288
 10
1.828797982201045
 20
4.395728744181251
 42
0.1021404146396033
 10
1.825381495842584
 20
4.382043126995748
 42
0.1847277609904759
  0
LWPOLYLINE
  5
2747
330
2613
100
AcDbEntity
  8
Image
100
AcDbPolyline
 90
       16
 70
     1
 43
0.0
 10
1.749469299986383
 20
4.425593451901766
 42
0.1833035428166229
 10
1.746135429717295
 20
4.41988218763565
 42
0.1024612315138192
 10
1.746579668094465
 20
4.408324272063785
 42
0.0615734602679465
 10
1.751074251424594
 20
4.39658388555313
 42
0.0478438451985803
 10
1.759984400328715
 20
4.383108642069029
 42
0.0478438451985776
 10
1.771293316734382
 20
4.371572553035953
 42
0.061573460267943
 10
1.781831186346277
 20
4.364717535984631
 42
0.1024612315138217
 10
1.793039395434927
 20
4.36186117306531
 42
0.1833035428166229
 10
1.799322475192333
 20
4.3639242143278
 42
0.1833035428166234
 10
1.802656345461418
 20
4.369635478593943
 42
0.102461231513819
 10
1.802212107084248
 20
4.381193394165791
 42
0.0615734602679484
 10
1.797717523754126
 20
4.39293378067645
 42
0.0478438451985819
 10
1.788807374850009
 20
4.406409024160552
 42
0.0478438451985799
 10
1.77749845844433
 20
4.417945113193633
 42
0.0615734602679431
 10
1.766960588832443
 20
4.424800130244946
 42
0.1024612315138189
 10
1.755752379743793
 20
4.427656493164267
 42
0.183303542816622
  0
LWPOLYLINE
  5
2748
330
2613
100
AcDbEntity
  8
Image
100
AcDbPolyline
 90
       16
 70
     1
 43
0.0
 10
2.420127816672501
 20
4.446836492076469
 42
0.1615511064879552
 10
2.412117487126174
 20
4.436178200364366
 42
0.1061532262602322
 10
2.409869547581525
 20
4.41630740477457
 42
0.0703450477663066
 10
2.414955405184741
 20
4.395463771148154
 42
0.0566056099584688
 10
2.427549249205981
 20
4.372015248458691
 42
0.0566056099584683
 10
2.445080834272236
 20
4.35198822549934
 42
0.0703450477663069
 10
2.46281039211297
 20
4.339905767591918
 42
0.1061532262602343
 10
2.48220482584076
 20
4.335031581511533
 42
0.1615511064879549
 10
2.494997477012351
 20
4.338788260585275
 42
0.1615511064879543
 10
2.503007806558674
 20
4.349446552297374
 42
0.106153226260232
 10
2.505255746103319
 20
4.369317347887172
 42
0.0703450477663075
 10
2.500169888500103
 20
4.390160981513576
 42
0.0566056099584687
 10
2.487576044478874
 20
4.41360950420305
 42
0.05660560995847
 10
2.470044459412616
 20
4.433636527162404
 42
0.0703450477663058
 10
2.452314901571881
 20
4.445718985069811
 42
0.1061532262602316
 10
2.432920467844088
 20
4.450593171150201
 42
0.1615511064879538
  0
LWPOLYLINE
  5
2749
330
2613
100
AcDbEntity
  8
Image
100
AcDbPolyline
 90
       16
 70
     1
 43
0.0
 10
2.389637211954585
 20
4.376940148775002
 42
0.0846731520301792
 10
2.386376896331686
 20
4.396054475886332
 42
0.0916544813065032
 10
2.377454536505471
 20
4.411612979386724
 42
0.1036340346640379
 10
2.363606300947566
 20
4.422378034975603
 42
0.1140536254072521
 10
2.348042956210225
 20
4.425974936071954
 42
0.1140536254072534
 10
2.33247961147288
 20
4.422378034975603
 42
0.1036340346640368
 10
2.318631375914979
 20
4.411612979386724
 42
0.0916544813065076
 10
2.309709016088756
 20
4.396054475886332
 42
0.0846731520301862
 10
2.306448700465857
 20
4.376940148775002
 42
0.0846731520301835
 10
2.309709016088756
 20
4.357825821663686
 42
0.091654481306508
 10
2.318631375914979
 20
4.342267318163294
 42
0.103634034664036
 10
2.33247961147288
 20
4.331502262574403
 42
0.1140536254072547
 10
2.348042956210225
 20
4.327905361478052
 42
0.1140536254072534
 10
2.363606300947566
 20
4.331502262574403
 42
0.1036340346640367
 10
2.377454536505471
 20
4.342267318163294
 42
0.0916544813065066
 10
2.386376896331686
 20
4.357825821663686
 42
0.0846731520301858
  0
LWPOLYLINE
  5
274A
330
2613
100
AcDbEntity
  8
Image
100
AcDbPolyline
 90
       16
 70
     1
 43
0.0
 10
2.61323128919658
 20
4.409698560554064
 42
0.1833035428166229
 10
2.609897418927484
 20
4.403987296287931
 42
0.1024612315138192
 10
2.610341657304662
 20
4.392429380716075
 42
0.0615734602679465
 10
2.614836240634787
 20
4.380688994205415
 42
0.0478438451985803
 10
2.623746389538908
 20
4.367213750721312
 42
0.0478438451985776
 10
2.635055305944579
 20
4.355677661688241
 42
0.061573460267943
 10
2.645593175556467
 20
4.34882264463693
 42
0.1024612315138217
 10
2.656801384645124
 20
4.345966281717599
 42
0.1833035428166229
 10
2.663084464402526
 20
4.348029322980099
 42
0.1833035428166234
 10
2.666418334671618
 20
4.353740587246232
 42
0.102461231513819
 10
2.665974096294437
 20
4.365298502818081
 42
0.0615734602679484
 10
2.661479512964323
 20
4.377038889328748
 42
0.0478438451985819
 10
2.652569364060198
 20
4.390514132812848
 42
0.0478438451985799
 10
2.641260447654527
 20
4.40205022184592
 42
0.0615734602679431
 10
2.630722578042639
 20
4.408905238897235
 42
0.1024612315138189
 10
2.619514368953986
 20
4.411761601816561
 42
0.183303542816622
  0
LWPOLYLINE
  5
274B
330
2613
100
AcDbEntity
  8
Image
100
AcDbPolyline
 90
       16
 70
     1
 43
0.0
 10
2.706797605720623
 20
4.405746580233708
 42
0.1833035428166229
 10
2.703463735451538
 20
4.400035315967576
 42
0.1024612315138192
 10
2.703907973828709
 20
4.38847740039573
 42
0.0615734602679465
 10
2.70840255715883
 20
4.376737013885071
 42
0.0478438451985803
 10
2.717312706062951
 20
4.363261770400967
 42
0.0478438451985776
 10
2.728621622468619
 20
4.351725681367888
 42
0.061573460267943
 10
2.739159492080517
 20
4.344870664316573
 42
0.1024612315138217
 10
2.750367701169164
 20
4.342014301397243
 42
0.1833035428166229
 10
2.75665078092657
 20
4.344077342659753
 42
0.1833035428166234
 10
2.759984651195654
 20
4.349788606925876
 42
0.102461231513819
 10
2.759540412818491
 20
4.361346522497733
 42
0.0615734602679484
 10
2.755045829488363
 20
4.373086909008391
 42
0.0478438451985819
 10
2.746135680584249
 20
4.386562152492492
 42
0.0478438451985799
 10
2.734826764178574
 20
4.398098241525564
 42
0.0615734602679431
 10
2.724288894566679
 20
4.404953258576888
 42
0.1024612315138189
 10
2.713080685478029
 20
4.407809621496207
 42
0.183303542816622
  0
LINE
  5
274C
330
2613
100
AcDbEntity
  8
Image
100
AcDbLine
 10
4.200574842082698
 20
4.254466101353852
 30
0.0
 11
4.200574842082698
 21
4.445374401301194
 31
0.0
  0
LWPOLYLINE
  5
274D
330
2613
100
AcDbEntity
  8
Image
100
AcDbPolyline
 90
       16
 70
     1
 43
0.0
 10
3.565200103780341
 20
4.389614579760594
 42
0.1833035428166229
 10
3.561866233511256
 20
4.383903315494462
 42
0.1024612315138192
 10
3.562310471888423
 20
4.372345399922604
 42
0.0615734602679465
 10
3.566805055218548
 20
4.36060501341195
 42
0.0478438451985803
 10
3.575715204122669
 20
4.347129769927843
 42
0.0478438451985776
 10
3.587024120528329
 20
4.335593680894776
 42
0.061573460267943
 10
3.597561990140231
 20
4.328738663843463
 42
0.1024612315138217
 10
3.608770199228882
 20
4.325882300924131
 42
0.1833035428166229
 10
3.615053278986291
 20
4.32794534218663
 42
0.1833035428166234
 10
3.618387149255379
 20
4.333656606452763
 42
0.102461231513819
 10
3.617942910878205
 20
4.345214522024612
 42
0.0615734602679484
 10
3.613448327548081
 20
4.35695490853528
 42
0.0478438451985819
 10
3.604538178643959
 20
4.370430152019382
 42
0.0478438451985799
 10
3.593229262238292
 20
4.381966241052444
 42
0.0615734602679431
 10
3.582691392626397
 20
4.388821258103765
 42
0.1024612315138189
 10
3.571483183537747
 20
4.391677621023095
 42
0.183303542816622
  0
LWPOLYLINE
  5
274E
330
2613
100
AcDbEntity
  8
Image
100
AcDbPolyline
 90
       16
 70
     1
 43
0.0
 10
3.650425578901131
 20
4.317443057385757
 42
0.0708989349029243
 10
3.638560541249727
 20
4.306444308630691
 42
0.0824870853856804
 10
3.631673773492433
 20
4.294335201714186
 42
0.1068139206260733
 10
3.629821494359834
 20
4.281161083517794
 42
0.1340008839894652
 10
3.633376355305085
 20
4.271097277387832
 42
0.1340008839894659
 10
3.641550555063833
 20
4.26423435611001
 42
0.106813920626075
 10
3.654535975004296
 20
4.261341745315679
 42
0.0824870853856831
 10
3.668292395681113
 20
4.263536951597753
 42
0.0708989349029243
 10
3.682757614344925
 20
4.270783263877417
 42
0.0708989349029259
 10
3.694622651996329
 20
4.281782012632492
 42
0.0824870853856834
 10
3.701509419753623
 20
4.293891119548989
 42
0.1068139206260768
 10
3.703361698886237
 20
4.307065237745385
 42
0.1340008839894672
 10
3.699806837940972
 20
4.317129043875345
 42
0.1340008839894638
 10
3.691632638182223
 20
4.323991965153176
 42
0.1068139206260751
 10
3.67864721824176
 20
4.326884575947504
 42
0.082487085385683
 10
3.66489079756495
 20
4.324689369665421
 42
0.0708989349029251
  0
LWPOLYLINE
  5
274F
330
2613
100
AcDbEntity
  8
Image
100
AcDbPolyline
 90
       16
 70
     1
 43
0.0
 10
3.419616806529081
 20
4.355471995402918
 42
0.1833035428166229
 10
3.416282936259992
 20
4.34976073113679
 42
0.1024612315138192
 10
3.416727174637163
 20
4.338202815564942
 42
0.0615734602679465
 10
3.421221757967284
 20
4.326462429054277
 42
0.0478438451985803
 10
3.430131906871409
 20
4.312987185570177
 42
0.0478438451985776
 10
3.441440823277076
 20
4.301451096537109
 42
0.061573460267943
 10
3.451978692888967
 20
4.294596079485785
 42
0.1024612315138217
 10
3.463186901977621
 20
4.291739716566455
 42
0.1833035428166229
 10
3.469469981735034
 20
4.293802757828958
 42
0.1833035428166234
 10
3.472803852004116
 20
4.299514022095086
 42
0.102461231513819
 10
3.472359613626949
 20
4.311071937666937
 42
0.0615734602679484
 10
3.46786503029682
 20
4.322812324177599
 42
0.0478438451985819
 10
3.458954881392699
 20
4.336287567661701
 42
0.0478438451985799
 10
3.447645964987028
 20
4.347823656694778
 42
0.0615734602679431
 10
3.437108095375133
 20
4.354678673746089
 42
0.1024612315138189
 10
3.425899886286483
 20
4.357535036665423
 42
0.183303542816622
  0
LWPOLYLINE
  5
2750
330
2613
100
AcDbEntity
  8
Image
100
AcDbPolyline
 90
       16
 70
     1
 43
0.0
 10
3.512002551221033
 20
4.344294331768475
 42
0.1615511064879552
 10
3.503992221674717
 20
4.333636040056374
 42
0.1061532262602322
 10
3.501744282130065
 20
4.313765244466582
 42
0.0703450477663066
 10
3.506830139733281
 20
4.292921610840162
 42
0.0566056099584688
 10
3.519423983754521
 20
4.2694730881507
 42
0.0566056099584683
 10
3.536955568820776
 20
4.249446065191348
 42
0.0703450477663069
 10
3.554685126661507
 20
4.237363607283937
 42
0.1061532262602343
 10
3.5740795603893
 20
4.232489421203547
 42
0.1615511064879549
 10
3.586872211560891
 20
4.236246100277282
 42
0.1615511064879543
 10
3.594882541107221
 20
4.246904391989378
 42
0.106153226260232
 10
3.597130480651859
 20
4.266775187579179
 42
0.0703450477663075
 10
3.592044623048643
 20
4.28761882120559
 42
0.0566056099584687
 10
3.579450779027414
 20
4.311067343895064
 42
0.05660560995847
 10
3.561919193961156
 20
4.331094366854411
 42
0.0703450477663058
 10
3.544189636120417
 20
4.343176824761819
 42
0.1061532262602316
 10
3.524795202392628
 20
4.348051010842207
 42
0.1615511064879538
  0
LINE
  5
2751
330
2613
100
AcDbEntity
  8
Image
  6
Continuous
100
AcDbLine
 10
3.773233472934006
 20
4.445374401301194
 30
0.0
 11
3.773233472934006
 21
4.254466101353852
 31
0.0
  0
LWPOLYLINE
  5
2752
330
2613
100
AcDbEntity
  8
Image
100
AcDbPolyline
 90
        2
 70
     0
 43
0.0
 10
3.773233472934006
 20
4.445374401301194
 10
4.200574842082698
 20
4.254466101353852
  0
LWPOLYLINE
  5
2753
330
2613
100
AcDbEntity
  8
Image
100
AcDbPolyline
 90
        2
 70
     0
 43
0.0
 10
3.773233472934006
 20
4.254466101353852
 10
4.200574842082698
 20
4.445374401301195
  0
LWPOLYLINE
  5
2754
330
2613
100
AcDbEntity
  8
Image
100
AcDbPolyline
 90
       16
 70
     1
 43
0.0
 10
3.278414631710731
 20
4.370771792981791
 42
0.0708989349029243
 10
3.266549594059323
 20
4.359773044226725
 42
0.0824870853856804
 10
3.259662826302022
 20
4.347663937310224
 42
0.1068139206260733
 10
3.257810547169423
 20
4.334489819113825
 42
0.1340008839894652
 10
3.261365408114688
 20
4.324426012983865
 42
0.1340008839894659
 10
3.269539607873429
 20
4.317563091706045
 42
0.106813920626075
 10
3.282525027813896
 20
4.314670480911713
 42
0.0824870853856831
 10
3.296281448490699
 20
4.316865687193788
 42
0.0708989349029243
 10
3.310746667154518
 20
4.32411199947345
 42
0.0708989349029259
 10
3.322611704805918
 20
4.335110748228526
 42
0.0824870853856834
 10
3.329498472563219
 20
4.347219855145022
 42
0.1068139206260768
 10
3.331350751695826
 20
4.36039397334142
 42
0.1340008839894672
 10
3.327795890750564
 20
4.370457779471378
 42
0.1340008839894638
 10
3.319621690991819
 20
4.37732070074921
 42
0.1068139206260751
 10
3.306636271051353
 20
4.380213311543538
 42
0.082487085385683
 10
3.292879850374543
 20
4.378018105261453
 42
0.0708989349029251
  0
LWPOLYLINE
  5
2755
330
2613
100
AcDbEntity
  8
Image
100
AcDbPolyline
 90
       16
 70
     1
 43
0.0
 10
2.994928767465051
 20
4.332110159183592
 42
0.1615511064879552
 10
2.986918437918728
 20
4.321451867471484
 42
0.1061532262602322
 10
2.984670498374075
 20
4.301581071881676
 42
0.0703450477663066
 10
2.989756355977295
 20
4.280737438255279
 42
0.0566056099584688
 10
3.002350199998531
 20
4.257288915565805
 42
0.0566056099584683
 10
3.019881785064786
 20
4.237261892606451
 42
0.0703450477663069
 10
3.037611342905517
 20
4.225179434699043
 42
0.1061532262602343
 10
3.057005776633314
 20
4.220305248618645
 42
0.1615511064879549
 10
3.069798427804897
 20
4.224061927692391
 42
0.1615511064879543
 10
3.077808757351231
 20
4.234720219404488
 42
0.106153226260232
 10
3.080056696895876
 20
4.254591014994284
 42
0.0703450477663075
 10
3.074970839292657
 20
4.2754346486207
 42
0.0566056099584687
 10
3.062376995271417
 20
4.298883171310162
 42
0.05660560995847
 10
3.044845410205169
 20
4.318910194269516
 42
0.0703450477663058
 10
3.027115852364435
 20
4.330992652176925
 42
0.1061532262602316
 10
3.007721418636645
 20
4.335866838257313
 42
0.1615511064879538
  0
LWPOLYLINE
  5
2756
330
2613
100
AcDbEntity
  8
Image
100
AcDbPolyline
 90
       16
 70
     1
 43
0.0
 10
3.243717548079619
 20
4.321162616576017
 42
0.0846731520301792
 10
3.24045723245673
 20
4.340276943687344
 42
0.0916544813065032
 10
3.231534872630508
 20
4.355835447187732
 42
0.1036340346640379
 10
3.217686637072606
 20
4.366600502776618
 42
0.1140536254072521
 10
3.202123292335254
 20
4.370197403872966
 42
0.1140536254072534
 10
3.186559947597917
 20
4.366600502776618
 42
0.1036340346640368
 10
3.172711712040015
 20
4.355835447187732
 42
0.0916544813065076
 10
3.163789352213793
 20
4.340276943687344
 42
0.0846731520301862
 10
3.160529036590904
 20
4.321162616576017
 42
0.0846731520301835
 10
3.163789352213793
 20
4.302048289464698
 42
0.091654481306508
 10
3.172711712040015
 20
4.286489785964294
 42
0.103634034664036
 10
3.186559947597917
 20
4.275724730375413
 42
0.1140536254072547
 10
3.202123292335254
 20
4.272127829279064
 42
0.1140536254072534
 10
3.217686637072606
 20
4.275724730375413
 42
0.1036340346640367
 10
3.231534872630508
 20
4.286489785964294
 42
0.0916544813065066
 10
3.24045723245673
 20
4.302048289464698
 42
0.0846731520301858
  0
LWPOLYLINE
  5
2757
330
2613
100
AcDbEntity
  8
Image
100
AcDbPolyline
 90
       16
 70
     1
 43
0.0
 10
2.955750148981142
 20
4.436359219608675
 42
0.1096021439183502
 10
2.936096548640637
 20
4.433008234062898
 42
0.1024204874116924
 10
2.9184108275231
 20
4.421132295519203
 42
0.0936695383243779
 10
2.906391056515193
 20
4.403123330445103
 42
0.0882994724157594
 10
2.901258254825652
 20
4.380758498787246
 42
0.088299472415759
 10
2.904157494571354
 20
4.357996122875112
 42
0.0936695383243767
 10
2.914340175345358
 20
4.338888251973909
 42
0.1024204874116938
 10
2.930766736100082
 20
4.325323932989453
 42
0.1096021439183517
 10
2.949993377463673
 20
4.320048577802509
 42
0.109602143918351
 10
2.969646977804178
 20
4.323399563348301
 42
0.1024204874116929
 10
2.987332698921715
 20
4.335275501891992
 42
0.0936695383243769
 10
2.999352469929625
 20
4.353284466966082
 42
0.0882994724157586
 10
3.00448527161917
 20
4.375649298623942
 42
0.0882994724157589
 10
3.001586031873468
 20
4.398411674536085
 42
0.0936695383243761
 10
2.991403351099453
 20
4.417519545437288
 42
0.102420487411692
 10
2.974976790344737
 20
4.431083864421745
 42
0.1096021439183503
  0
LWPOLYLINE
  5
2758
330
2613
100
AcDbEntity
  8
Image
100
AcDbPolyline
 90
       16
 70
     1
 43
0.0
 10
3.416967471675594
 20
4.290171531220291
 42
0.0846731520301792
 10
3.413707156052694
 20
4.309285858331609
 42
0.0916544813065032
 10
3.404784796226472
 20
4.324844361832003
 42
0.1036340346640379
 10
3.390936560668581
 20
4.335609417420892
 42
0.1140536254072521
 10
3.375373215931219
 20
4.339206318517243
 42
0.1140536254072534
 10
3.359809871193881
 20
4.335609417420892
 42
0.1036340346640368
 10
3.345961635635983
 20
4.324844361832003
 42
0.0916544813065076
 10
3.337039275809765
 20
4.309285858331609
 42
0.0846731520301862
 10
3.333778960186865
 20
4.290171531220291
 42
0.0846731520301835
 10
3.337039275809765
 20
4.271057204108963
 42
0.091654481306508
 10
3.345961635635983
 20
4.255498700608571
 42
0.103634034664036
 10
3.359809871193881
 20
4.244733645019689
 42
0.1140536254072547
 10
3.375373215931219
 20
4.241136743923338
 42
0.1140536254072534
 10
3.390936560668581
 20
4.244733645019689
 42
0.1036340346640367
 10
3.404784796226472
 20
4.255498700608571
 42
0.0916544813065066
 10
3.413707156052694
 20
4.271057204108963
 42
0.0846731520301858
  0
LWPOLYLINE
  5
2759
330
2613
100
AcDbEntity
  8
Image
100
AcDbPolyline
 90
       16
 70
     1
 43
0.0
 10
2.912627645014737
 20
4.272954188015129
 42
0.0708989349029243
 10
2.900762607363336
 20
4.261955439260065
 42
0.0824870853856804
 10
2.893875839606028
 20
4.249846332343558
 42
0.1068139206260733
 10
2.892023560473429
 20
4.236672214147166
 42
0.1340008839894652
 10
2.89557842141869
 20
4.226608408017206
 42
0.1340008839894659
 10
2.903752621177435
 20
4.219745486739384
 42
0.106813920626075
 10
2.916738041117898
 20
4.216852875945056
 42
0.0824870853856831
 10
2.930494461794719
 20
4.219048082227129
 42
0.0708989349029243
 10
2.944959680458527
 20
4.226294394506791
 42
0.0708989349029259
 10
2.956824718109931
 20
4.237293143261865
 42
0.0824870853856834
 10
2.963711485867236
 20
4.249402250178365
 42
0.1068139206260768
 10
2.965563764999831
 20
4.262576368374764
 42
0.1340008839894672
 10
2.96200890405457
 20
4.272640174504717
 42
0.1340008839894638
 10
2.953834704295825
 20
4.279503095782546
 42
0.1068139206260751
 10
2.940849284355358
 20
4.282395706576886
 42
0.082487085385683
 10
2.927092863678549
 20
4.280200500294794
 42
0.0708989349029251
  0
LINE
  5
275A
330
2613
100
AcDbEntity
  8
Image
100
AcDbLine
 10
3.773233472934006
 20
4.254466101353852
 30
0.0
 11
4.200574842082698
 21
4.254466101353852
 31
0.0
  0
LWPOLYLINE
  5
275B
330
2613
100
AcDbEntity
  8
Image
100
AcDbPolyline
 90
       16
 70
     1
 43
0.0
 10
3.207605135971263
 20
4.45149146983681
 42
0.0708989349029243
 10
3.195740098319856
 20
4.440492721081746
 42
0.0824870853856804
 10
3.188853330562555
 20
4.428383614165241
 42
0.1068139206260733
 10
3.187001051429959
 20
4.415209495968849
 42
0.1340008839894652
 10
3.190555912375206
 20
4.405145689838885
 42
0.1340008839894659
 10
3.198730112133965
 20
4.398282768561065
 42
0.106813920626075
 10
3.211715532074425
 20
4.395390157766735
 42
0.0824870853856831
 10
3.225471952751231
 20
4.397585364048808
 42
0.0708989349029243
 10
3.23993717141505
 20
4.404831676328472
 42
0.0708989349029259
 10
3.25180220906645
 20
4.415830425083544
 42
0.0824870853856834
 10
3.258688976823751
 20
4.42793953200004
 42
0.1068139206260768
 10
3.260541255956358
 20
4.44111365019644
 42
0.1340008839894672
 10
3.256986395011097
 20
4.4511774563264
 42
0.1340008839894638
 10
3.248812195252344
 20
4.45804037760423
 42
0.1068139206260751
 10
3.235826775311888
 20
4.460932988398559
 42
0.082487085385683
 10
3.222070354635075
 20
4.458737782116473
 42
0.0708989349029251
  0
LWPOLYLINE
  5
275C
330
2613
100
AcDbEntity
  8
Image
100
AcDbPolyline
 90
       16
 70
     1
 43
0.0
 10
3.120013715396265
 20
4.413593253226549
 42
0.0708989349029243
 10
3.108148677744864
 20
4.402594504471483
 42
0.0824870853856804
 10
3.10126190998756
 20
4.390485397554984
 42
0.1068139206260733
 10
3.09940963085496
 20
4.377311279358584
 42
0.1340008839894652
 10
3.102964491800221
 20
4.367247473228621
 42
0.1340008839894659
 10
3.11113869155897
 20
4.360384551950801
 42
0.106813920626075
 10
3.12412411149943
 20
4.357491941156473
 42
0.0824870853856831
 10
3.137880532176247
 20
4.359687147438545
 42
0.0708989349029243
 10
3.152345750840058
 20
4.366933459718218
 42
0.0708989349029259
 10
3.164210788491462
 20
4.377932208473279
 42
0.0824870853856834
 10
3.171097556248756
 20
4.390041315389778
 42
0.1068139206260768
 10
3.172949835381363
 20
4.403215433586176
 42
0.1340008839894672
 10
3.169394974436102
 20
4.413279239716137
 42
0.1340008839894638
 10
3.161220774677357
 20
4.420142160993965
 42
0.1068139206260751
 10
3.148235354736886
 20
4.423034771788293
 42
0.082487085385683
 10
3.13447893406008
 20
4.420839565506211
 42
0.0708989349029251
  0
LWPOLYLINE
  5
275D
330
2613
100
AcDbEntity
  8
Image
100
AcDbPolyline
 90
       16
 70
     1
 43
0.0
 10
3.405975622213649
 20
4.442429922141984
 42
0.0708989349029243
 10
3.394110584562245
 20
4.43143117338692
 42
0.0824870853856804
 10
3.387223816804944
 20
4.419322066470416
 42
0.1068139206260733
 10
3.385371537672344
 20
4.40614794827402
 42
0.1340008839894652
 10
3.388926398617595
 20
4.39608414214406
 42
0.1340008839894659
 10
3.397100598376347
 20
4.38922122086624
 42
0.106813920626075
 10
3.410086018316814
 20
4.38632861007191
 42
0.0824870853856831
 10
3.42384243899362
 20
4.388523816353981
 42
0.0708989349029243
 10
3.438307657657436
 20
4.395770128633643
 42
0.0708989349029259
 10
3.450172695308847
 20
4.406768877388719
 42
0.0824870853856834
 10
3.457059463066141
 20
4.418877984305215
 42
0.1068139206260768
 10
3.458911742198743
 20
4.432052102501614
 42
0.1340008839894672
 10
3.455356881253482
 20
4.442115908631572
 42
0.1340008839894638
 10
3.447182681494734
 20
4.448978829909401
 42
0.1068139206260751
 10
3.434197261554274
 20
4.451871440703733
 42
0.082487085385683
 10
3.420440840877457
 20
4.449676234421648
 42
0.0708989349029251
  0
LWPOLYLINE
  5
275E
330
2613
100
AcDbEntity
  8
Image
100
AcDbPolyline
 90
       16
 70
     1
 43
0.0
 10
3.288919513615635
 20
4.4573919707331
 42
0.1833035428166229
 10
3.285585643346546
 20
4.451680706466968
 42
0.1024612315138192
 10
3.286029881723717
 20
4.440122790895118
 42
0.0615734602679465
 10
3.290524465053838
 20
4.428382404384453
 42
0.0478438451985803
 10
3.299434613957956
 20
4.414907160900357
 42
0.0478438451985776
 10
3.310743530363627
 20
4.403371071867276
 42
0.061573460267943
 10
3.321281399975521
 20
4.396516054815965
 42
0.1024612315138217
 10
3.332489609064172
 20
4.393659691896633
 42
0.1833035428166229
 10
3.338772688821581
 20
4.395722733159137
 42
0.1833035428166234
 10
3.34210655909067
 20
4.401433997425266
 42
0.102461231513819
 10
3.341662320713499
 20
4.412991912997116
 42
0.0615734602679484
 10
3.337167737383367
 20
4.424732299507779
 42
0.0478438451985819
 10
3.328257588479257
 20
4.438207542991877
 42
0.0478438451985799
 10
3.316948672073586
 20
4.449743632024947
 42
0.0615734602679431
 10
3.306410802461687
 20
4.456598649076269
 42
0.1024612315138189
 10
3.29520259337303
 20
4.459455011995597
 42
0.183303542816622
  0
LWPOLYLINE
  5
275F
330
2613
100
AcDbEntity
  8
Image
100
AcDbPolyline
 90
       16
 70
     1
 43
0.0
 10
3.529073878741886
 20
4.448263649130653
 42
0.0708989349029243
 10
3.517208841090482
 20
4.437264900375588
 42
0.0824870853856804
 10
3.510322073333178
 20
4.425155793459085
 42
0.1068139206260733
 10
3.508469794200575
 20
4.411981675262687
 42
0.1340008839894652
 10
3.51202465514584
 20
4.401917869132724
 42
0.1340008839894659
 10
3.520198854904588
 20
4.395054947854905
 42
0.106813920626075
 10
3.533184274845048
 20
4.392162337060574
 42
0.0824870853856831
 10
3.546940695521858
 20
4.39435754334265
 42
0.0708989349029243
 10
3.56140591418568
 20
4.40160385562231
 42
0.0708989349029259
 10
3.573270951837077
 20
4.412602604377386
 42
0.0824870853856834
 10
3.580157719594371
 20
4.424711711293882
 42
0.1068139206260768
 10
3.582009998726981
 20
4.43788582949028
 42
0.1340008839894672
 10
3.578455137781713
 20
4.447949635620238
 42
0.1340008839894638
 10
3.570280938022975
 20
4.454812556898071
 42
0.1068139206260751
 10
3.557295518082501
 20
4.457705167692399
 42
0.082487085385683
 10
3.543539097405705
 20
4.455509961410315
 42
0.0708989349029251
  0
LINE
  5
2760
330
2613
100
AcDbEntity
  8
Image
100
AcDbLine
 10
4.043126829255427
 20
4.733426699154554
 30
0.0
 11
4.043126829255427
 21
4.591956055295376
 31
0.0
  0
LINE
  5
2761
330
2613
100
AcDbEntity
  8
Image
100
AcDbLine
 10
4.043123164272238
 20
4.455175527226639
 30
0.0
 11
3.913517760262852
 21
4.455175527226639
 31
0.0
  0
LINE
  5
2762
330
2613
100
AcDbEntity
  8
Image
100
AcDbLine
 10
4.200574842082698
 20
4.445374401301197
 30
0.0
 11
3.773233472934006
 21
4.445374401301194
 31
0.0
  0
LINE
  5
2763
330
2613
100
AcDbEntity
  8
Image
100
AcDbLine
 10
3.905457243351193
 20
4.591956055295375
 30
0.0
 11
3.91351776026266
 21
4.455175527226639
 31
0.0
  0
LWPOLYLINE
  5
2764
330
2613
100
AcDbEntity
  8
Image
100
AcDbPolyline
 90
       16
 70
     1
 43
0.0
 10
3.633573920054928
 20
4.44709602803047
 42
0.1615511064879552
 10
3.625563590508601
 20
4.436437736318369
 42
0.1061532262602322
 10
3.623315650963949
 20
4.416566940728577
 42
0.0703450477663066
 10
3.628401508567161
 20
4.395723307102157
 42
0.0566056099584688
 10
3.640995352588408
 20
4.372274784412695
 42
0.0566056099584683
 10
3.658526937654666
 20
4.352247761453341
 42
0.0703450477663069
 10
3.676256495495394
 20
4.340165303545932
 42
0.1061532262602343
 10
3.69565092922318
 20
4.335291117465542
 42
0.1615511064879549
 10
3.708443580394774
 20
4.339047796539277
 42
0.1615511064879543
 10
3.716453909941105
 20
4.349706088251373
 42
0.106153226260232
 10
3.71870184948575
 20
4.369576883841174
 42
0.0703450477663075
 10
3.713615991882537
 20
4.390420517467585
 42
0.0566056099584687
 10
3.701022147861294
 20
4.413869040157059
 42
0.05660560995847
 10
3.683490562795039
 20
4.433896063116405
 42
0.0703450477663058
 10
3.665761004954301
 20
4.445978521023814
 42
0.1061532262602316
 10
3.646366571226515
 20
4.4508527071042
 42
0.1615511064879538
  0
LINE
  5
2765
330
2613
100
AcDbEntity
  8
Image
100
AcDbLine
 10
4.043123164272433
 20
4.591956055295375
 30
0.0
 11
4.043123164272238
 21
4.455175527226639
 31
0.0
  0
LINE
  5
276D
330
2613
100
AcDbEntity
  8
Image
100
AcDbLine
 10
3.689450219607383
 20
6.02434632436954
 30
0.0
 11
3.689450219607383
 21
5.891717595751563
 31
0.0
  0
LINE
  5
276E
330
2613
100
AcDbEntity
  8
Image
100
AcDbLine
 10
3.662924473883794
 20
6.050872070093138
 30
0.0
 11
3.662924473883794
 21
5.891717595751563
 31
0.0
  0
LINE
  5
276F
330
2613
100
AcDbEntity
  8
Image
100
AcDbLine
 10
3.719580555821014
 20
6.02434632436954
 30
0.0
 11
3.769690142805536
 21
5.82390797643146
 31
0.0
  0
LINE
  5
2770
330
2613
100
AcDbEntity
  8
Image
100
AcDbLine
 10
3.760185541536976
 20
6.289603781605499
 30
0.0
 11
3.760185541536976
 21
5.971294832922351
 31
0.0
  0
LINE
  5
2772
330
2613
100
AcDbEntity
  8
Image
100
AcDbLine
 10
1.537260225506113
 20
6.02434632436954
 30
0.0
 11
1.487150638521587
 21
5.82390797643146
 31
0.0
  0
LINE
  5
2773
330
2613
100
AcDbEntity
  8
Image
100
AcDbLine
 10
1.593916307443326
 20
6.050872070093138
 30
0.0
 11
1.593916307443326
 21
5.891717595751563
 31
0.0
  0
LINE
  5
2774
330
2613
100
AcDbEntity
  8
Image
100
AcDbLine
 10
1.567390561719729
 20
6.02434632436954
 30
0.0
 11
1.567390561719729
 21
5.891717595751563
 31
0.0
  0
LINE
  5
2775
330
2613
100
AcDbEntity
  8
Image
100
AcDbLine
 10
1.496655239790143
 20
6.289603781605499
 30
0.0
 11
1.496655239790143
 21
5.971294832922351
 31
0.0
  0
INSERT
  5
2777
330
2613
100
AcDbEntity
  8
TEXT_BUBBLES
100
AcDbBlockReference
 66
     1
  2
bubble
 10
1.00032785167933
 20
4.872526925477512
 30
0.0
  0
ATTRIB
  5
2778
330
2777
100
AcDbEntity
  8
TEXT_BUBBLES
100
AcDbText
 10
0.9408040421555206
 20
4.810026925477512
 30
0.0
 40
0.125
  1
7
  7
ROMANS
 72
     4
 11
1.00032785167933
 21
4.872526925477512
 31
0.0
100
AcDbAttribute
  2
XX
 70
     0
  0
SEQEND
  5
2779
330
2777
100
AcDbEntity
  8
TEXT_BUBBLES
  0
LINE
  5
277A
330
2613
100
AcDbEntity
  8
Image
  6
Continuous
100
AcDbLine
 10
2.136157641185388
 20
5.231963254163185
 30
0.0
 11
2.082568483764507
 21
5.430778691956243
 31
0.0
  0
LINE
  5
277B
330
2613
100
AcDbEntity
  8
Image
  6
Continuous
100
AcDbLine
 10
2.179738335453379
 20
5.223271141715329
 30
0.0
 11
2.099958297527965
 21
5.430778691956243
 31
0.0
  0
LINE
  5
277C
330
2613
100
AcDbEntity
  8
Image
  6
Continuous
100
AcDbLine
 10
2.176387650912392
 20
5.231089405644363
 30
0.0
 11
2.219254320387431
 21
5.443819877797759
 31
0.0
  0
LINE
  5
277D
330
2613
100
AcDbEntity
  8
Image
  6
Continuous
100
AcDbLine
 10
2.20652270716658
 20
5.441407828388108
 30
0.0
 11
2.129230409795223
 21
5.211344058986723
 31
0.0
  0
LINE
  5
277E
330
2613
100
AcDbEntity
  8
Image
100
AcDbLine
 10
1.461287578825348
 20
5.829824189063174
 30
0.0
 11
1.380484090635683
 21
5.440779918450438
 31
0.0
  0
LINE
  5
277F
330
2613
100
AcDbEntity
  8
Image
100
AcDbLine
 10
1.487150638521587
 20
5.82390797643146
 30
0.0
 11
1.406806159269489
 21
5.437073694537319
 31
0.0
  0
LINE
  5
2780
330
2613
100
AcDbEntity
  8
Image
100
AcDbLine
 10
1.380484090635683
 20
5.440779918450438
 30
0.0
 11
1.359229072975551
 21
5.157838630732085
 31
0.0
  0
LINE
  5
2783
330
2613
100
AcDbEntity
  8
Image
100
AcDbLine
 10
1.496655239790143
 20
5.971294832922351
 30
0.0
 11
1.461287578825348
 21
5.829824189063174
 31
0.0
  0
LINE
  5
2784
330
2613
100
AcDbEntity
  8
Image
100
AcDbLine
 10
1.593916307443326
 20
5.891717595751563
 30
0.0
 11
1.504103043351612
 21
5.891717595751563
 31
0.0
  0
LWPOLYLINE
  5
2787
330
2613
100
AcDbEntity
  8
Image
  6
Continuous
100
AcDbPolyline
 90
        8
 70
     1
 43
0.0
 10
2.069867287861598
 20
5.421736575573255
 10
2.075566649746079
 20
5.416038239491852
 10
2.104060381759243
 20
5.416038239491852
 10
2.109759743643724
 20
5.421736575573255
 10
2.109759743643724
 20
5.473026729321258
 10
2.104060381759243
 20
5.478726091205736
 10
2.075566649746079
 20
5.478726091205736
 10
2.069867287861598
 20
5.473026729321258
  0
LWPOLYLINE
  5
2788
330
2613
100
AcDbEntity
  8
Image
  6
Continuous
100
AcDbPolyline
 90
        8
 70
     1
 43
0.0
 10
2.189544655207964
 20
5.435983954481375
 10
2.195242991289369
 20
5.430285618399972
 10
2.223737749105609
 20
5.430285618399972
 10
2.229437110990087
 20
5.435983954481375
 10
2.229437110990087
 20
5.484424427287139
 10
2.223737749105609
 20
5.490123789171617
 10
2.195242991289369
 20
5.490123789171617
 10
2.189544655207964
 20
5.484424427287139
  0
INSERT
  5
2789
330
2613
100
AcDbEntity
  8
TEXT_BUBBLES
100
AcDbBlockReference
 66
     1
  2
bubble
 10
1.195223256153017
 20
5.824199924214129
 30
0.0
  0
ATTRIB
  5
278A
330
2789
100
AcDbEntity
  8
TEXT_BUBBLES
100
AcDbText
 10
1.135699446629207
 20
5.761699924214129
 30
0.0
 40
0.125
  1
3
  7
ROMANS
 72
     4
 11
1.195223256153017
 21
5.824199924214129
 31
0.0
100
AcDbAttribute
  2
XX
 70
     0
  0
SEQEND
  5
278B
330
2789
100
AcDbEntity
  8
TEXT_BUBBLES
  0
LINE
  5
278C
330
2613
100
AcDbEntity
  8
Image
100
AcDbLine
 10
3.769690142805536
 20
5.82390797643146
 30
0.0
 11
3.850034622057631
 21
5.437073694537319
 31
0.0
  0
LINE
  5
278D
330
2613
100
AcDbEntity
  8
Image
100
AcDbLine
 10
3.795553202501768
 20
5.829824189063174
 30
0.0
 11
3.876356690691437
 21
5.440779918450438
 31
0.0
  0
LINE
  5
278E
330
2613
100
AcDbEntity
  8
Image
100
AcDbLine
 10
3.876356690691437
 20
5.440779918450438
 30
0.0
 11
3.897611708351572
 21
5.157838630732085
 31
0.0
  0
LINE
  5
278F
330
2613
100
AcDbEntity
  8
Image
100
AcDbLine
 10
3.897611708351572
 20
5.157838630732085
 30
0.0
 11
3.950812680963803
 21
5.157838630732085
 31
0.0
  0
LINE
  5
2790
330
2613
100
AcDbEntity
  8
Image
100
AcDbLine
 10
3.873003879951095
 20
5.131312885008489
 30
0.0
 11
3.950812680963803
 21
5.131312885008489
 31
0.0
  0
LINE
  5
2793
330
2613
100
AcDbEntity
  8
Image
100
AcDbLine
 10
3.760185541536976
 20
5.971294832922351
 30
0.0
 11
3.795553202501768
 21
5.829824189063174
 31
0.0
  0
LINE
  5
2794
330
2613
100
AcDbEntity
  8
Image
100
AcDbLine
 10
3.752737737975504
 20
5.891717595751563
 30
0.0
 11
3.662924473883794
 21
5.891717595751563
 31
0.0
  0
LWPOLYLINE
  5
2795
330
2613
100
AcDbEntity
  8
Image
100
AcDbPolyline
 90
        4
 70
     0
 43
0.0
 10
1.540217349792328
 20
6.289654707303613
 10
1.540217349792328
 20
6.057516519940389
 10
3.718383105555336
 20
6.057516519940389
 10
3.718383105555336
 20
6.289654707303609
  0
LINE
  5
2796
102
{ACAD_REACTORS
330
2BC2
102
}
330
2613
100
AcDbEntity
  8
Image
100
AcDbLine
 10
3.718383105555329
 20
6.289654707303609
 30
0.0
 11
1.540217349792332
 21
6.289654707303613
 31
0.0
  0
LINE
  5
2797
330
2613
100
AcDbEntity
  8
Image
100
AcDbLine
 10
1.461325444352898
 20
6.631243376701817
 30
0.0
 11
1.461325444352898
 21
6.281644344221327
 31
0.0
  0
LINE
  5
2798
330
2613
100
AcDbEntity
  8
Image
100
AcDbLine
 10
1.50900766832197
 20
6.59135275355665
 30
0.0
 11
1.471238350110343
 21
6.281644344221327
 31
0.0
  0
LINE
  5
2799
330
2613
100
AcDbEntity
  8
Image
100
AcDbLine
 10
1.510122727724237
 20
6.574856435979155
 30
0.0
 11
1.439944623992815
 21
6.281644344221327
 31
0.0
  0
LINE
  5
279A
330
2613
100
AcDbEntity
  8
Image
100
AcDbLine
 10
1.425684125548901
 20
6.631243376701817
 30
0.0
 11
1.425684125548901
 21
6.281644344221327
 31
0.0
  0
LINE
  5
279C
330
2613
100
AcDbEntity
  8
Image
100
AcDbLine
 10
1.400855148052336
 20
6.631243376701817
 30
0.0
 11
1.400855148052336
 21
6.281644344221327
 31
0.0
  0
INSERT
  5
279D
330
2613
100
AcDbEntity
  8
TEXT_BUBBLES
100
AcDbBlockReference
 66
     1
  2
bubble
 10
1.784761170055951
 20
6.803963119683572
 30
0.0
  0
ATTRIB
  5
279E
330
279D
100
AcDbEntity
  8
TEXT_BUBBLES
100
AcDbText
 10
1.725237360532141
 20
6.741463119683572
 30
0.0
 40
0.125
  1
5
  7
ROMANS
 72
     4
 11
1.784761170055951
 21
6.803963119683572
 31
0.0
100
AcDbAttribute
  2
XX
 70
     0
  0
SEQEND
  5
279F
330
279D
100
AcDbEntity
  8
TEXT_BUBBLES
  0
LINE
  5
27A0
330
2613
100
AcDbEntity
  8
Image
100
AcDbLine
 10
1.532022900754938
 20
6.289603781605499
 30
0.0
 11
1.532022900754938
 21
6.050872070093138
 31
0.0
  0
LINE
  5
27A1
330
2613
100
AcDbEntity
  8
Image
100
AcDbLine
 10
1.567390561719729
 20
6.02434632436954
 30
0.0
 11
1.537260225506113
 21
6.02434632436954
 31
0.0
  0
LINE
  5
27A2
330
2613
100
AcDbEntity
  8
Image
100
AcDbLine
 10
1.593916307443326
 20
6.050872070093138
 30
0.0
 11
1.532022900754938
 21
6.050872070093138
 31
0.0
  0
LINE
  5
27A3
330
2613
100
AcDbEntity
  8
Image
100
AcDbLine
 10
1.432184635277398
 20
6.548744478932301
 30
0.0
 11
1.358947501566316
 21
6.281644344221327
 31
0.0
  0
LINE
  5
27A4
330
2613
100
AcDbEntity
  8
Image
100
AcDbLine
 10
1.479441428762836
 20
6.548744478932299
 30
0.0
 11
1.406204295051761
 21
6.281644344221325
 31
0.0
  0
LINE
  5
27A5
330
2613
100
AcDbEntity
  8
Image
100
AcDbLine
 10
1.532022900754938
 20
6.289603781605499
 30
0.0
 11
1.496655239790143
 21
6.289603781605499
 31
0.0
  0
LINE
  5
27A7
330
2613
100
AcDbEntity
  8
Image
100
AcDbLine
 10
3.982036535120652
 20
6.57485643597916
 30
0.0
 11
3.91185843138923
 21
6.281644344221332
 31
0.0
  0
LINE
  5
27A8
330
2613
100
AcDbEntity
  8
Image
100
AcDbLine
 10
3.920264426816604
 20
6.631243376701819
 30
0.0
 11
3.920264426816604
 21
6.281644344221327
 31
0.0
  0
LINE
  5
27A9
330
2613
100
AcDbEntity
  8
Image
100
AcDbLine
 10
3.807390553682164
 20
6.597411212268218
 30
0.0
 11
3.833727790746866
 21
6.281644344221332
 31
0.0
  0
LINE
  5
27AA
330
2613
100
AcDbEntity
  8
Image
100
AcDbLine
 10
3.839046837644669
 20
6.577149995348539
 30
0.0
 11
3.760185541536976
 21
6.281644344221327
 31
0.0
  0
LINE
  5
27AB
330
2613
100
AcDbEntity
  8
Image
100
AcDbLine
 10
3.993096850149118
 20
6.567681489876456
 30
0.0
 11
4.020154417981359
 21
6.281644344221327
 31
0.0
  0
LINE
  5
27AC
330
2613
100
AcDbEntity
  8
Image
100
AcDbLine
 10
3.677277077657631
 20
6.608688600412765
 30
0.0
 11
3.833150521509988
 21
6.281644344221327
 31
0.0
  0
LINE
  5
27AD
330
2613
100
AcDbEntity
  8
Image
100
AcDbLine
 10
3.812725725418982
 20
6.619965988557291
 30
0.0
 11
3.894245744904967
 21
6.281644344221327
 31
0.0
  0
LINE
  5
27AE
330
2613
100
AcDbEntity
  8
Image
100
AcDbLine
 10
3.913899415361104
 20
6.572415742612498
 30
0.0
 11
3.886639596761927
 21
6.281644344221327
 31
0.0
  0
LINE
  5
27AF
330
2613
100
AcDbEntity
  8
Image
100
AcDbLine
 10
3.776606086015963
 20
6.567681489876456
 30
0.0
 11
3.8036636538482
 21
6.281644344221327
 31
0.0
  0
LINE
  5
27B0
330
2613
100
AcDbEntity
  8
Image
100
AcDbLine
 10
4.06558697516008
 20
6.57485643597916
 30
0.0
 11
3.995408871428661
 21
6.281644344221332
 31
0.0
  0
LINE
  5
27B1
330
2613
100
AcDbEntity
  8
Image
100
AcDbLine
 10
3.768171720219644
 20
6.631243376701819
 30
0.0
 11
3.768171720219644
 21
6.281644344221327
 31
0.0
  0
LINE
  5
27B2
330
2613
100
AcDbEntity
  8
Image
100
AcDbLine
 10
3.876324240489282
 20
6.591352753556654
 30
0.0
 11
3.838554922277648
 21
6.281644344221327
 31
0.0
  0
LINE
  5
27B3
330
2613
100
AcDbEntity
  8
Image
100
AcDbLine
 10
3.947694904800318
 20
6.597411212268218
 30
0.0
 11
3.974032141865027
 21
6.281644344221332
 31
0.0
  0
LINE
  5
27B4
330
2613
100
AcDbEntity
  8
Image
100
AcDbLine
 10
3.975213555070499
 20
6.572415742612497
 30
0.0
 11
3.947953736471323
 21
6.281644344221327
 31
0.0
  0
LINE
  5
27B5
330
2613
100
AcDbEntity
  8
Image
100
AcDbLine
 10
4.043350674830058
 20
6.57485643597916
 30
0.0
 11
3.973172571098633
 21
6.281644344221332
 31
0.0
  0
LINE
  5
27B6
330
2613
100
AcDbEntity
  8
Image
100
AcDbLine
 10
3.724817880572185
 20
6.289603781605499
 30
0.0
 11
3.724817880572185
 21
6.050872070093138
 31
0.0
  0
LINE
  5
27B7
330
2613
100
AcDbEntity
  8
Image
100
AcDbLine
 10
3.724817880572185
 20
6.050872070093138
 30
0.0
 11
3.662924473883794
 21
6.050872070093138
 31
0.0
  0
LINE
  5
27B8
330
2613
100
AcDbEntity
  8
Image
100
AcDbLine
 10
3.689450219607383
 20
6.02434632436954
 30
0.0
 11
3.719580555821014
 21
6.02434632436954
 31
0.0
  0
LWPOLYLINE
  5
27B9
330
2613
100
AcDbEntity
  8
Image
100
AcDbPolyline
 90
        2
 70
     0
 43
0.0
 10
3.760185541536976
 20
6.281644344221327
 10
4.006223343110647
 20
6.281644344221327
  0
LINE
  5
27BA
330
2613
100
AcDbEntity
  8
Image
100
AcDbLine
 10
4.067000461891396
 20
6.529746883401037
 30
0.0
 11
3.866432271937092
 21
6.281644344221327
 31
0.0
  0
LINE
  5
27BB
330
2613
100
AcDbEntity
  8
Image
100
AcDbLine
 10
4.031427968859265
 20
6.548744478932304
 30
0.0
 11
3.958190835148183
 21
6.281644344221327
 31
0.0
  0
LINE
  5
27BC
330
2613
100
AcDbEntity
  8
Image
100
AcDbLine
 10
3.891123617741097
 20
6.548744478932304
 30
0.0
 11
3.817886484030019
 21
6.281644344221327
 31
0.0
  0
LINE
  5
27BD
330
2613
100
AcDbEntity
  8
Image
100
AcDbLine
 10
3.760185541536976
 20
6.289603781605498
 30
0.0
 11
3.724817880572185
 21
6.289603781605498
 31
0.0
  0
LWPOLYLINE
  5
27C4
330
2613
100
AcDbEntity
  8
Image
  6
HIDDEN2
100
AcDbPolyline
 90
       24
 70
     1
 43
0.0092322276746406
 10
2.275027902853608
 20
4.752114895906972
 10
2.292124962703972
 20
4.754964576849209
 10
2.30922099675126
 20
4.763513619675928
 10
2.323468375659377
 20
4.777759972780973
 10
2.332017418486092
 20
4.792007351689091
 10
2.33486607362526
 20
4.811954092481691
 10
2.33486607362526
 20
5.64684393135786
 10
2.332017418486092
 20
5.663939965405145
 10
2.323468375659377
 20
5.681037025255506
 10
2.30922099675126
 20
5.695284404163626
 10
2.294974643646209
 20
5.703832421187268
 10
2.275027902853608
 20
5.706682102129507
 10
2.038523874906193
 20
5.706682102129507
 10
2.021426815055839
 20
5.703832421187268
 10
2.004329755205471
 20
5.695284404163626
 10
1.990082376297355
 20
5.681037025255506
 10
1.981534359273712
 20
5.666789646347384
 10
1.978684678331472
 20
5.64684393135786
 10
1.978684678331472
 20
4.811954092481691
 10
1.981534359273712
 20
4.794857032631332
 10
1.990082376297355
 20
4.777759972780973
 10
2.004329755205471
 20
4.763513619675928
 10
2.018577134113595
 20
4.754964576849209
 10
2.038523874906193
 20
4.752114895906972
  0
LWPOLYLINE
  5
27C7
330
2613
100
AcDbEntity
  8
Image
  6
HIDDEN2
100
AcDbPolyline
 90
       24
 70
     1
 43
0.0092322276746406
 10
3.244304474043179
 20
4.969108402716441
 10
3.261401533893547
 20
4.971958083658678
 10
3.278497567940835
 20
4.980507126485397
 10
3.292744946848952
 20
4.994753479590443
 10
3.301293989675667
 20
5.009000858498561
 10
3.304142644814834
 20
5.028947599291161
 10
3.304142644814834
 20
5.863837438167328
 10
3.301293989675667
 20
5.880933472214614
 10
3.292744946848952
 20
5.898030532064975
 10
3.278497567940835
 20
5.912277910973093
 10
3.264251214835784
 20
5.920825927996737
 10
3.244304474043179
 20
5.923675608938976
 10
3.007800446095767
 20
5.923675608938976
 10
2.99070338624541
 20
5.920825927996737
 10
2.973606326395046
 20
5.912277910973093
 10
2.959358947486929
 20
5.898030532064975
 10
2.950810930463287
 20
5.883783153156853
 10
2.947961249521046
 20
5.863837438167328
 10
2.947961249521046
 20
5.028947599291161
 10
2.950810930463287
 20
5.0118505394408
 10
2.959358947486929
 20
4.994753479590443
 10
2.973606326395046
 20
4.980507126485397
 10
2.987853705303166
 20
4.971958083658678
 10
3.007800446095767
 20
4.969108402716441
  0
LWPOLYLINE
  5
27C8
330
2613
100
AcDbEntity
  8
Image
  6
Continuous
100
AcDbPolyline
 90
        8
 70
     1
 43
0.0
 10
3.039143859051169
 20
5.638730082382725
 10
3.04484322093565
 20
5.633031746301321
 10
3.073336952948817
 20
5.633031746301321
 10
3.079036314833299
 20
5.638730082382725
 10
3.079036314833299
 20
5.690020236130727
 10
3.073336952948817
 20
5.695719598015205
 10
3.04484322093565
 20
5.695719598015205
 10
3.039143859051169
 20
5.690020236130727
  0
LINE
  5
27CA
330
2613
100
AcDbEntity
  8
Image
  6
Continuous
100
AcDbLine
 10
3.175799278356151
 20
5.658401335197575
 30
0.0
 11
3.098506980984797
 21
5.428337565796192
 31
0.0
  0
LINE
  5
27CB
330
2613
100
AcDbEntity
  8
Image
  6
Continuous
100
AcDbLine
 10
3.145664222101967
 20
5.448082912453832
 30
0.0
 11
3.188530891577002
 21
5.660813384607228
 31
0.0
  0
LINE
  5
27CC
330
2613
100
AcDbEntity
  8
Image
  6
Continuous
100
AcDbLine
 10
3.14901490664295
 20
5.440264648524799
 30
0.0
 11
3.069234868717536
 21
5.647772198765711
 31
0.0
  0
LINE
  5
27CD
330
2613
100
AcDbEntity
  8
Image
  6
Continuous
100
AcDbLine
 10
3.105434212374962
 20
5.448956760972654
 30
0.0
 11
3.051845054954082
 21
5.647772198765711
 31
0.0
  0
LWPOLYLINE
  5
27CE
330
2613
100
AcDbEntity
  8
Image
  6
Continuous
100
AcDbPolyline
 90
        8
 70
     1
 43
0.0
 10
3.158821226397538
 20
5.652977461290845
 10
3.16451956247894
 20
5.647279125209442
 10
3.19301432029518
 20
5.647279125209442
 10
3.198713682179661
 20
5.652977461290845
 10
3.198713682179661
 20
5.701417934096607
 10
3.19301432029518
 20
5.707117295981086
 10
3.16451956247894
 20
5.707117295981086
 10
3.158821226397538
 20
5.701417934096607
  0
LWPOLYLINE
  5
298E
330
2613
100
AcDbEntity
  8
Image
  6
Continuous
100
AcDbPolyline
 90
        5
 70
     0
 43
0.0
 10
6.890697884587538
 20
6.588804783816121
 10
6.890697884587538
 20
5.768824179292174
 42
-0.280652925587636
 10
6.116251948618184
 20
4.692667204567172
 42
-0.0613205006313206
 10
5.718762386995763
 20
4.610282297149577
 10
5.267586892528456
 20
4.610282297149577
  0
LINE
  5
298F
102
{ACAD_REACTORS
330
2EBE
330
2EF6
102
}
330
2613
100
AcDbEntity
  8
Image
  6
Continuous
100
AcDbLine
 10
7.721019636618638
 20
6.281644344221327
 30
0.0
 11
8.180214671756871
 21
4.36598742709434
 31
0.0
  0
LINE
  5
2990
102
{ACAD_REACTORS
330
2EBE
102
}
330
2613
100
AcDbEntity
  8
Image
  6
Continuous
100
AcDbLine
 10
5.805362719491654
 20
6.281644344221327
 30
0.0
 11
5.306729296066389
 21
4.36598742709434
 31
0.0
  0
LINE
  5
2991
330
2613
100
AcDbEntity
  8
Image
  6
Continuous
100
AcDbLine
 10
5.306729296066389
 20
4.36598742709434
 30
0.0
 11
8.180214671756871
 21
4.36598742709434
 31
0.0
  0
LWPOLYLINE
  5
2992
102
{ACAD_REACTORS
330
2BC2
102
}
330
2613
100
AcDbEntity
  8
Image
  6
Continuous
100
AcDbPolyline
 90
        4
 70
     1
 43
0.0
 10
5.805362719491654
 20
6.478919212259288
 10
7.721019636618645
 20
6.478919212259288
 10
7.721019636618645
 20
6.281644344221327
 10
5.805362719491654
 20
6.281644344221327
  0
LINE
  5
2993
330
2613
100
AcDbEntity
  8
Image
  6
Continuous
100
AcDbLine
 10
5.805362719491654
 20
6.281644344221327
 30
0.0
 11
7.721019636618638
 21
6.281644344221327
 31
0.0
  0
LWPOLYLINE
  5
2994
330
2613
100
AcDbEntity
  8
Image
  6
Continuous
100
AcDbPolyline
 90
        5
 70
     0
 43
0.0
 10
6.736845507347958
 20
6.588804783816121
 10
6.736845507347958
 20
5.77490617648203
 42
-0.2779412082135212
 10
6.061493967372125
 20
4.836567814199653
 42
-0.0593552135674444
 10
5.712306641643383
 20
4.764134674389154
 10
5.267586892528456
 20
4.764134674389154
  0
LWPOLYLINE
  5
2995
330
2613
100
AcDbEntity
  8
Image
 62
     7
100
AcDbPolyline
 90
       10
 70
     0
 43
0.0
 10
7.093720417698754
 20
6.588804783816121
 10
7.093720417698754
 20
5.599657343211919
 10
7.093720417698754
 20
5.548990391406174
 42
0.4142135623730951
 10
7.107400135946843
 20
5.535310673158084
 10
7.186857267237218
 20
5.535310673158084
 10
7.186857267237218
 20
5.575820687328489
 10
7.147910150117251
 20
5.575820687328489
 42
-0.4142135623730951
 10
7.134230431869159
 20
5.589500405576579
 10
7.134230431869159
 20
5.599657343211919
 10
7.134230431869159
 20
6.588804783816121
  0
LWPOLYLINE
  5
2996
330
2613
100
AcDbEntity
  8
Image
 62
     7
100
AcDbPolyline
 90
       10
 70
     0
 43
0.0
 10
6.619483874972768
 20
6.588804783816121
 10
6.619483874972768
 20
5.599657343211919
 10
6.619483874972768
 20
5.548990391406174
 42
-0.4142135623730951
 10
6.60580415672468
 20
5.535310673158084
 10
6.526347025434308
 20
5.535310673158084
 10
6.526347025434308
 20
5.575820687328489
 10
6.565294142554272
 20
5.575820687328489
 42
0.4142135623730951
 10
6.578973860802364
 20
5.589500405576579
 10
6.578973860802364
 20
5.599657343211919
 10
6.578973860802364
 20
6.588804783816121
  0
LWPOLYLINE
  5
2997
330
2613
100
AcDbEntity
  8
Image
 62
     7
100
AcDbPolyline
 90
       10
 70
     0
 43
0.0
 10
6.476963094343798
 20
6.588804783816121
 10
6.476963094343798
 20
5.599657343211919
 10
6.476963094343798
 20
5.548990391406174
 42
-0.4142135623730951
 10
6.463283376095709
 20
5.535310673158084
 10
6.383826244805337
 20
5.535310673158084
 10
6.383826244805337
 20
5.575820687328489
 10
6.422773361925301
 20
5.575820687328489
 42
0.4142135623730951
 10
6.436453080173393
 20
5.589500405576579
 10
6.436453080173393
 20
5.599657343211919
 10
6.436453080173393
 20
6.588804783816121
  0
LINE
  5
2998
330
2613
100
AcDbEntity
  8
Image
100
AcDbLine
 10
5.754484942358761
 20
6.583646835191494
 30
0.0
 11
5.651640573447391
 21
6.281644344221327
 31
0.0
  0
LINE
  5
2999
330
2613
100
AcDbEntity
  8
Image
  6
Continuous
100
AcDbLine
 10
5.266181858482841
 20
6.281644344221327
 30
0.0
 11
5.805362719491654
 21
6.281644344221327
 31
0.0
  0
LINE
  5
299A
330
2613
100
AcDbEntity
  8
Image
100
AcDbLine
 10
5.76724483663095
 20
6.57485643597916
 30
0.0
 11
5.697066732899532
 21
6.281644344221332
 31
0.0
  0
LINE
  5
299B
330
2613
100
AcDbEntity
  8
Image
100
AcDbLine
 10
5.756871586022491
 20
6.597411212268218
 30
0.0
 11
5.783208823087196
 21
6.281644344221332
 31
0.0
  0
LINE
  5
299C
330
2613
100
AcDbEntity
  8
Image
100
AcDbLine
 10
5.760421856580794
 20
6.572415742612497
 30
0.0
 11
5.733162037981621
 21
6.281644344221327
 31
0.0
  0
LINE
  5
299D
330
2613
100
AcDbEntity
  8
Image
100
AcDbLine
 10
5.588918344473924
 20
6.529746883401035
 30
0.0
 11
5.388350154519628
 21
6.281644344221327
 31
0.0
  0
LINE
  5
299E
330
2613
100
AcDbEntity
  8
Image
100
AcDbLine
 10
5.551449889071033
 20
6.574856435979155
 30
0.0
 11
5.481271785339615
 21
6.281644344221327
 31
0.0
  0
LINE
  5
299F
330
2613
100
AcDbEntity
  8
Image
100
AcDbLine
 10
5.520768590109636
 20
6.548744478932299
 30
0.0
 11
5.447531456398554
 21
6.281644344221325
 31
0.0
  0
LINE
  5
29A0
330
2613
100
AcDbEntity
  8
Image
100
AcDbLine
 10
5.462485379167926
 20
6.608688600412765
 30
0.0
 11
5.618358823020283
 21
6.281644344221327
 31
0.0
  0
LINE
  5
29A1
330
2613
100
AcDbEntity
  8
Image
100
AcDbLine
 10
5.150828052286335
 20
6.608688600412765
 30
0.0
 11
5.306701496138675
 21
6.281644344221327
 31
0.0
  0
LINE
  5
29A2
330
2613
100
AcDbEntity
  8
Image
100
AcDbLine
 10
5.389778732565254
 20
6.597411212268216
 30
0.0
 11
5.416115969629956
 21
6.28164434422133
 31
0.0
  0
LINE
  5
29A3
330
2613
100
AcDbEntity
  8
Image
100
AcDbLine
 10
5.421435016527762
 20
6.577149995348538
 30
0.0
 11
5.345686972751128
 21
6.288360578450149
 31
0.0
  0
LINE
  5
29A4
330
2613
100
AcDbEntity
  8
Image
100
AcDbLine
 10
5.413041500323622
 20
6.548744478932301
 30
0.0
 11
5.339804366612547
 21
6.281644344221327
 31
0.0
  0
LINE
  5
29A5
330
2613
100
AcDbEntity
  8
Image
100
AcDbLine
 10
5.399159088917365
 20
6.59135275355665
 30
0.0
 11
5.361389770705734
 21
6.281644344221327
 31
0.0
  0
LINE
  5
29A6
330
2613
100
AcDbEntity
  8
Image
100
AcDbLine
 10
5.3293084362647
 20
6.597411212268216
 30
0.0
 11
5.355645673329394
 21
6.28164434422133
 31
0.0
  0
LINE
  5
29A7
330
2613
100
AcDbEntity
  8
Image
100
AcDbLine
 10
5.360964720227201
 20
6.577149995348538
 30
0.0
 11
5.285216676450566
 21
6.281644344221327
 31
0.0
  0
LINE
  5
29A8
330
2613
100
AcDbEntity
  8
Image
100
AcDbLine
 10
5.291006568647734
 20
6.631243376701817
 30
0.0
 11
5.291006568647734
 21
6.281644344221327
 31
0.0
  0
LINE
  5
29A9
330
2613
100
AcDbEntity
  8
Image
100
AcDbLine
 10
5.290706195385634
 20
6.567681489876456
 30
0.0
 11
5.317763763217875
 21
6.281644344221327
 31
0.0
  0
LINE
  5
29AA
330
2613
100
AcDbEntity
  8
Image
100
AcDbLine
 10
5.24736541208999
 20
6.619965988557291
 30
0.0
 11
5.328885431575969
 21
6.281644344221327
 31
0.0
  0
LINE
  5
29AB
330
2613
100
AcDbEntity
  8
Image
100
AcDbLine
 10
5.467011286895697
 20
6.631243376701817
 30
0.0
 11
5.467011286895697
 21
6.281644344221327
 31
0.0
  0
LINE
  5
29AC
330
2613
100
AcDbEntity
  8
Image
100
AcDbLine
 10
5.442182309399136
 20
6.631243376701817
 30
0.0
 11
5.442182309399136
 21
6.281644344221327
 31
0.0
  0
LINE
  5
29AD
330
2613
100
AcDbEntity
  8
Image
100
AcDbLine
 10
5.473511796624194
 20
6.548744478932301
 30
0.0
 11
5.400274662913112
 21
6.281644344221327
 31
0.0
  0
LINE
  5
29AE
330
2613
100
AcDbEntity
  8
Image
100
AcDbLine
 10
5.550334829668766
 20
6.59135275355665
 30
0.0
 11
5.51256551145714
 21
6.281644344221327
 31
0.0
  0
LINE
  5
29AF
330
2613
100
AcDbEntity
  8
Image
100
AcDbLine
 10
5.502652605699697
 20
6.631243376701817
 30
0.0
 11
5.502652605699697
 21
6.281644344221327
 31
0.0
  0
LINE
  5
29B0
330
2613
100
AcDbEntity
  8
Image
100
AcDbLine
 10
5.705472728326903
 20
6.631243376701819
 30
0.0
 11
5.705472728326903
 21
6.281644344221327
 31
0.0
  0
LINE
  5
29B1
330
2613
100
AcDbEntity
  8
Image
100
AcDbLine
 10
5.699107716871402
 20
6.572415742612498
 30
0.0
 11
5.671847898272226
 21
6.281644344221327
 31
0.0
  0
LINE
  5
29B2
330
2613
100
AcDbEntity
  8
Image
100
AcDbLine
 10
5.661532541999577
 20
6.591352753556654
 30
0.0
 11
5.623763223787943
 21
6.281644344221327
 31
0.0
  0
LINE
  5
29B3
330
2613
100
AcDbEntity
  8
Image
100
AcDbLine
 10
5.676331919251396
 20
6.548744478932304
 30
0.0
 11
5.603094785540317
 21
6.281644344221327
 31
0.0
  0
LINE
  5
29B4
330
2613
100
AcDbEntity
  8
Image
100
AcDbLine
 10
5.561814387526261
 20
6.567681489876456
 30
0.0
 11
5.588871955358499
 21
6.281644344221327
 31
0.0
  0
LINE
  5
29B5
330
2613
100
AcDbEntity
  8
Image
100
AcDbLine
 10
5.553380021729942
 20
6.631243376701819
 30
0.0
 11
5.553380021729942
 21
6.281644344221327
 31
0.0
  0
LINE
  5
29B6
330
2613
100
AcDbEntity
  8
Image
100
AcDbLine
 10
5.592598855192463
 20
6.597411212268218
 30
0.0
 11
5.618936092257165
 21
6.281644344221332
 31
0.0
  0
LINE
  5
29B7
330
2613
100
AcDbEntity
  8
Image
100
AcDbLine
 10
5.624255139154968
 20
6.577149995348539
 30
0.0
 11
5.545393843047275
 21
6.281644344221327
 31
0.0
  0
LINE
  5
29B8
330
2613
100
AcDbEntity
  8
Image
100
AcDbLine
 10
5.597934026929276
 20
6.619965988557291
 30
0.0
 11
5.679454046415262
 21
6.281644344221327
 31
0.0
  0
LWPOLYLINE
  5
29B9
330
2613
100
AcDbEntity
  8
Image
  6
Continuous
100
AcDbPolyline
 90
        2
 70
     0
 43
0.0
 10
6.890697884587538
 20
6.770877128584222
 10
6.890697884587538
 20
6.618591117970767
  0
LWPOLYLINE
  5
29BA
330
2613
100
AcDbEntity
  8
Image
  6
Continuous
100
AcDbPolyline
 90
        2
 70
     0
 43
0.0
 10
6.736845507347958
 20
6.770877128584222
 10
6.736845507347958
 20
6.618591117970767
  0
LWPOLYLINE
  5
29BB
330
2613
100
AcDbEntity
  8
Image
  6
Continuous
100
AcDbPolyline
 90
        4
 70
     1
 43
0.0
 10
6.550721218876571
 20
6.673533903749182
 10
6.645344783399877
 20
6.673533903749182
 10
6.645344783399877
 20
6.618591117970767
 10
6.550721218876571
 20
6.618591117970767
  0
LWPOLYLINE
  5
29BC
330
2613
100
AcDbEntity
  8
Image
  6
Continuous
100
AcDbPolyline
 90
        4
 70
     1
 43
0.0
 10
6.550721218876571
 20
6.533861998037703
 10
6.645344783399877
 20
6.533861998037703
 10
6.645344783399877
 20
6.478919212259288
 10
6.550721218876571
 20
6.478919212259288
  0
LWPOLYLINE
  5
29BD
330
2613
100
AcDbEntity
  8
Image
  6
Continuous
100
AcDbPolyline
 90
        4
 70
     1
 43
0.0
 10
6.550721218876571
 20
6.588804783816121
 10
6.645344783399877
 20
6.588804783816121
 10
6.645344783399877
 20
6.533861998037703
 10
6.550721218876571
 20
6.533861998037703
  0
LINE
  5
29BE
330
2613
100
AcDbEntity
  8
Image
  6
Continuous
 62
     7
100
AcDbLine
 10
6.316018437738911
 20
6.618591117970767
 30
0.0
 11
7.222574403082784
 21
6.618591117970767
 31
0.0
  0
LINE
  5
29BF
330
2613
100
AcDbEntity
  8
Image
  6
Continuous
 62
     7
100
AcDbLine
 10
6.316018437738911
 20
6.588804783816121
 30
0.0
 11
7.222574403082784
 21
6.588804783816121
 31
0.0
  0
LINE
  5
29C0
330
2613
100
AcDbEntity
  8
Image
100
AcDbLine
 10
5.778305151659413
 20
6.567681489876456
 30
0.0
 11
5.805362719491654
 21
6.281644344221327
 31
0.0
  0
LINE
  5
29C1
330
2613
100
AcDbEntity
  8
Image
100
AcDbLine
 10
5.788567069312847
 20
6.554895176931069
 30
0.0
 11
5.743399136658482
 21
6.281644344221327
 31
0.0
  0
LWPOLYLINE
  5
29C2
330
2613
100
AcDbEntity
  8
Image
  6
Continuous
100
AcDbPolyline
 90
        4
 70
     1
 43
0.0
 10
6.408200438247597
 20
6.588804783816121
 10
6.5028240027709
 20
6.588804783816121
 10
6.5028240027709
 20
6.533861998037703
 10
6.408200438247597
 20
6.533861998037703
  0
LWPOLYLINE
  5
29C3
330
2613
100
AcDbEntity
  8
Image
  6
Continuous
100
AcDbPolyline
 90
        4
 70
     1
 43
0.0
 10
6.408200438247597
 20
6.533861998037703
 10
6.5028240027709
 20
6.533861998037703
 10
6.5028240027709
 20
6.478919212259288
 10
6.408200438247597
 20
6.478919212259288
  0
LINE
  5
29C4
330
2613
100
AcDbEntity
  8
Image
  6
Continuous
100
AcDbLine
 10
6.316018437738911
 20
6.618591117970767
 30
0.0
 11
6.316018437738911
 21
6.588804783816121
 31
0.0
  0
LWPOLYLINE
  5
29C5
330
2613
100
AcDbEntity
  8
Image
 62
     7
100
AcDbPolyline
 90
        4
 70
     0
 43
0.0
 10
6.436453080173393
 20
6.618591117970765
 10
6.436453080173393
 20
6.690710831514573
 10
6.476963094343798
 20
6.690710831514573
 10
6.476963094343798
 20
6.618591117970765
  0
LWPOLYLINE
  5
29C6
330
2613
100
AcDbEntity
  8
Image
  6
Continuous
100
AcDbPolyline
 90
        4
 70
     1
 43
0.0
 10
6.408200438247597
 20
6.673533903749182
 10
6.5028240027709
 20
6.673533903749182
 10
6.5028240027709
 20
6.618591117970767
 10
6.408200438247597
 20
6.618591117970767
  0
LWPOLYLINE
  5
29C7
330
2613
100
AcDbEntity
  8
Image
 62
     7
100
AcDbPolyline
 90
        4
 70
     0
 43
0.0
 10
6.578973860802364
 20
6.618591117970765
 10
6.578973860802364
 20
6.690710831514573
 10
6.619483874972768
 20
6.690710831514573
 10
6.619483874972768
 20
6.618591117970765
  0
LWPOLYLINE
  5
29C8
330
2613
100
AcDbEntity
  8
Image
  6
Continuous
100
AcDbPolyline
 90
        4
 70
     1
 43
0.0
 10
7.065467775772958
 20
6.588804783816121
 10
7.160091340296261
 20
6.588804783816121
 10
7.160091340296261
 20
6.533861998037703
 10
7.065467775772958
 20
6.533861998037703
  0
LWPOLYLINE
  5
29C9
330
2613
100
AcDbEntity
  8
Image
  6
Continuous
100
AcDbPolyline
 90
        4
 70
     1
 43
0.0
 10
7.065467775772958
 20
6.533861998037703
 10
7.160091340296261
 20
6.533861998037703
 10
7.160091340296261
 20
6.478919212259288
 10
7.065467775772958
 20
6.478919212259288
  0
LWPOLYLINE
  5
29CA
330
2613
100
AcDbEntity
  8
Image
 62
     7
100
AcDbPolyline
 90
        4
 70
     0
 43
0.0
 10
7.093720417698754
 20
6.618591117970765
 10
7.093720417698754
 20
6.690710831514573
 10
7.134230431869159
 20
6.690710831514573
 10
7.134230431869159
 20
6.618591117970765
  0
LWPOLYLINE
  5
29CB
330
2613
100
AcDbEntity
  8
Image
  6
Continuous
100
AcDbPolyline
 90
        4
 70
     1
 43
0.0
 10
7.065467775772958
 20
6.672331746823196
 10
7.160091340296261
 20
6.672331746823196
 10
7.160091340296261
 20
6.617388961044781
 10
7.065467775772958
 20
6.617388961044781
  0
LINE
  5
29CC
330
2613
100
AcDbEntity
  8
Image
  6
Continuous
100
AcDbLine
 10
7.222574403082784
 20
6.618591117970767
 30
0.0
 11
7.222574403082784
 21
6.588804783816121
 31
0.0
  0
LINE
  5
29CD
330
2613
100
AcDbEntity
  8
Image
  6
Continuous
100
AcDbLine
 10
7.721019636618645
 20
6.281644344221327
 30
0.0
 11
8.242506702363137
 21
6.281644344221327
 31
0.0
  0
LINE
  5
29CE
330
2613
100
AcDbEntity
  8
Image
100
AcDbLine
 10
8.279016944020316
 20
6.619965988557291
 30
0.0
 11
8.19749692453433
 21
6.281644344221327
 31
0.0
  0
LINE
  5
29CF
330
2613
100
AcDbEntity
  8
Image
100
AcDbLine
 10
8.235676160724668
 20
6.567681489876456
 30
0.0
 11
8.208618592892428
 21
6.281644344221327
 31
0.0
  0
LINE
  5
29D0
330
2613
100
AcDbEntity
  8
Image
100
AcDbLine
 10
8.165417635883102
 20
6.577149995348538
 30
0.0
 11
8.241165679659737
 21
6.281644344221327
 31
0.0
  0
LINE
  5
29D1
330
2613
100
AcDbEntity
  8
Image
100
AcDbLine
 10
8.375554303823967
 20
6.608688600412765
 30
0.0
 11
8.219680859971628
 21
6.281644344221327
 31
0.0
  0
LINE
  5
29D2
330
2613
100
AcDbEntity
  8
Image
100
AcDbLine
 10
7.714676765727343
 20
6.55761836314771
 30
0.0
 11
7.874741782662912
 21
6.281644344221327
 31
0.0
  0
LINE
  5
29D3
330
2613
100
AcDbEntity
  8
Image
100
AcDbLine
 10
7.697823379769946
 20
6.57485643597916
 30
0.0
 11
7.768001483501372
 21
6.281644344221332
 31
0.0
  0
LINE
  5
29D4
330
2613
100
AcDbEntity
  8
Image
100
AcDbLine
 10
7.8272746392389
 20
6.572415742612498
 30
0.0
 11
7.854534457838077
 21
6.281644344221327
 31
0.0
  0
LINE
  5
29D5
330
2613
100
AcDbEntity
  8
Image
100
AcDbLine
 10
7.765960499529505
 20
6.572415742612497
 30
0.0
 11
7.793220318128682
 21
6.281644344221327
 31
0.0
  0
LINE
  5
29D6
330
2613
100
AcDbEntity
  8
Image
100
AcDbLine
 10
7.793479149799686
 20
6.597411212268218
 30
0.0
 11
7.767141912734981
 21
6.281644344221332
 31
0.0
  0
LINE
  5
29D7
330
2613
100
AcDbEntity
  8
Image
100
AcDbLine
 10
7.8209096277834
 20
6.631243376701819
 30
0.0
 11
7.8209096277834
 21
6.281644344221327
 31
0.0
  0
LINE
  5
29D8
330
2613
100
AcDbEntity
  8
Image
100
AcDbLine
 10
7.759137519479352
 20
6.57485643597916
 30
0.0
 11
7.829315623210771
 21
6.281644344221332
 31
0.0
  0
LINE
  5
29D9
330
2613
100
AcDbEntity
  8
Image
100
AcDbLine
 10
7.709746085740739
 20
6.548744478932304
 30
0.0
 11
7.782983219451821
 21
6.281644344221327
 31
0.0
  0
LINE
  5
29DA
330
2613
100
AcDbEntity
  8
Image
100
AcDbLine
 10
7.74807720445089
 20
6.567681489876456
 30
0.0
 11
7.721019636618649
 21
6.281644344221327
 31
0.0
  0
LINE
  5
29DB
330
2613
100
AcDbEntity
  8
Image
100
AcDbLine
 10
8.127223267192938
 20
6.59135275355665
 30
0.0
 11
8.164992585404569
 21
6.281644344221327
 31
0.0
  0
LINE
  5
29DC
330
2613
100
AcDbEntity
  8
Image
100
AcDbLine
 10
8.113340855786677
 20
6.548744478932301
 30
0.0
 11
8.186577989497752
 21
6.281644344221327
 31
0.0
  0
LINE
  5
29DD
330
2613
100
AcDbEntity
  8
Image
100
AcDbLine
 10
8.10494733958254
 20
6.577149995348538
 30
0.0
 11
8.180695383359175
 21
6.288360578450149
 31
0.0
  0
LINE
  5
29DE
330
2613
100
AcDbEntity
  8
Image
100
AcDbLine
 10
8.136603623545049
 20
6.597411212268216
 30
0.0
 11
8.110266386480351
 21
6.28164434422133
 31
0.0
  0
LINE
  5
29DF
330
2613
100
AcDbEntity
  8
Image
100
AcDbLine
 10
7.937464011636379
 20
6.529746883401035
 30
0.0
 11
8.138032201590675
 21
6.281644344221327
 31
0.0
  0
LINE
  5
29E0
330
2613
100
AcDbEntity
  8
Image
100
AcDbLine
 10
7.928448329181026
 20
6.619965988557291
 30
0.0
 11
7.846928309695037
 21
6.281644344221327
 31
0.0
  0
LINE
  5
29E1
330
2613
100
AcDbEntity
  8
Image
100
AcDbLine
 10
7.902127216955339
 20
6.577149995348539
 30
0.0
 11
7.980988513063028
 21
6.281644344221327
 31
0.0
  0
LINE
  5
29E2
330
2613
100
AcDbEntity
  8
Image
100
AcDbLine
 10
7.933783500917844
 20
6.597411212268218
 30
0.0
 11
7.907446263853138
 21
6.281644344221332
 31
0.0
  0
LINE
  5
29E3
330
2613
100
AcDbEntity
  8
Image
100
AcDbLine
 10
7.97300233438036
 20
6.631243376701819
 30
0.0
 11
7.97300233438036
 21
6.281644344221327
 31
0.0
  0
LINE
  5
29E4
330
2613
100
AcDbEntity
  8
Image
100
AcDbLine
 10
7.964567968584042
 20
6.567681489876456
 30
0.0
 11
7.937510400751804
 21
6.281644344221327
 31
0.0
  0
LINE
  5
29E5
330
2613
100
AcDbEntity
  8
Image
100
AcDbLine
 10
7.850050436858907
 20
6.548744478932304
 30
0.0
 11
7.923287570569989
 21
6.281644344221327
 31
0.0
  0
LINE
  5
29E6
330
2613
100
AcDbEntity
  8
Image
100
AcDbLine
 10
7.864849814110726
 20
6.591352753556654
 30
0.0
 11
7.90261913232236
 21
6.281644344221327
 31
0.0
  0
LINE
  5
29E7
330
2613
100
AcDbEntity
  8
Image
100
AcDbLine
 10
8.023729750410605
 20
6.631243376701817
 30
0.0
 11
8.023729750410605
 21
6.281644344221327
 31
0.0
  0
LINE
  5
29E8
330
2613
100
AcDbEntity
  8
Image
100
AcDbLine
 10
7.976047526441533
 20
6.59135275355665
 30
0.0
 11
8.013816844653163
 21
6.281644344221327
 31
0.0
  0
LINE
  5
29E9
330
2613
100
AcDbEntity
  8
Image
100
AcDbLine
 10
8.052870559486109
 20
6.548744478932301
 30
0.0
 11
8.126107693197194
 21
6.281644344221327
 31
0.0
  0
LINE
  5
29EA
330
2613
100
AcDbEntity
  8
Image
100
AcDbLine
 10
8.08420004671117
 20
6.631243376701817
 30
0.0
 11
8.08420004671117
 21
6.281644344221327
 31
0.0
  0
LINE
  5
29EB
330
2613
100
AcDbEntity
  8
Image
100
AcDbLine
 10
8.059371069214606
 20
6.631243376701817
 30
0.0
 11
8.059371069214606
 21
6.281644344221327
 31
0.0
  0
LINE
  5
29EC
330
2613
100
AcDbEntity
  8
Image
100
AcDbLine
 10
8.063896976942377
 20
6.608688600412765
 30
0.0
 11
7.90802353309002
 21
6.281644344221327
 31
0.0
  0
LINE
  5
29ED
330
2613
100
AcDbEntity
  8
Image
100
AcDbLine
 10
8.005613766000667
 20
6.548744478932299
 30
0.0
 11
8.078850899711746
 21
6.281644344221325
 31
0.0
  0
LINE
  5
29EE
330
2613
100
AcDbEntity
  8
Image
100
AcDbLine
 10
7.974932467039266
 20
6.574856435979155
 30
0.0
 11
8.045110570770692
 21
6.281644344221327
 31
0.0
  0
LINE
  5
29EF
330
2613
100
AcDbEntity
  8
Image
100
AcDbLine
 10
8.197073919845607
 20
6.597411212268216
 30
0.0
 11
8.170736682780908
 21
6.28164434422133
 31
0.0
  0
LINE
  5
29F0
330
2613
100
AcDbEntity
  8
Image
100
AcDbLine
 10
8.235375787462565
 20
6.631243376701817
 30
0.0
 11
8.235375787462565
 21
6.281644344221327
 31
0.0
  0
INSERT
  5
2B5D
330
2613
100
AcDbEntity
  8
TEXT_BUBBLES
100
AcDbBlockReference
 66
     1
  2
bubble
 10
10.55177801229765
 20
8.753669202999713
 30
0.0
  0
ATTRIB
  5
2B5E
330
2B5D
100
AcDbEntity
  8
TEXT_BUBBLES
100
AcDbText
 10
10.50118277420241
 20
8.691169202999713
 30
0.0
 40
0.125
  1
1
  7
ROMANS
 72
     4
 11
10.55177801229765
 21
8.753669202999713
 31
0.0
100
AcDbAttribute
  2
XX
 70
     0
  0
SEQEND
  5
2B5F
330
2B5D
100
AcDbEntity
  8
TEXT_BUBBLES
  0
INSERT
  5
2B60
330
2613
100
AcDbEntity
  8
TEXT_BUBBLES
100
AcDbBlockReference
 66
     1
  2
bubble
 10
10.55177801229765
 20
8.108952767723852
 30
0.0
  0
ATTRIB
  5
2B61
330
2B60
100
AcDbEntity
  8
TEXT_BUBBLES
100
AcDbText
 10
10.49225420277384
 20
8.046452767723852
 30
0.0
 40
0.125
  1
2
  7
ROMANS
 72
     4
 11
10.55177801229765
 21
8.108952767723852
 31
0.0
100
AcDbAttribute
  2
XX
 70
     0
  0
SEQEND
  5
2B62
330
2B60
100
AcDbEntity
  8
TEXT_BUBBLES
  0
INSERT
  5
2B63
330
2613
100
AcDbEntity
  8
TEXT_BUBBLES
100
AcDbBlockReference
 66
     1
  2
bubble
 10
10.55177801229765
 20
7.683329695678397
 30
0.0
  0
ATTRIB
  5
2B64
330
2B63
100
AcDbEntity
  8
TEXT_BUBBLES
100
AcDbText
 10
10.49225420277384
 20
7.620829695678397
 30
0.0
 40
0.125
  1
3
  7
ROMANS
 72
     4
 11
10.55177801229765
 21
7.683329695678397
 31
0.0
100
AcDbAttribute
  2
XX
 70
     0
  0
SEQEND
  5
2B65
330
2B63
100
AcDbEntity
  8
TEXT_BUBBLES
  0
INSERT
  5
2B66
330
2613
100
AcDbEntity
  8
TEXT_BUBBLES
100
AcDbBlockReference
 66
     1
  2
bubble
 10
10.55177801229765
 20
7.060159517412264
 30
0.0
  0
ATTRIB
  5
2B67
330
2B66
100
AcDbEntity
  8
TEXT_BUBBLES
100
AcDbText
 10
10.48927801229764
 20
6.997659517412264
 30
0.0
 40
0.125
  1
4
  7
ROMANS
 72
     4
 11
10.55177801229765
 21
7.060159517412264
 31
0.0
100
AcDbAttribute
  2
XX
 70
     0
  0
SEQEND
  5
2B68
330
2B66
100
AcDbEntity
  8
TEXT_BUBBLES
  0
INSERT
  5
2B69
330
2613
100
AcDbEntity
  8
TEXT_BUBBLES
100
AcDbBlockReference
 66
     1
  2
bubble
 10
10.55177801229765
 20
6.63859975865569
 30
0.0
  0
ATTRIB
  5
2B6A
330
2B69
100
AcDbEntity
  8
TEXT_BUBBLES
100
AcDbText
 10
10.49225420277384
 20
6.57609975865569
 30
0.0
 40
0.125
  1
5
  7
ROMANS
 72
     4
 11
10.55177801229765
 21
6.63859975865569
 31
0.0
100
AcDbAttribute
  2
XX
 70
     0
  0
SEQEND
  5
2B6B
330
2B69
100
AcDbEntity
  8
TEXT_BUBBLES
  0
INSERT
  5
2B6C
330
2613
100
AcDbEntity
  8
TEXT_BUBBLES
100
AcDbBlockReference
 66
     1
  2
bubble
 10
10.55177801229765
 20
6.221938000589517
 30
0.0
  0
ATTRIB
  5
2B6D
330
2B6C
100
AcDbEntity
  8
TEXT_BUBBLES
100
AcDbText
 10
10.48927801229764
 20
6.159438000589517
 30
0.0
 40
0.125
  1
6
  7
ROMANS
 72
     4
 11
10.55177801229765
 21
6.221938000589517
 31
0.0
100
AcDbAttribute
  2
XX
 70
     0
  0
SEQEND
  5
2B6E
330
2B6C
100
AcDbEntity
  8
TEXT_BUBBLES
  0
INSERT
  5
2B6F
330
2613
100
AcDbEntity
  8
TEXT_BUBBLES
100
AcDbBlockReference
 66
     1
  2
bubble
 10
10.55177801229765
 20
5.785627964938463
 30
0.0
  0
ATTRIB
  5
2B70
330
2B6F
100
AcDbEntity
  8
TEXT_BUBBLES
100
AcDbText
 10
10.49225420277384
 20
5.723127964938463
 30
0.0
 40
0.125
  1
7
  7
ROMANS
 72
     4
 11
10.55177801229765
 21
5.785627964938463
 31
0.0
100
AcDbAttribute
  2
XX
 70
     0
  0
SEQEND
  5
2B71
330
2B6F
100
AcDbEntity
  8
TEXT_BUBBLES
  0
INSERT
  5
2B72
330
2613
100
AcDbEntity
  8
TEXT_BUBBLES
100
AcDbBlockReference
 66
     1
  2
bubble
 10
10.55177801229765
 20
5.13337032717232
 30
0.0
  0
ATTRIB
  5
2B73
330
2B72
100
AcDbEntity
  8
TEXT_BUBBLES
100
AcDbText
 10
10.49225420277384
 20
5.07087032717232
 30
0.0
 40
0.125
  1
8
  7
ROMANS
 72
     4
 11
10.55177801229765
 21
5.13337032717232
 31
0.0
100
AcDbAttribute
  2
XX
 70
     0
  0
SEQEND
  5
2B74
330
2B72
100
AcDbEntity
  8
TEXT_BUBBLES
  0
INSERT
  5
2B75
330
2613
100
AcDbEntity
  8
TEXT_BUBBLES
100
AcDbBlockReference
 66
     1
  2
bubble
 10
10.55177801229765
 20
4.715992249022406
 30
0.0
  0
ATTRIB
  5
2B76
330
2B75
100
AcDbEntity
  8
TEXT_BUBBLES
100
AcDbText
 10
10.49523039325003
 20
4.653492249022406
 30
0.0
 40
0.125
  1
9
  7
ROMANS
 72
     4
 11
10.55177801229765
 21
4.715992249022406
 31
0.0
100
AcDbAttribute
  2
XX
 70
     0
  0
SEQEND
  5
2B77
330
2B75
100
AcDbEntity
  8
TEXT_BUBBLES
  0
INSERT
  5
2B78
330
2613
100
AcDbEntity
  8
TEXT_BUBBLES
100
AcDbBlockReference
 66
     1
  2
bubble
 10
10.55177801229765
 20
4.30104314887512
 30
0.0
  0
ATTRIB
  5
2B79
330
2B78
100
AcDbEntity
  8
TEXT_BUBBLES
100
AcDbText
 10
10.42380182182146
 20
4.23854314887512
 30
0.0
 40
0.125
  1
10
  7
ROMANS
 72
     4
 11
10.55177801229765
 21
4.30104314887512
 31
0.0
100
AcDbAttribute
  2
XX
 70
     0
  0
SEQEND
  5
2B7A
330
2B78
100
AcDbEntity
  8
TEXT_BUBBLES
  0
INSERT
  5
2B7B
330
2613
100
AcDbEntity
  8
TEXT_BUBBLES
100
AcDbBlockReference
 66
     1
  2
bubble
 10
10.55177801229765
 20
3.883141657606673
 30
0.0
  0
ATTRIB
  5
2B7C
330
2B7B
100
AcDbEntity
  8
TEXT_BUBBLES
100
AcDbText
 10
10.4416589646786
 20
3.820641657606673
 30
0.0
 40
0.125
  1
11
  7
ROMANS
 72
     4
 11
10.55177801229765
 21
3.883141657606673
 31
0.0
100
AcDbAttribute
  2
XX
 70
     0
  0
SEQEND
  5
2B7D
330
2B7B
100
AcDbEntity
  8
TEXT_BUBBLES
  0
INSERT
  5
2B7E
330
2613
100
AcDbEntity
  8
TEXT_BUBBLES
100
AcDbBlockReference
 66
     1
  2
bubble
 10
10.55177801229765
 20
3.466245478103513
 30
0.0
  0
ATTRIB
  5
2B7F
330
2B7E
100
AcDbEntity
  8
TEXT_BUBBLES
100
AcDbText
 10
10.42380182182146
 20
3.403745478103513
 30
0.0
 40
0.125
  1
12
  7
ROMANS
 72
     4
 11
10.55177801229765
 21
3.466245478103513
 31
0.0
100
AcDbAttribute
  2
XX
 70
     0
  0
SEQEND
  5
2B80
330
2B7E
100
AcDbEntity
  8
TEXT_BUBBLES
  0
INSERT
  5
2B87
330
2613
100
AcDbEntity
  8
TEXT_BUBBLES
100
AcDbBlockReference
 66
     1
  2
bubble
 10
8.161201524579489
 20
5.774279137618152
 30
0.0
  0
ATTRIB
  5
2B88
330
2B87
100
AcDbEntity
  8
TEXT_BUBBLES
100
AcDbText
 10
8.033225334103299
 20
5.711779137618152
 30
0.0
 40
0.125
  1
10
  7
ROMANS
 72
     4
 11
8.161201524579489
 21
5.774279137618152
 31
0.0
100
AcDbAttribute
  2
XX
 70
     0
  0
SEQEND
  5
2B89
330
2B87
100
AcDbEntity
  8
TEXT_BUBBLES
  0
INSERT
  5
2B8A
330
2613
100
AcDbEntity
  8
TEXT_BUBBLES
 62
    42
100
AcDbBlockReference
  2
wid
 10
0.2005554499085278
 20
-0.1313755254834685
 30
0.0
  0
INSERT
  5
2B8B
330
2613
100
AcDbEntity
  8
TEXT_BUBBLES
 62
    42
100
AcDbBlockReference
  2
wid
 10
0.2005554499085278
 20
-0.1313755254834685
 30
0.0
  0
LWPOLYLINE
  5
2B8C
330
2613
100
AcDbEntity
  8
Image
 62
    42
100
AcDbPolyline
 90
        4
 70
     1
 43
0.0
 10
0.0
 20
0.0
 10
16.49
 20
0.0000000000000002
 10
16.49
 20
10.44
 10
0.0
 20
10.44
  0
INSERT
  5
2B8D
330
2613
100
AcDbEntity
  8
TEXT_BUBBLES
 62
    42
100
AcDbBlockReference
 66
     1
  2
TITLBLK
 10
0.6064423705144826
 20
0.8842270964783676
 30
0.0
  0
ATTRIB
  5
2B8E
330
2B8D
100
AcDbEntity
  8
TITLE
100
AcDbText
 10
1.231442370514482
 20
0.9842270964783672
 30
0.0
 40
0.2
  1
EXTERNAL WIRE CONNECTION
  7
L200
100
AcDbAttribute
  2
TITLE2
 70
     0
  0
ATTRIB
  5
2B8F
330
2B8D
100
AcDbEntity
  8
TITLE
100
AcDbText
 10
0.3733591508691892
 20
0.7855913529585854
 30
0.0
 40
0.2
  1
302
  7
L200
 72
     4
 11
0.6064423705144826
 21
0.8842270964783672
 31
0.0
100
AcDbAttribute
  2
#
 70
     0
  0
ATTRIB
  5
2B90
330
2B8D
100
AcDbEntity
  8
TITLE
 62
     7
100
AcDbText
 10
1.231442370514482
 20
0.7005637793954893
 30
0.0
 40
0.1
  1
N.T.S.
  7
L100
100
AcDbAttribute
  2
SCALE
 70
     0
  0
ATTRIB
  5
2B91
330
2B8D
100
AcDbEntity
  8
TITLE
100
AcDbText
 10
2.713645751168311
 20
0.5927927664583188
 30
0.0
 40
0.2
  1
INSTALLATION
  7
L200
100
AcDbAttribute
  2
TITLE3
 70
     0
  0
ATTRIB
  5
2B92
330
2B8D
100
AcDbEntity
  8
TITLE
 62
     7
100
AcDbText
 10
0.2637221893847721
 20
0.0249383214914838
 30
0.0
 40
0.08
  1
302-WS WIRING-VB.DWG
  7
L80
 72
     2
 11
1.760865046527629
 21
0.0249383214914838
 31
0.0
100
AcDbAttribute
  2
DWG-NAME
 70
     0
  0
ATTRIB
  5
2B93
330
2B8D
100
AcDbEntity
  8
TITLE
 62
     7
100
AcDbText
 10
7.689595782347334
 20
0.9696027915446396
 30
0.0
 40
0.08
  1
1-15-04
  7
L80
 72
     2
 11
8.261024353775905
 21
0.9696027915446396
 31
0.0
100
AcDbAttribute
  2
REVISED
 70
     0
  0
ATTRIB
  5
2B94
330
2B8D
100
AcDbEntity
  8
TITLE
100
AcDbText
 10
1.231442370514482
 20
1.34371230274675
 30
0.0
 40
0.2
  1
MAXICOM WEATHER STATION
  7
L200
100
AcDbAttribute
  2
TITLE1
 70
     0
  0
ATTRIB
  5
2B95
330
2B8D
100
AcDbEntity
  8
TITLE
100
AcDbText
 10
2.713645751168311
 20
0.2692560808167741
 30
0.0
 40
0.2
  1

  7
L200
100
AcDbAttribute
  2
TITLE4
 70
     0
  0
SEQEND
  5
2B96
330
2B8D
100
AcDbEntity
  8
TEXT_BUBBLES
 62
    40
  0
MTEXT
  5
2BA5
330
2613
100
AcDbEntity
  8
TEXT_BUBBLES
100
AcDbMText
 10
11.01827340268564
 20
8.809954949757464
 30
0.0
 40
0.125
 41
4.709999999999999
 71
     1
 72
     5
  3
PE-CABLE FOR TELEPHONE/DIRECT CONNECT COMMUNICATION\P\P16 VAC FROM SUPPLIED TRANSFORMER\P\PPREFORMED SUPER SERVISEAL WATERPROOF WIRE SPLICE KIT\P\PWIRE NUT CONNECTOR\P\PFINISH GRADE\P\PVALVE BOX WITH COVER - 12-INCH SIZE\P\P3.0-INCH MINIMUM DEPTH OF 
  3
3/4-INCH WASHED GRAVEL\P\PBRICK (1 OF 4)\P\PWEATHER STATION TEMPLATE\P\PWEATHER STATION ANCHOR BOLTS\P\PCONCRETE PAD. REFER TO MAXICOM DETAIL 300\P\PGROUND WIRE TO GROUND RODS. SEE MAXICOM DETAIL 305\P\P{\Fsimplex.shx;TWO (2) LONG SWEEP ELBOWS (ONE H
  1
IDDEN WITH COMMUNICATION WIRE). ORIENT PROPERLY FOR WIRING (SIZE AS REQUIRED)}
  7
ROMANS
 73
     1
 44
1.0
  0
DIMENSION
  5
2BA9
102
{ACAD_XDICTIONARY
360
2BB7
102
}
102
{ACAD_REACTORS
330
2BC2
102
}
330
2613
100
AcDbEntity
  8
Image
  6
Continuous
100
AcDbDimension
  2
*D4
 10
5.805362719491654
 20
7.080906703665378
 30
0.0
 11
4.761872912523491
 21
7.080906703665378
 31
0.0
 70
    32
  1
MAXIMUM 2 FEET
 71
     5
 42
2.086979613936325
  3
STANDARD
100
AcDbAlignedDimension
 13
3.718383105555329
 23
6.289654707303609
 33
0.0
 14
5.805362719491654
 24
6.478919212259288
 34
0.0
100
AcDbRotatedDimension
1001
ACAD
1000
DSTYLE
1002
{
1070
   340
1005
2657
1070
   140
1040
0.125
1002
}
  0
POLYLINE
  5
2C2E
330
2613
100
AcDbEntity
  8
Image
  6
Continuous
100
AcDb2dPolyline
 66
     1
 10
0.0
 20
0.0
 30
0.0
 70
     4
  0
VERTEX
  5
2C2F
330
2C2E
100
AcDbEntity
  8
Image
  6
Continuous
100
AcDbVertex
100
AcDb2dVertex
 10
3.150994119145547
 20
5.451804813333124
 30
0.0
 70
    16
  0
VERTEX
  5
2C40
330
2C2E
100
AcDbEntity
  8
Image
  6
Continuous
100
AcDbVertex
100
AcDb2dVertex
 10
3.150994119145543
 20
5.451804813333124
 30
0.0
 70
     8
  0
VERTEX
  5
2C41
330
2C2E
100
AcDbEntity
  8
Image
  6
Continuous
100
AcDbVertex
100
AcDb2dVertex
 10
3.155678446516802
 20
5.339903346220634
 30
0.0
 70
     8
  0
VERTEX
  5
2C42
330
2C2E
100
AcDbEntity
  8
Image
  6
Continuous
100
AcDbVertex
100
AcDb2dVertex
 10
3.160858303461306
 20
5.241519677321555
 30
0.0
 70
     8
  0
VERTEX
  5
2C43
330
2C2E
100
AcDbEntity
  8
Image
  6
Continuous
100
AcDbVertex
100
AcDb2dVertex
 10
3.166484831359824
 20
5.154968571422482
 30
0.0
 70
     8
  0
VERTEX
  5
2C44
330
2C2E
100
AcDbEntity
  8
Image
  6
Continuous
100
AcDbVertex
100
AcDb2dVertex
 10
3.172509171593127
 20
5.078564793310007
 30
0.0
 70
     8
  0
VERTEX
  5
2C45
330
2C2E
100
AcDbEntity
  8
Image
  6
Continuous
100
AcDbVertex
100
AcDb2dVertex
 10
3.178882465541985
 20
5.010623107770722
 30
0.0
 70
     8
  0
VERTEX
  5
2C46
330
2C2E
100
AcDbEntity
  8
Image
  6
Continuous
100
AcDbVertex
100
AcDb2dVertex
 10
3.185555854587171
 20
4.949458279591219
 30
0.0
 70
     8
  0
VERTEX
  5
2C47
330
2C2E
100
AcDbEntity
  8
Image
  6
Continuous
100
AcDbVertex
100
AcDb2dVertex
 10
3.192480480109452
 20
4.893385073558091
 30
0.0
 70
     8
  0
VERTEX
  5
2C48
330
2C2E
100
AcDbEntity
  8
Image
  6
Continuous
100
AcDbVertex
100
AcDb2dVertex
 10
3.199607483489604
 20
4.840718254457931
 30
0.0
 70
     8
  0
VERTEX
  5
2C49
330
2C2E
100
AcDbEntity
  8
Image
  6
Continuous
100
AcDbVertex
100
AcDb2dVertex
 10
3.206896872003955
 20
4.790061698911209
 30
0.0
 70
     8
  0
VERTEX
  5
2C4A
330
2C2E
100
AcDbEntity
  8
Image
  6
Continuous
100
AcDbVertex
100
AcDb2dVertex
 10
3.214344116511114
 20
4.741175730873912
 30
0.0
 70
     8
  0
VERTEX
  5
2C4B
330
2C2E
100
AcDbEntity
  8
Image
  6
Continuous
100
AcDbVertex
100
AcDb2dVertex
 10
3.221953553765242
 20
4.694109786135902
 30
0.0
 70
     8
  0
VERTEX
  5
2C4C
330
2C2E
100
AcDbEntity
  8
Image
  6
Continuous
100
AcDbVertex
100
AcDb2dVertex
 10
3.229729520520514
 20
4.648913300487047
 30
0.0
 70
     8
  0
VERTEX
  5
2C4D
330
2C2E
100
AcDbEntity
  8
Image
  6
Continuous
100
AcDbVertex
100
AcDb2dVertex
 10
3.237676353531096
 20
4.605635709717207
 30
0.0
 70
     8
  0
VERTEX
  5
2C4E
330
2C2E
100
AcDbEntity
  8
Image
  6
Continuous
100
AcDbVertex
100
AcDb2dVertex
 10
3.245798389551154
 20
4.564326449616247
 30
0.0
 70
     8
  0
VERTEX
  5
2C4F
330
2C2E
100
AcDbEntity
  8
Image
  6
Continuous
100
AcDbVertex
100
AcDb2dVertex
 10
3.254099965334855
 20
4.525034955974032
 30
0.0
 70
     8
  0
VERTEX
  5
2C50
330
2C2E
100
AcDbEntity
  8
Image
  6
Continuous
100
AcDbVertex
100
AcDb2dVertex
 10
3.262585417636373
 20
4.487810664580427
 30
0.0
 70
     8
  0
VERTEX
  5
2C51
330
2C2E
100
AcDbEntity
  8
Image
  6
Continuous
100
AcDbVertex
100
AcDb2dVertex
 10
3.271276698746373
 20
4.452680419160673
 30
0.0
 70
     8
  0
VERTEX
  5
2C52
330
2C2E
100
AcDbEntity
  8
Image
  6
Continuous
100
AcDbVertex
100
AcDb2dVertex
 10
3.280266223101556
 20
4.419580695181522
 30
0.0
 70
     8
  0
VERTEX
  5
2C53
330
2C2E
100
AcDbEntity
  8
Image
  6
Continuous
100
AcDbVertex
100
AcDb2dVertex
 10
3.289664020675118
 20
4.388425376045102
 30
0.0
 70
     8
  0
VERTEX
  5
2C54
330
2C2E
100
AcDbEntity
  8
Image
  6
Continuous
100
AcDbVertex
100
AcDb2dVertex
 10
3.299580121440257
 20
4.359128345153541
 30
0.0
 70
     8
  0
VERTEX
  5
2C55
330
2C2E
100
AcDbEntity
  8
Image
  6
Continuous
100
AcDbVertex
100
AcDb2dVertex
 10
3.310124555370176
 20
4.331603485908971
 30
0.0
 70
     8
  0
VERTEX
  5
2C56
330
2C2E
100
AcDbEntity
  8
Image
  6
Continuous
100
AcDbVertex
100
AcDb2dVertex
 10
3.321407352438072
 20
4.305764681713519
 30
0.0
 70
     8
  0
VERTEX
  5
2C57
330
2C2E
100
AcDbEntity
  8
Image
  6
Continuous
100
AcDbVertex
100
AcDb2dVertex
 10
3.333538542617144
 20
4.281525815969313
 30
0.0
 70
     8
  0
VERTEX
  5
2C58
330
2C2E
100
AcDbEntity
  8
Image
  6
Continuous
100
AcDbVertex
100
AcDb2dVertex
 10
3.346628155880594
 20
4.258800772078485
 30
0.0
 70
     8
  0
VERTEX
  5
2C59
330
2C2E
100
AcDbEntity
  8
Image
  6
Continuous
100
AcDbVertex
100
AcDb2dVertex
 10
3.360760546897665
 20
4.237495042279947
 30
0.0
 70
     8
  0
VERTEX
  5
2C5A
330
2C2E
100
AcDbEntity
  8
Image
  6
Continuous
100
AcDbVertex
100
AcDb2dVertex
 10
3.375917369121804
 20
4.217480554159758
 30
0.0
 70
     8
  0
VERTEX
  5
2C5B
330
2C2E
100
AcDbEntity
  8
Image
  6
Continuous
100
AcDbVertex
100
AcDb2dVertex
 10
3.3920546007025
 20
4.198620844140759
 30
0.0
 70
     8
  0
VERTEX
  5
2C5C
330
2C2E
100
AcDbEntity
  8
Image
  6
Continuous
100
AcDbVertex
100
AcDb2dVertex
 10
3.409128219789248
 20
4.180779448645797
 30
0.0
 70
     8
  0
VERTEX
  5
2C5D
330
2C2E
100
AcDbEntity
  8
Image
  6
Continuous
100
AcDbVertex
100
AcDb2dVertex
 10
3.427094204531535
 20
4.16381990409771
 30
0.0
 70
     8
  0
VERTEX
  5
2C5E
330
2C2E
100
AcDbEntity
  8
Image
  6
Continuous
100
AcDbVertex
100
AcDb2dVertex
 10
3.445908533078856
 20
4.147605746919346
 30
0.0
 70
     8
  0
VERTEX
  5
2C5F
330
2C2E
100
AcDbEntity
  8
Image
  6
Continuous
100
AcDbVertex
100
AcDb2dVertex
 10
3.465527183580704
 20
4.132000513533546
 30
0.0
 70
     8
  0
VERTEX
  5
2C60
330
2C2E
100
AcDbEntity
  8
Image
  6
Continuous
100
AcDbVertex
100
AcDb2dVertex
 10
3.485906134186567
 20
4.116867740363153
 30
0.0
 70
     8
  0
VERTEX
  5
2C61
330
2C2E
100
AcDbEntity
  8
Image
  6
Continuous
100
AcDbVertex
100
AcDb2dVertex
 10
3.50701428347342
 20
4.102116111474666
 30
0.0
 70
     8
  0
VERTEX
  5
2C62
330
2C2E
100
AcDbEntity
  8
Image
  6
Continuous
100
AcDbVertex
100
AcDb2dVertex
 10
3.528872211728163
 20
4.087834901509213
 30
0.0
 70
     8
  0
VERTEX
  5
2C63
330
2C2E
100
AcDbEntity
  8
Image
  6
Continuous
100
AcDbVertex
100
AcDb2dVertex
 10
3.551513419665173
 20
4.07415853275158
 30
0.0
 70
     8
  0
VERTEX
  5
2C64
330
2C2E
100
AcDbEntity
  8
Image
  6
Continuous
100
AcDbVertex
100
AcDb2dVertex
 10
3.57497140799883
 20
4.061221427486549
 30
0.0
 70
     8
  0
VERTEX
  5
2C65
330
2C2E
100
AcDbEntity
  8
Image
  6
Continuous
100
AcDbVertex
100
AcDb2dVertex
 10
3.599279677443515
 20
4.049158007998904
 30
0.0
 70
     8
  0
VERTEX
  5
2C66
330
2C2E
100
AcDbEntity
  8
Image
  6
Continuous
100
AcDbVertex
100
AcDb2dVertex
 10
3.624471728713604
 20
4.038102696573432
 30
0.0
 70
     8
  0
VERTEX
  5
2C67
330
2C2E
100
AcDbEntity
  8
Image
  6
Continuous
100
AcDbVertex
100
AcDb2dVertex
 10
3.650581062523482
 20
4.028189915494914
 30
0.0
 70
     8
  0
VERTEX
  5
2C68
330
2C2E
100
AcDbEntity
  8
Image
  6
Continuous
100
AcDbVertex
100
AcDb2dVertex
 10
3.677641179587528
 20
4.019554087048136
 30
0.0
 70
     8
  0
VERTEX
  5
2C69
330
2C2E
100
AcDbEntity
  8
Image
  6
Continuous
100
AcDbVertex
100
AcDb2dVertex
 10
3.705745572604964
 20
4.012295553516006
 30
0.0
 70
     8
  0
VERTEX
  5
2C6A
330
2C2E
100
AcDbEntity
  8
Image
  6
Continuous
100
AcDbVertex
100
AcDb2dVertex
 10
3.735227702214409
 20
4.006378337173934
 30
0.0
 70
     8
  0
VERTEX
  5
2C6B
330
2C2E
100
AcDbEntity
  8
Image
  6
Continuous
100
AcDbVertex
100
AcDb2dVertex
 10
3.766481021039329
 20
4.001732380295456
 30
0.0
 70
     8
  0
VERTEX
  5
2C6C
330
2C2E
100
AcDbEntity
  8
Image
  6
Continuous
100
AcDbVertex
100
AcDb2dVertex
 10
3.79989898170319
 20
3.998287625154103
 30
0.0
 70
     8
  0
VERTEX
  5
2C6D
330
2C2E
100
AcDbEntity
  8
Image
  6
Continuous
100
AcDbVertex
100
AcDb2dVertex
 10
3.835875036829449
 20
3.995974014023412
 30
0.0
 70
     8
  0
VERTEX
  5
2C6E
330
2C2E
100
AcDbEntity
  8
Image
  6
Continuous
100
AcDbVertex
100
AcDb2dVertex
 10
3.874802639041575
 20
3.994721489176915
 30
0.0
 70
     8
  0
VERTEX
  5
2C6F
330
2C2E
100
AcDbEntity
  8
Image
  6
Continuous
100
AcDbVertex
100
AcDb2dVertex
 10
3.917075240963033
 20
3.994459992888149
 30
0.0
 70
     8
  0
VERTEX
  5
2C70
330
2C2E
100
AcDbEntity
  8
Image
  6
Continuous
100
AcDbVertex
100
AcDb2dVertex
 10
3.963086295217284
 20
3.995119467430645
 30
0.0
 70
     8
  0
VERTEX
  5
2C71
330
2C2E
100
AcDbEntity
  8
Image
  6
Continuous
100
AcDbVertex
100
AcDb2dVertex
 10
4.012968156424026
 20
3.996658962269183
 30
0.0
 70
     8
  0
VERTEX
  5
2C72
330
2C2E
100
AcDbEntity
  8
Image
  6
Continuous
100
AcDbVertex
100
AcDb2dVertex
 10
4.065808787187897
 20
3.999153955633519
 30
0.0
 70
     8
  0
VERTEX
  5
2C73
330
2C2E
100
AcDbEntity
  8
Image
  6
Continuous
100
AcDbVertex
100
AcDb2dVertex
 10
4.120435052109755
 20
4.002709032944649
 30
0.0
 70
     8
  0
VERTEX
  5
2C74
330
2C2E
100
AcDbEntity
  8
Image
  6
Continuous
100
AcDbVertex
100
AcDb2dVertex
 10
4.175673815790467
 20
4.00742877962357
 30
0.0
 70
     8
  0
VERTEX
  5
2C75
330
2C2E
100
AcDbEntity
  8
Image
  6
Continuous
100
AcDbVertex
100
AcDb2dVertex
 10
4.230351942830903
 20
4.013417781091281
 30
0.0
 70
     8
  0
VERTEX
  5
2C76
330
2C2E
100
AcDbEntity
  8
Image
  6
Continuous
100
AcDbVertex
100
AcDb2dVertex
 10
4.283296297831924
 20
4.020780622768779
 30
0.0
 70
     8
  0
VERTEX
  5
2C77
330
2C2E
100
AcDbEntity
  8
Image
  6
Continuous
100
AcDbVertex
100
AcDb2dVertex
 10
4.333333745394398
 20
4.029621890077063
 30
0.0
 70
     8
  0
VERTEX
  5
2C78
330
2C2E
100
AcDbEntity
  8
Image
  6
Continuous
100
AcDbVertex
100
AcDb2dVertex
 10
4.37929115011919
 20
4.040046168437132
 30
0.0
 70
     8
  0
VERTEX
  5
2C79
330
2C2E
100
AcDbEntity
  8
Image
  6
Continuous
100
AcDbVertex
100
AcDb2dVertex
 10
4.420288614540481
 20
4.05215623824872
 30
0.0
 70
     8
  0
VERTEX
  5
2C7A
330
2C2E
100
AcDbEntity
  8
Image
  6
Continuous
100
AcDbVertex
100
AcDb2dVertex
 10
4.456619192925728
 20
4.066047659826516
 30
0.0
 70
     8
  0
VERTEX
  5
2C7B
330
2C2E
100
AcDbEntity
  8
Image
  6
Continuous
100
AcDbVertex
100
AcDb2dVertex
 10
4.488869177475702
 20
4.081814188463942
 30
0.0
 70
     8
  0
VERTEX
  5
2C7C
330
2C2E
100
AcDbEntity
  8
Image
  6
Continuous
100
AcDbVertex
100
AcDb2dVertex
 10
4.517624860391176
 20
4.099549579454427
 30
0.0
 70
     8
  0
VERTEX
  5
2C7D
330
2C2E
100
AcDbEntity
  8
Image
  6
Continuous
100
AcDbVertex
100
AcDb2dVertex
 10
4.543472533872922
 20
4.119347588091391
 30
0.0
 70
     8
  0
VERTEX
  5
2C7E
330
2C2E
100
AcDbEntity
  8
Image
  6
Continuous
100
AcDbVertex
100
AcDb2dVertex
 10
4.566998490121711
 20
4.141301969668264
 30
0.0
 70
     8
  0
VERTEX
  5
2C7F
330
2C2E
100
AcDbEntity
  8
Image
  6
Continuous
100
AcDbVertex
100
AcDb2dVertex
 10
4.588789021338314
 20
4.165506479478468
 30
0.0
 70
     8
  0
VERTEX
  5
2C80
330
2C2E
100
AcDbEntity
  8
Image
  6
Continuous
100
AcDbVertex
100
AcDb2dVertex
 10
4.609430419723501
 20
4.192054872815429
 30
0.0
 70
     8
  0
VERTEX
  5
2C81
330
2C2E
100
AcDbEntity
  8
Image
  6
Continuous
100
AcDbVertex
100
AcDb2dVertex
 10
4.629434713804201
 20
4.22093933670825
 30
0.0
 70
     8
  0
VERTEX
  5
2C82
330
2C2E
100
AcDbEntity
  8
Image
  6
Continuous
100
AcDbVertex
100
AcDb2dVertex
 10
4.649016877411916
 20
4.251745785128745
 30
0.0
 70
     8
  0
VERTEX
  5
2C83
330
2C2E
100
AcDbEntity
  8
Image
  6
Continuous
100
AcDbVertex
100
AcDb2dVertex
 10
4.668317620704311
 20
4.283958563784407
 30
0.0
 70
     8
  0
VERTEX
  5
2C84
330
2C2E
100
AcDbEntity
  8
Image
  6
Continuous
100
AcDbVertex
100
AcDb2dVertex
 10
4.687477653839046
 20
4.317062018382729
 30
0.0
 70
     8
  0
VERTEX
  5
2C85
330
2C2E
100
AcDbEntity
  8
Image
  6
Continuous
100
AcDbVertex
100
AcDb2dVertex
 10
4.706637686973781
 20
4.350540494631204
 30
0.0
 70
     8
  0
VERTEX
  5
2C86
330
2C2E
100
AcDbEntity
  8
Image
  6
Continuous
100
AcDbVertex
100
AcDb2dVertex
 10
4.725938430266179
 20
4.383878338237325
 30
0.0
 70
     8
  0
VERTEX
  5
2C87
330
2C2E
100
AcDbEntity
  8
Image
  6
Continuous
100
AcDbVertex
100
AcDb2dVertex
 10
4.745520593873894
 20
4.416559894908584
 30
0.0
 70
     8
  0
VERTEX
  5
2C88
330
2C2E
100
AcDbEntity
  8
Image
  6
Continuous
100
AcDbVertex
100
AcDb2dVertex
 10
4.76552488795459
 20
4.448069510352473
 30
0.0
 70
     8
  0
VERTEX
  5
2C89
330
2C2E
100
AcDbEntity
  8
Image
  6
Continuous
100
AcDbVertex
100
AcDb2dVertex
 10
4.786066906865698
 20
4.477960765863938
 30
0.0
 70
     8
  0
VERTEX
  5
2C8A
330
2C2E
100
AcDbEntity
  8
Image
  6
Continuous
100
AcDbVertex
100
AcDb2dVertex
 10
4.80716178176371
 20
4.506064185087733
 30
0.0
 70
     8
  0
VERTEX
  5
2C8B
330
2C2E
100
AcDbEntity
  8
Image
  6
Continuous
100
AcDbVertex
100
AcDb2dVertex
 10
4.8287995280049
 20
4.532279527256063
 30
0.0
 70
     8
  0
VERTEX
  5
2C8C
330
2C2E
100
AcDbEntity
  8
Image
  6
Continuous
100
AcDbVertex
100
AcDb2dVertex
 10
4.850970160945532
 20
4.556506551601133
 30
0.0
 70
     8
  0
VERTEX
  5
2C8D
330
2C2E
100
AcDbEntity
  8
Image
  6
Continuous
100
AcDbVertex
100
AcDb2dVertex
 10
4.873663695941875
 20
4.578645017355148
 30
0.0
 70
     8
  0
VERTEX
  5
2C8E
330
2C2E
100
AcDbEntity
  8
Image
  6
Continuous
100
AcDbVertex
100
AcDb2dVertex
 10
4.896870148350195
 20
4.598594683750315
 30
0.0
 70
     8
  0
VERTEX
  5
2C8F
330
2C2E
100
AcDbEntity
  8
Image
  6
Continuous
100
AcDbVertex
100
AcDb2dVertex
 10
4.920579533526762
 20
4.616255310018839
 30
0.0
 70
     8
  0
VERTEX
  5
2C90
330
2C2E
100
AcDbEntity
  8
Image
  6
Continuous
100
AcDbVertex
100
AcDb2dVertex
 10
4.944781866827838
 20
4.631526655392926
 30
0.0
 70
     8
  0
VERTEX
  5
2C91
330
2C2E
100
AcDbEntity
  8
Image
  6
Continuous
100
AcDbVertex
100
AcDb2dVertex
 10
4.969480679476813
 20
4.64437326606315
 30
0.0
 70
     8
  0
VERTEX
  5
2C92
330
2C2E
100
AcDbEntity
  8
Image
  6
Continuous
100
AcDbVertex
100
AcDb2dVertex
 10
4.994733566165542
 20
4.655018836053564
 30
0.0
 70
     8
  0
VERTEX
  5
2C93
330
2C2E
100
AcDbEntity
  8
Image
  6
Continuous
100
AcDbVertex
100
AcDb2dVertex
 10
5.020611637453008
 20
4.663751846346592
 30
0.0
 70
     8
  0
VERTEX
  5
2C94
330
2C2E
100
AcDbEntity
  8
Image
  6
Continuous
100
AcDbVertex
100
AcDb2dVertex
 10
5.047186003898183
 20
4.670860777924653
 30
0.0
 70
     8
  0
VERTEX
  5
2C95
330
2C2E
100
AcDbEntity
  8
Image
  6
Continuous
100
AcDbVertex
100
AcDb2dVertex
 10
5.074527776060044
 20
4.676634111770173
 30
0.0
 70
     8
  0
VERTEX
  5
2C96
330
2C2E
100
AcDbEntity
  8
Image
  6
Continuous
100
AcDbVertex
100
AcDb2dVertex
 10
5.102708064497569
 20
4.681360328865572
 30
0.0
 70
     8
  0
VERTEX
  5
2C97
330
2C2E
100
AcDbEntity
  8
Image
  6
Continuous
100
AcDbVertex
100
AcDb2dVertex
 10
5.131797979769732
 20
4.685327910193274
 30
0.0
 70
     8
  0
VERTEX
  5
2C98
330
2C2E
100
AcDbEntity
  8
Image
  6
Continuous
100
AcDbVertex
100
AcDb2dVertex
 10
5.161868632435513
 20
4.6888253367357
 30
0.0
 70
     8
  0
VERTEX
  5
2C99
330
2C2E
100
AcDbEntity
  8
Image
  6
Continuous
100
AcDbVertex
100
AcDb2dVertex
 10
5.193647482053002
 20
4.692114594396338
 30
0.0
 70
     8
  0
VERTEX
  5
2C9A
330
2C2E
100
AcDbEntity
  8
Image
  6
Continuous
100
AcDbVertex
100
AcDb2dVertex
 10
5.230487384176765
 20
4.695351688762947
 30
0.0
 70
     8
  0
VERTEX
  5
2C9B
330
2C2E
100
AcDbEntity
  8
Image
  6
Continuous
100
AcDbVertex
100
AcDb2dVertex
 10
5.276397543360474
 20
4.698666130344351
 30
0.0
 70
     8
  0
VERTEX
  5
2C9C
330
2C2E
100
AcDbEntity
  8
Image
  6
Continuous
100
AcDbVertex
100
AcDb2dVertex
 10
5.335387164157804
 20
4.70218742964937
 30
0.0
 70
     8
  0
VERTEX
  5
2C9D
330
2C2E
100
AcDbEntity
  8
Image
  6
Continuous
100
AcDbVertex
100
AcDb2dVertex
 10
5.411465451122438
 20
4.706045097186828
 30
0.0
 70
     8
  0
VERTEX
  5
2C9E
330
2C2E
100
AcDbEntity
  8
Image
  6
Continuous
100
AcDbVertex
100
AcDb2dVertex
 10
5.508641608808048
 20
4.710368643465551
 30
0.0
 70
     8
  0
VERTEX
  5
2C9F
330
2C2E
100
AcDbEntity
  8
Image
  6
Continuous
100
AcDbVertex
100
AcDb2dVertex
 10
5.630924841768308
 20
4.71528757899436
 30
0.0
 70
     8
  0
VERTEX
  5
2CA0
330
2C2E
100
AcDbEntity
  8
Image
  6
Continuous
100
AcDbVertex
100
AcDb2dVertex
 10
5.782324354556905
 20
4.720931414282079
 30
0.0
 70
     8
  0
VERTEX
  5
2C30
330
2C2E
100
AcDbEntity
  8
Image
  6
Continuous
100
AcDbVertex
100
AcDb2dVertex
 10
3.162781522820818
 20
5.13387918322557
 30
0.0
 70
    16
  0
VERTEX
  5
2C31
330
2C2E
100
AcDbEntity
  8
Image
  6
Continuous
100
AcDbVertex
100
AcDb2dVertex
 10
3.197969944944137
 20
4.822359302782624
 30
0.0
 70
    16
  0
VERTEX
  5
2C32
330
2C2E
100
AcDbEntity
  8
Image
  6
Continuous
100
AcDbVertex
100
AcDb2dVertex
 10
3.260577809401908
 20
4.465233192170044
 30
0.0
 70
    16
  0
VERTEX
  5
2C33
330
2C2E
100
AcDbEntity
  8
Image
  6
Continuous
100
AcDbVertex
100
AcDb2dVertex
 10
3.335231323266459
 20
4.24357191601976
 30
0.0
 70
    16
  0
VERTEX
  5
2C35
330
2C2E
100
AcDbEntity
  8
Image
  6
Continuous
100
AcDbVertex
100
AcDb2dVertex
 10
3.478265832815811
 20
4.113283776221816
 30
0.0
 70
    16
  0
VERTEX
  5
2C36
330
2C2E
100
AcDbEntity
  8
Image
  6
Continuous
100
AcDbVertex
100
AcDb2dVertex
 10
3.667142150589707
 20
4.004499421271884
 30
0.0
 70
    16
  0
VERTEX
  5
2C37
330
2C2E
100
AcDbEntity
  8
Image
  6
Continuous
100
AcDbVertex
100
AcDb2dVertex
 10
3.919012642350523
 20
3.986043060979465
 30
0.0
 70
    16
  0
VERTEX
  5
2C38
330
2C2E
100
AcDbEntity
  8
Image
  6
Continuous
100
AcDbVertex
100
AcDb2dVertex
 10
4.435325051311899
 20
4.022045139394126
 30
0.0
 70
    16
  0
VERTEX
  5
2C39
330
2C2E
100
AcDbEntity
  8
Image
  6
Continuous
100
AcDbVertex
100
AcDb2dVertex
 10
4.615434053117006
 20
4.166053392066823
 30
0.0
 70
    16
  0
VERTEX
  5
2C3A
330
2C2E
100
AcDbEntity
  8
Image
  6
Continuous
100
AcDbVertex
100
AcDb2dVertex
 10
4.759521254561086
 20
4.466070529231155
 30
0.0
 70
    16
  0
VERTEX
  5
2C3B
330
2C2E
100
AcDbEntity
  8
Image
  6
Continuous
100
AcDbVertex
100
AcDb2dVertex
 10
4.939630256366189
 20
4.658081553123398
 30
0.0
 70
    16
  0
VERTEX
  5
2C3C
330
2C2E
100
AcDbEntity
  8
Image
  6
Continuous
100
AcDbVertex
100
AcDb2dVertex
 10
5.150648920941183
 20
4.690763190632802
 30
0.0
 70
    16
  0
VERTEX
  5
2C3D
330
2C2E
100
AcDbEntity
  8
Image
  6
Continuous
100
AcDbVertex
100
AcDb2dVertex
 10
5.336206876635166
 20
4.704799533383994
 30
0.0
 70
    16
  0
VERTEX
  5
2C3E
330
2C2E
100
AcDbEntity
  8
Image
  6
Continuous
100
AcDbVertex
100
AcDb2dVertex
 10
5.782324354556905
 20
4.720931414282079
 30
0.0
 70
    16
  0
SEQEND
  5
2C3F
330
2C2E
100
AcDbEntity
  8
Image
  6
Continuous
  0
POLYLINE
  5
2CA1
330
2613
100
AcDbEntity
  8
Image
  6
Continuous
100
AcDb2dPolyline
 66
     1
 10
0.0
 20
0.0
 30
0.0
 70
     4
  0
VERTEX
  5
2CA3
330
2CA1
100
AcDbEntity
  8
Image
  6
Continuous
100
AcDbVertex
100
AcDb2dVertex
 10
2.181717547955972
 20
5.234811306523656
 30
0.0
 70
    16
  0
VERTEX
  5
2CB6
330
2CA1
100
AcDbEntity
  8
Image
  6
Continuous
100
AcDbVertex
100
AcDb2dVertex
 10
2.181717547955972
 20
5.234811306523658
 30
0.0
 70
     8
  0
VERTEX
  5
2CB7
330
2CA1
100
AcDbEntity
  8
Image
  6
Continuous
100
AcDbVertex
100
AcDb2dVertex
 10
2.186400334527295
 20
5.122928829044088
 30
0.0
 70
     8
  0
VERTEX
  5
2CB8
330
2CA1
100
AcDbEntity
  8
Image
  6
Continuous
100
AcDbVertex
100
AcDb2dVertex
 10
2.191569405872257
 20
5.024678087575459
 30
0.0
 70
     8
  0
VERTEX
  5
2CB9
330
2CA1
100
AcDbEntity
  8
Image
  6
Continuous
100
AcDbVertex
100
AcDb2dVertex
 10
2.197166658572019
 20
4.938487784701896
 30
0.0
 70
     8
  0
VERTEX
  5
2CBA
330
2CA1
100
AcDbEntity
  8
Image
  6
Continuous
100
AcDbVertex
100
AcDb2dVertex
 10
2.203133989207746
 20
4.862786623007517
 30
0.0
 70
     8
  0
VERTEX
  5
2CBB
330
2CA1
100
AcDbEntity
  8
Image
  6
Continuous
100
AcDbVertex
100
AcDb2dVertex
 10
2.209413294360597
 20
4.796003305076444
 30
0.0
 70
     8
  0
VERTEX
  5
2CBC
330
2CA1
100
AcDbEntity
  8
Image
  6
Continuous
100
AcDbVertex
100
AcDb2dVertex
 10
2.215946470611736
 20
4.736566533492801
 30
0.0
 70
     8
  0
VERTEX
  5
2CBD
330
2CA1
100
AcDbEntity
  8
Image
  6
Continuous
100
AcDbVertex
100
AcDb2dVertex
 10
2.222675414542333
 20
4.682905010840707
 30
0.0
 70
     8
  0
VERTEX
  5
2CBE
330
2CA1
100
AcDbEntity
  8
Image
  6
Continuous
100
AcDbVertex
100
AcDb2dVertex
 10
2.229542022733543
 20
4.633447439704285
 30
0.0
 70
     8
  0
VERTEX
  5
2CBF
330
2CA1
100
AcDbEntity
  8
Image
  6
Continuous
100
AcDbVertex
100
AcDb2dVertex
 10
2.236520792673427
 20
4.586859069361008
 30
0.0
 70
     8
  0
VERTEX
  5
2CC0
330
2CA1
100
AcDbEntity
  8
Image
  6
Continuous
100
AcDbVertex
100
AcDb2dVertex
 10
2.243716625477613
 20
4.542751335861751
 30
0.0
 70
     8
  0
VERTEX
  5
2CC1
330
2CA1
100
AcDbEntity
  8
Image
  6
Continuous
100
AcDbVertex
100
AcDb2dVertex
 10
2.251267023168633
 20
4.500972221950743
 30
0.0
 70
     8
  0
VERTEX
  5
2CC2
330
2CA1
100
AcDbEntity
  8
Image
  6
Continuous
100
AcDbVertex
100
AcDb2dVertex
 10
2.259309487769009
 20
4.461369710372213
 30
0.0
 70
     8
  0
VERTEX
  5
2CC3
330
2CA1
100
AcDbEntity
  8
Image
  6
Continuous
100
AcDbVertex
100
AcDb2dVertex
 10
2.267981521301262
 20
4.423791783870388
 30
0.0
 70
     8
  0
VERTEX
  5
2CC4
330
2CA1
100
AcDbEntity
  8
Image
  6
Continuous
100
AcDbVertex
100
AcDb2dVertex
 10
2.277420625787922
 20
4.388086425189497
 30
0.0
 70
     8
  0
VERTEX
  5
2CC5
330
2CA1
100
AcDbEntity
  8
Image
  6
Continuous
100
AcDbVertex
100
AcDb2dVertex
 10
2.287764303251513
 20
4.354101617073766
 30
0.0
 70
     8
  0
VERTEX
  5
2CC6
330
2CA1
100
AcDbEntity
  8
Image
  6
Continuous
100
AcDbVertex
100
AcDb2dVertex
 10
2.299150055714562
 20
4.321685342267423
 30
0.0
 70
     8
  0
VERTEX
  5
2CC7
330
2CA1
100
AcDbEntity
  8
Image
  6
Continuous
100
AcDbVertex
100
AcDb2dVertex
 10
2.311695925994097
 20
4.29070427613149
 30
0.0
 70
     8
  0
VERTEX
  5
2CC8
330
2CA1
100
AcDbEntity
  8
Image
  6
Continuous
100
AcDbVertex
100
AcDb2dVertex
 10
2.325442120085167
 20
4.261099864494152
 30
0.0
 70
     8
  0
VERTEX
  5
2CC9
330
2CA1
100
AcDbEntity
  8
Image
  6
Continuous
100
AcDbVertex
100
AcDb2dVertex
 10
2.340409384777331
 20
4.232832245800388
 30
0.0
 70
     8
  0
VERTEX
  5
2CCA
330
2CA1
100
AcDbEntity
  8
Image
  6
Continuous
100
AcDbVertex
100
AcDb2dVertex
 10
2.356618466860133
 20
4.205861558495175
 30
0.0
 70
     8
  0
VERTEX
  5
2CCB
330
2CA1
100
AcDbEntity
  8
Image
  6
Continuous
100
AcDbVertex
100
AcDb2dVertex
 10
2.374090113123131
 20
4.180147941023493
 30
0.0
 70
     8
  0
VERTEX
  5
2CCC
330
2CA1
100
AcDbEntity
  8
Image
  6
Continuous
100
AcDbVertex
100
AcDb2dVertex
 10
2.392845070355878
 20
4.15565153183032
 30
0.0
 70
     8
  0
VERTEX
  5
2CCD
330
2CA1
100
AcDbEntity
  8
Image
  6
Continuous
100
AcDbVertex
100
AcDb2dVertex
 10
2.412904085347932
 20
4.132332469360633
 30
0.0
 70
     8
  0
VERTEX
  5
2CCE
330
2CA1
100
AcDbEntity
  8
Image
  6
Continuous
100
AcDbVertex
100
AcDb2dVertex
 10
2.43428790488884
 20
4.110150892059413
 30
0.0
 70
     8
  0
VERTEX
  5
2CCF
330
2CA1
100
AcDbEntity
  8
Image
  6
Continuous
100
AcDbVertex
100
AcDb2dVertex
 10
2.456977620379415
 20
4.089085398260392
 30
0.0
 70
     8
  0
VERTEX
  5
2CD0
330
2CA1
100
AcDbEntity
  8
Image
  6
Continuous
100
AcDbVertex
100
AcDb2dVertex
 10
2.480795701665481
 20
4.069188425852331
 30
0.0
 70
     8
  0
VERTEX
  5
2CD1
330
2CA1
100
AcDbEntity
  8
Image
  6
Continuous
100
AcDbVertex
100
AcDb2dVertex
 10
2.505524963204134
 20
4.050530872612744
 30
0.0
 70
     8
  0
VERTEX
  5
2CD2
330
2CA1
100
AcDbEntity
  8
Image
  6
Continuous
100
AcDbVertex
100
AcDb2dVertex
 10
2.530948219452454
 20
4.033183636319147
 30
0.0
 70
     8
  0
VERTEX
  5
2CD3
330
2CA1
100
AcDbEntity
  8
Image
  6
Continuous
100
AcDbVertex
100
AcDb2dVertex
 10
2.556848284867527
 20
4.017217614749057
 30
0.0
 70
     8
  0
VERTEX
  5
2CD4
330
2CA1
100
AcDbEntity
  8
Image
  6
Continuous
100
AcDbVertex
100
AcDb2dVertex
 10
2.583007973906443
 20
4.002703705679987
 30
0.0
 70
     8
  0
VERTEX
  5
2CD5
330
2CA1
100
AcDbEntity
  8
Image
  6
Continuous
100
AcDbVertex
100
AcDb2dVertex
 10
2.609210101026285
 20
3.989712806889454
 30
0.0
 70
     8
  0
VERTEX
  5
2CD6
330
2CA1
100
AcDbEntity
  8
Image
  6
Continuous
100
AcDbVertex
100
AcDb2dVertex
 10
2.635237480684139
 20
3.978315816154972
 30
0.0
 70
     8
  0
VERTEX
  5
2CD7
330
2CA1
100
AcDbEntity
  8
Image
  6
Continuous
100
AcDbVertex
100
AcDb2dVertex
 10
2.660996901705271
 20
3.968531010872237
 30
0.0
 70
     8
  0
VERTEX
  5
2CD8
330
2CA1
100
AcDbEntity
  8
Image
  6
Continuous
100
AcDbVertex
100
AcDb2dVertex
 10
2.686891050387657
 20
3.96016618690966
 30
0.0
 70
     8
  0
VERTEX
  5
2CD9
330
2CA1
100
AcDbEntity
  8
Image
  6
Continuous
100
AcDbVertex
100
AcDb2dVertex
 10
2.713446587397452
 20
3.952976519753832
 30
0.0
 70
     8
  0
VERTEX
  5
2CDA
330
2CA1
100
AcDbEntity
  8
Image
  6
Continuous
100
AcDbVertex
100
AcDb2dVertex
 10
2.741190173400813
 20
3.946717184891345
 30
0.0
 70
     8
  0
VERTEX
  5
2CDB
330
2CA1
100
AcDbEntity
  8
Image
  6
Continuous
100
AcDbVertex
100
AcDb2dVertex
 10
2.770648469063889
 20
3.941143357808788
 30
0.0
 70
     8
  0
VERTEX
  5
2CDC
330
2CA1
100
AcDbEntity
  8
Image
  6
Continuous
100
AcDbVertex
100
AcDb2dVertex
 10
2.802348135052834
 20
3.936010213992752
 30
0.0
 70
     8
  0
VERTEX
  5
2CDD
330
2CA1
100
AcDbEntity
  8
Image
  6
Continuous
100
AcDbVertex
100
AcDb2dVertex
 10
2.83681583203381
 20
3.931072928929829
 30
0.0
 70
     8
  0
VERTEX
  5
2CDE
330
2CA1
100
AcDbEntity
  8
Image
  6
Continuous
100
AcDbVertex
100
AcDb2dVertex
 10
2.874578220672965
 20
3.92608667810661
 30
0.0
 70
     8
  0
VERTEX
  5
2CDF
330
2CA1
100
AcDbEntity
  8
Image
  6
Continuous
100
AcDbVertex
100
AcDb2dVertex
 10
2.916027234466451
 20
3.920873963748886
 30
0.0
 70
     8
  0
VERTEX
  5
2CE0
330
2CA1
100
AcDbEntity
  8
Image
  6
Continuous
100
AcDbVertex
100
AcDb2dVertex
 10
2.9610158982304
 20
3.915526595039262
 30
0.0
 70
     8
  0
VERTEX
  5
2CE1
330
2CA1
100
AcDbEntity
  8
Image
  6
Continuous
100
AcDbVertex
100
AcDb2dVertex
 10
3.009262509610934
 20
3.910203707899541
 30
0.0
 70
     8
  0
VERTEX
  5
2CE2
330
2CA1
100
AcDbEntity
  8
Image
  6
Continuous
100
AcDbVertex
100
AcDb2dVertex
 10
3.060485366254187
 20
3.905064438251527
 30
0.0
 70
     8
  0
VERTEX
  5
2CE3
330
2CA1
100
AcDbEntity
  8
Image
  6
Continuous
100
AcDbVertex
100
AcDb2dVertex
 10
3.114402765806282
 20
3.900267922017027
 30
0.0
 70
     8
  0
VERTEX
  5
2CE4
330
2CA1
100
AcDbEntity
  8
Image
  6
Continuous
100
AcDbVertex
100
AcDb2dVertex
 10
3.170733005913344
 20
3.895973295117844
 30
0.0
 70
     8
  0
VERTEX
  5
2CE5
330
2CA1
100
AcDbEntity
  8
Image
  6
Continuous
100
AcDbVertex
100
AcDb2dVertex
 10
3.229194384221507
 20
3.892339693475782
 30
0.0
 70
     8
  0
VERTEX
  5
2CE6
330
2CA1
100
AcDbEntity
  8
Image
  6
Continuous
100
AcDbVertex
100
AcDb2dVertex
 10
3.28950519837689
 20
3.889526253012646
 30
0.0
 70
     8
  0
VERTEX
  5
2CE7
330
2CA1
100
AcDbEntity
  8
Image
  6
Continuous
100
AcDbVertex
100
AcDb2dVertex
 10
3.351373539459981
 20
3.887655385985143
 30
0.0
 70
     8
  0
VERTEX
  5
2CE8
330
2CA1
100
AcDbEntity
  8
Image
  6
Continuous
100
AcDbVertex
100
AcDb2dVertex
 10
3.4144666722887
 20
3.886702609989575
 30
0.0
 70
     8
  0
VERTEX
  5
2CE9
330
2CA1
100
AcDbEntity
  8
Image
  6
Continuous
100
AcDbVertex
100
AcDb2dVertex
 10
3.478441655115315
 20
3.886606718957146
 30
0.0
 70
     8
  0
VERTEX
  5
2CEA
330
2CA1
100
AcDbEntity
  8
Image
  6
Continuous
100
AcDbVertex
100
AcDb2dVertex
 10
3.542955546192107
 20
3.887306506819061
 30
0.0
 70
     8
  0
VERTEX
  5
2CEB
330
2CA1
100
AcDbEntity
  8
Image
  6
Continuous
100
AcDbVertex
100
AcDb2dVertex
 10
3.607665403771349
 20
3.888740767506525
 30
0.0
 70
     8
  0
VERTEX
  5
2CEC
330
2CA1
100
AcDbEntity
  8
Image
  6
Continuous
100
AcDbVertex
100
AcDb2dVertex
 10
3.672228286105319
 20
3.890848294950742
 30
0.0
 70
     8
  0
VERTEX
  5
2CED
330
2CA1
100
AcDbEntity
  8
Image
  6
Continuous
100
AcDbVertex
100
AcDb2dVertex
 10
3.736301251446285
 20
3.893567883082915
 30
0.0
 70
     8
  0
VERTEX
  5
2CEE
330
2CA1
100
AcDbEntity
  8
Image
  6
Continuous
100
AcDbVertex
100
AcDb2dVertex
 10
3.799541358046528
 20
3.89683832583425
 30
0.0
 70
     8
  0
VERTEX
  5
2CEF
330
2CA1
100
AcDbEntity
  8
Image
  6
Continuous
100
AcDbVertex
100
AcDb2dVertex
 10
3.861626077351012
 20
3.900612698548032
 30
0.0
 70
     8
  0
VERTEX
  5
2CF0
330
2CA1
100
AcDbEntity
  8
Image
  6
Continuous
100
AcDbVertex
100
AcDb2dVertex
 10
3.922314533575463
 20
3.904901202215875
 30
0.0
 70
     8
  0
VERTEX
  5
2CF1
330
2CA1
100
AcDbEntity
  8
Image
  6
Continuous
100
AcDbVertex
100
AcDb2dVertex
 10
3.981386264128293
 20
3.909728319241475
 30
0.0
 70
     8
  0
VERTEX
  5
2CF2
330
2CA1
100
AcDbEntity
  8
Image
  6
Continuous
100
AcDbVertex
100
AcDb2dVertex
 10
4.038620806417924
 20
3.915118532028528
 30
0.0
 70
     8
  0
VERTEX
  5
2CF3
330
2CA1
100
AcDbEntity
  8
Image
  6
Continuous
100
AcDbVertex
100
AcDb2dVertex
 10
4.093797697852767
 20
3.921096322980729
 30
0.0
 70
     8
  0
VERTEX
  5
2CF4
330
2CA1
100
AcDbEntity
  8
Image
  6
Continuous
100
AcDbVertex
100
AcDb2dVertex
 10
4.146696475841238
 20
3.927686174501773
 30
0.0
 70
     8
  0
VERTEX
  5
2CF5
330
2CA1
100
AcDbEntity
  8
Image
  6
Continuous
100
AcDbVertex
100
AcDb2dVertex
 10
4.197096677791755
 20
3.934912568995357
 30
0.0
 70
     8
  0
VERTEX
  5
2CF6
330
2CA1
100
AcDbEntity
  8
Image
  6
Continuous
100
AcDbVertex
100
AcDb2dVertex
 10
4.244777841112728
 20
3.942799988865177
 30
0.0
 70
     8
  0
VERTEX
  5
2CF7
330
2CA1
100
AcDbEntity
  8
Image
  6
Continuous
100
AcDbVertex
100
AcDb2dVertex
 10
4.289586866766882
 20
3.951393318557711
 30
0.0
 70
     8
  0
VERTEX
  5
2CF8
330
2CA1
100
AcDbEntity
  8
Image
  6
Continuous
100
AcDbVertex
100
AcDb2dVertex
 10
4.33164010993412
 20
3.960819050690576
 30
0.0
 70
     8
  0
VERTEX
  5
2CF9
330
2CA1
100
AcDbEntity
  8
Image
  6
Continuous
100
AcDbVertex
100
AcDb2dVertex
 10
4.371121289348657
 20
3.971224079924172
 30
0.0
 70
     8
  0
VERTEX
  5
2CFA
330
2CA1
100
AcDbEntity
  8
Image
  6
Continuous
100
AcDbVertex
100
AcDb2dVertex
 10
4.408214123744702
 20
3.9827553009189
 30
0.0
 70
     8
  0
VERTEX
  5
2CFB
330
2CA1
100
AcDbEntity
  8
Image
  6
Continuous
100
AcDbVertex
100
AcDb2dVertex
 10
4.443102331856469
 20
3.995559608335158
 30
0.0
 70
     8
  0
VERTEX
  5
2CFC
330
2CA1
100
AcDbEntity
  8
Image
  6
Continuous
100
AcDbVertex
100
AcDb2dVertex
 10
4.475969632418166
 20
4.009783896833349
 30
0.0
 70
     8
  0
VERTEX
  5
2CFD
330
2CA1
100
AcDbEntity
  8
Image
  6
Continuous
100
AcDbVertex
100
AcDb2dVertex
 10
4.506999744164005
 20
4.025575061073872
 30
0.0
 70
     8
  0
VERTEX
  5
2CFE
330
2CA1
100
AcDbEntity
  8
Image
  6
Continuous
100
AcDbVertex
100
AcDb2dVertex
 10
4.536376385828194
 20
4.043079995717127
 30
0.0
 70
     8
  0
VERTEX
  5
2CFF
330
2CA1
100
AcDbEntity
  8
Image
  6
Continuous
100
AcDbVertex
100
AcDb2dVertex
 10
4.564256739037436
 20
4.062380308894546
 30
0.0
 70
     8
  0
VERTEX
  5
2D00
330
2CA1
100
AcDbEntity
  8
Image
  6
Continuous
100
AcDbVertex
100
AcDb2dVertex
 10
4.590691836988376
 20
4.083296462621689
 30
0.0
 70
     8
  0
VERTEX
  5
2D01
330
2CA1
100
AcDbEntity
  8
Image
  6
Continuous
100
AcDbVertex
100
AcDb2dVertex
 10
4.615706175770149
 20
4.105583632385146
 30
0.0
 70
     8
  0
VERTEX
  5
2D02
330
2CA1
100
AcDbEntity
  8
Image
  6
Continuous
100
AcDbVertex
100
AcDb2dVertex
 10
4.63932425147189
 20
4.128996993671508
 30
0.0
 70
     8
  0
VERTEX
  5
2D03
330
2CA1
100
AcDbEntity
  8
Image
  6
Continuous
100
AcDbVertex
100
AcDb2dVertex
 10
4.661570560182727
 20
4.153291721967365
 30
0.0
 70
     8
  0
VERTEX
  5
2D04
330
2CA1
100
AcDbEntity
  8
Image
  6
Continuous
100
AcDbVertex
100
AcDb2dVertex
 10
4.682469597991804
 20
4.178222992759309
 30
0.0
 70
     8
  0
VERTEX
  5
2D05
330
2CA1
100
AcDbEntity
  8
Image
  6
Continuous
100
AcDbVertex
100
AcDb2dVertex
 10
4.702045860988246
 20
4.203545981533931
 30
0.0
 70
     8
  0
VERTEX
  5
2D06
330
2CA1
100
AcDbEntity
  8
Image
  6
Continuous
100
AcDbVertex
100
AcDb2dVertex
 10
4.720323845261191
 20
4.229015863777823
 30
0.0
 70
     8
  0
VERTEX
  5
2D07
330
2CA1
100
AcDbEntity
  8
Image
  6
Continuous
100
AcDbVertex
100
AcDb2dVertex
 10
4.737348460000351
 20
4.25440617688953
 30
0.0
 70
     8
  0
VERTEX
  5
2D08
330
2CA1
100
AcDbEntity
  8
Image
  6
Continuous
100
AcDbVertex
100
AcDb2dVertex
 10
4.753246266797766
 20
4.279563905915441
 30
0.0
 70
     8
  0
VERTEX
  5
2D09
330
2CA1
100
AcDbEntity
  8
Image
  6
Continuous
100
AcDbVertex
100
AcDb2dVertex
 10
4.76816424034606
 20
4.3043543978139
 30
0.0
 70
     8
  0
VERTEX
  5
2D0A
330
2CA1
100
AcDbEntity
  8
Image
  6
Continuous
100
AcDbVertex
100
AcDb2dVertex
 10
4.782249355337846
 20
4.328642999543248
 30
0.0
 70
     8
  0
VERTEX
  5
2D0B
330
2CA1
100
AcDbEntity
  8
Image
  6
Continuous
100
AcDbVertex
100
AcDb2dVertex
 10
4.795648586465745
 20
4.352295058061832
 30
0.0
 70
     8
  0
VERTEX
  5
2D0C
330
2CA1
100
AcDbEntity
  8
Image
  6
Continuous
100
AcDbVertex
100
AcDb2dVertex
 10
4.808508908422375
 20
4.375175920327992
 30
0.0
 70
     8
  0
VERTEX
  5
2D0D
330
2CA1
100
AcDbEntity
  8
Image
  6
Continuous
100
AcDbVertex
100
AcDb2dVertex
 10
4.820977295900359
 20
4.397150933300075
 30
0.0
 70
     8
  0
VERTEX
  5
2D0E
330
2CA1
100
AcDbEntity
  8
Image
  6
Continuous
100
AcDbVertex
100
AcDb2dVertex
 10
4.833200723592312
 20
4.418085443936423
 30
0.0
 70
     8
  0
VERTEX
  5
2D0F
330
2CA1
100
AcDbEntity
  8
Image
  6
Continuous
100
AcDbVertex
100
AcDb2dVertex
 10
4.845326166313665
 20
4.43787744234075
 30
0.0
 70
     8
  0
VERTEX
  5
2D10
330
2CA1
100
AcDbEntity
  8
Image
  6
Continuous
100
AcDbVertex
100
AcDb2dVertex
 10
4.857500599371103
 20
4.456555491198257
 30
0.0
 70
     8
  0
VERTEX
  5
2D11
330
2CA1
100
AcDbEntity
  8
Image
  6
Continuous
100
AcDbVertex
100
AcDb2dVertex
 10
4.869870998194119
 20
4.474180796339512
 30
0.0
 70
     8
  0
VERTEX
  5
2D12
330
2CA1
100
AcDbEntity
  8
Image
  6
Continuous
100
AcDbVertex
100
AcDb2dVertex
 10
4.8825843382122
 20
4.490814563595083
 30
0.0
 70
     8
  0
VERTEX
  5
2D13
330
2CA1
100
AcDbEntity
  8
Image
  6
Continuous
100
AcDbVertex
100
AcDb2dVertex
 10
4.895787594854848
 20
4.506517998795541
 30
0.0
 70
     8
  0
VERTEX
  5
2D14
330
2CA1
100
AcDbEntity
  8
Image
  6
Continuous
100
AcDbVertex
100
AcDb2dVertex
 10
4.909627743551549
 20
4.521352307771454
 30
0.0
 70
     8
  0
VERTEX
  5
2D15
330
2CA1
100
AcDbEntity
  8
Image
  6
Continuous
100
AcDbVertex
100
AcDb2dVertex
 10
4.924251759731802
 20
4.535378696353394
 30
0.0
 70
     8
  0
VERTEX
  5
2D16
330
2CA1
100
AcDbEntity
  8
Image
  6
Continuous
100
AcDbVertex
100
AcDb2dVertex
 10
4.939806618825091
 20
4.548658370371926
 30
0.0
 70
     8
  0
VERTEX
  5
2D17
330
2CA1
100
AcDbEntity
  8
Image
  6
Continuous
100
AcDbVertex
100
AcDb2dVertex
 10
4.956391224315559
 20
4.561236776031138
 30
0.0
 70
     8
  0
VERTEX
  5
2D18
330
2CA1
100
AcDbEntity
  8
Image
  6
Continuous
100
AcDbVertex
100
AcDb2dVertex
 10
4.973912191905903
 20
4.573096321029172
 30
0.0
 70
     8
  0
VERTEX
  5
2D19
330
2CA1
100
AcDbEntity
  8
Image
  6
Continuous
100
AcDbVertex
100
AcDb2dVertex
 10
4.992228065353458
 20
4.584203653437684
 30
0.0
 70
     8
  0
VERTEX
  5
2D1A
330
2CA1
100
AcDbEntity
  8
Image
  6
Continuous
100
AcDbVertex
100
AcDb2dVertex
 10
5.01119738841556
 20
4.594525421328333
 30
0.0
 70
     8
  0
VERTEX
  5
2D1B
330
2CA1
100
AcDbEntity
  8
Image
  6
Continuous
100
AcDbVertex
100
AcDb2dVertex
 10
5.030678704849545
 20
4.604028272772774
 30
0.0
 70
     8
  0
VERTEX
  5
2D1C
330
2CA1
100
AcDbEntity
  8
Image
  6
Continuous
100
AcDbVertex
100
AcDb2dVertex
 10
5.050530558412759
 20
4.612678855842668
 30
0.0
 70
     8
  0
VERTEX
  5
2D1D
330
2CA1
100
AcDbEntity
  8
Image
  6
Continuous
100
AcDbVertex
100
AcDb2dVertex
 10
5.070611492862532
 20
4.620443818609672
 30
0.0
 70
     8
  0
VERTEX
  5
2D1E
330
2CA1
100
AcDbEntity
  8
Image
  6
Continuous
100
AcDbVertex
100
AcDb2dVertex
 10
5.090780051956205
 20
4.627289809145441
 30
0.0
 70
     8
  0
VERTEX
  5
2D1F
330
2CA1
100
AcDbEntity
  8
Image
  6
Continuous
100
AcDbVertex
100
AcDb2dVertex
 10
5.111014208869669
 20
4.633205344542478
 30
0.0
 70
     8
  0
VERTEX
  5
2D20
330
2CA1
100
AcDbEntity
  8
Image
  6
Continuous
100
AcDbVertex
100
AcDb2dVertex
 10
5.131769654453055
 20
4.638266417976662
 30
0.0
 70
     8
  0
VERTEX
  5
2D21
330
2CA1
100
AcDbEntity
  8
Image
  6
Continuous
100
AcDbVertex
100
AcDb2dVertex
 10
5.153621508975046
 20
4.642570891644718
 30
0.0
 70
     8
  0
VERTEX
  5
2D22
330
2CA1
100
AcDbEntity
  8
Image
  6
Continuous
100
AcDbVertex
100
AcDb2dVertex
 10
5.177144892704326
 20
4.646216627743367
 30
0.0
 70
     8
  0
VERTEX
  5
2D23
330
2CA1
100
AcDbEntity
  8
Image
  6
Continuous
100
AcDbVertex
100
AcDb2dVertex
 10
5.202914925909574
 20
4.649301488469331
 30
0.0
 70
     8
  0
VERTEX
  5
2D24
330
2CA1
100
AcDbEntity
  8
Image
  6
Continuous
100
AcDbVertex
100
AcDb2dVertex
 10
5.231506728859482
 20
4.651923336019338
 30
0.0
 70
     8
  0
VERTEX
  5
2D25
330
2CA1
100
AcDbEntity
  8
Image
  6
Continuous
100
AcDbVertex
100
AcDb2dVertex
 10
5.263495421822732
 20
4.654180032590108
 30
0.0
 70
     8
  0
VERTEX
  5
2D26
330
2CA1
100
AcDbEntity
  8
Image
  6
Continuous
100
AcDbVertex
100
AcDb2dVertex
 10
5.299456125068005
 20
4.656169440378365
 30
0.0
 70
     8
  0
VERTEX
  5
2D27
330
2CA1
100
AcDbEntity
  8
Image
  6
Continuous
100
AcDbVertex
100
AcDb2dVertex
 10
5.339808073183863
 20
4.657976640816134
 30
0.0
 70
     8
  0
VERTEX
  5
2D28
330
2CA1
100
AcDbEntity
  8
Image
  6
Continuous
100
AcDbVertex
100
AcDb2dVertex
 10
5.384346958038399
 20
4.659635592276657
 30
0.0
 70
     8
  0
VERTEX
  5
2D29
330
2CA1
100
AcDbEntity
  8
Image
  6
Continuous
100
AcDbVertex
100
AcDb2dVertex
 10
5.432712585819572
 20
4.661167472368482
 30
0.0
 70
     8
  0
VERTEX
  5
2D2A
330
2CA1
100
AcDbEntity
  8
Image
  6
Continuous
100
AcDbVertex
100
AcDb2dVertex
 10
5.484544762715351
 20
4.66259345870015
 30
0.0
 70
     8
  0
VERTEX
  5
2D2B
330
2CA1
100
AcDbEntity
  8
Image
  6
Continuous
100
AcDbVertex
100
AcDb2dVertex
 10
5.539483294913704
 20
4.663934728880207
 30
0.0
 70
     8
  0
VERTEX
  5
2D2C
330
2CA1
100
AcDbEntity
  8
Image
  6
Continuous
100
AcDbVertex
100
AcDb2dVertex
 10
5.597167988602592
 20
4.665212460517196
 30
0.0
 70
     8
  0
VERTEX
  5
2D2D
330
2CA1
100
AcDbEntity
  8
Image
  6
Continuous
100
AcDbVertex
100
AcDb2dVertex
 10
5.657238649969983
 20
4.666447831219665
 30
0.0
 70
     8
  0
VERTEX
  5
2D2E
330
2CA1
100
AcDbEntity
  8
Image
  6
Continuous
100
AcDbVertex
100
AcDb2dVertex
 10
5.719335085203841
 20
4.667662018596155
 30
0.0
 70
     8
  0
VERTEX
  5
2CA4
330
2CA1
100
AcDbEntity
  8
Image
  6
Continuous
100
AcDbVertex
100
AcDb2dVertex
 10
2.193504951631243
 20
4.9168856764161
 30
0.0
 70
    16
  0
VERTEX
  5
2CA5
330
2CA1
100
AcDbEntity
  8
Image
  6
Continuous
100
AcDbVertex
100
AcDb2dVertex
 10
2.228693373754563
 20
4.605365795973156
 30
0.0
 70
    16
  0
VERTEX
  5
2CA6
330
2CA1
100
AcDbEntity
  8
Image
  6
Continuous
100
AcDbVertex
100
AcDb2dVertex
 10
2.28656790081342
 20
4.306575837695509
 30
0.0
 70
    16
  0
VERTEX
  5
2CA7
330
2CA1
100
AcDbEntity
  8
Image
  6
Continuous
100
AcDbVertex
100
AcDb2dVertex
 10
2.419935357279136
 20
4.098442906849344
 30
0.0
 70
    16
  0
VERTEX
  5
2CA8
330
2CA1
100
AcDbEntity
  8
Image
  6
Continuous
100
AcDbVertex
100
AcDb2dVertex
 10
2.639418099403076
 20
3.960557887263588
 30
0.0
 70
    16
  0
VERTEX
  5
2CA9
330
2CA1
100
AcDbEntity
  8
Image
  6
Continuous
100
AcDbVertex
100
AcDb2dVertex
 10
2.83381712921339
 20
3.929220441026139
 30
0.0
 70
    16
  0
VERTEX
  5
2CAA
330
2CA1
100
AcDbEntity
  8
Image
  6
Continuous
100
AcDbVertex
100
AcDb2dVertex
 10
3.272782707781153
 20
3.879080417271514
 30
0.0
 70
    16
  0
VERTEX
  5
2CAB
330
2CA1
100
AcDbEntity
  8
Image
  6
Continuous
100
AcDbVertex
100
AcDb2dVertex
 10
3.812083229923324
 20
3.891615407963684
 30
0.0
 70
    16
  0
VERTEX
  5
2CAC
330
2CA1
100
AcDbEntity
  8
Image
  6
Continuous
100
AcDbVertex
100
AcDb2dVertex
 10
4.276132520804718
 20
3.935487905879249
 30
0.0
 70
    16
  0
VERTEX
  5
2CAD
330
2CA1
100
AcDbEntity
  8
Image
  6
Continuous
100
AcDbVertex
100
AcDb2dVertex
 10
4.552053733534179
 20
4.023232901710381
 30
0.0
 70
    16
  0
VERTEX
  5
2CAE
330
2CA1
100
AcDbEntity
  8
Image
  6
Continuous
100
AcDbVertex
100
AcDb2dVertex
 10
4.733910860027734
 20
4.23006046158199
 30
0.0
 70
    16
  0
VERTEX
  5
2CAF
330
2CA1
100
AcDbEntity
  8
Image
  6
Continuous
100
AcDbVertex
100
AcDb2dVertex
 10
4.83424589792202
 20
4.430620434628592
 30
0.0
 70
    16
  0
VERTEX
  5
2CB0
330
2CA1
100
AcDbEntity
  8
Image
  6
Continuous
100
AcDbVertex
100
AcDb2dVertex
 10
4.928309889838047
 20
4.555970463522179
 30
0.0
 70
    16
  0
VERTEX
  5
2CB1
330
2CA1
100
AcDbEntity
  8
Image
  6
Continuous
100
AcDbVertex
100
AcDb2dVertex
 10
5.09135425567635
 20
4.637447933514252
 30
0.0
 70
    16
  0
VERTEX
  5
2CB2
330
2CA1
100
AcDbEntity
  8
Image
  6
Continuous
100
AcDbVertex
100
AcDb2dVertex
 10
5.250953399193779
 20
4.657976657293456
 30
0.0
 70
    16
  0
VERTEX
  5
2CB3
330
2CA1
100
AcDbEntity
  8
Image
  6
Continuous
100
AcDbVertex
100
AcDb2dVertex
 10
5.551363731702288
 20
4.664433605485887
 30
0.0
 70
    16
  0
VERTEX
  5
2CB4
330
2CA1
100
AcDbEntity
  8
Image
  6
Continuous
100
AcDbVertex
100
AcDb2dVertex
 10
5.719335085203837
 20
4.667662018596155
 30
0.0
 70
    16
  0
SEQEND
  5
2CB5
330
2CA1
100
AcDbEntity
  8
Image
  6
Continuous
  0
POLYLINE
  5
2D2F
330
2613
100
AcDbEntity
  8
Image
  6
Continuous
100
AcDb2dPolyline
 66
     1
 10
0.0
 20
0.0
 30
0.0
 70
     4
 75
     6
  0
VERTEX
  5
2D80
330
2D2F
100
AcDbEntity
  8
Image
  6
Continuous
100
AcDbVertex
100
AcDb2dVertex
 10
3.097403801999789
 20
5.451804813333124
 30
0.0
 70
    16
  0
VERTEX
  5
2D8D
330
2D2F
100
AcDbEntity
  8
Image
  6
Continuous
100
AcDbVertex
100
AcDb2dVertex
 10
3.097403801999789
 20
5.451804813333124
 30
0.0
 70
     8
  0
VERTEX
  5
2D8E
330
2D2F
100
AcDbEntity
  8
Image
  6
Continuous
100
AcDbVertex
100
AcDb2dVertex
 10
3.092721015428466
 20
5.339922335853556
 30
0.0
 70
     8
  0
VERTEX
  5
2D8F
330
2D2F
100
AcDbEntity
  8
Image
  6
Continuous
100
AcDbVertex
100
AcDb2dVertex
 10
3.087551944083504
 20
5.241671594384929
 30
0.0
 70
     8
  0
VERTEX
  5
2D90
330
2D2F
100
AcDbEntity
  8
Image
  6
Continuous
100
AcDbVertex
100
AcDb2dVertex
 10
3.081954691383742
 20
5.155481291511364
 30
0.0
 70
     8
  0
VERTEX
  5
2D91
330
2D2F
100
AcDbEntity
  8
Image
  6
Continuous
100
AcDbVertex
100
AcDb2dVertex
 10
3.075987360748015
 20
5.079780129816985
 30
0.0
 70
     8
  0
VERTEX
  5
2D92
330
2D2F
100
AcDbEntity
  8
Image
  6
Continuous
100
AcDbVertex
100
AcDb2dVertex
 10
3.069708055595164
 20
5.012996811885912
 30
0.0
 70
     8
  0
VERTEX
  5
2D93
330
2D2F
100
AcDbEntity
  8
Image
  6
Continuous
100
AcDbVertex
100
AcDb2dVertex
 10
3.063174879344021
 20
4.953560040302269
 30
0.0
 70
     8
  0
VERTEX
  5
2D94
330
2D2F
100
AcDbEntity
  8
Image
  6
Continuous
100
AcDbVertex
100
AcDb2dVertex
 10
3.056445935413428
 20
4.899898517650175
 30
0.0
 70
     8
  0
VERTEX
  5
2D95
330
2D2F
100
AcDbEntity
  8
Image
  6
Continuous
100
AcDbVertex
100
AcDb2dVertex
 10
3.049579327222218
 20
4.850440946513753
 30
0.0
 70
     8
  0
VERTEX
  5
2D96
330
2D2F
100
AcDbEntity
  8
Image
  6
Continuous
100
AcDbVertex
100
AcDb2dVertex
 10
3.042618129093924
 20
4.803829182779317
 30
0.0
 70
     8
  0
VERTEX
  5
2D97
330
2D2F
100
AcDbEntity
  8
Image
  6
Continuous
100
AcDbVertex
100
AcDb2dVertex
 10
3.035545298970859
 20
4.75955769554195
 30
0.0
 70
     8
  0
VERTEX
  5
2D98
330
2D2F
100
AcDbEntity
  8
Image
  6
Continuous
100
AcDbVertex
100
AcDb2dVertex
 10
3.028328765700035
 20
4.717334107198931
 30
0.0
 70
     8
  0
VERTEX
  5
2D99
330
2D2F
100
AcDbEntity
  8
Image
  6
Continuous
100
AcDbVertex
100
AcDb2dVertex
 10
3.020936458128463
 20
4.676866040147535
 30
0.0
 70
     8
  0
VERTEX
  5
2D9A
330
2D2F
100
AcDbEntity
  8
Image
  6
Continuous
100
AcDbVertex
100
AcDb2dVertex
 10
3.013336305103155
 20
4.637861116785039
 30
0.0
 70
     8
  0
VERTEX
  5
2D9B
330
2D2F
100
AcDbEntity
  8
Image
  6
Continuous
100
AcDbVertex
100
AcDb2dVertex
 10
3.00549623547112
 20
4.600026959508719
 30
0.0
 70
     8
  0
VERTEX
  5
2D9C
330
2D2F
100
AcDbEntity
  8
Image
  6
Continuous
100
AcDbVertex
100
AcDb2dVertex
 10
2.997384178079364
 20
4.563071190715852
 30
0.0
 70
     8
  0
VERTEX
  5
2D9D
330
2D2F
100
AcDbEntity
  8
Image
  6
Continuous
100
AcDbVertex
100
AcDb2dVertex
 10
2.988968061774905
 20
4.526701432803717
 30
0.0
 70
     8
  0
VERTEX
  5
2D9E
330
2D2F
100
AcDbEntity
  8
Image
  6
Continuous
100
AcDbVertex
100
AcDb2dVertex
 10
2.980239358317568
 20
4.490712259185404
 30
0.0
 70
     8
  0
VERTEX
  5
2D9F
330
2D2F
100
AcDbEntity
  8
Image
  6
Continuous
100
AcDbVertex
100
AcDb2dVertex
 10
2.971283711118463
 20
4.455246047337272
 30
0.0
 70
     8
  0
VERTEX
  5
2DA0
330
2D2F
100
AcDbEntity
  8
Image
  6
Continuous
100
AcDbVertex
100
AcDb2dVertex
 10
2.962210306501521
 20
4.420532125751499
 30
0.0
 70
     8
  0
VERTEX
  5
2DA1
330
2D2F
100
AcDbEntity
  8
Image
  6
Continuous
100
AcDbVertex
100
AcDb2dVertex
 10
2.953128330790672
 20
4.386799822920256
 30
0.0
 70
     8
  0
VERTEX
  5
2DA2
330
2D2F
100
AcDbEntity
  8
Image
  6
Continuous
100
AcDbVertex
100
AcDb2dVertex
 10
2.944146970309851
 20
4.354278467335722
 30
0.0
 70
     8
  0
VERTEX
  5
2DA3
330
2D2F
100
AcDbEntity
  8
Image
  6
Continuous
100
AcDbVertex
100
AcDb2dVertex
 10
2.935375411382981
 20
4.32319738749007
 30
0.0
 70
     8
  0
VERTEX
  5
2DA4
330
2D2F
100
AcDbEntity
  8
Image
  6
Continuous
100
AcDbVertex
100
AcDb2dVertex
 10
2.926922840333997
 20
4.293785911875476
 30
0.0
 70
     8
  0
VERTEX
  5
2DA5
330
2D2F
100
AcDbEntity
  8
Image
  6
Continuous
100
AcDbVertex
100
AcDb2dVertex
 10
2.918898443486828
 20
4.266273368984114
 30
0.0
 70
     8
  0
VERTEX
  5
2DA6
330
2D2F
100
AcDbEntity
  8
Image
  6
Continuous
100
AcDbVertex
100
AcDb2dVertex
 10
2.911347081405398
 20
4.240806577739645
 30
0.0
 70
     8
  0
VERTEX
  5
2DA7
330
2D2F
100
AcDbEntity
  8
Image
  6
Continuous
100
AcDbVertex
100
AcDb2dVertex
 10
2.904056311613615
 20
4.217202318791676
 30
0.0
 70
     8
  0
VERTEX
  5
2DA8
330
2D2F
100
AcDbEntity
  8
Image
  6
Continuous
100
AcDbVertex
100
AcDb2dVertex
 10
2.896749365875365
 20
4.195194863221296
 30
0.0
 70
     8
  0
VERTEX
  5
2DA9
330
2D2F
100
AcDbEntity
  8
Image
  6
Continuous
100
AcDbVertex
100
AcDb2dVertex
 10
2.889149475954557
 20
4.174518482109593
 30
0.0
 70
     8
  0
VERTEX
  5
2DAA
330
2D2F
100
AcDbEntity
  8
Image
  6
Continuous
100
AcDbVertex
100
AcDb2dVertex
 10
2.880979873615075
 20
4.154907446537663
 30
0.0
 70
     8
  0
VERTEX
  5
2DAB
330
2D2F
100
AcDbEntity
  8
Image
  6
Continuous
100
AcDbVertex
100
AcDb2dVertex
 10
2.871963790620824
 20
4.136096027586591
 30
0.0
 70
     8
  0
VERTEX
  5
2DAC
330
2D2F
100
AcDbEntity
  8
Image
  6
Continuous
100
AcDbVertex
100
AcDb2dVertex
 10
2.8618244587357
 20
4.11781849633747
 30
0.0
 70
     8
  0
VERTEX
  5
2DAD
330
2D2F
100
AcDbEntity
  8
Image
  6
Continuous
100
AcDbVertex
100
AcDb2dVertex
 10
2.850285109723593
 20
4.09980912387139
 30
0.0
 70
     8
  0
VERTEX
  5
2DAE
330
2D2F
100
AcDbEntity
  8
Image
  6
Continuous
100
AcDbVertex
100
AcDb2dVertex
 10
2.837115118788826
 20
4.081872061548503
 30
0.0
 70
     8
  0
VERTEX
  5
2DAF
330
2D2F
100
AcDbEntity
  8
Image
  6
Continuous
100
AcDbVertex
100
AcDb2dVertex
 10
2.822268434897363
 20
4.064090981845222
 30
0.0
 70
     8
  0
VERTEX
  5
2DB0
330
2D2F
100
AcDbEntity
  8
Image
  6
Continuous
100
AcDbVertex
100
AcDb2dVertex
 10
2.805745150455592
 20
4.046619437517017
 30
0.0
 70
     8
  0
VERTEX
  5
2DB1
330
2D2F
100
AcDbEntity
  8
Image
  6
Continuous
100
AcDbVertex
100
AcDb2dVertex
 10
2.787545357869909
 20
4.029610981319365
 30
0.0
 70
     8
  0
VERTEX
  5
2DB2
330
2D2F
100
AcDbEntity
  8
Image
  6
Continuous
100
AcDbVertex
100
AcDb2dVertex
 10
2.767669149546694
 20
4.013219166007736
 30
0.0
 70
     8
  0
VERTEX
  5
2DB3
330
2D2F
100
AcDbEntity
  8
Image
  6
Continuous
100
AcDbVertex
100
AcDb2dVertex
 10
2.746116617892337
 20
3.997597544337604
 30
0.0
 70
     8
  0
VERTEX
  5
2DB4
330
2D2F
100
AcDbEntity
  8
Image
  6
Continuous
100
AcDbVertex
100
AcDb2dVertex
 10
2.722887855313228
 20
3.982899669064443
 30
0.0
 70
     8
  0
VERTEX
  5
2DB5
330
2D2F
100
AcDbEntity
  8
Image
  6
Continuous
100
AcDbVertex
100
AcDb2dVertex
 10
2.697982954215753
 20
3.969279092943725
 30
0.0
 70
     8
  0
VERTEX
  5
2DB6
330
2D2F
100
AcDbEntity
  8
Image
  6
Continuous
100
AcDbVertex
100
AcDb2dVertex
 10
2.671401701849756
 20
3.956848690282271
 30
0.0
 70
     8
  0
VERTEX
  5
2DB7
330
2D2F
100
AcDbEntity
  8
Image
  6
Continuous
100
AcDbVertex
100
AcDb2dVertex
 10
2.643142664838883
 20
3.945558621592283
 30
0.0
 70
     8
  0
VERTEX
  5
2DB8
330
2D2F
100
AcDbEntity
  8
Image
  6
Continuous
100
AcDbVertex
100
AcDb2dVertex
 10
2.613204104650247
 20
3.935318368937311
 30
0.0
 70
     8
  0
VERTEX
  5
2DB9
330
2D2F
100
AcDbEntity
  8
Image
  6
Continuous
100
AcDbVertex
100
AcDb2dVertex
 10
2.581584282750952
 20
3.926037414380905
 30
0.0
 70
     8
  0
VERTEX
  5
2DBA
330
2D2F
100
AcDbEntity
  8
Image
  6
Continuous
100
AcDbVertex
100
AcDb2dVertex
 10
2.548281460608109
 20
3.917625239986613
 30
0.0
 70
     8
  0
VERTEX
  5
2DBB
330
2D2F
100
AcDbEntity
  8
Image
  6
Continuous
100
AcDbVertex
100
AcDb2dVertex
 10
2.513293899688815
 20
3.909991327817985
 30
0.0
 70
     8
  0
VERTEX
  5
2DBC
330
2D2F
100
AcDbEntity
  8
Image
  6
Continuous
100
AcDbVertex
100
AcDb2dVertex
 10
2.476619861460182
 20
3.903045159938571
 30
0.0
 70
     8
  0
VERTEX
  5
2DBD
330
2D2F
100
AcDbEntity
  8
Image
  6
Continuous
100
AcDbVertex
100
AcDb2dVertex
 10
2.438257607389321
 20
3.896696218411921
 30
0.0
 70
     8
  0
VERTEX
  5
2DBE
330
2D2F
100
AcDbEntity
  8
Image
  6
Continuous
100
AcDbVertex
100
AcDb2dVertex
 10
2.398152877609238
 20
3.890858515198985
 30
0.0
 70
     8
  0
VERTEX
  5
2DBF
330
2D2F
100
AcDbEntity
  8
Image
  6
Continuous
100
AcDbVertex
100
AcDb2dVertex
 10
2.356041326916578
 20
3.885464181850323
 30
0.0
 70
     8
  0
VERTEX
  5
2DC0
330
2D2F
100
AcDbEntity
  8
Image
  6
Continuous
100
AcDbVertex
100
AcDb2dVertex
 10
2.311606088773903
 20
3.880449879813896
 30
0.0
 70
     8
  0
VERTEX
  5
2DC1
330
2D2F
100
AcDbEntity
  8
Image
  6
Continuous
100
AcDbVertex
100
AcDb2dVertex
 10
2.264530296643766
 20
3.875752270537664
 30
0.0
 70
     8
  0
VERTEX
  5
2DC2
330
2D2F
100
AcDbEntity
  8
Image
  6
Continuous
100
AcDbVertex
100
AcDb2dVertex
 10
2.214497083988717
 20
3.871308015469587
 30
0.0
 70
     8
  0
VERTEX
  5
2DC3
330
2D2F
100
AcDbEntity
  8
Image
  6
Continuous
100
AcDbVertex
100
AcDb2dVertex
 10
2.161189584271316
 20
3.867053776057629
 30
0.0
 70
     8
  0
VERTEX
  5
2DC4
330
2D2F
100
AcDbEntity
  8
Image
  6
Continuous
100
AcDbVertex
100
AcDb2dVertex
 10
2.10429093095411
 20
3.862926213749748
 30
0.0
 70
     8
  0
VERTEX
  5
2DC5
330
2D2F
100
AcDbEntity
  8
Image
  6
Continuous
100
AcDbVertex
100
AcDb2dVertex
 10
2.04348425749966
 20
3.858861989993907
 30
0.0
 70
     8
  0
VERTEX
  5
2DC6
330
2D2F
100
AcDbEntity
  8
Image
  6
Continuous
100
AcDbVertex
100
AcDb2dVertex
 10
1.978547757350174
 20
3.854834713726756
 30
0.0
 70
     8
  0
VERTEX
  5
2DC7
330
2D2F
100
AcDbEntity
  8
Image
  6
Continuous
100
AcDbVertex
100
AcDb2dVertex
 10
1.909639863866484
 20
3.850965783839702
 30
0.0
 70
     8
  0
VERTEX
  5
2DC8
330
2D2F
100
AcDbEntity
  8
Image
  6
Continuous
100
AcDbVertex
100
AcDb2dVertex
 10
1.837014070389077
 20
3.847413546712842
 30
0.0
 70
     8
  0
VERTEX
  5
2DC9
330
2D2F
100
AcDbEntity
  8
Image
  6
Continuous
100
AcDbVertex
100
AcDb2dVertex
 10
1.760923870258444
 20
3.844336348726277
 30
0.0
 70
     8
  0
VERTEX
  5
2DCA
330
2D2F
100
AcDbEntity
  8
Image
  6
Continuous
100
AcDbVertex
100
AcDb2dVertex
 10
1.68162275681507
 20
3.841892536260103
 30
0.0
 70
     8
  0
VERTEX
  5
2DCB
330
2D2F
100
AcDbEntity
  8
Image
  6
Continuous
100
AcDbVertex
100
AcDb2dVertex
 10
1.599364223399437
 20
3.840240455694416
 30
0.0
 70
     8
  0
VERTEX
  5
2DCC
330
2D2F
100
AcDbEntity
  8
Image
  6
Continuous
100
AcDbVertex
100
AcDb2dVertex
 10
1.514401763352044
 20
3.839538453409316
 30
0.0
 70
     8
  0
VERTEX
  5
2DCD
330
2D2F
100
AcDbEntity
  8
Image
  6
Continuous
100
AcDbVertex
100
AcDb2dVertex
 10
1.426988870013367
 20
3.839944875784901
 30
0.0
 70
     8
  0
VERTEX
  5
2DCE
330
2D2F
100
AcDbEntity
  8
Image
  6
Continuous
100
AcDbVertex
100
AcDb2dVertex
 10
1.337467055134887
 20
3.841533617798548
 30
0.0
 70
     8
  0
VERTEX
  5
2DCF
330
2D2F
100
AcDbEntity
  8
Image
  6
Continuous
100
AcDbVertex
100
AcDb2dVertex
 10
1.246529904112001
 20
3.844040768816762
 30
0.0
 70
     8
  0
VERTEX
  5
2DD0
330
2D2F
100
AcDbEntity
  8
Image
  6
Continuous
100
AcDbVertex
100
AcDb2dVertex
 10
1.154959020751096
 20
3.847117966803327
 30
0.0
 70
     8
  0
VERTEX
  5
2DD1
330
2D2F
100
AcDbEntity
  8
Image
  6
Continuous
100
AcDbVertex
100
AcDb2dVertex
 10
1.063536008858562
 20
3.85041684972203
 30
0.0
 70
     8
  0
VERTEX
  5
2DD2
330
2D2F
100
AcDbEntity
  8
Image
  6
Continuous
100
AcDbVertex
100
AcDb2dVertex
 10
0.9730424722407882
 20
3.853589055536654
 30
0.0
 70
     8
  0
VERTEX
  5
2DD3
330
2D2F
100
AcDbEntity
  8
Image
  6
Continuous
100
AcDbVertex
100
AcDb2dVertex
 10
0.8842600147041537
 20
3.856286222210985
 30
0.0
 70
     8
  0
VERTEX
  5
2DD4
330
2D2F
100
AcDbEntity
  8
Image
  6
Continuous
100
AcDbVertex
100
AcDb2dVertex
 10
0.7979702400550508
 20
3.858159987708808
 30
0.0
 70
     8
  0
VERTEX
  5
2DD5
330
2D2F
100
AcDbEntity
  8
Image
  6
Continuous
100
AcDbVertex
100
AcDb2dVertex
 10
0.7149547520998674
 20
3.858861989993908
 30
0.0
 70
     8
  0
VERTEX
  5
2D81
330
2D2F
100
AcDbEntity
  8
Image
  6
Continuous
100
AcDbVertex
100
AcDb2dVertex
 10
3.085616398324521
 20
5.13387918322557
 30
0.0
 70
    16
  0
VERTEX
  5
2D82
330
2D2F
100
AcDbEntity
  8
Image
  6
Continuous
100
AcDbVertex
100
AcDb2dVertex
 10
3.050427976201195
 20
4.822359302782624
 30
0.0
 70
    16
  0
VERTEX
  5
2D83
330
2D2F
100
AcDbEntity
  8
Image
  6
Continuous
100
AcDbVertex
100
AcDb2dVertex
 10
2.992553449142338
 20
4.523569344504979
 30
0.0
 70
    16
  0
VERTEX
  5
2D84
330
2D2F
100
AcDbEntity
  8
Image
  6
Continuous
100
AcDbVertex
100
AcDb2dVertex
 10
2.913166597878873
 20
4.24357191601976
 30
0.0
 70
    16
  0
VERTEX
  5
2D85
330
2D2F
100
AcDbEntity
  8
Image
  6
Continuous
100
AcDbVertex
100
AcDb2dVertex
 10
2.868170820263131
 20
4.099783205320656
 30
0.0
 70
    16
  0
VERTEX
  5
2D86
330
2D2F
100
AcDbEntity
  8
Image
  6
Continuous
100
AcDbVertex
100
AcDb2dVertex
 10
2.715860779410181
 20
3.956150005925944
 30
0.0
 70
    16
  0
VERTEX
  5
2D87
330
2D2F
100
AcDbEntity
  8
Image
  6
Continuous
100
AcDbVertex
100
AcDb2dVertex
 10
2.456283787390674
 20
3.891291328637919
 30
0.0
 70
    16
  0
VERTEX
  5
2D88
330
2D2F
100
AcDbEntity
  8
Image
  6
Continuous
100
AcDbVertex
100
AcDb2dVertex
 10
2.088549715363036
 20
3.858861989993907
 30
0.0
 70
    16
  0
VERTEX
  5
2D89
330
2D2F
100
AcDbEntity
  8
Image
  6
Continuous
100
AcDbVertex
100
AcDb2dVertex
 10
1.450422896155139
 20
3.826432651349895
 30
0.0
 70
    16
  0
VERTEX
  5
2D8A
330
2D2F
100
AcDbEntity
  8
Image
  6
Continuous
100
AcDbVertex
100
AcDb2dVertex
 10
0.9312689121161241
 20
3.858861989993907
 30
0.0
 70
    16
  0
VERTEX
  5
2D8B
330
2D2F
100
AcDbEntity
  8
Image
  6
Continuous
100
AcDbVertex
100
AcDb2dVertex
 10
0.7149547520998674
 20
3.858861989993907
 30
0.0
 70
    16
  0
SEQEND
  5
2D8C
330
2D2F
100
AcDbEntity
  8
Image
  6
Continuous
  0
POLYLINE
  5
2D31
330
2613
100
AcDbEntity
  8
Image
  6
Continuous
100
AcDb2dPolyline
 66
     1
 10
0.0
 20
0.0
 30
0.0
 70
     4
 75
     6
  0
VERTEX
  5
2D33
330
2D31
100
AcDbEntity
  8
Image
  6
Continuous
100
AcDbVertex
100
AcDb2dVertex
 10
2.128127230810218
 20
5.234811306523656
 30
0.0
 70
    16
  0
VERTEX
  5
2D3F
330
2D31
100
AcDbEntity
  8
Image
  6
Continuous
100
AcDbVertex
100
AcDb2dVertex
 10
2.128127230810214
 20
5.234811306523658
 30
0.0
 70
     8
  0
VERTEX
  5
2D40
330
2D31
100
AcDbEntity
  8
Image
  6
Continuous
100
AcDbVertex
100
AcDb2dVertex
 10
2.123444444238892
 20
5.122928829044088
 30
0.0
 70
     8
  0
VERTEX
  5
2D41
330
2D31
100
AcDbEntity
  8
Image
  6
Continuous
100
AcDbVertex
100
AcDb2dVertex
 10
2.118275372893929
 20
5.024678087575459
 30
0.0
 70
     8
  0
VERTEX
  5
2D42
330
2D31
100
AcDbEntity
  8
Image
  6
Continuous
100
AcDbVertex
100
AcDb2dVertex
 10
2.112678120194168
 20
4.938487784701896
 30
0.0
 70
     8
  0
VERTEX
  5
2D43
330
2D31
100
AcDbEntity
  8
Image
  6
Continuous
100
AcDbVertex
100
AcDb2dVertex
 10
2.106710789558444
 20
4.862786623007517
 30
0.0
 70
     8
  0
VERTEX
  5
2D44
330
2D31
100
AcDbEntity
  8
Image
  6
Continuous
100
AcDbVertex
100
AcDb2dVertex
 10
2.100431484405593
 20
4.796003305076444
 30
0.0
 70
     8
  0
VERTEX
  5
2D45
330
2D31
100
AcDbEntity
  8
Image
  6
Continuous
100
AcDbVertex
100
AcDb2dVertex
 10
2.09389830815445
 20
4.736566533492801
 30
0.0
 70
     8
  0
VERTEX
  5
2D46
330
2D31
100
AcDbEntity
  8
Image
  6
Continuous
100
AcDbVertex
100
AcDb2dVertex
 10
2.087169364223857
 20
4.682905010840707
 30
0.0
 70
     8
  0
VERTEX
  5
2D47
330
2D31
100
AcDbEntity
  8
Image
  6
Continuous
100
AcDbVertex
100
AcDb2dVertex
 10
2.080302756032644
 20
4.633447439704285
 30
0.0
 70
     8
  0
VERTEX
  5
2D48
330
2D31
100
AcDbEntity
  8
Image
  6
Continuous
100
AcDbVertex
100
AcDb2dVertex
 10
2.073351083910516
 20
4.586869274194082
 30
0.0
 70
     8
  0
VERTEX
  5
2D49
330
2D31
100
AcDbEntity
  8
Image
  6
Continuous
100
AcDbVertex
100
AcDb2dVertex
 10
2.066344935830606
 20
4.542832974526348
 30
0.0
 70
     8
  0
VERTEX
  5
2D4A
330
2D31
100
AcDbEntity
  8
Image
  6
Continuous
100
AcDbVertex
100
AcDb2dVertex
 10
2.059309396676919
 20
4.501247752443759
 30
0.0
 70
     8
  0
VERTEX
  5
2D4B
330
2D31
100
AcDbEntity
  8
Image
  6
Continuous
100
AcDbVertex
100
AcDb2dVertex
 10
2.052269551333449
 20
4.462022819688991
 30
0.0
 70
     8
  0
VERTEX
  5
2D4C
330
2D31
100
AcDbEntity
  8
Image
  6
Continuous
100
AcDbVertex
100
AcDb2dVertex
 10
2.045250484684203
 20
4.42506738800472
 30
0.0
 70
     8
  0
VERTEX
  5
2D4D
330
2D31
100
AcDbEntity
  8
Image
  6
Continuous
100
AcDbVertex
100
AcDb2dVertex
 10
2.038277281613172
 20
4.390290669133621
 30
0.0
 70
     8
  0
VERTEX
  5
2D4E
330
2D31
100
AcDbEntity
  8
Image
  6
Continuous
100
AcDbVertex
100
AcDb2dVertex
 10
2.031375027004365
 20
4.357601874818371
 30
0.0
 70
     8
  0
VERTEX
  5
2D4F
330
2D31
100
AcDbEntity
  8
Image
  6
Continuous
100
AcDbVertex
100
AcDb2dVertex
 10
2.024568805741782
 20
4.326910216801646
 30
0.0
 70
     8
  0
VERTEX
  5
2D50
330
2D31
100
AcDbEntity
  8
Image
  6
Continuous
100
AcDbVertex
100
AcDb2dVertex
 10
2.017843734575343
 20
4.298111113791406
 30
0.0
 70
     8
  0
VERTEX
  5
2D51
330
2D31
100
AcDbEntity
  8
Image
  6
Continuous
100
AcDbVertex
100
AcDb2dVertex
 10
2.01102505771869
 20
4.271044812356761
 30
0.0
 70
     8
  0
VERTEX
  5
2D52
330
2D31
100
AcDbEntity
  8
Image
  6
Continuous
100
AcDbVertex
100
AcDb2dVertex
 10
2.00389805125139
 20
4.245537766032102
 30
0.0
 70
     8
  0
VERTEX
  5
2D53
330
2D31
100
AcDbEntity
  8
Image
  6
Continuous
100
AcDbVertex
100
AcDb2dVertex
 10
1.996247991253007
 20
4.221416428351822
 30
0.0
 70
     8
  0
VERTEX
  5
2D54
330
2D31
100
AcDbEntity
  8
Image
  6
Continuous
100
AcDbVertex
100
AcDb2dVertex
 10
1.987860153803104
 20
4.198507252850316
 30
0.0
 70
     8
  0
VERTEX
  5
2D55
330
2D31
100
AcDbEntity
  8
Image
  6
Continuous
100
AcDbVertex
100
AcDb2dVertex
 10
1.978519814981254
 20
4.176636693061976
 30
0.0
 70
     8
  0
VERTEX
  5
2D56
330
2D31
100
AcDbEntity
  8
Image
  6
Continuous
100
AcDbVertex
100
AcDb2dVertex
 10
1.968012250867019
 20
4.155631202521194
 30
0.0
 70
     8
  0
VERTEX
  5
2D57
330
2D31
100
AcDbEntity
  8
Image
  6
Continuous
100
AcDbVertex
100
AcDb2dVertex
 10
1.956122737539963
 20
4.135317234762364
 30
0.0
 70
     8
  0
VERTEX
  5
2D58
330
2D31
100
AcDbEntity
  8
Image
  6
Continuous
100
AcDbVertex
100
AcDb2dVertex
 10
1.942688263688772
 20
4.115569733361882
 30
0.0
 70
     8
  0
VERTEX
  5
2D59
330
2D31
100
AcDbEntity
  8
Image
  6
Continuous
100
AcDbVertex
100
AcDb2dVertex
 10
1.927752668438589
 20
4.096457602064143
 30
0.0
 70
     8
  0
VERTEX
  5
2D5A
330
2D31
100
AcDbEntity
  8
Image
  6
Continuous
100
AcDbVertex
100
AcDb2dVertex
 10
1.91141150352367
 20
4.078098234655543
 30
0.0
 70
     8
  0
VERTEX
  5
2D5B
330
2D31
100
AcDbEntity
  8
Image
  6
Continuous
100
AcDbVertex
100
AcDb2dVertex
 10
1.893760320678271
 20
4.060609024922483
 30
0.0
 70
     8
  0
VERTEX
  5
2D5C
330
2D31
100
AcDbEntity
  8
Image
  6
Continuous
100
AcDbVertex
100
AcDb2dVertex
 10
1.874894671636656
 20
4.044107366651358
 30
0.0
 70
     8
  0
VERTEX
  5
2D5D
330
2D31
100
AcDbEntity
  8
Image
  6
Continuous
100
AcDbVertex
100
AcDb2dVertex
 10
1.854910108133083
 20
4.028710653628564
 30
0.0
 70
     8
  0
VERTEX
  5
2D5E
330
2D31
100
AcDbEntity
  8
Image
  6
Continuous
100
AcDbVertex
100
AcDb2dVertex
 10
1.833902181901809
 20
4.014536279640504
 30
0.0
 70
     8
  0
VERTEX
  5
2D5F
330
2D31
100
AcDbEntity
  8
Image
  6
Continuous
100
AcDbVertex
100
AcDb2dVertex
 10
1.811966444677096
 20
4.001701638473569
 30
0.0
 70
     8
  0
VERTEX
  5
2D60
330
2D31
100
AcDbEntity
  8
Image
  6
Continuous
100
AcDbVertex
100
AcDb2dVertex
 10
1.789141949943392
 20
3.990286509708269
 30
0.0
 70
     8
  0
VERTEX
  5
2D61
330
2D31
100
AcDbEntity
  8
Image
  6
Continuous
100
AcDbVertex
100
AcDb2dVertex
 10
1.765241758185933
 20
3.980220216101536
 30
0.0
 70
     8
  0
VERTEX
  5
2D62
330
2D31
100
AcDbEntity
  8
Image
  6
Continuous
100
AcDbVertex
100
AcDb2dVertex
 10
1.740022431640152
 20
3.971394466204416
 30
0.0
 70
     8
  0
VERTEX
  5
2D63
330
2D31
100
AcDbEntity
  8
Image
  6
Continuous
100
AcDbVertex
100
AcDb2dVertex
 10
1.713240532541476
 20
3.96370096856795
 30
0.0
 70
     8
  0
VERTEX
  5
2D64
330
2D31
100
AcDbEntity
  8
Image
  6
Continuous
100
AcDbVertex
100
AcDb2dVertex
 10
1.684652623125334
 20
3.957031431743182
 30
0.0
 70
     8
  0
VERTEX
  5
2D65
330
2D31
100
AcDbEntity
  8
Image
  6
Continuous
100
AcDbVertex
100
AcDb2dVertex
 10
1.654015265627158
 20
3.951277564281155
 30
0.0
 70
     8
  0
VERTEX
  5
2D66
330
2D31
100
AcDbEntity
  8
Image
  6
Continuous
100
AcDbVertex
100
AcDb2dVertex
 10
1.621085022282375
 20
3.946331074732914
 30
0.0
 70
     8
  0
VERTEX
  5
2D67
330
2D31
100
AcDbEntity
  8
Image
  6
Continuous
100
AcDbVertex
100
AcDb2dVertex
 10
1.585618455326414
 20
3.9420836716495
 30
0.0
 70
     8
  0
VERTEX
  5
2D68
330
2D31
100
AcDbEntity
  8
Image
  6
Continuous
100
AcDbVertex
100
AcDb2dVertex
 10
1.547532003731099
 20
3.938434849219681
 30
0.0
 70
     8
  0
VERTEX
  5
2D69
330
2D31
100
AcDbEntity
  8
Image
  6
Continuous
100
AcDbVertex
100
AcDb2dVertex
 10
1.507381613413816
 20
3.935315244183127
 30
0.0
 70
     8
  0
VERTEX
  5
2D6A
330
2D31
100
AcDbEntity
  8
Image
  6
Continuous
100
AcDbVertex
100
AcDb2dVertex
 10
1.465883107028332
 20
3.932663278917234
 30
0.0
 70
     8
  0
VERTEX
  5
2D6B
330
2D31
100
AcDbEntity
  8
Image
  6
Continuous
100
AcDbVertex
100
AcDb2dVertex
 10
1.423752307228422
 20
3.930417375799394
 30
0.0
 70
     8
  0
VERTEX
  5
2D6C
330
2D31
100
AcDbEntity
  8
Image
  6
Continuous
100
AcDbVertex
100
AcDb2dVertex
 10
1.381705036667867
 20
3.928515957207002
 30
0.0
 70
     8
  0
VERTEX
  5
2D6D
330
2D31
100
AcDbEntity
  8
Image
  6
Continuous
100
AcDbVertex
100
AcDb2dVertex
 10
1.340457118000436
 20
3.926897445517453
 30
0.0
 70
     8
  0
VERTEX
  5
2D6E
330
2D31
100
AcDbEntity
  8
Image
  6
Continuous
100
AcDbVertex
100
AcDb2dVertex
 10
1.300724373879909
 20
3.925500263108141
 30
0.0
 70
     8
  0
VERTEX
  5
2D6F
330
2D31
100
AcDbEntity
  8
Image
  6
Continuous
100
AcDbVertex
100
AcDb2dVertex
 10
1.26322262696005
 20
3.92426283235646
 30
0.0
 70
     8
  0
VERTEX
  5
2D70
330
2D31
100
AcDbEntity
  8
Image
  6
Continuous
100
AcDbVertex
100
AcDb2dVertex
 10
1.228479841607342
 20
3.923130770618459
 30
0.0
 70
     8
  0
VERTEX
  5
2D71
330
2D31
100
AcDbEntity
  8
Image
  6
Continuous
100
AcDbVertex
100
AcDb2dVertex
 10
1.196272549039044
 20
3.922078475164804
 30
0.0
 70
     8
  0
VERTEX
  5
2D72
330
2D31
100
AcDbEntity
  8
Image
  6
Continuous
100
AcDbVertex
100
AcDb2dVertex
 10
1.166189422185112
 20
3.921087538244814
 30
0.0
 70
     8
  0
VERTEX
  5
2D73
330
2D31
100
AcDbEntity
  8
Image
  6
Continuous
100
AcDbVertex
100
AcDb2dVertex
 10
1.137819133975508
 20
3.920139552107807
 30
0.0
 70
     8
  0
VERTEX
  5
2D74
330
2D31
100
AcDbEntity
  8
Image
  6
Continuous
100
AcDbVertex
100
AcDb2dVertex
 10
1.110750357340194
 20
3.919216109003105
 30
0.0
 70
     8
  0
VERTEX
  5
2D75
330
2D31
100
AcDbEntity
  8
Image
  6
Continuous
100
AcDbVertex
100
AcDb2dVertex
 10
1.084571765209126
 20
3.918298801180026
 30
0.0
 70
     8
  0
VERTEX
  5
2D76
330
2D31
100
AcDbEntity
  8
Image
  6
Continuous
100
AcDbVertex
100
AcDb2dVertex
 10
1.058872030512269
 20
3.917369220887889
 30
0.0
 70
     8
  0
VERTEX
  5
2D77
330
2D31
100
AcDbEntity
  8
Image
  6
Continuous
100
AcDbVertex
100
AcDb2dVertex
 10
1.033239826179581
 20
3.916408960376015
 30
0.0
 70
     8
  0
VERTEX
  5
2D78
330
2D31
100
AcDbEntity
  8
Image
  6
Continuous
100
AcDbVertex
100
AcDb2dVertex
 10
1.007038721071737
 20
3.9153730233705
 30
0.0
 70
     8
  0
VERTEX
  5
2D79
330
2D31
100
AcDbEntity
  8
Image
  6
Continuous
100
AcDbVertex
100
AcDb2dVertex
 10
0.9787318677722964
 20
3.914110059504553
 30
0.0
 70
     8
  0
VERTEX
  5
2D7A
330
2D31
100
AcDbEntity
  8
Image
  6
Continuous
100
AcDbVertex
100
AcDb2dVertex
 10
0.9465573147955304
 20
3.912442129888163
 30
0.0
 70
     8
  0
VERTEX
  5
2D7B
330
2D31
100
AcDbEntity
  8
Image
  6
Continuous
100
AcDbVertex
100
AcDb2dVertex
 10
0.9087531106557129
 20
3.910191295631315
 30
0.0
 70
     8
  0
VERTEX
  5
2D7C
330
2D31
100
AcDbEntity
  8
Image
  6
Continuous
100
AcDbVertex
100
AcDb2dVertex
 10
0.8635573038671147
 20
3.907179617843997
 30
0.0
 70
     8
  0
VERTEX
  5
2D7D
330
2D31
100
AcDbEntity
  8
Image
  6
Continuous
100
AcDbVertex
100
AcDb2dVertex
 10
0.8092079429440133
 20
3.903229157636194
 30
0.0
 70
     8
  0
VERTEX
  5
2D7E
330
2D31
100
AcDbEntity
  8
Image
  6
Continuous
100
AcDbVertex
100
AcDb2dVertex
 10
0.7439430764006794
 20
3.898161976117896
 30
0.0
 70
     8
  0
VERTEX
  5
2D7F
330
2D31
100
AcDbEntity
  8
Image
  6
Continuous
100
AcDbVertex
100
AcDb2dVertex
 10
0.6660007527513834
 20
3.891800134399087
 30
0.0
 70
     8
  0
VERTEX
  5
2D34
330
2D31
100
AcDbEntity
  8
Image
  6
Continuous
100
AcDbVertex
100
AcDb2dVertex
 10
2.116339827134947
 20
4.9168856764161
 30
0.0
 70
    16
  0
VERTEX
  5
2D35
330
2D31
100
AcDbEntity
  8
Image
  6
Continuous
100
AcDbVertex
100
AcDb2dVertex
 10
2.081151405011627
 20
4.605365795973156
 30
0.0
 70
    16
  0
VERTEX
  5
2D36
330
2D31
100
AcDbEntity
  8
Image
  6
Continuous
100
AcDbVertex
100
AcDb2dVertex
 10
2.023276877952767
 20
4.306575837695509
 30
0.0
 70
    16
  0
VERTEX
  5
2D37
330
2D31
100
AcDbEntity
  8
Image
  6
Continuous
100
AcDbVertex
100
AcDb2dVertex
 10
1.973153917627996
 20
4.129792154054678
 30
0.0
 70
    16
  0
VERTEX
  5
2D38
330
2D31
100
AcDbEntity
  8
Image
  6
Continuous
100
AcDbVertex
100
AcDb2dVertex
 10
1.820843876775047
 20
3.986158954659965
 30
0.0
 70
    16
  0
VERTEX
  5
2D39
330
2D31
100
AcDbEntity
  8
Image
  6
Continuous
100
AcDbVertex
100
AcDb2dVertex
 10
1.615269243334378
 20
3.935781858146878
 30
0.0
 70
    16
  0
VERTEX
  5
2D3A
330
2D31
100
AcDbEntity
  8
Image
  6
Continuous
100
AcDbVertex
100
AcDb2dVertex
 10
1.23178988184593
 20
3.923215642649517
 30
0.0
 70
    16
  0
VERTEX
  5
2D3B
330
2D31
100
AcDbEntity
  8
Image
  6
Continuous
100
AcDbVertex
100
AcDb2dVertex
 10
1.036906991042215
 20
3.916932565393811
 30
0.0
 70
    16
  0
VERTEX
  5
2D3C
330
2D31
100
AcDbEntity
  8
Image
  6
Continuous
100
AcDbVertex
100
AcDb2dVertex
 10
0.8923164043892057
 20
3.910649427152157
 30
0.0
 70
    16
  0
VERTEX
  5
2D3D
330
2D31
100
AcDbEntity
  8
Image
  6
Continuous
100
AcDbVertex
100
AcDb2dVertex
 10
0.666000752751387
 20
3.891800134399088
 30
0.0
 70
    16
  0
SEQEND
  5
2D3E
330
2D31
100
AcDbEntity
  8
Image
  6
Continuous
  0
LWPOLYLINE
  5
2DDE
330
2613
100
AcDbEntity
  8
Image
100
AcDbPolyline
 90
        3
 70
     0
 43
0.0
 10
5.782324354556905
 20
4.686115054587155
 42
-0.5291747719520333
 10
5.782324354556905
 20
4.720931414282079
 42
0.5001668032613813
 10
5.782324354556905
 20
4.755747773977002
  0
LWPOLYLINE
  5
2DDF
330
2613
100
AcDbEntity
  8
Image
100
AcDbPolyline
 90
        3
 70
     0
 43
0.0
 10
5.719335085203837
 20
4.632845658901231
 42
-0.5291747719520333
 10
5.719335085203837
 20
4.667662018596155
 42
0.5001668032613813
 10
5.719335085203837
 20
4.702478378291079
  0
INSERT
  5
2DED
330
2613
100
AcDbEntity
  8
TEXT_BUBBLES
100
AcDbBlockReference
 66
     1
  2
bubble
 10
4.460577397446083
 20
5.558946324648662
 30
0.0
  0
ATTRIB
  5
2DEE
330
2DED
100
AcDbEntity
  8
TEXT_BUBBLES
100
AcDbText
 10
4.398077397446083
 20
5.496446324648662
 30
0.0
 40
0.125
  1
6
  7
ROMANS
 72
     4
 11
4.460577397446083
 21
5.558946324648662
 31
0.0
100
AcDbAttribute
  2
XX
 70
     0
  0
SEQEND
  5
2DEF
330
2DED
100
AcDbEntity
  8
TEXT_BUBBLES
  0
INSERT
  5
2DF4
330
2613
100
AcDbEntity
  8
TEXT_BUBBLES
100
AcDbBlockReference
 66
     1
  2
bubble
 10
4.442247175370962
 20
5.140645327792251
 30
0.0
  0
ATTRIB
  5
2DF5
330
2DF4
100
AcDbEntity
  8
TEXT_BUBBLES
100
AcDbText
 10
4.379747175370962
 20
5.078145327792251
 30
0.0
 40
0.125
  1
4
  7
ROMANS
 72
     4
 11
4.442247175370962
 21
5.140645327792251
 31
0.0
100
AcDbAttribute
  2
XX
 70
     0
  0
SEQEND
  5
2DF6
330
2DF4
100
AcDbEntity
  8
TEXT_BUBBLES
  0
INSERT
  5
2DFE
330
2613
100
AcDbEntity
  8
TEXT_BUBBLES
100
AcDbBlockReference
 66
     1
  2
bubble
 10
4.460577397446083
 20
4.802535477824235
 30
0.0
  0
ATTRIB
  5
2DFF
330
2DFE
100
AcDbEntity
  8
TEXT_BUBBLES
100
AcDbText
 10
4.401053587922274
 20
4.740035477824235
 30
0.0
 40
0.125
  1
8
  7
ROMANS
 72
     4
 11
4.460577397446083
 21
4.802535477824235
 31
0.0
100
AcDbAttribute
  2
XX
 70
     0
  0
SEQEND
  5
2E00
330
2DFE
100
AcDbEntity
  8
TEXT_BUBBLES
  0
INSERT
  5
2E01
330
2613
100
AcDbEntity
  8
TEXT_BUBBLES
100
AcDbBlockReference
 66
     1
  2
bubble
 10
1.503799969327623
 20
3.436075787471341
 30
0.0
  0
ATTRIB
  5
2E02
330
2E01
100
AcDbEntity
  8
TEXT_BUBBLES
100
AcDbText
 10
1.444276159803813
 20
3.373575787471341
 30
0.0
 40
0.125
  1
2
  7
ROMANS
 72
     4
 11
1.503799969327623
 21
3.436075787471341
 31
0.0
100
AcDbAttribute
  2
XX
 70
     0
  0
SEQEND
  5
2E03
330
2E01
100
AcDbEntity
  8
TEXT_BUBBLES
  0
INSERT
  5
2E08
330
2613
100
AcDbEntity
  8
TEXT_BUBBLES
100
AcDbBlockReference
 66
     1
  2
bubble
 10
0.6715311370019137
 20
4.259864604250482
 30
0.0
  0
ATTRIB
  5
2E09
330
2E08
100
AcDbEntity
  8
TEXT_BUBBLES
100
AcDbText
 10
0.6209358989066756
 20
4.197364604250482
 30
0.0
 40
0.125
  1
1
  7
ROMANS
 72
     4
 11
0.6715311370019137
 21
4.259864604250482
 31
0.0
100
AcDbAttribute
  2
XX
 70
     0
  0
SEQEND
  5
2E0A
330
2E08
100
AcDbEntity
  8
TEXT_BUBBLES
  0
INSERT
  5
2E0D
330
2613
100
AcDbEntity
  8
TEXT_BUBBLES
100
AcDbBlockReference
 66
     1
  2
bubble
 10
8.546016617232133
 20
6.803963119683572
 30
0.0
  0
ATTRIB
  5
2E0E
330
2E0D
100
AcDbEntity
  8
TEXT_BUBBLES
100
AcDbText
 10
8.486492807708323
 20
6.741463119683572
 30
0.0
 40
0.125
  1
5
  7
ROMANS
 72
     4
 11
8.546016617232133
 21
6.803963119683572
 31
0.0
100
AcDbAttribute
  2
XX
 70
     0
  0
SEQEND
  5
2E0F
330
2E0D
100
AcDbEntity
  8
TEXT_BUBBLES
  0
INSERT
  5
2E12
330
2613
100
AcDbEntity
  8
TEXT_BUBBLES
100
AcDbBlockReference
 66
     1
  2
bubble
 10
7.526084317951781
 20
7.140909893433013
 30
0.0
  0
ATTRIB
  5
2E13
330
2E12
100
AcDbEntity
  8
TEXT_BUBBLES
100
AcDbText
 10
7.469536698904162
 20
7.078409893433013
 30
0.0
 40
0.125
  1
9
  7
ROMANS
 72
     4
 11
7.526084317951781
 21
7.140909893433013
 31
0.0
100
AcDbAttribute
  2
XX
 70
     0
  0
SEQEND
  5
2E14
330
2E12
100
AcDbEntity
  8
TEXT_BUBBLES
  0
INSERT
  5
2E19
330
2613
100
AcDbEntity
  8
TEXT_BUBBLES
100
AcDbBlockReference
 66
     1
  2
bubble
 10
8.594324082792621
 20
5.177856722767598
 30
0.0
  0
ATTRIB
  5
2E1A
330
2E19
100
AcDbEntity
  8
TEXT_BUBBLES
100
AcDbText
 10
8.484205035173573
 20
5.115356722767598
 30
0.0
 40
0.125
  1
11
  7
ROMANS
 72
     4
 11
8.594324082792621
 21
5.177856722767598
 31
0.0
100
AcDbAttribute
  2
XX
 70
     0
  0
SEQEND
  5
2E1B
330
2E19
100
AcDbEntity
  8
TEXT_BUBBLES
  0
POLYLINE
  5
2E5F
330
2613
100
AcDbEntity
  8
Image
100
AcDb2dPolyline
 66
     1
 10
0.0
 20
0.0
 30
0.0
 70
     4
 40
0.0187621757461311
 41
0.0187621757461311
 75
     6
  0
VERTEX
  5
2E60
330
2E5F
100
AcDbEntity
  8
Image
100
AcDbVertex
100
AcDb2dVertex
 10
5.759541561256362
 20
6.466941160254329
 30
0.0
 70
    16
  0
VERTEX
  5
2E61
330
2E5F
100
AcDbEntity
  8
Image
100
AcDbVertex
100
AcDb2dVertex
 10
5.759541561256362
 20
6.466941160254329
 30
0.0
 70
     8
  0
VERTEX
  5
2E62
330
2E5F
100
AcDbEntity
  8
Image
100
AcDbVertex
100
AcDb2dVertex
 10
5.761461482713084
 20
6.501259930392368
 30
0.0
 70
     8
  0
VERTEX
  5
2E63
330
2E5F
100
AcDbEntity
  8
Image
100
AcDbVertex
100
AcDb2dVertex
 10
5.764669795707646
 20
6.5280676467308
 30
0.0
 70
     8
  0
VERTEX
  5
2E64
330
2E5F
100
AcDbEntity
  8
Image
100
AcDbVertex
100
AcDb2dVertex
 10
5.769112615013007
 20
6.548380149040376
 30
0.0
 70
     8
  0
VERTEX
  5
2E65
330
2E5F
100
AcDbEntity
  8
Image
100
AcDbVertex
100
AcDb2dVertex
 10
5.774736055402126
 20
6.563213277091842
 30
0.0
 70
     8
  0
VERTEX
  5
2E66
330
2E5F
100
AcDbEntity
  8
Image
100
AcDbVertex
100
AcDb2dVertex
 10
5.78148623164796
 20
6.57358287065595
 30
0.0
 70
     8
  0
VERTEX
  5
2E67
330
2E5F
100
AcDbEntity
  8
Image
100
AcDbVertex
100
AcDb2dVertex
 10
5.789309258523463
 20
6.58050476950345
 30
0.0
 70
     8
  0
VERTEX
  5
2E68
330
2E5F
100
AcDbEntity
  8
Image
100
AcDbVertex
100
AcDb2dVertex
 10
5.798151250801605
 20
6.584994813405092
 30
0.0
 70
     8
  0
VERTEX
  5
2E69
330
2E5F
100
AcDbEntity
  8
Image
100
AcDbVertex
100
AcDb2dVertex
 10
5.807958323255341
 20
6.588068842131622
 30
0.0
 70
     8
  0
VERTEX
  5
2E6A
330
2E5F
100
AcDbEntity
  8
Image
100
AcDbVertex
100
AcDb2dVertex
 10
5.818714909227395
 20
6.590578850987983
 30
0.0
 70
     8
  0
VERTEX
  5
2E6B
330
2E5F
100
AcDbEntity
  8
Image
100
AcDbVertex
100
AcDb2dVertex
 10
5.830558716339556
 20
6.592721457415867
 30
0.0
 70
     8
  0
VERTEX
  5
2E6C
330
2E5F
100
AcDbEntity
  8
Image
100
AcDbVertex
100
AcDb2dVertex
 10
5.843665770783388
 20
6.594529434391155
 30
0.0
 70
     8
  0
VERTEX
  5
2E6D
330
2E5F
100
AcDbEntity
  8
Image
100
AcDbVertex
100
AcDb2dVertex
 10
5.858212098750438
 20
6.596035554889729
 30
0.0
 70
     8
  0
VERTEX
  5
2E6E
330
2E5F
100
AcDbEntity
  8
Image
100
AcDbVertex
100
AcDb2dVertex
 10
5.874373726432263
 20
6.597272591887469
 30
0.0
 70
     8
  0
VERTEX
  5
2E6F
330
2E5F
100
AcDbEntity
  8
Image
100
AcDbVertex
100
AcDb2dVertex
 10
5.892326680020424
 20
6.598273318360257
 30
0.0
 70
     8
  0
VERTEX
  5
2E70
330
2E5F
100
AcDbEntity
  8
Image
100
AcDbVertex
100
AcDb2dVertex
 10
5.912246985706474
 20
6.599070507283975
 30
0.0
 70
     8
  0
VERTEX
  5
2E71
330
2E5F
100
AcDbEntity
  8
Image
100
AcDbVertex
100
AcDb2dVertex
 10
5.93431066968197
 20
6.599696931634504
 30
0.0
 70
     8
  0
VERTEX
  5
2E72
330
2E5F
100
AcDbEntity
  8
Image
100
AcDbVertex
100
AcDb2dVertex
 10
5.958545343868237
 20
6.600182777050024
 30
0.0
 70
     8
  0
VERTEX
  5
2E73
330
2E5F
100
AcDbEntity
  8
Image
100
AcDbVertex
100
AcDb2dVertex
 10
5.984384963105693
 20
6.600547879817899
 30
0.0
 70
     8
  0
VERTEX
  5
2E74
330
2E5F
100
AcDbEntity
  8
Image
100
AcDbVertex
100
AcDb2dVertex
 10
6.011115067964517
 20
6.600809488887795
 30
0.0
 70
     8
  0
VERTEX
  5
2E75
330
2E5F
100
AcDbEntity
  8
Image
100
AcDbVertex
100
AcDb2dVertex
 10
6.038021199014892
 20
6.600984853209372
 30
0.0
 70
     8
  0
VERTEX
  5
2E76
330
2E5F
100
AcDbEntity
  8
Image
100
AcDbVertex
100
AcDb2dVertex
 10
6.064388896827018
 20
6.601091221732296
 30
0.0
 70
     8
  0
VERTEX
  5
2E77
330
2E5F
100
AcDbEntity
  8
Image
100
AcDbVertex
100
AcDb2dVertex
 10
6.089503701971068
 20
6.60114584340623
 30
0.0
 70
     8
  0
VERTEX
  5
2E78
330
2E5F
100
AcDbEntity
  8
Image
100
AcDbVertex
100
AcDb2dVertex
 10
6.112651155017221
 20
6.601165967180836
 30
0.0
 70
     8
  0
VERTEX
  5
2E79
330
2E5F
100
AcDbEntity
  8
Image
100
AcDbVertex
100
AcDb2dVertex
 10
6.133116796535674
 20
6.601168842005781
 30
0.0
 70
     8
  0
VERTEX
  5
2E7A
330
2E5F
100
AcDbEntity
  8
Image
100
AcDbVertex
100
AcDb2dVertex
 10
6.150379450803363
 20
6.601178616397934
 30
0.0
 70
     8
  0
VERTEX
  5
2E7B
330
2E5F
100
AcDbEntity
  8
Image
100
AcDbVertex
100
AcDb2dVertex
 10
6.164691076924214
 20
6.601247037142998
 30
0.0
 70
     8
  0
VERTEX
  5
2E7C
330
2E5F
100
AcDbEntity
  8
Image
100
AcDbVertex
100
AcDb2dVertex
 10
6.176496917708913
 20
6.601432750593884
 30
0.0
 70
     8
  0
VERTEX
  5
2E7D
330
2E5F
100
AcDbEntity
  8
Image
100
AcDbVertex
100
AcDb2dVertex
 10
6.186242215968157
 20
6.601794403103506
 30
0.0
 70
     8
  0
VERTEX
  5
2E7E
330
2E5F
100
AcDbEntity
  8
Image
100
AcDbVertex
100
AcDb2dVertex
 10
6.194372214512622
 20
6.602390641024774
 30
0.0
 70
     8
  0
VERTEX
  5
2E7F
330
2E5F
100
AcDbEntity
  8
Image
100
AcDbVertex
100
AcDb2dVertex
 10
6.201332156152993
 20
6.603280110710601
 30
0.0
 70
     8
  0
VERTEX
  5
2E80
330
2E5F
100
AcDbEntity
  8
Image
100
AcDbVertex
100
AcDb2dVertex
 10
6.207567283699955
 20
6.604521458513898
 30
0.0
 70
     8
  0
VERTEX
  5
2E81
330
2E5F
100
AcDbEntity
  8
Image
100
AcDbVertex
100
AcDb2dVertex
 10
6.213522839964198
 20
6.606173330787575
 30
0.0
 70
     8
  0
VERTEX
  5
2E82
330
2E5F
100
AcDbEntity
  8
Image
100
AcDbVertex
100
AcDb2dVertex
 10
6.219567272006887
 20
6.608272812733067
 30
0.0
 70
     8
  0
VERTEX
  5
2E83
330
2E5F
100
AcDbEntity
  8
Image
100
AcDbVertex
100
AcDb2dVertex
 10
6.225761843891099
 20
6.610770744945879
 30
0.0
 70
     8
  0
VERTEX
  5
2E84
330
2E5F
100
AcDbEntity
  8
Image
100
AcDbVertex
100
AcDb2dVertex
 10
6.232091023930411
 20
6.613596406870042
 30
0.0
 70
     8
  0
VERTEX
  5
2E85
330
2E5F
100
AcDbEntity
  8
Image
100
AcDbVertex
100
AcDb2dVertex
 10
6.238539280438367
 20
6.616679077949584
 30
0.0
 70
     8
  0
VERTEX
  5
2E86
330
2E5F
100
AcDbEntity
  8
Image
100
AcDbVertex
100
AcDb2dVertex
 10
6.245091081728546
 20
6.619948037628532
 30
0.0
 70
     8
  0
VERTEX
  5
2E87
330
2E5F
100
AcDbEntity
  8
Image
100
AcDbVertex
100
AcDb2dVertex
 10
6.251730896114494
 20
6.623332565350914
 30
0.0
 70
     8
  0
VERTEX
  5
2E88
330
2E5F
100
AcDbEntity
  8
Image
100
AcDbVertex
100
AcDb2dVertex
 10
6.258443191909794
 20
6.626761940560761
 30
0.0
 70
     8
  0
VERTEX
  5
2E89
330
2E5F
100
AcDbEntity
  8
Image
100
AcDbVertex
100
AcDb2dVertex
 10
6.265212437427987
 20
6.6301654427021
 30
0.0
 70
     8
  0
VERTEX
  5
2E8A
330
2E5F
100
AcDbEntity
  8
Image
100
AcDbVertex
100
AcDb2dVertex
 10
6.272661627564449
 20
6.633470626295515
 30
0.0
 70
     8
  0
VERTEX
  5
2E8B
330
2E5F
100
AcDbEntity
  8
Image
100
AcDbVertex
100
AcDb2dVertex
 10
6.283967863541743
 20
6.636598146167806
 30
0.0
 70
     8
  0
VERTEX
  5
2E8C
330
2E5F
100
AcDbEntity
  8
Image
100
AcDbVertex
100
AcDb2dVertex
 10
6.302946773164226
 20
6.639466932222331
 30
0.0
 70
     8
  0
VERTEX
  5
2E8D
330
2E5F
100
AcDbEntity
  8
Image
100
AcDbVertex
100
AcDb2dVertex
 10
6.333413984236262
 20
6.641995914362446
 30
0.0
 70
     8
  0
VERTEX
  5
2E8E
330
2E5F
100
AcDbEntity
  8
Image
100
AcDbVertex
100
AcDb2dVertex
 10
6.379185124562223
 20
6.644104022491506
 30
0.0
 70
     8
  0
VERTEX
  5
2E8F
330
2E5F
100
AcDbEntity
  8
Image
100
AcDbVertex
100
AcDb2dVertex
 10
6.444075821946455
 20
6.64571018651287
 30
0.0
 70
     8
  0
VERTEX
  5
2E90
330
2E5F
100
AcDbEntity
  8
Image
100
AcDbVertex
100
AcDb2dVertex
 10
6.531901704193334
 20
6.646733336329894
 30
0.0
 70
     8
  0
VERTEX
  5
2E91
330
2E5F
100
AcDbEntity
  8
Image
100
AcDbVertex
100
AcDb2dVertex
 10
6.646478399107223
 20
6.647092401845934
 30
0.0
 70
     8
  0
VERTEX
  5
2E92
330
2E5F
100
AcDbEntity
  8
Image
100
AcDbVertex
100
AcDb2dVertex
 10
5.762895598444252
 20
6.569375587707021
 30
0.0
 70
    16
  0
VERTEX
  5
2E93
330
2E5F
100
AcDbEntity
  8
Image
100
AcDbVertex
100
AcDb2dVertex
 10
5.798238910470775
 20
6.592337379778118
 30
0.0
 70
    16
  0
VERTEX
  5
2E94
330
2E5F
100
AcDbEntity
  8
Image
100
AcDbVertex
100
AcDb2dVertex
 10
5.909570355217955
 20
6.601168842005781
 30
0.0
 70
    16
  0
VERTEX
  5
2E95
330
2E5F
100
AcDbEntity
  8
Image
100
AcDbVertex
100
AcDb2dVertex
 10
6.169343686749218
 20
6.601168842005781
 30
0.0
 70
    16
  0
VERTEX
  5
2E96
330
2E5F
100
AcDbEntity
  8
Image
100
AcDbVertex
100
AcDb2dVertex
 10
6.211755676999235
 20
6.601168842005781
 30
0.0
 70
    16
  0
VERTEX
  5
2E97
330
2E5F
100
AcDbEntity
  8
Image
100
AcDbVertex
100
AcDb2dVertex
 10
6.264770645039021
 20
6.631195774696548
 30
0.0
 70
    16
  0
VERTEX
  5
2E98
330
2E5F
100
AcDbEntity
  8
Image
100
AcDbVertex
100
AcDb2dVertex
 10
6.301881126621413
 20
6.647092401845933
 30
0.0
 70
    16
  0
VERTEX
  5
2E99
330
2E5F
100
AcDbEntity
  8
Image
100
AcDbVertex
100
AcDb2dVertex
 10
6.646478399107223
 20
6.647092401845933
 30
0.0
 70
    16
  0
SEQEND
  5
2E9A
330
2E5F
100
AcDbEntity
  8
Image
  0
INSERT
  5
2E9F
330
2613
100
AcDbEntity
  8
TEXT_BUBBLES
100
AcDbBlockReference
 66
     1
  2
bubble
 10
6.43662671140467
 20
7.123487617468027
 30
0.0
  0
ATTRIB
  5
2EA0
330
2E9F
100
AcDbEntity
  8
TEXT_BUBBLES
100
AcDbText
 10
6.308650520928479
 20
7.060987617468027
 30
0.0
 40
0.125
  1
12
  7
ROMANS
 72
     4
 11
6.43662671140467
 21
7.123487617468027
 31
0.0
100
AcDbAttribute
  2
XX
 70
     0
  0
SEQEND
  5
2EA1
330
2E9F
100
AcDbEntity
  8
TEXT_BUBBLES
  0
LINE
  5
2EA2
330
2613
100
AcDbEntity
  8
Image
  6
Continuous
100
AcDbLine
 10
6.890697884587538
 20
6.770877128584222
 30
0.0
 11
6.890697884587538
 21
6.770877128584222
 31
0.0
  0
LINE
  5
2EA3
330
2613
100
AcDbEntity
  8
Image
  6
Continuous
100
AcDbLine
 10
6.736845507347958
 20
6.770877128584222
 30
0.0
 11
6.890697884587538
 21
6.770877128584222
 31
0.0
  0
LINE
  5
2EA4
330
2613
100
AcDbEntity
  8
Image
  6
Continuous
100
AcDbLine
 10
5.267586892528456
 20
4.764134674389154
 30
0.0
 11
5.267586892528456
 21
4.610282297149577
 31
0.0
  0
DIMENSION
  5
2EA5
102
{ACAD_XDICTIONARY
360
2EB3
102
}
102
{ACAD_REACTORS
330
2EBE
102
}
330
2613
100
AcDbEntity
  8
Image
  6
Continuous
100
AcDbDimension
  2
*D5
 10
8.180214671756871
 20
3.796404268478558
 30
0.0
 11
6.74347198391163
 21
3.796404268478558
 31
0.0
 70
    32
  1
32"
 71
     5
 42
2.873485375690481
  3
STANDARD
100
AcDbAlignedDimension
 13
5.306729296066389
 23
4.36598742709434
 33
0.0
 14
8.180214671756871
 24
4.36598742709434
 34
0.0
100
AcDbRotatedDimension
1001
ACAD
1000
DSTYLE
1002
{
1070
   340
1005
2657
1070
   140
1040
0.125
1002
}
  0
DIMENSION
  5
2EDD
102
{ACAD_XDICTIONARY
360
2EEB
102
}
102
{ACAD_REACTORS
330
2EF6
102
}
330
2613
100
AcDbEntity
  8
Image
  6
Continuous
100
AcDbDimension
  2
*D6
 10
9.072485355743797
 20
6.478919212259288
 30
0.0
 11
9.072485355743795
 21
5.422453319676815
 31
0.0
 70
    32
  1
24"
 71
     5
 42
2.112931785164947
  3
STANDARD
100
AcDbAlignedDimension
 13
8.180214671756871
 23
4.36598742709434
 33
0.0
 14
8.430937648744521
 24
6.478919212259288
 34
0.0
 50
90.0
100
AcDbRotatedDimension
1001
ACAD
1000
DSTYLE
1002
{
1070
   140
1040
0.125
1070
   340
1005
2657
1002
}
  0
INSERT
  5
2F62
330
2613
100
AcDbEntity
  8
Image
  6
Continuous
100
AcDbBlockReference
  2
pagesetups
 10
0.0
 20
0.0
 30
0.0
  0
INSERT
  5
2F71
330
2613
100
AcDbEntity
  8
TEXT_BUBBLES
100
AcDbBlockReference
 66
     1
  2
bubble
 10
10.55177801229765
 20
2.805647131153223
 30
0.0
  0
ATTRIB
  5
2F72
330
2F71
100
AcDbEntity
  8
TEXT_BUBBLES
100
AcDbText
 10
10.42380182182146
 20
2.743147131153223
 30
0.0
 40
0.125
  1
13
  7
ROMANS
 72
     4
 11
10.55177801229765
 21
2.805647131153223
 31
0.0
100
AcDbAttribute
  2
XX
 70
     0
  0
SEQEND
  5
2F73
330
2F71
100
AcDbEntity
  8
TEXT_BUBBLES
  0
INSERT
  5
2F74
330
2613
100
AcDbEntity
  8
TEXT_BUBBLES
100
AcDbBlockReference
 66
     1
  2
bubble
 10
7.034412918068531
 20
4.877363170325573
 30
0.0
  0
ATTRIB
  5
2F75
330
2F74
100
AcDbEntity
  8
TEXT_BUBBLES
100
AcDbText
 10
6.90643672759234
 20
4.814863170325573
 30
0.0
 40
0.125
  1
13
  7
ROMANS
 72
     4
 11
7.034412918068531
 21
4.877363170325573
 31
0.0
100
AcDbAttribute
  2
XX
 70
     0
  0
SEQEND
  5
2F76
330
2F74
100
AcDbEntity
  8
TEXT_BUBBLES
  0
HATCH
  5
2F90
330
2613
100
AcDbEntity
  8
Image
100
AcDbHatch
 10
0.0
 20
0.0
 30
0.0
210
0.0
220
0.0
230
1.0
  2
EARTH
 70
     0
 71
     0
 91
        1
 92
        1
 93
        5
 72
     1
 10
5.266181858482841
 20
6.281644344221327
 11
5.805362719491654
 21
6.281644344221327
 72
     1
 10
5.805362719491654
 20
6.281644344221327
 11
5.751257717115265
 21
6.073782983180743
 72
     1
 10
5.751257717115265
 20
6.073782983180743
 11
5.490237407410736
 21
6.004412387909185
 72
     1
 10
5.490237407410736
 20
6.004412387909185
 11
5.291182504791134
 21
6.049885732434155
 72
     1
 10
5.291182504791134
 20
6.049885732434155
 11
5.266181858482841
 21
6.281644344221327
 97
        0
 75
     0
 76
     1
 52
45.0
 41
0.5129894343033756
 77
     0
 78
     6
 53
45.0
 43
0.0
 44
0.0
 45
0.0
 46
0.1813691538364839
 79
     2
 49
0.1282473585758439
 49
-0.1282473585758439
 53
45.0
 43
-0.0340067163443407
 44
0.0340067163443407
 45
0.0
 46
0.1813691538364839
 79
     2
 49
0.1282473585758439
 49
-0.1282473585758439
 53
45.0
 43
-0.0680134326886815
 44
0.0680134326886815
 45
0.0
 46
0.1813691538364839
 79
     2
 49
0.1282473585758439
 49
-0.1282473585758439
 53
135.0
 43
-0.0680134326886815
 44
0.090684576918242
 45
-0.1813691538364839
 46
0.0
 79
     2
 49
0.1282473585758439
 49
-0.1282473585758439
 53
135.0
 43
-0.0340067163443407
 44
0.1246912932625827
 45
-0.1813691538364839
 46
0.0
 79
     2
 49
0.1282473585758439
 49
-0.1282473585758439
 53
135.0
 43
0.0
 44
0.1586980096069234
 45
-0.1813691538364839
 46
0.0
 79
     2
 49
0.1282473585758439
 49
-0.1282473585758439
 98
        1
 10
0.0
 20
0.0
  0
HATCH
  5
2F91
330
2613
100
AcDbEntity
  8
Image
100
AcDbHatch
 10
0.0
 20
0.0
 30
0.0
210
0.0
220
0.0
230
1.0
  2
EARTH
 70
     0
 71
     0
 91
        1
 92
        1
 93
        5
 72
     1
 10
8.260200497627458
 20
6.281644344221327
 11
7.721019636618645
 21
6.281644344221327
 72
     1
 10
7.721019636618645
 20
6.281644344221327
 11
7.775124638995034
 21
6.073782983180743
 72
     1
 10
7.775124638995034
 20
6.073782983180743
 11
8.036144948699563
 21
6.004412387909185
 72
     1
 10
8.036144948699563
 20
6.004412387909185
 11
8.235199851319165
 21
6.049885732434155
 72
     1
 10
8.235199851319165
 20
6.049885732434155
 11
8.260200497627458
 21
6.281644344221327
 97
        0
 75
     0
 76
     1
 52
45.0
 41
0.5129894343033756
 77
     0
 78
     6
 53
135.0
 43
13.5263823561103
 44
0.0
 45
0.0
 46
0.1813691538364839
 79
     2
 49
0.1282473585758439
 49
-0.1282473585758439
 53
135.0
 43
13.56038907245464
 44
0.0340067163443407
 45
0.0
 46
0.1813691538364839
 79
     2
 49
0.1282473585758439
 49
-0.1282473585758439
 53
135.0
 43
13.59439578879898
 44
0.0680134326886815
 45
0.0
 46
0.1813691538364839
 79
     2
 49
0.1282473585758439
 49
-0.1282473585758439
 53
45.0
 43
13.59439578879898
 44
0.090684576918242
 45
0.1813691538364839
 46
0.0
 79
     2
 49
0.1282473585758439
 49
-0.1282473585758439
 53
45.0
 43
13.56038907245464
 44
0.1246912932625827
 45
0.1813691538364839
 46
0.0
 79
     2
 49
0.1282473585758439
 49
-0.1282473585758439
 53
45.0
 43
13.5263823561103
 44
0.1586980096069234
 45
0.1813691538364839
 46
0.0
 79
     2
 49
0.1282473585758439
 49
-0.1282473585758439
 98
        1
 10
13.5263823561103
 20
0.0
  0
HATCH
  5
3002
330
2613
100
AcDbEntity
  8
Image
  6
Continuous
100
AcDbHatch
 10
0.0
 20
0.0
 30
0.0
210
0.0
220
0.0
230
1.0
  2
AR-CONC
 70
     0
 71
     0
 91
        5
 92
       23
 72
     1
 73
     1
 93
       26
 10
6.383826244805338
 20
5.535310673158084
 42
0.0
 10
6.383826244805337
 20
5.575820687328489
 42
0.0
 10
6.422773361925302
 20
5.575820687328489
 42
0.4142135623730951
 10
6.436453080173393
 20
5.58950040557658
 42
0.0
 10
6.436453080173393
 20
5.599657343211919
 42
0.0
 10
6.436453080173393
 20
6.281644344221327
 42
0.0
 10
5.805362719491654
 20
6.281644344221327
 42
0.0
 10
5.410364515489554
 20
4.764134674389155
 42
0.0
 10
5.712306641643385
 20
4.764134674389154
 42
0.0593552135674425
 10
6.061493967372117
 20
4.83656781419965
 42
0.2779412082135237
 10
6.736845507347958
 20
5.774906176482031
 42
0.0
 10
6.736845507347957
 20
6.281644344221327
 42
0.0
 10
6.619483874972768
 20
6.281644344221327
 42
0.0
 10
6.619483874972768
 20
5.599657343211919
 42
0.0
 10
6.619483874972768
 20
5.548990391406174
 42
-0.4142135623730951
 10
6.605804156724679
 20
5.535310673158084
 42
0.0
 10
6.526347025434308
 20
5.535310673158084
 42
0.0
 10
6.526347025434308
 20
5.575820687328489
 42
0.0
 10
6.565294142554273
 20
5.575820687328489
 42
0.4142135623730951
 10
6.578973860802364
 20
5.58950040557658
 42
0.0
 10
6.578973860802364
 20
5.599657343211919
 42
0.0
 10
6.578973860802364
 20
6.281644344221327
 42
0.0
 10
6.476963094343798
 20
6.281644344221327
 42
0.0
 10
6.476963094343798
 20
5.599657343211919
 42
0.0
 10
6.476963094343798
 20
5.548990391406174
 42
-0.4142135623730951
 10
6.463283376095708
 20
5.535310673158084
 42
0.0
 97
        0
 92
        7
 72
     1
 73
     1
 93
       18
 10
7.842309023477413
 20
5.775652695509012
 42
0.0
 10
7.134230431869159
 20
5.775652695509011
 42
0.0
 10
7.134230431869159
 20
5.599657343211919
 42
0.0
 10
7.134230431869159
 20
5.58950040557658
 42
0.4142135623730951
 10
7.14791015011725
 20
5.575820687328489
 42
0.0
 10
7.186857267237218
 20
5.575820687328489
 42
0.0
 10
7.186857267237218
 20
5.535310673158084
 42
0.0
 10
7.107400135946844
 20
5.535310673158084
 42
-0.4142135623730951
 10
7.093720417698754
 20
5.548990391406174
 42
0.0
 10
7.093720417698754
 20
5.599657343211919
 42
0.0
 10
7.093720417698754
 20
6.281644344221327
 42
0.0
 10
6.890697884587538
 20
6.281644344221327
 42
0.0
 10
6.890697884587538
 20
5.76882417929217
 42
-0.2806529255876369
 10
6.116251948618177
 20
4.692667204567169
 42
-0.0613205006313187
 10
5.718762386995767
 20
4.610282297149577
 42
0.0
 10
5.370317711242298
 20
4.610282297149577
 42
0.0
 10
5.306729296066389
 20
4.36598742709434
 42
0.0
 10
8.180214671756871
 20
4.36598742709434
 42
0.0
 97
        0
 92
       22
 72
     1
 73
     1
 93
        2
 10
7.17430210350625
 20
4.877363170325573
 42
-1.0
 10
6.894523732630811
 20
4.877363170325573
 42
-1.0
 97
        0
 92
       22
 72
     0
 73
     1
 93
        4
 10
7.842309023477413
 20
5.775652695509012
 10
7.721019636618638
 20
6.281644344221327
 10
7.134230431869159
 20
6.281644344221327
 10
7.134230431869159
 20
5.775652695509012
 97
        0
 92
       24
 93
        4
 72
     1
 10
6.910901013306625
 20
4.783613170325573
 11
7.157924822830435
 21
4.783613170325573
 72
     1
 10
7.157924822830435
 20
4.783613170325573
 11
7.157924822830435
 21
4.971113170325573
 72
     1
 10
7.157924822830435
 20
4.971113170325573
 11
6.910901013306625
 21
4.971113170325573
 72
     1
 10
6.910901013306625
 20
4.971113170325573
 11
6.910901013306625
 21
4.783613170325573
 97
        0
 75
     0
 76
     1
 52
0.0
 41
0.075
 77
     0
 78
    13
 53
50.0
 43
0.0
 44
0.0
 45
0.5379451369505651
 46
-0.0470641012369463
 79
     2
 49
0.05625
 49
-0.61875
 53
355.0
 43
0.0
 44
0.0
 45
-0.10406350020975
 46
0.5641441002750089
 79
     2
 49
0.045
 49
-0.495
 53
100.4514
 43
0.04482876
 44
-0.003922005
 45
0.4338820362855162
 46
0.5170796565457153
 79
     2
 49
0.0478051425
 49
-0.525856584
 53
46.1842
 43
0.0
 44
0.15
 45
0.8004307864692332
 46
-0.1241392607467636
 79
     2
 49
0.084375
 49
-0.928125
 53
96.6356
 43
0.06670255875
 44
0.13965501975
 45
0.7009970291615275
 46
0.7305884031753313
 79
     2
 49
0.071707716
 49
-0.78878475
 53
351.1842
 43
0.0
 44
0.15
 45
0.7009964588502204
 46
0.7305889506939934
 79
     2
 49
0.0675
 49
-0.7425000000000001
 53
21.0
 43
0.075
 44
0.1125
 45
0.4476802890888462
 46
-0.301964167999004
 79
     2
 49
0.05625
 49
-0.61875
 53
326.0
 43
0.075
 44
0.1125
 45
0.1824864989411863
 46
0.5438625337851397
 79
     2
 49
0.045
 49
-0.495
 53
71.45140000000001
 43
0.11230667475
 44
0.0873362955
 45
0.6301669714361175
 46
0.2418978725324643
 79
     2
 49
0.0478051425
 49
-0.525856584
 53
37.5
 43
0.0
 44
0.0
 45
0.009119891487968
 46
0.2496703903734836
 79
     6
 49
0.0
 49
-0.489
 49
0.0
 49
-0.5025
 49
0.0
 49
-0.496875
 53
7.499999999999999
 43
0.0
 44
0.0
 45
0.1973021530816114
 46
0.2958087839117702
 79
     6
 49
0.0
 49
-0.2865
 49
0.0
 49
-0.47775
 49
0.0
 49
-0.189375
 53
327.4999999999999
 43
-0.16725
 44
0.0
 45
0.4003668271293068
 46
-0.0169161538007848
 79
     6
 49
0.0
 49
-0.1875
 49
0.0
 49
-0.585
 49
0.0
 49
-0.7762500000000001
 53
317.5
 43
-0.24225
 44
0.0
 45
0.4373896270067898
 46
0.0750787367492383
 79
     6
 49
0.0
 49
-0.24375
 49
0.0
 49
-0.3885
 49
0.0
 49
-0.55125
 47
0.0095642665033907
 98
        4
 10
6.072555485429632
 20
5.326000720792956
 10
7.775976266233971
 20
5.230358060260037
 10
7.775976266233971
 20
5.230358060260037
 10
7.488882869233524
 20
5.947678038770001
  0
LEADER
  5
3039
330
2613
100
AcDbEntity
  8
TEXT_BUBBLES
100
AcDbLeader
  3
STANDARD
 76
     2
 10
6.425364070132799
 20
4.878736728216432
 30
0.0
 10
6.890672932883463
 20
4.878736728216432
 30
0.0
  0
LEADER
  5
303A
330
2613
100
AcDbEntity
  8
TEXT_BUBBLES
100
AcDbLeader
  3
STANDARD
 76
     2
 10
6.133116796535674
 20
6.601168842005781
 30
0.0
 10
6.353488296407142
 20
7.010984336830849
 30
0.0
  0
LEADER
  5
303B
330
2613
100
AcDbEntity
  8
TEXT_BUBBLES
100
AcDbLeader
  3
STANDARD
 76
     2
 10
7.985275234856889
 20
5.179230280658458
 30
0.0
 10
8.450584097607553
 20
5.179230280658458
 30
0.0
  0
LEADER
  5
303C
330
2613
100
AcDbEntity
  8
TEXT_BUBBLES
100
AcDbLeader
  3
STANDARD
 76
     2
 10
7.222574403082784
 20
6.618591117970767
 30
0.0
 10
7.442945902954253
 20
7.028406612795835
 30
0.0
  0
LEADER
  5
303D
330
2613
100
AcDbEntity
  8
TEXT_BUBBLES
100
AcDbLeader
  3
STANDARD
 76
     2
 10
8.242506702363137
 20
6.281644344221327
 30
0.0
 10
8.462878202234605
 20
6.691459839046395
 30
0.0
  0
LEADER
  5
303F
330
2613
100
AcDbEntity
  8
TEXT_BUBBLES
100
AcDbLeader
  3
STANDARD
 76
     2
 10
1.033239826179581
 20
3.916408960376015
 30
0.0
 10
0.7528763636533033
 20
4.146058021385242
 30
0.0
  0
LEADER
  5
3040
330
2613
100
AcDbEntity
  8
TEXT_BUBBLES
100
AcDbLeader
  3
STANDARD
 76
     2
 10
1.063536008858562
 20
3.85041684972203
 30
0.0
 10
1.410207815828936
 20
3.540044499139356
 30
0.0
  0
LEADER
  5
3041
330
2613
100
AcDbEntity
  8
TEXT_BUBBLES
100
AcDbLeader
  3
STANDARD
 76
     2
 10
4.200574842082698
 20
4.373600286971507
 30
0.0
 10
4.421731382028422
 20
4.668148085228801
 30
0.0
  0
LEADER
  5
3044
330
2613
100
AcDbEntity
  8
TEXT_BUBBLES
100
AcDbLeader
  3
STANDARD
 76
     2
 10
3.851528549510351
 20
5.560319882539522
 30
0.0
 10
4.316837412261016
 20
5.560319882539522
 30
0.0
  0
LEADER
  5
3045
330
2613
100
AcDbEntity
  8
TEXT_BUBBLES
100
AcDbLeader
  3
STANDARD
 76
     2
 10
7.134230431869159
 20
5.775652695509012
 30
0.0
 10
8.017461539394421
 20
5.775652695509012
 30
0.0
  0
LEADER
  5
3046
330
2613
100
AcDbEntity
  8
TEXT_BUBBLES
100
AcDbLeader
  3
STANDARD
 76
     2
 10
1.481251255186954
 20
6.281644344221327
 30
0.0
 10
1.701622755058423
 20
6.691459839046395
 30
0.0
  0
LEADER
  5
3048
330
2613
100
AcDbEntity
  8
TEXT_BUBBLES
100
AcDbLeader
  3
STANDARD
 76
     2
 10
1.665475467168487
 20
4.425908334966193
 30
0.0
 10
1.110041350635386
 20
4.785740219414612
 30
0.0
  0
LEADER
  5
3049
330
2613
100
AcDbEntity
  8
TEXT_BUBBLES
100
AcDbLeader
  3
STANDARD
 76
     2
 10
2.947961249521046
 20
5.809349659956375
 30
0.0
 10
1.322529087548123
 20
5.766215361654515
 30
0.0
  0
MTEXT
  5
304B
330
2613
100
AcDbEntity
  8
TEXT_BUBBLES
100
AcDbMText
 10
1.232529087548122
 20
5.676215361654516
 30
0.0
 40
0.18
 41
0.0
 71
     9
 72
     1
  1

 73
     1
 44
1.0
  0
LEADER
  5
304C
330
2613
100
AcDbEntity
  8
TEXT_BUBBLES
100
AcDbLeader
  3
STANDARD
 76
     2
 10
1.978684678331472
 20
5.417679348597947
 30
0.0
 10
1.322529087548123
 20
5.766215361654515
 30
0.0
1001
ACAD
1000
DSTYLE
1002
{
1070
   147
1040
0.09
1070
    77
1070
     0
1002
}
  0
LEADER
  5
304D
330
2613
100
AcDbEntity
  8
TEXT_BUBBLES
100
AcDbLeader
  3
STANDARD
 76
     2
 10
3.198713682179661
 20
5.652977461290845
 30
0.0
 10
4.302357989933242
 20
5.140645327792251
 30
0.0
1001
ACAD
1000
DSTYLE
1002
{
1070
   147
1040
0.09
1070
    77
1070
     0
1002
}
  0
LEADER
  5
304E
330
2613
100
AcDbEntity
  8
TEXT_BUBBLES
100
AcDbLeader
  3
STANDARD
 76
     2
 10
2.229437110990087
 20
5.435983954481375
 30
0.0
 10
4.302357989933242
 20
5.140645327792251
 30
0.0
1001
ACAD
1000
DSTYLE
1002
{
1070
   147
1040
0.09
1070
    77
1070
     0
1002
}
  0
ENDSEC
  0
SECTION
  2
OBJECTS
  0
DICTIONARY
  5
2601
330
0
100
AcDbDictionary
281
     1
  3
ACAD_GROUP
350
2602
  3
ACAD_LAYOUT
350
260E
  3
ACAD_MLINESTYLE
350
260B
  3
ACAD_PLOTSETTINGS
350
260D
  3
ACAD_PLOTSTYLENAME
350
2603
  3
AcDbVariableDictionary
350
28BC
  3
ASE_INDEX_DICTIONARY
350
2F82
  0
DICTIONARY
  5
300E
330
25F7
100
AcDbDictionary
280
     1
281
     1
  3
ACAD_LAYERSTATES
360
300F
  0
DICTIONARY
  5
2BB7
330
2BA9
100
AcDbDictionary
280
     1
281
     1
  3
ACAD_DIMASSOC
360
2BC2
  0
DICTIONARY
  5
2EB3
330
2EA5
100
AcDbDictionary
280
     1
281
     1
  3
ACAD_DIMASSOC
360
2EBE
  0
DICTIONARY
  5
2EEB
330
2EDD
100
AcDbDictionary
280
     1
281
     1
  3
ACAD_DIMASSOC
360
2EF6
  0
DICTIONARY
  5
2602
102
{ACAD_REACTORS
330
2601
102
}
330
2601
100
AcDbDictionary
281
     1
  0
DICTIONARY
  5
260E
102
{ACAD_REACTORS
330
2601
102
}
330
2601
100
AcDbDictionary
281
     1
  3
Layout1
350
2612
  3
Model
350
2616
  0
DICTIONARY
  5
260B
102
{ACAD_REACTORS
330
2601
102
}
330
2601
100
AcDbDictionary
281
     1
  3
Standard
350
260C
  0
DICTIONARY
  5
260D
102
{ACAD_REACTORS
330
2601
102
}
330
2601
100
AcDbDictionary
281
     1
  3
1055 B&W Full Shaded Draft
350
2F4B
  3
1055 B&W Full Shaded Final
350
2F4C
  3
1055 B&W Half Shaded Draft
350
2F4D
  3
1055 B&W Half Shaded Final
350
2F4E
  3
1055 Color Full Shaded Draft
350
2F4F
  3
1055 Color Full Shaded Final
350
2F50
  3
1055 Color Half Shaded Draft
350
2F51
  3
1055 Color Half Shaded Final
350
2F52
  3
1055 PLUS B&W Full Shaded Draft
350
301D
  3
1055 PLUS B&W Full Shaded Final
350
301E
  3
1055 PLUS Color Full Shaded Draft
350
301F
  3
1055 PLUS Color Full Shaded Final
350
3020
  3
1055-B&W-Shaded-Draft
350
2F53
  3
1055-B&W-Shaded-Final
350
2F54
  3
1055-Color-Shaded-Draft
350
2F55
  3
1055-Color-Shaded-Final
350
2F56
  3
1055-PLUS-B&W-Shaded-Draft
350
3021
  3
1055-PLUS-B&W-Shaded-Final
350
3022
  3
1055-PLUS-Color-Shaded-Draft
350
3023
  3
1055-PLUS-Color-Shaded-Final
350
3024
  3
1055cm B&W Shaded Draft
350
2B07
  3
1055cm B&W Shaded Final
350
2B08
  3
1055cm Color Draft
350
2B09
  3
1055cm Color Shaded Draft
350
2B0A
  3
1055cm Color Shaded Final
350
2B0B
  3
1055cmB&WShadedDraft
350
2B0C
  3
1055cmColorShadedDraft
350
2B0D
  3
2200 Color Inkjet
350
3025
  3
2200-Color-Inkjet
350
3026
  3
24x36 PDF
350
3027
  3
8500 B&W Shaded 11x17
350
2B0E
  3
8500 B&W Shaded 8.5x11
350
2B0F
  3
8500 Color Shaded 11x17
350
2B10
  3
8500 Color Shaded 8.5x11
350
2B11
  3
8500-B&W-Shaded-11x17
350
2F57
  3
8500-B&W-Shaded-8.5x11
350
2F58
  3
8500-Color-Shaded-11x17
350
2F59
  3
8500-Color-Shaded-8.5x11
350
2F5A
  3
8500B&WShaded11x17
350
2B12
  3
8500ColorShaded11x17
350
2B13
  3
Laser Jet 5 Shaded 11x17
350
2B14
  3
Laser Jet 5 Shaded 8.5x11
350
2B15
  3
LaserJet5-Shaded-11x17
350
2F5B
  3
LaserJet5-Shaded-8.5x11
350
2F5C
  3
LaserJet5Shaded 11x17
350
2B16
  3
Oki Doki B&W Shaded 11x17
350
3028
  3
Oki Doki B&W Shaded 8.5x11
350
3029
  3
Oki Doki Color Laser
350
302A
  3
Oki Doki Color Shaded 11x17
350
302B
  3
Oki Doki Color Shaded 8.5x11
350
302C
  3
Oki-Doki-B&W-Shaded-11x17
350
302D
  3
Oki-Doki-B&W-Shaded-8.5x11
350
302E
  3
Oki-Doki-Color-Laser
350
302F
  3
Oki-Doki-Color-Shaded-11x17
350
3030
  3
Oki-Doki-Color-Shaded-8.5x11
350
3031
  0
ACDBDICTIONARYWDFLT
  5
2603
102
{ACAD_REACTORS
330
2601
102
}
330
2601
100
AcDbDictionary
281
     1
  3
Normal
350
2604
100
AcDbDictionaryWithDefault
340
2604
  0
DICTIONARY
  5
28BC
102
{ACAD_REACTORS
330
2601
102
}
330
2601
100
AcDbDictionary
281
     1
  3
DIMASSOC
350
28BE
  3
HIDETEXT
350
28BD
  3
SORTENTS
350
300C
  0
DICTIONARY
  5
2F82
102
{ACAD_REACTORS
330
2601
102
}
330
2601
100
AcDbDictionary
281
     1
  3
ASEBlockHierarchyIndexRecord
350
2F83
1001
DCO15
1040
1449384221.671
  0
DICTIONARY
  5
300F
102
{ACAD_REACTORS
330
300E
102
}
330
300E
100
AcDbDictionary
281
     1
  0
DIMASSOC
  5
2BC2
102
{ACAD_REACTORS
330
2BB7
102
}
330
2BB7
100
AcDbDimAssoc
330
2BA9
 90
        3
 70
     0
 71
     0
  1
AcDbOsnapPointRef
 72
    13
331
2796
 73
     2
 91
        0
 40
0.0
 10
3.718383105555329
 20
6.289654707303609
 30
0.0
 75
     0
  1
AcDbOsnapPointRef
 72
    13
331
2992
 73
     2
 91
        1
 40
0.0
 10
5.805362719491654
 20
6.478919212259288
 30
0.0
 75
     0
  0
DIMASSOC
  5
2EBE
102
{ACAD_REACTORS
330
2EB3
102
}
330
2EB3
100
AcDbDimAssoc
330
2EA5
 90
        3
 70
     0
 71
     0
  1
AcDbOsnapPointRef
 72
     1
331
2990
 73
     2
 91
        0
 40
1.0
 10
5.306729296066389
 20
4.36598742709434
 30
0.0
 75
     0
  1
AcDbOsnapPointRef
 72
     1
331
298F
 73
     2
 91
        0
 40
1.0
 10
8.180214671756871
 20
4.36598742709434
 30
0.0
 75
     0
  0
DIMASSOC
  5
2EF6
102
{ACAD_REACTORS
330
2EEB
102
}
330
2EEB
100
AcDbDimAssoc
330
2EDD
 90
        1
 70
     0
 71
     0
  1
AcDbOsnapPointRef
 72
     1
331
298F
 73
     2
 91
        0
 40
1.0
 10
8.180214671756871
 20
4.36598742709434
 30
0.0
 75
     0
  0
LAYOUT
  5
2612
102
{ACAD_REACTORS
330
260E
102
}
330
260E
100
AcDbPlotSettings
  1

  2
S:\AutoCAD 2002\Plotters\1055ColorDraftShaded.pc3
  4

  6

 40
0.0
 41
0.0
 42
0.0
 43
0.0
 44
0.0
 45
0.0
 46
0.0
 47
0.0
 48
0.0
 49
0.0
140
0.0
141
0.0
142
1.0
143
1.0
 70
   688
 72
     0
 73
     0
 74
     5
  7
8500Color.ctb
 75
    16
147
1.0
148
0.0
149
0.0
100
AcDbLayout
  1
Layout1
 70
     1
 71
     1
 10
0.0
 20
0.0
 11
12.0
 21
9.0
 12
0.0
 22
0.0
 32
0.0
 14
1.000000000000000E+20
 24
1.000000000000000E+20
 34
1.000000000000000E+20
 15
-1.000000000000000E+20
 25
-1.000000000000000E+20
 35
-1.000000000000000E+20
146
0.0
 13
0.0
 23
0.0
 33
0.0
 16
1.0
 26
0.0
 36
0.0
 17
0.0
 27
1.0
 37
0.0
 76
     0
330
260F
  0
LAYOUT
  5
2616
102
{ACAD_REACTORS
330
260E
102
}
330
260E
100
AcDbPlotSettings
  1

  2
8500ColorShaded.pc3
  4
Tabloid
  6
PS1
 40
5.027083396911621
 41
5.027085304260253
 42
5.027099609375
 43
5.027069091796875
 44
279.3999938964843
 45
431.7999877929687
 46
1.27
 47
0.0
 48
180360.0524337165
 49
80033.77936194791
140
180369.1574725906
141
80037.61796031875
142
1.0
143
0.9931848311513201
 70
 11956
 72
     0
 73
     1
 74
     1
  7
8500Color.ctb
 75
     0
147
1.006861934088118
148
0.012781190340408
149
0.0080919118953493
100
AcDbLayout
  1
Model
 70
     1
 71
     0
 10
0.0
 20
0.0
 11
12.0
 21
9.0
 12
0.0
 22
0.0
 32
0.0
 14
0.0
 24
0.0
 34
0.0
 15
0.0
 25
0.0
 35
0.0
146
0.0
 13
0.0
 23
0.0
 33
0.0
 16
1.0
 26
0.0
 36
0.0
 17
0.0
 27
1.0
 37
0.0
 76
     0
330
2613
  0
MLINESTYLE
  5
260C
102
{ACAD_REACTORS
330
260B
102
}
330
260B
100
AcDbMlineStyle
  2
STANDARD
 70
     0
  3

 62
   256
 51
90.0
 52
90.0
 71
     2
 49
0.5
 62
   256
  6
BYLAYER
 49
-0.5
 62
   256
  6
BYLAYER
  0
PLOTSETTINGS
  5
2F4B
102
{ACAD_REACTORS
330
260D
102
}
330
260D
100
AcDbPlotSettings
  1
1055 B&W Full Shaded Draft
  2
1055B&WDraftShaded.pc3
  4
User607
  6
PS1
 40
0.0
 41
0.0
 42
0.0
 43
0.0
 44
901.7000122070312
 45
1155.700073242187
 46
0.0
 47
0.0
 48
180377.877572
 49
80019.819395
140
180380.8390819999
141
80022.26069
142
1.0
143
1.0
 70
   688
 72
     0
 73
     2
 74
     5
  7
1055B&WFullDraftShaded.ctb
 75
    16
147
1.0
148
-4581114.014650871
149
-2032337.537636779
  0
PLOTSETTINGS
  5
2F4C
102
{ACAD_REACTORS
330
260D
102
}
330
260D
100
AcDbPlotSettings
  1
1055 B&W Full Shaded Final
  2
1055B&WFinalShaded.pc3
  4
User258
  6
PS1
 40
4.995333194732666
 41
8.297393798828125
 42
4.99530029296875
 43
8.29736328125
 44
761.9576416015624
 45
1066.757690429687
 46
0.0
 47
0.0
 48
180377.877572
 49
80019.819395
140
180380.8390819999
141
80022.26069
142
1.0
143
1.0
 70
   688
 72
     0
 73
     3
 74
     5
  7
1055B&WFullFinalShaded.ctb
 75
    16
147
1.0
148
-4581114.014650871
149
-2032337.537636779
  0
PLOTSETTINGS
  5
2F4D
102
{ACAD_REACTORS
330
260D
102
}
330
260D
100
AcDbPlotSettings
  1
1055 B&W Half Shaded Draft
  2
1055B&WDraftShaded.pc3
  4
User607
  6
PS1
 40
0.0
 41
0.0
 42
0.0
 43
0.0
 44
901.7000122070312
 45
1155.700073242187
 46
0.0
 47
0.0
 48
180377.877572
 49
80019.819395
140
180380.8390819999
141
80022.26069
142
1.0
143
2.0
 70
   688
 72
     0
 73
     2
 74
     5
  7
1055B&WHalfDraftShaded.ctb
 75
    17
147
0.5
148
-4581114.014650871
149
-2032337.537636779
  0
PLOTSETTINGS
  5
2F4E
102
{ACAD_REACTORS
330
260D
102
}
330
260D
100
AcDbPlotSettings
  1
1055 B&W Half Shaded Final
  2
1055B&WFinalShaded.pc3
  4
User258
  6
PS1
 40
4.995333194732666
 41
8.297393798828125
 42
4.99530029296875
 43
8.29736328125
 44
761.9576416015624
 45
1066.757690429687
 46
0.0
 47
0.0
 48
180377.877572
 49
80019.819395
140
180380.8390819999
141
80022.26069
142
1.0
143
2.0
 70
   688
 72
     0
 73
     3
 74
     5
  7
1055B&WHalfFinalShaded.ctb
 75
    17
147
0.5
148
-4581114.014650871
149
-2032337.537636779
  0
PLOTSETTINGS
  5
2F4F
102
{ACAD_REACTORS
330
260D
102
}
330
260D
100
AcDbPlotSettings
  1
1055 Color Full Shaded Draft
  2
1055ColorDraftShaded.pc3
  4
User607
  6
PS1
 40
0.0
 41
0.0
 42
0.0
 43
0.0
 44
901.7000122070312
 45
1155.700073242187
 46
0.0
 47
0.0
 48
180377.877572
 49
80019.819395
140
180380.8390819999
141
80022.26069
142
1.0
143
1.0
 70
   688
 72
     0
 73
     2
 74
     5
  7
1055ColorFullDraftShaded.ctb
 75
    16
147
1.0
148
-4581114.014650871
149
-2032337.537636779
  0
PLOTSETTINGS
  5
2F50
102
{ACAD_REACTORS
330
260D
102
}
330
260D
100
AcDbPlotSettings
  1
1055 Color Full Shaded Final
  2
1055ColorFinalShaded.pc3
  4
User607
  6
PS1
 40
0.0
 41
0.0
 42
0.0
 43
0.0
 44
901.7000122070312
 45
1155.700073242187
 46
0.0
 47
0.0
 48
180377.877572
 49
80019.819395
140
180380.8390819999
141
80022.26069
142
1.0
143
1.0
 70
   688
 72
     0
 73
     2
 74
     5
  7
1055ColorFullFinalShaded.ctb
 75
    16
147
1.0
148
-4581114.014650871
149
-2032337.537636779
  0
PLOTSETTINGS
  5
2F51
102
{ACAD_REACTORS
330
260D
102
}
330
260D
100
AcDbPlotSettings
  1
1055 Color Half Shaded Draft
  2
1055ColorDraftShaded.pc3
  4
User607
  6
PS1
 40
0.0
 41
0.0
 42
0.0
 43
0.0
 44
901.7000122070312
 45
1155.700073242187
 46
0.0
 47
0.0
 48
180377.877572
 49
80019.819395
140
180380.8390819999
141
80022.26069
142
1.0
143
1.0
 70
   688
 72
     0
 73
     2
 74
     5
  7
1055ColorHalfDraftShaded.ctb
 75
    16
147
1.0
148
-4581114.014650871
149
-2032337.537636779
  0
PLOTSETTINGS
  5
2F52
102
{ACAD_REACTORS
330
260D
102
}
330
260D
100
AcDbPlotSettings
  1
1055 Color Half Shaded Final
  2
1055ColorFinalShaded.pc3
  4
User607
  6
PS1
 40
0.0
 41
0.0
 42
0.0
 43
0.0
 44
901.7000122070312
 45
1155.700073242187
 46
0.0
 47
0.0
 48
180377.877572
 49
80019.819395
140
180380.8390819999
141
80022.26069
142
1.0
143
1.0
 70
   688
 72
     0
 73
     2
 74
     5
  7
1055ColorHalfFinalShaded.ctb
 75
    16
147
1.0
148
-4581114.014650871
149
-2032337.537636779
  0
PLOTSETTINGS
  5
301D
102
{ACAD_REACTORS
330
260D
102
}
330
260D
100
AcDbPlotSettings
  1
1055 PLUS B&W Full Shaded Draft
  2
1055_PLUS_B&WDraftShaded.pc3
  4
User257
  6
ps1
 40
4.995333194732666
 41
8.297393798828125
 42
4.99530029296875
 43
8.29736328125
 44
901.6152954101562
 45
1155.615356445312
 46
0.0
 47
0.0
 48
180377.877572
 49
80019.819395
140
180380.8390819999
141
80022.26069
142
1.0
143
1.0
 70
   688
 72
     0
 73
     3
 74
     5
  7
1055B&WFullDraftShaded.ctb
 75
    16
147
1.0
148
-4581603.303200401
149
-2032962.095032944
  0
PLOTSETTINGS
  5
301E
102
{ACAD_REACTORS
330
260D
102
}
330
260D
100
AcDbPlotSettings
  1
1055 PLUS B&W Full Shaded Final
  2
1055_PLUS_B&WFinalShaded.pc3
  4
User257
  6
PS1
 40
4.995333194732666
 41
8.297271728515625
 42
4.99530029296875
 43
8.29736328125
 44
901.6576538085937
 45
1155.657592773437
 46
0.0
 47
0.0
 48
180377.877572
 49
80019.819395
140
180380.8390819999
141
80022.26069
142
1.0
143
1.0
 70
   688
 72
     0
 73
     3
 74
     5
  7
1055B&WFullFinalShaded.ctb
 75
    16
147
1.0
148
-4581603.303200401
149
-2032962.095032944
  0
PLOTSETTINGS
  5
301F
102
{ACAD_REACTORS
330
260D
102
}
330
260D
100
AcDbPlotSettings
  1
1055 PLUS Color Full Shaded Draft
  2
1055_PLUS_ColorDraftShaded.pc3
  4
User257
  6
PS1
 40
4.995333194732666
 41
8.297393798828125
 42
4.99530029296875
 43
8.29736328125
 44
901.6152954101562
 45
1155.615356445312
 46
0.0
 47
0.0
 48
180377.877572
 49
80019.819395
140
180380.8390819999
141
80022.26069
142
1.0
143
1.0
 70
   688
 72
     0
 73
     3
 74
     5
  7
1055ColorFullDraftShaded.ctb
 75
    16
147
1.0
148
-4581603.303200401
149
-2032962.095032944
  0
PLOTSETTINGS
  5
3020
102
{ACAD_REACTORS
330
260D
102
}
330
260D
100
AcDbPlotSettings
  1
1055 PLUS Color Full Shaded Final
  2
1055_PLUS_ColorFinalShaded.pc3
  4
User257
  6
PS1
 40
4.995333194732666
 41
8.297271728515625
 42
4.99530029296875
 43
8.29736328125
 44
901.6576538085937
 45
1155.657592773437
 46
0.0
 47
0.0
 48
180377.877572
 49
80019.819395
140
180380.8390819999
141
80022.26069
142
1.0
143
1.0
 70
   688
 72
     0
 73
     3
 74
     5
  7
1055ColorFullFinalShaded.ctb
 75
    16
147
1.0
148
-4581603.303200401
149
-2032962.095032944
  0
PLOTSETTINGS
  5
2F53
102
{ACAD_REACTORS
330
260D
102
}
330
260D
100
AcDbPlotSettings
  1
1055-B&W-Shaded-Draft
  2
1055B&WDraftShaded.pc3
  4
User257
  6

 40
4.995333194732666
 41
8.297393798828125
 42
4.99530029296875
 43
8.29736328125
 44
901.6152954101562
 45
1155.615356445312
 46
0.0
 47
0.0
 48
180360.0524337165
 49
80033.77936194791
140
180369.1574725906
141
80037.61796031875
142
1.0
143
1.0
 70
  1712
 72
     0
 73
     1
 74
     4
  7
1055B&WFullDraftShaded.ctb
 75
    16
147
1.0
148
-4581145.331816398
149
-2032857.995793476
  0
PLOTSETTINGS
  5
2F54
102
{ACAD_REACTORS
330
260D
102
}
330
260D
100
AcDbPlotSettings
  1
1055-B&W-Shaded-Final
  2
1055B&WFinalShaded.pc3
  4
User607
  6

 40
0.0
 41
0.0
 42
0.0
 43
0.0
 44
901.7000122070312
 45
1155.700073242187
 46
0.0
 47
0.0
 48
180360.0524337165
 49
80033.77936194791
140
180369.1574725906
141
80037.61796031875
142
1.0
143
1.0
 70
  1712
 72
     0
 73
     1
 74
     4
  7
1055B&WFullFinalShaded.ctb
 75
    16
147
1.0
148
-4581145.331816398
149
-2032857.995793476
  0
PLOTSETTINGS
  5
2F55
102
{ACAD_REACTORS
330
260D
102
}
330
260D
100
AcDbPlotSettings
  1
1055-Color-Shaded-Draft
  2
1055ColorDraftShaded.pc3
  4
User257
  6

 40
4.995333194732666
 41
8.297393798828125
 42
4.99530029296875
 43
8.29736328125
 44
901.6152954101562
 45
1155.615356445312
 46
0.0
 47
0.0
 48
180360.0524337165
 49
80033.77936194791
140
180369.1574725906
141
80037.61796031875
142
1.0
143
1.0
 70
  1712
 72
     0
 73
     1
 74
     4
  7
1055ColorFullDraftShaded.ctb
 75
    16
147
1.0
148
-4581145.331816398
149
-2032857.995793476
  0
PLOTSETTINGS
  5
2F56
102
{ACAD_REACTORS
330
260D
102
}
330
260D
100
AcDbPlotSettings
  1
1055-Color-Shaded-Final
  2
1055ColorDraftShaded.pc3
  4
User257
  6

 40
4.995333194732666
 41
8.297393798828125
 42
4.99530029296875
 43
8.29736328125
 44
901.6152954101562
 45
1155.615356445312
 46
0.0
 47
0.0
 48
180360.0524337165
 49
80033.77936194791
140
180369.1574725906
141
80037.61796031875
142
1.0
143
1.0
 70
  1712
 72
     0
 73
     1
 74
     4
  7
1055ColorFullFinalShaded.ctb
 75
    16
147
1.0
148
-4581145.331816398
149
-2032857.995793476
  0
PLOTSETTINGS
  5
3021
102
{ACAD_REACTORS
330
260D
102
}
330
260D
100
AcDbPlotSettings
  1
1055-PLUS-B&W-Shaded-Draft
  2
1055_PLUS_B&WDraftShaded.pc3
  4
User257
  6

 40
4.995333194732666
 41
8.297393798828125
 42
4.99530029296875
 43
8.29736328125
 44
901.6152954101562
 45
1155.615356445312
 46
0.0
 47
0.0
 48
180360.0524337165
 49
80033.77936194791
140
180369.1574725906
141
80037.61796031875
142
1.0
143
30.0
 70
  1696
 72
     0
 73
     1
 74
     0
  7
1055B&WFullDraftShaded.ctb
 75
     0
147
0.0333333333333333
148
0.9506237099442845
149
8.593888772447144
  0
PLOTSETTINGS
  5
3022
102
{ACAD_REACTORS
330
260D
102
}
330
260D
100
AcDbPlotSettings
  1
1055-PLUS-B&W-Shaded-Final
  2
1055_PLUS_B&WFinalShaded.pc3
  4
User257
  6

 40
4.995333194732666
 41
8.297271728515625
 42
4.99530029296875
 43
8.29736328125
 44
901.6576538085937
 45
1155.657592773437
 46
0.0
 47
0.0
 48
180360.0524337165
 49
80033.77936194791
140
180369.1574725906
141
80037.61796031875
142
1.0
143
30.0
 70
  1696
 72
     0
 73
     1
 74
     0
  7
1055B&WFullFinalShaded.ctb
 75
     0
147
0.0333333333333333
148
0.9506237099442845
149
8.593888772447144
  0
PLOTSETTINGS
  5
3023
102
{ACAD_REACTORS
330
260D
102
}
330
260D
100
AcDbPlotSettings
  1
1055-PLUS-Color-Shaded-Draft
  2
1055_PLUS_ColorDraftShaded.pc3
  4
User257
  6

 40
4.995333194732666
 41
8.297393798828125
 42
4.99530029296875
 43
8.29736328125
 44
901.6152954101562
 45
1155.615356445312
 46
0.0
 47
0.0
 48
180360.0524337165
 49
80033.77936194791
140
180369.1574725906
141
80037.61796031875
142
1.0
143
30.0
 70
  1696
 72
     0
 73
     1
 74
     0
  7
1055ColorFullDraftShaded.ctb
 75
     0
147
0.0333333333333333
148
0.9506237099442845
149
8.593888772447144
  0
PLOTSETTINGS
  5
3024
102
{ACAD_REACTORS
330
260D
102
}
330
260D
100
AcDbPlotSettings
  1
1055-PLUS-Color-Shaded-Final
  2
1055_PLUS_ColorFinalShaded.pc3
  4
User257
  6

 40
4.995333194732666
 41
8.297271728515625
 42
4.99530029296875
 43
8.29736328125
 44
901.6576538085937
 45
1155.657592773437
 46
0.0
 47
0.0
 48
180360.0524337165
 49
80033.77936194791
140
180369.1574725906
141
80037.61796031875
142
1.0
143
30.0
 70
  1696
 72
     0
 73
     1
 74
     0
  7
1055ColorFullFinalShaded.ctb
 75
     0
147
0.0333333333333333
148
0.9506237099442845
149
8.593888772447144
  0
PLOTSETTINGS
  5
2B07
102
{ACAD_REACTORS
330
260D
102
}
330
260D
100
AcDbPlotSettings
  1
1055cm B&W Shaded Draft
  2
1055B&WDraftShaded.pc3
  4
User257
  6
PS1
 40
4.995333194732666
 41
8.297393798828125
 42
4.99530029296875
 43
8.29736328125
 44
901.6152954101562
 45
1155.615356445312
 46
0.0
 47
0.0
 48
180377.877572
 49
80019.819395
140
180380.8390819999
141
80022.26069
142
1.0
143
1.0
 70
   688
 72
     0
 73
     2
 74
     3
  7
1055B&WDraftShaded.ctb
 75
    16
147
1.0
148
-4581153.377679998
149
-2032365.335819999
  0
PLOTSETTINGS
  5
2B08
102
{ACAD_REACTORS
330
260D
102
}
330
260D
100
AcDbPlotSettings
  1
1055cm B&W Shaded Final
  2
1055B&WFinalShaded.pc3
  4
User257
  6
PS1
 40
4.995333194732666
 41
8.297271728515625
 42
4.99530029296875
 43
8.29736328125
 44
901.6576538085937
 45
1155.657592773437
 46
0.0
 47
0.0
 48
180377.877572
 49
80019.819395
140
180380.8390819999
141
80022.26069
142
1.0
143
1.0
 70
   672
 72
     0
 73
     2
 74
     3
  7
1055B&WFinalShaded.ctb
 75
     0
147
1.0
148
-4581153.377679998
149
-2032365.335819999
  0
PLOTSETTINGS
  5
2B09
102
{ACAD_REACTORS
330
260D
102
}
330
260D
100
AcDbPlotSettings
  1
1055cm Color Draft
  2
1055ColorDraftShaded.pc3
  4
User257
  6
PS1
 40
4.995333194732666
 41
8.297393798828125
 42
4.99530029296875
 43
8.29736328125
 44
901.6152954101562
 45
1155.615356445312
 46
0.0
 47
0.0
 48
180377.877572
 49
80019.819395
140
180380.8390819999
141
80022.26069
142
1.0
143
1.0
 70
   688
 72
     0
 73
     2
 74
     3
  7
Color.CTB
 75
    16
147
1.0
148
-4581153.377679998
149
-2032365.335819999
  0
PLOTSETTINGS
  5
2B0A
102
{ACAD_REACTORS
330
260D
102
}
330
260D
100
AcDbPlotSettings
  1
1055cm Color Shaded Draft
  2
1055ColorDraftShaded.pc3
  4
User257
  6
PS1
 40
4.995333194732666
 41
8.297393798828125
 42
4.99530029296875
 43
8.29736328125
 44
901.6152954101562
 45
1155.615356445312
 46
0.0
 47
0.0
 48
180377.877572
 49
80019.819395
140
180380.8390819999
141
80022.26069
142
1.0
143
1.0
 70
   688
 72
     0
 73
     2
 74
     3
  7
1055ColorDraftShaded.CTB
 75
    16
147
1.0
148
-4581153.377679998
149
-2032365.335819999
  0
PLOTSETTINGS
  5
2B0B
102
{ACAD_REACTORS
330
260D
102
}
330
260D
100
AcDbPlotSettings
  1
1055cm Color Shaded Final
  2
1055ColorFinalShaded.pc3
  4
User257
  6
PS1
 40
4.995333194732666
 41
8.297271728515625
 42
4.99530029296875
 43
8.29736328125
 44
901.6576538085937
 45
1155.657592773437
 46
0.0
 47
0.0
 48
180377.877572
 49
80019.819395
140
180380.8390819999
141
80022.26069
142
1.0
143
1.0
 70
   688
 72
     0
 73
     2
 74
     3
  7
1055ColorFinalShaded.ctb
 75
    16
147
1.0
148
-4581153.377679998
149
-2032365.335819999
  0
PLOTSETTINGS
  5
2B0C
102
{ACAD_REACTORS
330
260D
102
}
330
260D
100
AcDbPlotSettings
  1
1055cmB&WShadedDraft
  2
1055B&WDraftShaded.pc3
  4
User257
  6

 40
4.995333194732666
 41
8.297393798828125
 42
4.99530029296875
 43
8.29736328125
 44
901.6152954101562
 45
1155.615356445312
 46
0.0
 47
0.0
 48
180360.0524337165
 49
80033.77936194791
140
180369.1574725906
141
80037.61796031875
142
1.0
143
30.0
 70
  1712
 72
     0
 73
     1
 74
     0
  7
1055B&WDraftShaded.ctb
 75
    23
147
0.0333333333333333
148
-4580581.320935756
149
-2032339.826086972
  0
PLOTSETTINGS
  5
2B0D
102
{ACAD_REACTORS
330
260D
102
}
330
260D
100
AcDbPlotSettings
  1
1055cmColorShadedDraft
  2
1055ColorDraftShaded.pc3
  4
User257
  6

 40
4.995333194732666
 41
8.297393798828125
 42
4.99530029296875
 43
8.29736328125
 44
901.6152954101562
 45
1155.615356445312
 46
0.0
 47
0.0
 48
180360.0524337165
 49
80033.77936194791
140
180369.1574725906
141
80037.61796031875
142
1.0
143
30.0
 70
  1712
 72
     0
 73
     1
 74
     0
  7
1055ColorDraftShaded.ctb
 75
    23
147
0.0333333333333333
148
-4580581.320935756
149
-2032339.826086972
  0
PLOTSETTINGS
  5
3025
102
{ACAD_REACTORS
330
260D
102
}
330
260D
100
AcDbPlotSettings
  1
2200 Color Inkjet
  2
HP  2200 Color Inkjet.pc3
  4
Letter
  6
PS1
 40
7.143749713897705
 41
12.47775650024414
 42
7.14373779296875
 43
3.17498779296875
 44
215.8999938964843
 45
279.3999938964843
 46
0.0
 47
0.0
 48
180377.877572
 49
80019.819395
140
180380.8390819999
141
80022.26069
142
1.0
143
0.3486331030131726
 70
   688
 72
     0
 73
     1
 74
     3
  7
Color.ctb
 75
     0
147
2.868344948764708
148
-4581603.303200401
149
-2032962.095032944
  0
PLOTSETTINGS
  5
3026
102
{ACAD_REACTORS
330
260D
102
}
330
260D
100
AcDbPlotSettings
  1
2200-Color-Inkjet
  2
HP  2200 Color Inkjet.pc3
  4
Letter
  6

 40
7.143749713897705
 41
12.47775650024414
 42
7.14373779296875
 43
3.17498779296875
 44
215.8999938964843
 45
279.3999938964843
 46
0.0
 47
0.0
 48
180360.0524337165
 49
80033.77936194791
140
180369.1574725906
141
80037.61796031875
142
1.0
143
0.069393053089765
 70
  1712
 72
     0
 73
     1
 74
     1
  7
Color.ctb
 75
     0
147
14.41066440334347
148
-190.0773302744904
149
-129.2444057835751
  0
PLOTSETTINGS
  5
3027
102
{ACAD_REACTORS
330
260D
102
}
330
260D
100
AcDbPlotSettings
  1
24x36 PDF
  2
Bluebeam PDF Printer.pc3
  4
User128
  6
PS1
 40
3.174999952316284
 41
3.174999952316284
 42
3.17498779296875
 43
3.17498779296875
 44
609.5999755859375
 45
914.3999633789062
 46
270.5099999999999
 47
416.3059999999999
 48
180377.877572
 49
80019.819395
140
180380.8390819999
141
80022.26069
142
1.0
143
1.0
 70
   692
 72
     0
 73
     1
 74
     4
  7
1055B&WFullDraftShaded.ctb
 75
    16
147
1.0
148
-4581598.0903288
149
-2032503.412632999
  0
PLOTSETTINGS
  5
2B0E
102
{ACAD_REACTORS
330
260D
102
}
330
260D
100
AcDbPlotSettings
  1
8500 B&W Shaded 11x17
  2
8500B&WShaded.pc3
  4
11x17
  6
PS1
 40
5.027083396911621
 41
5.027085304260253
 42
5.027099609375
 43
5.027069091796875
 44
279.3999938964843
 45
431.7999877929687
 46
0.0
 47
0.762
 48
180377.877572
 49
80019.819395
140
180380.8390819999
141
80022.26069
142
1.0
143
1.980353799589804
 70
   692
 72
     0
 73
     1
 74
     3
  7
8500B&WShaded.ctb
 75
     0
147
0.5049602753846977
148
-4581153.377679998
149
-2032365.335819999
  0
PLOTSETTINGS
  5
2B0F
102
{ACAD_REACTORS
330
260D
102
}
330
260D
100
AcDbPlotSettings
  1
8500 B&W Shaded 8.5x11
  2
8500B&WShaded.pc3
  4
Letter
  6
PS1
 40
5.027083396911621
 41
5.027085304260253
 42
5.027084350585937
 43
5.027069091796875
 44
215.8999938964843
 45
279.3999938964843
 46
16.50999999999999
 47
0.0
 48
180377.877572
 49
80019.819395
140
180380.8390819999
141
80022.26069
142
1.0
143
3.089030970531291
 70
   692
 72
     0
 73
     1
 74
     3
  7
8500B&WShaded.ctb
 75
     0
147
0.3237261165523398
148
-4581153.377679998
149
-2032365.335819999
  0
PLOTSETTINGS
  5
2B10
102
{ACAD_REACTORS
330
260D
102
}
330
260D
100
AcDbPlotSettings
  1
8500 Color Shaded 11x17
  2
8500ColorShaded.pc3
  4
11x17
  6
PS1
 40
5.027083396911621
 41
5.027085304260253
 42
5.027099609375
 43
5.027069091796875
 44
279.3999938964843
 45
431.7999877929687
 46
0.0
 47
0.762
 48
180377.877572
 49
80019.819395
140
180380.8390819999
141
80022.26069
142
1.0
143
1.980353799589804
 70
   692
 72
     0
 73
     1
 74
     3
  7
8500ColorShaded.ctb
 75
     0
147
0.5049602753846977
148
-4581153.377679998
149
-2032365.335819999
  0
PLOTSETTINGS
  5
2B11
102
{ACAD_REACTORS
330
260D
102
}
330
260D
100
AcDbPlotSettings
  1
8500 Color Shaded 8.5x11
  2
8500ColorShaded.pc3
  4
Letter
  6
PS1
 40
5.027083396911621
 41
5.027085304260253
 42
5.027084350585937
 43
5.027069091796875
 44
215.8999938964843
 45
279.3999938964843
 46
16.50999999999999
 47
0.0
 48
180377.877572
 49
80019.819395
140
180380.8390819999
141
80022.26069
142
1.0
143
3.089030970531291
 70
   692
 72
     0
 73
     1
 74
     3
  7
8500ColorShaded.ctb
 75
     0
147
0.3237261165523398
148
-4581153.377679998
149
-2032365.335819999
  0
PLOTSETTINGS
  5
2F57
102
{ACAD_REACTORS
330
260D
102
}
330
260D
100
AcDbPlotSettings
  1
8500-B&W-Shaded-11x17
  2
8500B&WShaded.pc3
  4
11x17
  6

 40
5.027083396911621
 41
5.027085304260253
 42
5.027099609375
 43
5.027069091796875
 44
279.3999938964843
 45
431.7999877929687
 46
0.0
 47
0.0
 48
180360.0524337165
 49
80033.77936194791
140
180369.1574725906
141
80037.61796031875
142
1.0
143
4.787622939151733
 70
  1712
 72
     0
 73
     1
 74
     0
  7
8500B&WShaded.ctb
 75
     0
147
0.2088719209322652
148
-4580581.320935756
149
-2032339.826086972
  0
PLOTSETTINGS
  5
2F58
102
{ACAD_REACTORS
330
260D
102
}
330
260D
100
AcDbPlotSettings
  1
8500-B&W-Shaded-8.5x11
  2
8500B&WShaded.pc3
  4
Letter
  6

 40
5.027083396911621
 41
5.027085304260253
 42
5.027084350585937
 43
5.027069091796875
 44
215.8999938964843
 45
279.3999938964843
 46
0.0
 47
0.0
 48
180360.0524337165
 49
80033.77936194791
140
180369.1574725906
141
80037.61796031875
142
1.0
143
1.400341199009821
 70
  1712
 72
     0
 73
     1
 74
     0
  7
8500B&WShaded.ctb
 75
     0
147
0.7141116755738516
148
0.0
149
0.0
  0
PLOTSETTINGS
  5
2F59
102
{ACAD_REACTORS
330
260D
102
}
330
260D
100
AcDbPlotSettings
  1
8500-Color-Shaded-11x17
  2
8500ColorShaded.pc3
  4
11x17
  6

 40
5.027083396911621
 41
5.027085304260253
 42
5.027099609375
 43
5.027069091796875
 44
279.3999938964843
 45
431.7999877929687
 46
0.0
 47
0.0
 48
180360.0524337165
 49
80033.77936194791
140
180369.1574725906
141
80037.61796031875
142
1.0
143
4.787622939151733
 70
  1712
 72
     0
 73
     1
 74
     0
  7
8500ColorShaded.ctb
 75
     0
147
0.2088719209322652
148
-4580581.320935756
149
-2032339.826086972
  0
PLOTSETTINGS
  5
2F5A
102
{ACAD_REACTORS
330
260D
102
}
330
260D
100
AcDbPlotSettings
  1
8500-Color-Shaded-8.5x11
  2
8500ColorShaded.pc3
  4
Letter
  6

 40
5.027083396911621
 41
5.027085304260253
 42
5.027084350585937
 43
5.027069091796875
 44
215.8999938964843
 45
279.3999938964843
 46
0.0
 47
0.0
 48
180360.0524337165
 49
80033.77936194791
140
180369.1574725906
141
80037.61796031875
142
1.0
143
1.400341199009821
 70
  1712
 72
     0
 73
     1
 74
     0
  7
8500ColorShaded.ctb
 75
     0
147
0.7141116755738516
148
0.0
149
0.0
  0
PLOTSETTINGS
  5
2B12
102
{ACAD_REACTORS
330
260D
102
}
330
260D
100
AcDbPlotSettings
  1
8500B&WShaded11x17
  2
8500B&WShaded.pc3
  4
11x17
  6

 40
5.027083396911621
 41
5.027085304260253
 42
5.027099609375
 43
5.027069091796875
 44
279.3999938964843
 45
431.7999877929687
 46
0.0
 47
0.0
 48
180360.0524337165
 49
80033.77936194791
140
180369.1574725906
141
80037.61796031875
142
1.0
143
4.787622939151733
 70
  1712
 72
     0
 73
     1
 74
     0
  7
8500B&WShaded.ctb
 75
     0
147
0.2088719209322652
148
-4580581.320935756
149
-2032339.826086972
  0
PLOTSETTINGS
  5
2B13
102
{ACAD_REACTORS
330
260D
102
}
330
260D
100
AcDbPlotSettings
  1
8500ColorShaded11x17
  2
8500ColorShaded.pc3
  4
11x17
  6

 40
5.027083396911621
 41
5.027085304260253
 42
5.027099609375
 43
5.027069091796875
 44
279.3999938964843
 45
431.7999877929687
 46
0.0
 47
0.0
 48
180360.0524337165
 49
80033.77936194791
140
180369.1574725906
141
80037.61796031875
142
1.0
143
4.787622939151733
 70
  1712
 72
     0
 73
     1
 74
     0
  7
8500ColorShaded.ctb
 75
     0
147
0.2088719209322652
148
-4580581.320935756
149
-2032339.826086972
  0
PLOTSETTINGS
  5
2B14
102
{ACAD_REACTORS
330
260D
102
}
330
260D
100
AcDbPlotSettings
  1
Laser Jet 5 Shaded 11x17
  2
LaserJet5Shaded.pc3
  4
11x17
  6
PS1
 40
7.143749713897705
 41
5.873736858367919
 42
7.143768310546875
 43
7.14373779296875
 44
279.3999938964843
 45
431.7999877929687
 46
0.0
 47
2.54
 48
180377.877572
 49
80019.819395
140
180380.8390819999
141
80022.26069
142
1.0
143
2.011976231014692
 70
   692
 72
     0
 73
     1
 74
     3
  7
LaserJet5Shaded.ctb
 75
     0
147
0.4970237642895384
148
-4581153.377679998
149
-2032365.335819999
  0
PLOTSETTINGS
  5
2B15
102
{ACAD_REACTORS
330
260D
102
}
330
260D
100
AcDbPlotSettings
  1
Laser Jet 5 Shaded 8.5x11
  2
LaserJet5Shaded.pc3
  4
Letter
  6
PS1
 40
7.143749713897705
 41
6.974400997161865
 42
7.14373779296875
 43
6.297088623046875
 44
215.8999938964843
 45
279.3999938964843
 46
15.49399999999999
 47
0.0
 48
180377.877572
 49
80019.819395
140
180380.8390819999
141
80022.26069
142
1.0
143
3.126375516456624
 70
   692
 72
     0
 73
     1
 74
     3
  7
LaserJet5Shaded.ctb
 75
     0
147
0.3198592090861117
148
-4581153.377679998
149
-2032365.335819999
  0
PLOTSETTINGS
  5
2F5B
102
{ACAD_REACTORS
330
260D
102
}
330
260D
100
AcDbPlotSettings
  1
LaserJet5-Shaded-11x17
  2
LaserJet5Shaded.pc3
  4
11x17
  6

 40
7.143749713897705
 41
5.873736858367919
 42
7.143768310546875
 43
7.14373779296875
 44
279.3999938964843
 45
431.7999877929687
 46
0.0
 47
0.0
 48
180360.0524337165
 49
80033.77936194791
140
180369.1574725906
141
80037.61796031875
142
1.0
143
4.864072045424008
 70
  1712
 72
     0
 73
     1
 74
     0
  7
LaserJet5Shaded.ctb
 75
     0
147
0.205589060084086
148
-4580581.320935756
149
-2032339.826086972
  0
PLOTSETTINGS
  5
2F5C
102
{ACAD_REACTORS
330
260D
102
}
330
260D
100
AcDbPlotSettings
  1
LaserJet5-Shaded-8.5x11
  2
LaserJet5Shaded.pc3
  4
Letter
  6

 40
7.143749713897705
 41
6.974400997161865
 42
7.14373779296875
 43
6.297088623046875
 44
215.8999938964843
 45
279.3999938964843
 46
0.0
 47
0.0
 48
180360.0524337165
 49
80033.77936194791
140
180369.1574725906
141
80037.61796031875
142
1.0
143
1.417270490660323
 70
  1712
 72
     0
 73
     1
 74
     0
  7
LaserJet5Shaded.ctb
 75
     0
147
0.7055816138061886
148
0.0
149
0.0
  0
PLOTSETTINGS
  5
2B16
102
{ACAD_REACTORS
330
260D
102
}
330
260D
100
AcDbPlotSettings
  1
LaserJet5Shaded 11x17
  2
LaserJet5Shaded.pc3
  4
11x17
  6

 40
7.143749713897705
 41
5.873736858367919
 42
7.143768310546875
 43
7.14373779296875
 44
279.3999938964843
 45
431.7999877929687
 46
0.0
 47
0.0
 48
180360.0524337165
 49
80033.77936194791
140
180369.1574725906
141
80037.61796031875
142
1.0
143
4.864072045424008
 70
  1712
 72
     0
 73
     1
 74
     0
  7
LaserJet5Shaded.ctb
 75
     0
147
0.205589060084086
148
-4580581.320935756
149
-2032339.826086972
  0
PLOTSETTINGS
  5
3028
102
{ACAD_REACTORS
330
260D
102
}
330
260D
100
AcDbPlotSettings
  1
Oki Doki B&W Shaded 11x17
  2
OKI DOKI Color Laser.pc3
  4
Tabloid
  6
PS1
 40
5.027083396911621
 41
5.027085304260253
 42
5.027099609375
 43
5.027069091796875
 44
279.3999938964843
 45
431.7999877929687
 46
0.0
 47
47.49799999999999
 48
180377.877572
 49
80019.819395
140
180380.8390819999
141
80022.26069
142
1.0
143
0.2302203728173071
 70
   692
 72
     0
 73
     1
 74
     4
  7
OKIB&WShaded.ctb
 75
     0
147
4.343664236846477
148
-4581598.0903288
149
-2032503.412632999
  0
PLOTSETTINGS
  5
3029
102
{ACAD_REACTORS
330
260D
102
}
330
260D
100
AcDbPlotSettings
  1
Oki Doki B&W Shaded 8.5x11
  2
OKI DOKI Color Laser.pc3
  4
Letter
  6
PS1
 40
5.027083396911621
 41
5.027085304260253
 42
5.027084350585937
 43
5.027069091796875
 44
215.8999938964843
 45
279.3999938964843
 46
0.0
 47
9.906
 48
180377.877572
 49
80019.819395
140
180380.8390819999
141
80022.26069
142
1.0
143
0.3012394963745367
 70
   692
 72
     0
 73
     1
 74
     4
  7
OKIB&WShaded.ctb
 75
     0
147
3.319617819161008
148
-4581598.0903288
149
-2032503.412632999
  0
PLOTSETTINGS
  5
302A
102
{ACAD_REACTORS
330
260D
102
}
330
260D
100
AcDbPlotSettings
  1
Oki Doki Color Laser
  2
OKI DOKI Color Laser.pc3
  4
Letter
  6
PS1
 40
5.027083396911621
 41
5.027085304260253
 42
5.027084350585937
 43
5.027069091796875
 44
215.8999938964843
 45
279.3999938964843
 46
71.88199999999999
 47
97.02799999999999
 48
180377.877572
 49
80019.819395
140
180380.8390819999
141
80022.26069
142
1.0
143
1.0
 70
   692
 72
     0
 73
     1
 74
     4
  7
Color.ctb
 75
    16
147
1.0
148
-4581598.0903288
149
-2032503.412632999
  0
PLOTSETTINGS
  5
302B
102
{ACAD_REACTORS
330
260D
102
}
330
260D
100
AcDbPlotSettings
  1
Oki Doki Color Shaded 11x17
  2
OKI DOKI Color Laser.pc3
  4
Tabloid
  6
PS1
 40
5.027083396911621
 41
5.027085304260253
 42
5.027099609375
 43
5.027069091796875
 44
279.3999938964843
 45
431.7999877929687
 46
0.0
 47
47.49799999999999
 48
180377.877572
 49
80019.819395
140
180380.8390819999
141
80022.26069
142
1.0
143
0.2302203728173071
 70
   692
 72
     0
 73
     1
 74
     4
  7
OKIColorShaded.ctb
 75
     0
147
4.343664236846477
148
-4581598.0903288
149
-2032503.412632999
  0
PLOTSETTINGS
  5
302C
102
{ACAD_REACTORS
330
260D
102
}
330
260D
100
AcDbPlotSettings
  1
Oki Doki Color Shaded 8.5x11
  2
OKI DOKI Color Laser.pc3
  4
Letter
  6
PS1
 40
5.027083396911621
 41
5.027085304260253
 42
5.027084350585937
 43
5.027069091796875
 44
215.8999938964843
 45
279.3999938964843
 46
0.0
 47
9.906
 48
180377.877572
 49
80019.819395
140
180380.8390819999
141
80022.26069
142
1.0
143
0.3012394963745367
 70
   692
 72
     0
 73
     1
 74
     4
  7
OKIColorShaded.ctb
 75
     0
147
3.319617819161008
148
-4581598.0903288
149
-2032503.412632999
  0
PLOTSETTINGS
  5
302D
102
{ACAD_REACTORS
330
260D
102
}
330
260D
100
AcDbPlotSettings
  1
Oki-Doki-B&W-Shaded-11x17
  2
OKI DOKI Color Laser.pc3
  4
Tabloid
  6

 40
5.027083396911621
 41
5.027085304260253
 42
5.027099609375
 43
5.027069091796875
 44
279.3999938964843
 45
431.7999877929687
 46
45.72
 47
0.0
 48
180360.0524337165
 49
80033.77936194791
140
180369.1574725906
141
80037.61796031875
142
1.0
143
0.5483586774064594
 70
  1716
 72
     0
 73
     1
 74
     4
  7
OKIB&WShaded.ctb
 75
     0
147
1.823623918435361
148
-4581145.331816398
149
-2032857.995793476
  0
PLOTSETTINGS
  5
302E
102
{ACAD_REACTORS
330
260D
102
}
330
260D
100
AcDbPlotSettings
  1
Oki-Doki-B&W-Shaded-8.5x11
  2
OKI DOKI Color Laser.pc3
  4
Letter
  6

 40
5.027083396911621
 41
5.027085304260253
 42
5.027084350585937
 43
5.027069091796875
 44
215.8999938964843
 45
279.3999938964843
 46
46.228
 47
0.0
 48
180360.0524337165
 49
80033.77936194791
140
180369.1574725906
141
80037.61796031875
142
1.0
143
0.8586284006917006
 70
  1716
 72
     0
 73
     1
 74
     4
  7
OKIB&WShaded.ctb
 75
     0
147
1.16464817515285
148
-4581145.331816398
149
-2032857.995793476
  0
PLOTSETTINGS
  5
302F
102
{ACAD_REACTORS
330
260D
102
}
330
260D
100
AcDbPlotSettings
  1
Oki-Doki-Color-Laser
  2
OKI DOKI Color Laser.pc3
  4
Letter
  6

 40
5.027083396911621
 41
5.027085304260253
 42
5.027084350585937
 43
5.027069091796875
 44
215.8999938964843
 45
279.3999938964843
 46
17.018
 47
0.0
 48
180360.0524337165
 49
80033.77936194791
140
180369.1574725906
141
80037.61796031875
142
1.0
143
1.429088128819241
 70
  1716
 72
     0
 73
     1
 74
     0
  7
Color.ctb
 75
     0
147
0.6997469084193093
148
0.9506237099442977
149
8.593888772447144
  0
PLOTSETTINGS
  5
3030
102
{ACAD_REACTORS
330
260D
102
}
330
260D
100
AcDbPlotSettings
  1
Oki-Doki-Color-Shaded-11x17
  2
OKI DOKI Color Laser.pc3
  4
Tabloid
  6

 40
5.027083396911621
 41
5.027085304260253
 42
5.027099609375
 43
5.027069091796875
 44
279.3999938964843
 45
431.7999877929687
 46
45.72
 47
0.0
 48
180360.0524337165
 49
80033.77936194791
140
180369.1574725906
141
80037.61796031875
142
1.0
143
0.5483586774064594
 70
  1716
 72
     0
 73
     1
 74
     4
  7
OKIColorShaded.ctb
 75
     0
147
1.823623918435361
148
-4581145.331816398
149
-2032857.995793476
  0
PLOTSETTINGS
  5
3031
102
{ACAD_REACTORS
330
260D
102
}
330
260D
100
AcDbPlotSettings
  1
Oki-Doki-Color-Shaded-8.5x11
  2
OKI DOKI Color Laser.pc3
  4
Letter
  6

 40
5.027083396911621
 41
5.027085304260253
 42
5.027084350585937
 43
5.027069091796875
 44
215.8999938964843
 45
279.3999938964843
 46
46.228
 47
0.0
 48
180360.0524337165
 49
80033.77936194791
140
180369.1574725906
141
80037.61796031875
142
1.0
143
0.8586284006917006
 70
  1716
 72
     0
 73
     1
 74
     4
  7
OKIColorShaded.ctb
 75
     0
147
1.16464817515285
148
-4581145.331816398
149
-2032857.995793476
  0
ACDBPLACEHOLDER
  5
2604
102
{ACAD_REACTORS
330
2603
102
}
330
2603
  0
DICTIONARYVAR
  5
28BE
102
{ACAD_REACTORS
330
28BC
102
}
330
28BC
100
DictionaryVariables
280
     0
  1
1
  0
DICTIONARYVAR
  5
28BD
102
{ACAD_REACTORS
330
28BC
102
}
330
28BC
100
DictionaryVariables
280
     0
  1
1
  0
DICTIONARYVAR
  5
300C
102
{ACAD_REACTORS
330
28BC
102
}
330
28BC
100
DictionaryVariables
280
     0
  1
1
  0
XRECORD
  5
2F83
102
{ACAD_REACTORS
330
2F82
102
}
330
2F82
100
AcDbXrecord
280
     1
330
2E9F
330
2F62
330
2F71
330
2F74
330
2DED
330
2DF4
330
2DFE
330
2E01
330
2E08
330
2E0D
330
2E12
330
2E19
330
2777
330
2789
330
279D
330
2B5D
330
2B60
330
2B63
330
2B66
330
2B69
330
2B6C
330
2B6F
330
2B72
330
2B75
330
2B78
330
2B7B
330
2B7E
330
2B87
330
2B8A
330
2B8B
330
2B8D
330
2A18
330
2F5E
  0
ENDSEC
  0
EOF
