  0
SECTION
  2
HEADER
  9
$ACADVER
  1
AC1018
  9
$ACADMAINTVER
 70
   104
  9
$DWGCODEPAGE
  3
ANSI_1252
  9
$LASTSAVEDBY
  1
dweyer
  9
$INSBASE
 10
0.0
 20
0.0
 30
0.0
  9
$EXTMIN
 10
0.0
 20
0.0
 30
0.0
  9
$EXTMAX
 10
16.49
 20
10.44
 30
0.03
  9
$LIMMIN
 10
0.0
 20
-0.1363636364
  9
$LIMMAX
 10
12.0
 20
9.1363636364
  9
$ORTHOMODE
 70
     1
  9
$REGENMODE
 70
     1
  9
$FILLMODE
 70
     1
  9
$QTEXTMODE
 70
     0
  9
$MIRRTEXT
 70
     0
  9
$LTSCALE
 40
0.5
  9
$ATTMODE
 70
     1
  9
$TEXTSIZE
 40
0.125
  9
$TRACEWID
 40
0.05
  9
$TEXTSTYLE
  7
ROMANS
  9
$CLAYER
  8
image
  9
$CELTYPE
  6
ByLayer
  9
$CECOLOR
 62
   256
  9
$CELTSCALE
 40
1.0
  9
$DISPSILH
 70
     0
  9
$DIMSCALE
 40
1.0
  9
$DIMASZ
 40
0.1
  9
$DIMEXO
 40
0.0625
  9
$DIMDLI
 40
0.38
  9
$DIMRND
 40
0.0
  9
$DIMDLE
 40
0.0
  9
$DIMEXE
 40
0.125
  9
$DIMTP
 40
0.0
  9
$DIMTM
 40
0.0
  9
$DIMTXT
 40
0.125
  9
$DIMCEN
 40
0.09
  9
$DIMTSZ
 40
0.0
  9
$DIMTOL
 70
     0
  9
$DIMLIM
 70
     0
  9
$DIMTIH
 70
     1
  9
$DIMTOH
 70
     1
  9
$DIMSE1
 70
     0
  9
$DIMSE2
 70
     0
  9
$DIMTAD
 70
     0
  9
$DIMZIN
 70
     0
  9
$DIMBLK
  1

  9
$DIMASO
 70
     1
  9
$DIMSHO
 70
     0
  9
$DIMPOST
  1

  9
$DIMAPOST
  1

  9
$DIMALT
 70
     0
  9
$DIMALTD
 70
     2
  9
$DIMALTF
 40
25.0
  9
$DIMLFAC
 40
1.0
  9
$DIMTOFL
 70
     0
  9
$DIMTVP
 40
0.0
  9
$DIMTIX
 70
     0
  9
$DIMSOXD
 70
     0
  9
$DIMSAH
 70
     0
  9
$DIMBLK1
  1

  9
$DIMBLK2
  1

  9
$DIMSTYLE
  2
Standard
  9
$DIMCLRD
 70
   256
  9
$DIMCLRE
 70
   256
  9
$DIMCLRT
 70
   256
  9
$DIMTFAC
 40
1.0
  9
$DIMGAP
 40
0.09
  9
$DIMJUST
 70
     0
  9
$DIMSD1
 70
     0
  9
$DIMSD2
 70
     0
  9
$DIMTOLJ
 70
     1
  9
$DIMTZIN
 70
     0
  9
$DIMALTZ
 70
     0
  9
$DIMALTTZ
 70
     0
  9
$DIMUPT
 70
     0
  9
$DIMDEC
 70
     4
  9
$DIMTDEC
 70
     4
  9
$DIMALTU
 70
     2
  9
$DIMALTTD
 70
     2
  9
$DIMTXSTY
  7
STANDARD
  9
$DIMAUNIT
 70
     0
  9
$DIMADEC
 70
     0
  9
$DIMALTRND
 40
0.0
  9
$DIMAZIN
 70
     0
  9
$DIMDSEP
 70
    46
  9
$DIMATFIT
 70
     3
  9
$DIMFRAC
 70
     0
  9
$DIMLDRBLK
  1

  9
$DIMLUNIT
 70
     2
  9
$DIMLWD
 70
    -1
  9
$DIMLWE
 70
    -1
  9
$DIMTMOVE
 70
     0
  9
$LUNITS
 70
     2
  9
$LUPREC
 70
     3
  9
$SKETCHINC
 40
0.1
  9
$FILLETRAD
 40
0.0
  9
$AUNITS
 70
     0
  9
$AUPREC
 70
     0
  9
$MENU
  1
acad
  9
$ELEVATION
 40
0.0
  9
$PELEVATION
 40
0.0
  9
$THICKNESS
 40
0.0
  9
$LIMCHECK
 70
     0
  9
$CHAMFERA
 40
0.0
  9
$CHAMFERB
 40
0.0
  9
$CHAMFERC
 40
0.0
  9
$CHAMFERD
 40
0.0
  9
$SKPOLY
 70
     0
  9
$TDCREATE
 40
2444975.422333599
  9
$TDUCREATE
 40
2444975.672333600
  9
$TDUPDATE
 40
2455370.401082882
  9
$TDUUPDATE
 40
2455370.651082882
  9
$TDINDWG
 40
0.4196539120
  9
$TDUSRTIMER
 40
0.4196539120
  9
$USRTIMER
 70
     1
  9
$ANGBASE
 50
0.0
  9
$ANGDIR
 70
     0
  9
$PDMODE
 70
     0
  9
$PDSIZE
 40
0.0
  9
$PLINEWID
 40
0.0
  9
$SPLFRAME
 70
     0
  9
$SPLINETYPE
 70
     6
  9
$SPLINESEGS
 70
     8
  9
$HANDSEED
  5
9BD
  9
$SURFTAB1
 70
     6
  9
$SURFTAB2
 70
     6
  9
$SURFTYPE
 70
     6
  9
$SURFU
 70
     6
  9
$SURFV
 70
     6
  9
$UCSBASE
  2

  9
$UCSNAME
  2

  9
$UCSORG
 10
0.0
 20
0.0
 30
0.0
  9
$UCSXDIR
 10
1.0
 20
0.0
 30
0.0
  9
$UCSYDIR
 10
0.0
 20
1.0
 30
0.0
  9
$UCSORTHOREF
  2

  9
$UCSORTHOVIEW
 70
     0
  9
$UCSORGTOP
 10
0.0
 20
0.0
 30
0.0
  9
$UCSORGBOTTOM
 10
0.0
 20
0.0
 30
0.0
  9
$UCSORGLEFT
 10
0.0
 20
0.0
 30
0.0
  9
$UCSORGRIGHT
 10
0.0
 20
0.0
 30
0.0
  9
$UCSORGFRONT
 10
0.0
 20
0.0
 30
0.0
  9
$UCSORGBACK
 10
0.0
 20
0.0
 30
0.0
  9
$PUCSBASE
  2

  9
$PUCSNAME
  2

  9
$PUCSORG
 10
0.0
 20
0.0
 30
0.0
  9
$PUCSXDIR
 10
1.0
 20
0.0
 30
0.0
  9
$PUCSYDIR
 10
0.0
 20
1.0
 30
0.0
  9
$PUCSORTHOREF
  2

  9
$PUCSORTHOVIEW
 70
     0
  9
$PUCSORGTOP
 10
0.0
 20
0.0
 30
0.0
  9
$PUCSORGBOTTOM
 10
0.0
 20
0.0
 30
0.0
  9
$PUCSORGLEFT
 10
0.0
 20
0.0
 30
0.0
  9
$PUCSORGRIGHT
 10
0.0
 20
0.0
 30
0.0
  9
$PUCSORGFRONT
 10
0.0
 20
0.0
 30
0.0
  9
$PUCSORGBACK
 10
0.0
 20
0.0
 30
0.0
  9
$USERI1
 70
     0
  9
$USERI2
 70
     0
  9
$USERI3
 70
     0
  9
$USERI4
 70
     0
  9
$USERI5
 70
     0
  9
$USERR1
 40
0.0
  9
$USERR2
 40
0.0
  9
$USERR3
 40
0.0
  9
$USERR4
 40
0.0
  9
$USERR5
 40
0.0
  9
$WORLDVIEW
 70
     0
  9
$SHADEDGE
 70
     3
  9
$SHADEDIF
 70
    70
  9
$TILEMODE
 70
     1
  9
$MAXACTVP
 70
    16
  9
$PINSBASE
 10
0.0
 20
0.0
 30
0.0
  9
$PLIMCHECK
 70
     0
  9
$PEXTMIN
 10
1.000000000000000E+20
 20
1.000000000000000E+20
 30
1.000000000000000E+20
  9
$PEXTMAX
 10
-1.000000000000000E+20
 20
-1.000000000000000E+20
 30
-1.000000000000000E+20
  9
$PLIMMIN
 10
0.0
 20
0.0
  9
$PLIMMAX
 10
12.0
 20
9.0
  9
$UNITMODE
 70
     0
  9
$VISRETAIN
 70
     0
  9
$PLINEGEN
 70
     1
  9
$PSLTSCALE
 70
     0
  9
$TREEDEPTH
 70
  3020
  9
$CMLSTYLE
  2
Standard
  9
$CMLJUST
 70
     0
  9
$CMLSCALE
 40
1.0
  9
$PROXYGRAPHICS
 70
     1
  9
$MEASUREMENT
 70
     0
  9
$CELWEIGHT
370
    -1
  9
$ENDCAPS
280
     0
  9
$JOINSTYLE
280
     0
  9
$LWDISPLAY
290
     0
  9
$INSUNITS
 70
     0
  9
$HYPERLINKBASE
  1

  9
$STYLESHEET
  1
LaserJet5Shaded.ctb
  9
$XEDIT
290
     1
  9
$CEPSNTYPE
380
     0
  9
$PSTYLEMODE
290
     1
  9
$FINGERPRINTGUID
  2
{9A55BA9F-56A3-45E8-B51F-1B04A4E6D871}
  9
$VERSIONGUID
  2
{A1B9F289-E629-48A1-AD21-BB0021208857}
  9
$EXTNAMES
290
     1
  9
$PSVPSCALE
 40
0.0
  9
$OLESTARTUP
290
     1
  9
$SORTENTS
280
    48
  9
$INDEXCTL
280
     0
  9
$HIDETEXT
280
     1
  9
$XCLIPFRAME
290
     0
  9
$HALOGAP
280
     0
  9
$OBSCOLOR
 70
   257
  9
$OBSLTYPE
280
     0
  9
$INTERSECTIONDISPLAY
280
     0
  9
$INTERSECTIONCOLOR
 70
   257
  9
$DIMASSOC
280
     1
  9
$PROJECTNAME
  1

  0
ENDSEC
  0
SECTION
  2
CLASSES
  0
CLASS
  1
ACDBDICTIONARYWDFLT
  2
AcDbDictionaryWithDefault
  3
ObjectDBX Classes
 90
        0
 91
        1
280
     0
281
     0
  0
CLASS
  1
DICTIONARYVAR
  2
AcDbDictionaryVar
  3
ObjectDBX Classes
 90
        0
 91
       10
280
     0
281
     0
  0
CLASS
  1
DIMASSOC
  2
AcDbDimAssoc
  3
"AcDbDimAssoc|Product Desc:     AcDim ARX App For Dimension|Company:          Autodesk, Inc.|WEB Address:      www.autodesk.com"
 90
        0
 91
        2
280
     0
281
     0
  0
CLASS
  1
PLOTSETTINGS
  2
AcDbPlotSettings
  3
ObjectDBX Classes
 90
        0
 91
       77
280
     0
281
     0
  0
CLASS
  1
MATERIAL
  2
AcDbMaterial
  3
ObjectDBX Classes
 90
     1153
 91
        3
280
     0
281
     0
  0
CLASS
  1
VISUALSTYLE
  2
AcDbVisualStyle
  3
ObjectDBX Classes
 90
     4095
 91
       16
280
     0
281
     0
  0
CLASS
  1
TABLESTYLE
  2
AcDbTableStyle
  3
ObjectDBX Classes
 90
     4095
 91
        1
280
     0
281
     0
  0
CLASS
  1
SCALE
  2
AcDbScale
  3
ObjectDBX Classes
 90
     1153
 91
       33
280
     0
281
     0
  0
CLASS
  1
MLEADERSTYLE
  2
AcDbMLeaderStyle
  3
ACDB_MLEADERSTYLE_CLASS
 90
     4095
 91
        1
280
     0
281
     0
  0
CLASS
  1
EXACXREFPANELOBJECT
  2
ExAcXREFPanelObject
  3
EXAC_ESW
 90
     1025
 91
        1
280
     0
281
     0
  0
CLASS
  1
NPOCOLLECTION
  2
AcDbImpNonPersistentObjectsCollection
  3
ObjectDBX Classes
 90
     1153
 91
        1
280
     0
281
     0
  0
CLASS
  1
CELLSTYLEMAP
  2
AcDbCellStyleMap
  3
ObjectDBX Classes
 90
     1152
 91
        3
280
     0
281
     0
  0
CLASS
  1
SORTENTSTABLE
  2
AcDbSortentsTable
  3
ObjectDBX Classes
 90
        0
 91
        1
280
     0
281
     0
  0
ENDSEC
  0
SECTION
  2
TABLES
  0
TABLE
  2
VPORT
  5
19
330
0
100
AcDbSymbolTable
 70
     1
  0
VPORT
  5
630
330
19
100
AcDbSymbolTableRecord
100
AcDbViewportTableRecord
  2
*Active
 70
     0
 10
0.0
 20
0.0
 11
1.0
 21
1.0
 12
8.245
 22
5.219999999999999
 13
0.0
 23
0.0
 14
0.1
 24
0.1
 15
0.1
 25
0.1
 16
0.0
 26
0.0
 36
1.0
 17
0.0
 27
0.0
 37
0.0
 40
10.53225331369661
 41
2.297935103244837
 42
50.0
 43
0.0
 44
0.0
 50
0.0
 51
0.0
 71
     0
 72
  1000
 73
     1
 74
     1
 75
     0
 76
     0
 77
     0
 78
     1
281
     0
 65
     1
110
0.0
120
0.0
130
0.0
111
1.0
121
0.0
131
0.0
112
0.0
122
1.0
132
0.0
 79
     0
146
0.0
  0
ENDTAB
  0
TABLE
  2
LTYPE
  5
14
330
0
100
AcDbSymbolTable
 70
     1
  0
LTYPE
  5
15
330
14
100
AcDbSymbolTableRecord
100
AcDbLinetypeTableRecord
  2
ByBlock
 70
     0
  3

 72
    65
 73
     0
 40
0.0
  0
LTYPE
  5
16
330
14
100
AcDbSymbolTableRecord
100
AcDbLinetypeTableRecord
  2
ByLayer
 70
     0
  3

 72
    65
 73
     0
 40
0.0
  0
LTYPE
  5
8
330
14
100
AcDbSymbolTableRecord
100
AcDbLinetypeTableRecord
  2
CONTINUOUS
 70
     0
  3
CONTINUOUS
 72
    65
 73
     0
 40
0.0
  0
ENDTAB
  0
TABLE
  2
LAYER
  5
10
102
{ACAD_XDICTIONARY
360
5E2
102
}
330
0
100
AcDbSymbolTable
 70
     7
  0
LAYER
  5
4
330
10
100
AcDbSymbolTableRecord
100
AcDbLayerTableRecord
  2
0
 70
     0
 62
     7
  6
CONTINUOUS
370
    -3
390
5
  0
LAYER
  5
23
330
10
100
AcDbSymbolTableRecord
100
AcDbLayerTableRecord
  2
image
 70
     0
 62
     7
  6
CONTINUOUS
370
    -3
390
5
  0
LAYER
  5
2C
330
10
100
AcDbSymbolTableRecord
100
AcDbLayerTableRecord
  2
text_bubbles
 70
     0
 62
     6
  6
CONTINUOUS
370
    -3
390
5
1001
RAK
1000
{EFB-CP-BUBBLES
1070
     0
1070
     6
1000
CONTINUOUS
1000
EFB-CP-BUBBLES}
1000
{EFB-CP-LEADERS
1070
     0
1070
    -6
1000
CONTINUOUS
1000
EFB-CP-LEADERS}
1000
{EFB-CP-BSP-BUBBLES
1070
     0
1070
     6
1000
CONTINUOUS
1000
EFB-CP-BSP-BUBBLES}
1000
{EFB-CP-BSP-LEADERS
1070
     0
1070
    -6
1000
CONTINUOUS
1000
EFB-CP-BSP-LEADERS}
1000
{EFB-CP-NP-BUBBLES
1070
     0
1070
     6
1000
CONTINUOUS
1000
EFB-CP-NP-BUBBLES}
1000
{EFB-CP-NP-LEADERS
1070
     0
1070
    -6
1000
CONTINUOUS
1000
EFB-CP-NP-LEADERS}
1000
{EFB-CP-PRS-BUBBLES
1070
     0
1070
     6
1000
CONTINUOUS
1000
EFB-CP-PRS-BUBBLES}
1000
{EFB-CP-PRS-LEADERS
1070
     0
1070
    -6
1000
CONTINUOUS
1000
EFB-CP-PRS-LEADERS}
1000
{EFB-CP-PRS-BSP-BUBBLES
1070
     0
1070
     6
1000
CONTINUOUS
1000
EFB-CP-PRS-BSP-BUBBLES}
1000
{EFB-CP-PRS-BSP-LEADERS
1070
     0
1070
    -6
1000
CONTINUOUS
1000
EFB-CP-PRS-BSP-LEADERS}
1000
{EFB-CP-PRS-NP-BUBBLES
1070
     0
1070
     6
1000
CONTINUOUS
1000
EFB-CP-PRS-NP-BUBBLES}
1000
{EFB-CP-PRS-NP-LEADERS
1070
     0
1070
    -6
1000
CONTINUOUS
1000
EFB-CP-PRS-NP-LEADERS}
  0
LAYER
  5
58
330
10
100
AcDbSymbolTableRecord
100
AcDbLayerTableRecord
  2
defpoints
 70
     0
 62
     7
  6
CONTINUOUS
290
     0
370
    -3
390
5
  0
LAYER
  5
356
330
10
100
AcDbSymbolTableRecord
100
AcDbLayerTableRecord
  2
title
 70
     0
 62
     4
  6
CONTINUOUS
370
    -3
390
5
  0
LAYER
  5
86D
330
10
100
AcDbSymbolTableRecord
100
AcDbLayerTableRecord
  2
0100-note
 70
     0
 62
     6
  6
CONTINUOUS
370
    -3
390
5
1001
AcAecLayerStandard
1000

1000
Irrigation Note
  0
LAYER
  5
86E
330
10
100
AcDbSymbolTableRecord
100
AcDbLayerTableRecord
  2
leader
 70
     0
 62
     6
  6
CONTINUOUS
370
    -3
390
5
  0
ENDTAB
  0
TABLE
  2
STYLE
  5
11
330
0
100
AcDbSymbolTable
 70
     6
  0
STYLE
  5
12
330
11
100
AcDbSymbolTableRecord
100
AcDbTextStyleTableRecord
  2
STANDARD
 70
     0
 40
0.0
 41
1.0
 50
0.0
 71
     0
 42
0.125
  3
txt
  4

  0
STYLE
  5
28
330
11
100
AcDbSymbolTableRecord
100
AcDbTextStyleTableRecord
  2
SIMPLEX
 70
     0
 40
0.0
 41
0.0
 50
0.0
 71
     0
 42
0.0
  3
SIMPLEX
  4

  0
STYLE
  5
2B
330
11
100
AcDbSymbolTableRecord
100
AcDbTextStyleTableRecord
  2
ROMANS
 70
     0
 40
0.0
 41
1.0
 50
0.0
 71
     0
 42
0.125
  3
romans
  4

  0
STYLE
  5
357
330
11
100
AcDbSymbolTableRecord
100
AcDbTextStyleTableRecord
  2
L100
 70
     0
 40
0.1
 41
1.0
 50
0.0
 71
     0
 42
0.1
  3
SIMPLEX
  4

  0
STYLE
  5
358
330
11
100
AcDbSymbolTableRecord
100
AcDbTextStyleTableRecord
  2
L200
 70
     0
 40
0.2
 41
1.0
 50
0.0
 71
     0
 42
0.081
  3
ARIAL.TTF
  4

1001
ACAD
1000
Arial
1071
       34
  0
STYLE
  5
359
330
11
100
AcDbSymbolTableRecord
100
AcDbTextStyleTableRecord
  2
L80
 70
     0
 40
0.08
 41
1.0
 50
0.0
 71
     0
 42
0.08
  3
ROMANS
  4

  0
ENDTAB
  0
TABLE
  2
VIEW
  5
17
330
0
100
AcDbSymbolTable
 70
     1
  0
VIEW
  5
390
330
17
100
AcDbSymbolTableRecord
100
AcDbViewTableRecord
  2
PS1
 70
     0
 40
10.44
 10
8.245
 20
5.219999999999999
 41
16.49
 11
0.0
 21
0.0
 31
1.0
 12
0.0
 22
0.0
 32
0.0
 42
50.0
 43
0.0
 44
0.0
 50
0.0
 71
     0
281
     0
 72
     1
110
0.0
120
0.0
130
0.0
111
1.0
121
0.0
131
0.0
112
0.0
122
1.0
132
0.0
 79
     0
146
0.0
  0
ENDTAB
  0
TABLE
  2
UCS
  5
18
330
0
100
AcDbSymbolTable
 70
     0
  0
ENDTAB
  0
TABLE
  2
APPID
  5
1B
330
0
100
AcDbSymbolTable
 70
    15
  0
APPID
  5
1C
330
1B
100
AcDbSymbolTableRecord
100
AcDbRegAppTableRecord
  2
ACAD
 70
     0
  0
APPID
  5
2A4
330
1B
100
AcDbSymbolTableRecord
100
AcDbRegAppTableRecord
  2
TCAD
 70
     0
  0
APPID
  5
2D
330
1B
100
AcDbSymbolTableRecord
100
AcDbRegAppTableRecord
  2
RAK
 70
     0
  0
APPID
  5
38A
330
1B
100
AcDbSymbolTableRecord
100
AcDbRegAppTableRecord
  2
DCO15
 70
     0
  0
APPID
  5
683
330
1B
100
AcDbSymbolTableRecord
100
AcDbRegAppTableRecord
  2
ACAD_MLEADERVER
 70
     0
  0
APPID
  5
699
330
1B
100
AcDbSymbolTableRecord
100
AcDbRegAppTableRecord
  2
ACAD_EXEMPT_FROM_CAD_STANDARDS
 70
     0
  0
APPID
  5
6FD
330
1B
100
AcDbSymbolTableRecord
100
AcDbRegAppTableRecord
  2
ACAD_PSEXT
 70
     0
  0
APPID
  5
8F1
330
1B
100
AcDbSymbolTableRecord
100
AcDbRegAppTableRecord
  2
AcAecLayerStandard
 70
     0
  0
APPID
  5
9AE
330
1B
100
AcDbSymbolTableRecord
100
AcDbRegAppTableRecord
  2
BBSI_PltSel
 70
     0
  0
APPID
  5
9AF
330
1B
100
AcDbSymbolTableRecord
100
AcDbRegAppTableRecord
  2
BBSI_Plots
 70
     0
  0
APPID
  5
9B0
330
1B
100
AcDbSymbolTableRecord
100
AcDbRegAppTableRecord
  2
BBSI_Bookmarks
 70
     0
  0
APPID
  5
9B1
330
1B
100
AcDbSymbolTableRecord
100
AcDbRegAppTableRecord
  2
BBSI_BookmarksEx
 70
     0
  0
APPID
  5
9B2
330
1B
100
AcDbSymbolTableRecord
100
AcDbRegAppTableRecord
  2
BBSI_StampsEx
 70
     0
  0
APPID
  5
9B3
330
1B
100
AcDbSymbolTableRecord
100
AcDbRegAppTableRecord
  2
BBSI_Attachs
 70
     0
  0
APPID
  5
9B4
330
1B
100
AcDbSymbolTableRecord
100
AcDbRegAppTableRecord
  2
BBSI_DigSigs
 70
     0
  0
ENDTAB
  0
TABLE
  2
DIMSTYLE
  5
1D
330
0
100
AcDbSymbolTable
 70
     1
100
AcDbDimStyleTable
 71
     1
340
1E
  0
DIMSTYLE
105
1E
102
{ACAD_REACTORS
330
2FA
330
86F
330
871
330
872
102
}
330
1D
100
AcDbSymbolTableRecord
100
AcDbDimStyleTableRecord
  2
Standard
 70
     0
340
12
  0
ENDTAB
  0
TABLE
  2
BLOCK_RECORD
  5
1
330
0
100
AcDbSymbolTable
 70
     6
  0
BLOCK_RECORD
  5
2
330
1
100
AcDbSymbolTableRecord
100
AcDbBlockTableRecord
  2
*Model_Space
340
A
  0
BLOCK_RECORD
  5
C
330
1
100
AcDbSymbolTableRecord
100
AcDbBlockTableRecord
  2
*Paper_Space
340
F
  0
BLOCK_RECORD
  5
2E
330
1
100
AcDbSymbolTableRecord
100
AcDbBlockTableRecord
  2
bubble
340
0
310
2800000020000000200000000100080000000000000400000000000000000000000000000000000000000000000080000080000000808000800000008000800080800000C0C0C000C0DCC000F0CAA6000020400000206000002080000020A0000020C0000020E00000400000004020000040400000406000004080000040A0
310
000040C0000040E00000600000006020000060400000606000006080000060A0000060C0000060E00000800000008020000080400000806000008080000080A0000080C0000080E00000A0000000A0200000A0400000A0600000A0800000A0A00000A0C00000A0E00000C0000000C0200000C0400000C0600000C0800000C0
310
A00000C0C00000C0E00000E0000000E0200000E0400000E0600000E0800000E0A00000E0C00000E0E00040000000400020004000400040006000400080004000A0004000C0004000E00040200000402020004020400040206000402080004020A0004020C0004020E000404000004040200040404000404060004040800040
310
40A0004040C0004040E00040600000406020004060400040606000406080004060A0004060C0004060E00040800000408020004080400040806000408080004080A0004080C0004080E00040A0000040A0200040A0400040A0600040A0800040A0A00040A0C00040A0E00040C0000040C0200040C0400040C0600040C08000
310
40C0A00040C0C00040C0E00040E0000040E0200040E0400040E0600040E0800040E0A00040E0C00040E0E00080000000800020008000400080006000800080008000A0008000C0008000E00080200000802020008020400080206000802080008020A0008020C0008020E00080400000804020008040400080406000804080
310
008040A0008040C0008040E00080600000806020008060400080606000806080008060A0008060C0008060E00080800000808020008080400080806000808080008080A0008080C0008080E00080A0000080A0200080A0400080A0600080A0800080A0A00080A0C00080A0E00080C0000080C0200080C0400080C0600080C0
310
800080C0A00080C0C00080C0E00080E0000080E0200080E0400080E0600080E0800080E0A00080E0C00080E0E000C0000000C0002000C0004000C0006000C0008000C000A000C000C000C000E000C0200000C0202000C0204000C0206000C0208000C020A000C020C000C020E000C0400000C0402000C0404000C0406000C0
310
408000C040A000C040C000C040E000C0600000C0602000C0604000C0606000C0608000C060A000C060C000C060E000C0800000C0802000C0804000C0806000C0808000C080A000C080C000C080E000C0A00000C0A02000C0A04000C0A06000C0A08000C0A0A000C0A0C000C0A0E000C0C00000C0C02000C0C04000C0C06000
310
C0C08000C0C0A000F0FBFF00A4A0A000808080000000FF0000FF000000FFFF00FF000000FF00FF00FFFF0000FFFFFF0008080808080808080808080808080808080808080808080808080808080808080808080808080808080808080808080808080808080808080808080808080808080808080808080808080808FDFDFD
310
08080808080808080808080808080808080808080808080808080808FD080808FDFDFDFDFDFD0808080808080808080808080808080808080808FDFD08080808080808080808FDFDFDFD080808080808080808080808080808FD08080808080808080808080808080808FD08080808080808080808080808FD080808080808
310
0808080808080808080808FD0808080808080808080808FDFD08080808080808080808080808080808080808FD080808080808080808FD080808080808080808080808080808080808080808FD0808080808080808FD08FD0808080808080808FD0808FD0808080808080808FDFD08080808080808FD0808FD080808080808
310
FD08080808FD080808080808FD08FD08080808080808FD0808FD080808080808FD08080808FD080808080808FD0808FD080808080808FD080808FD08080808FD080808080808FD08080808FD080808FD080808080808FD08080808FD0808FD0808080808080808FD0808FD0808080808FD0808080808FD08080808FD0808FD
310
0808080808080808FD0808FD0808080808FD0808080808FD0808080808FDFD08080808080808080808FDFD08080808080808FD08080808FD0808080808FDFD08080808080808080808FDFD08080808080808FD08080808FD08080808FD0808FD0808080808080808FD0808FD0808080808FD0808080808FD08080808FD0808
310
FD0808080808080808FD0808FD0808080808FD0808080808FD080808FD08080808FD080808080808FD08080808FD080808FD080808080808FD0808FD080808080808FD08080808FD080808080808FD0808FD080808080808FD0808FD080808080808FD08080808FD080808080808FD08FD08080808080808FD08FD08080808
310
08080808FD0808FD0808080808080808FDFD0808080808080808FD080808080808080808080808080808080808080808FD08080808080808080808FDFD08080808080808080808080808080808080808FD080808080808080808080808FD0808080808080808080808080808080808FD0808080808080808080808080808FD
310
08080808080808080808080808080808FD080808080808080808080808080808FDFD0808080808080808080808FDFDFD080808080808080808080808080808080808FD08080808FDFDFDFDFDFD08080808080808080808080808080808080808080808FDFDFDFD080808080808080808080808080808080808080808080808
310
0808080808080808080808080808080808080808080808080808080808080808080808080808080808080808080808080808080808080808
102
{BLKREFS
331
3D
331
29
331
34
331
37
331
3A
331
43
331
40
331
287
331
2F2
331
49
331
46
331
4DD
331
4E1
331
4E5
331
4E9
331
4F0
331
5D2
331
5D6
331
6CD
331
6D0
331
6D3
331
6D6
331
6D9
331
6DC
331
6CA
331
761
331
764
331
774
331
777
331
7BC
102
}
  0
BLOCK_RECORD
  5
349
330
1
100
AcDbSymbolTableRecord
100
AcDbBlockTableRecord
  2
TITLBLK
340
0
102
{BLKREFS
331
369
102
}
  0
BLOCK_RECORD
  5
3AB
330
1
100
AcDbSymbolTableRecord
100
AcDbBlockTableRecord
  2
*D2
340
0
  0
BLOCK_RECORD
  5
6C8
330
1
100
AcDbSymbolTableRecord
100
AcDbBlockTableRecord
  2
A$C1B7264EA
340
0
  0
BLOCK_RECORD
  5
752
330
1
100
AcDbSymbolTableRecord
100
AcDbBlockTableRecord
  2
*D4
340
0
  0
BLOCK_RECORD
  5
760
102
{ACAD_XDICTIONARY
360
800
102
}
330
1
100
AcDbSymbolTableRecord
100
AcDbBlockTableRecord
  2
A$C23310888
340
0
  0
ENDTAB
  0
ENDSEC
  0
SECTION
  2
BLOCKS
  0
BLOCK
  5
3
330
2
100
AcDbEntity
  8
0
100
AcDbBlockBegin
  2
*Model_Space
 70
     0
 10
0.0
 20
0.0
 30
0.0
  3
*Model_Space
  1

  0
ENDBLK
  5
9
330
2
100
AcDbEntity
  8
0
100
AcDbBlockEnd
  0
BLOCK
  5
D
330
C
100
AcDbEntity
 67
     1
  8
0
100
AcDbBlockBegin
  2
*Paper_Space
 70
     0
 10
0.0
 20
0.0
 30
0.0
  3
*Paper_Space
  1

  0
ENDBLK
  5
E
330
C
100
AcDbEntity
 67
     1
  8
0
100
AcDbBlockEnd
  0
BLOCK
  5
31
330
2E
100
AcDbEntity
  8
0
100
AcDbBlockBegin
  2
bubble
 70
     2
 10
0.0
 20
0.0
 30
0.0
  3
bubble
  1

  0
CIRCLE
  5
2F
330
2E
100
AcDbEntity
  8
text_bubbles
100
AcDbCircle
 10
0.0
 20
0.0
 30
0.0
 40
0.1398891854377198
  0
ATTDEF
  5
30
330
2E
100
AcDbEntity
  8
text_bubbles
100
AcDbText
 10
0.0
 20
0.0
 30
0.0
 40
0.125
  1

  7
ROMANS
 72
     4
 11
0.0
 21
0.0
 31
0.0
100
AcDbAttributeDefinition
  3
Number
  2
XX
 70
     0
  0
ENDBLK
  5
32
330
2E
100
AcDbEntity
  8
0
100
AcDbBlockEnd
  0
BLOCK
  5
354
330
349
100
AcDbEntity
  8
0
100
AcDbBlockBegin
  2
TITLBLK
 70
     2
 10
0.0
 20
0.0
 30
0.0
  3
TITLBLK
  1

  0
LWPOLYLINE
  5
34A
330
349
100
AcDbEntity
  8
title
 62
     3
100
AcDbPolyline
 90
        2
 70
     0
 43
0.04
 39
0.03
 10
0.3424999999999994
 20
-0.0000000000000003
 10
7.654581983261419
 20
-0.0000000000000003
  0
ATTDEF
  5
34B
330
349
100
AcDbEntity
  8
title
100
AcDbText
 10
0.625
 20
0.0999999999999998
 30
0.0
 40
0.2
  1
TITLE
  7
L200
100
AcDbAttributeDefinition
  3
DETAIL TITLE TOP 2ND LINE
  2
TITLE2
 70
     0
  0
LWPOLYLINE
  5
34C
330
349
100
AcDbEntity
  8
title
 62
     3
100
AcDbPolyline
 90
        2
 70
     1
 43
0.03
 10
0.0
 20
-0.3425000000000002
 42
0.9999999999999998
 10
0.0
 20
0.3425000000000002
 42
0.9999999999999998
  0
ATTDEF
  5
34D
330
349
100
AcDbEntity
  8
title
100
AcDbText
 10
-0.0776944065484311
 20
-0.1000000000000003
 30
0.0
 40
0.2
  1
#
  7
L200
 72
     4
 11
0.0
 21
-0.0000000000000003
 31
0.0
100
AcDbAttributeDefinition
  3
#
  2
#
 70
     0
  0
ATTDEF
  5
34E
330
349
100
AcDbEntity
  8
title
 62
     7
100
AcDbText
 10
0.625
 20
-0.1836633170828782
 30
0.0
 40
0.1
  1
N.T.S.
  7
L100
100
AcDbAttributeDefinition
  3
SCALE
  2
SCALE
 70
     0
  0
ATTDEF
  5
34F
330
349
100
AcDbEntity
  8
title
100
AcDbText
 10
2.107203380653828
 20
-0.2914343300200487
 30
0.0
 40
0.2
  1
TITLE2
  7
L200
100
AcDbAttributeDefinition
  3
DETAIL TITLE BOTTOM 1
  2
TITLE3
 70
     0
  0
ATTDEF
  5
350
330
349
100
AcDbEntity
  8
title
 62
     7
100
AcDbText
 10
7.570772459451895
 20
-0.1618486459795794
 30
0.0
 40
0.08
  1
-
  7
L80
 72
     2
 11
7.654581983261419
 21
-0.1618486459795794
 31
0.0
100
AcDbAttributeDefinition
  3
DWG-NAME
  2
DWG-NAME
 70
     0
  0
ATTDEF
  5
351
330
349
100
AcDbEntity
  8
title
 62
     7
100
AcDbText
 10
7.570772459451895
 20
0.0853756950662722
 30
0.0
 40
0.08
  1
-
  7
L80
 72
     2
 11
7.654581983261419
 21
0.0853756950662722
 31
0.0
100
AcDbAttributeDefinition
  3
REVISION DATE
  2
REVISED
 70
     0
  0
ATTDEF
  5
352
330
349
100
AcDbEntity
  8
title
100
AcDbText
 10
0.625
 20
0.459485206268383
 30
0.0
 40
0.2
  1
TITLE
  7
L200
100
AcDbAttributeDefinition
  3
DETAIL TITLE TOP LINE
  2
TITLE1
 70
     0
  0
ATTDEF
  5
353
330
349
100
AcDbEntity
  8
title
100
AcDbText
 10
2.107203380653828
 20
-0.6149710156615936
 30
0.0
 40
0.2
  1
TITLE2
  7
L200
100
AcDbAttributeDefinition
  3
DETAIL TITLE BOTTOM 2
  2
TITLE4
 70
     0
  0
ENDBLK
  5
355
330
349
100
AcDbEntity
  8
0
100
AcDbBlockEnd
  0
BLOCK
  5
3B7
330
3AB
100
AcDbEntity
  8
0
100
AcDbBlockBegin
  2
*D2
 70
     1
 10
0.0
 20
0.0
 30
0.0
  3
*D2
  1

  0
LINE
  5
3B9
330
3AB
100
AcDbEntity
  8
image
370
    -2
100
AcDbLine
 10
4.353862033785327
 20
6.600862981666651
 30
0.0
 11
3.620967266753725
 21
6.600862981666651
 31
0.0
  0
LINE
  5
3BA
330
3AB
100
AcDbEntity
  8
image
370
    -2
100
AcDbLine
 10
4.353862033785327
 20
6.876954950657193
 30
0.0
 11
3.620967266753725
 21
6.876954950657193
 31
0.0
  0
LINE
  5
3BB
330
3AB
100
AcDbEntity
  8
image
370
    -2
100
AcDbLine
 10
3.800967266753725
 20
6.500862981666651
 30
0.0
 11
3.800967266753725
 21
6.400862981666651
 31
0.0
  0
LINE
  5
3BC
330
3AB
100
AcDbEntity
  8
image
370
    -2
100
AcDbLine
 10
3.800967266753725
 20
6.976954950657193
 30
0.0
 11
3.800967266753725
 21
7.336592481852782
 31
0.0
  0
LINE
  5
3BD
330
3AB
100
AcDbEntity
  8
image
370
    -2
100
AcDbLine
 10
3.800967266753725
 20
7.336592481852782
 30
0.0
 11
3.900967266753725
 21
7.336592481852782
 31
0.0
  0
SOLID
  5
3BE
330
3AB
100
AcDbEntity
  8
image
100
AcDbTrace
 10
3.784300600087058
 20
6.500862981666651
 30
0.0
 11
3.817633933420391
 21
6.500862981666651
 31
0.0
 12
3.800967266753725
 22
6.600862981666651
 32
0.0
 13
3.800967266753725
 23
6.600862981666651
 33
0.0
  0
SOLID
  5
3BF
330
3AB
100
AcDbEntity
  8
image
100
AcDbTrace
 10
3.784300600087058
 20
6.976954950657193
 30
0.0
 11
3.817633933420391
 21
6.976954950657193
 31
0.0
 12
3.800967266753725
 22
6.876954950657193
 32
0.0
 13
3.800967266753725
 23
6.876954950657193
 33
0.0
  0
MTEXT
  5
3C0
330
3AB
100
AcDbEntity
  8
image
100
AcDbMText
 10
4.157633933420391
 20
7.336592481852783
 30
0.0
 40
0.125
 41
0.0
 71
     5
 72
     1
  1
\A1;4" \PMIN.
  7
SIMPLEX
 73
     1
 44
1.0
  0
POINT
  5
3C1
330
3AB
100
AcDbEntity
  8
defpoints
 62
     0
100
AcDbPoint
 10
4.416362033785327
 20
6.600862981666651
 30
0.0
  0
POINT
  5
3C2
330
3AB
100
AcDbEntity
  8
defpoints
 62
     0
100
AcDbPoint
 10
4.416362033785327
 20
6.876954950657193
 30
0.0
  0
POINT
  5
3C3
330
3AB
100
AcDbEntity
  8
defpoints
 62
     0
100
AcDbPoint
 10
3.800967266753725
 20
6.876954950657193
 30
0.0
  0
ENDBLK
  5
3B8
330
3AB
100
AcDbEntity
  8
0
100
AcDbBlockEnd
  0
BLOCK
  5
6DF
330
6C8
100
AcDbEntity
  8
0
100
AcDbBlockBegin
  2
A$C1B7264EA
 70
     0
 10
0.0
 20
0.0
 30
0.0
  3
A$C1B7264EA
  1

  0
MTEXT
  5
6C9
330
6C8
100
AcDbEntity
  8
text_bubbles
100
AcDbMText
 10
0.6063845990384227
 20
4.887878286499289
 30
0.0
 40
0.125
 41
4.429999999999999
 71
     1
 72
     5
  3
RAIN BIRD CONTROLLER\P\PSOLID BARE COPPER WIRE (#10 AWG) FROM GROUNDING ROD TO SATELLITE OR CCU. MAKE WIRE AS SHORT AND STRAIGHT AS POSSIBLE\P\PCOVER GROUNDING ROD WITH #10 ROUND VALVE BOX AS SHOWN\P\P5/8-INCH X 8 FT COPPER CLAD GROUNDING ROD OR GROU
  3
NDING PLATE. INSTALL RODS IN SOIL IN A TRIAGULAR PATTERN SPACED A MINIMUM OF 16 FT APART FROM EACH OTHER. GROUNDING GRID TO HAVE A RESISTANCE OF TEN (10) OHMS OR LESS\P\PBARE COPPER WIRE (#10 AWG MIN.) BETWEEN GROUNDING RODS\P\PGROUND ROD CLAMP OR WE
  1
LDS\P\PFINISH GRADE
  7
ROMANS
 73
     1
 44
1.0
  0
INSERT
  5
6CA
330
6C8
100
AcDbEntity
  8
text_bubbles
100
AcDbBlockReference
 66
     1
  2
bubble
 10
0.1398892086504357
 20
0.1398891947691361
 30
0.0
  0
ATTRIB
  5
6CB
330
6CA
100
AcDbEntity
  8
text_bubbles
100
AcDbText
 10
0.0803653991266262
 20
0.0773891947691361
 30
0.0
 40
0.125
  1
7
  7
ROMANS
 72
     4
 11
0.1398892086504357
 21
0.1398891947691361
 31
0.0
100
AcDbAttribute
  2
XX
 70
     0
  0
SEQEND
  5
6CC
330
6CA
100
AcDbEntity
  8
text_bubbles
  0
INSERT
  5
6CD
330
6C8
100
AcDbEntity
  8
text_bubbles
100
AcDbBlockReference
 66
     1
  2
bubble
 10
0.1398892086504357
 20
0.5491446772857099
 30
0.0
  0
ATTRIB
  5
6CE
330
6CD
100
AcDbEntity
  8
text_bubbles
100
AcDbText
 10
0.0773892086504358
 20
0.4866446772857099
 30
0.0
 40
0.125
  1
6
  7
ROMANS
 72
     4
 11
0.1398892086504357
 21
0.5491446772857099
 31
0.0
100
AcDbAttribute
  2
XX
 70
     0
  0
SEQEND
  5
6CF
330
6CD
100
AcDbEntity
  8
text_bubbles
  0
INSERT
  5
6D0
330
6C8
100
AcDbEntity
  8
text_bubbles
100
AcDbBlockReference
 66
     1
  2
bubble
 10
0.1398892086504357
 20
1.179414242582915
 30
0.0
  0
ATTRIB
  5
6D1
330
6D0
100
AcDbEntity
  8
text_bubbles
100
AcDbText
 10
0.0803653991266263
 20
1.116914242582915
 30
0.0
 40
0.125
  1
5
  7
ROMANS
 72
     4
 11
0.1398892086504357
 21
1.179414242582915
 31
0.0
100
AcDbAttribute
  2
XX
 70
     0
  0
SEQEND
  5
6D2
330
6D0
100
AcDbEntity
  8
text_bubbles
  0
INSERT
  5
6D3
330
6C8
100
AcDbEntity
  8
text_bubbles
100
AcDbBlockReference
 66
     1
  2
bubble
 10
0.1398892086504357
 20
3.326713601491754
 30
0.0
  0
ATTRIB
  5
6D4
330
6D3
100
AcDbEntity
  8
text_bubbles
100
AcDbText
 10
0.0803653991266262
 20
3.264213601491754
 30
0.0
 40
0.125
  1
3
  7
ROMANS
 72
     4
 11
0.1398892086504357
 21
3.326713601491754
 31
0.0
100
AcDbAttribute
  2
XX
 70
     0
  0
SEQEND
  5
6D5
330
6D3
100
AcDbEntity
  8
text_bubbles
  0
INSERT
  5
6D6
330
6C8
100
AcDbEntity
  8
text_bubbles
100
AcDbBlockReference
 66
     1
  2
bubble
 10
0.1398892086504357
 20
2.662761530465187
 30
0.0
  0
ATTRIB
  5
6D7
330
6D6
100
AcDbEntity
  8
text_bubbles
100
AcDbText
 10
0.0773892086504358
 20
2.600261530465187
 30
0.0
 40
0.125
  1
4
  7
ROMANS
 72
     4
 11
0.1398892086504357
 21
2.662761530465187
 31
0.0
100
AcDbAttribute
  2
XX
 70
     0
  0
SEQEND
  5
6D8
330
6D6
100
AcDbEntity
  8
text_bubbles
  0
INSERT
  5
6D9
330
6C8
100
AcDbEntity
  8
text_bubbles
100
AcDbBlockReference
 66
     1
  2
bubble
 10
0.1398892086504357
 20
4.813361444047196
 30
0.0
  0
ATTRIB
  5
6DA
330
6D9
100
AcDbEntity
  8
text_bubbles
100
AcDbText
 10
0.0892939705551977
 20
4.750861444047196
 30
0.0
 40
0.125
  1
1
  7
ROMANS
 72
     4
 11
0.1398892086504357
 21
4.813361444047196
 31
0.0
100
AcDbAttribute
  2
XX
 70
     0
  0
SEQEND
  5
6DB
330
6D9
100
AcDbEntity
  8
text_bubbles
  0
INSERT
  5
6DC
330
6C8
100
AcDbEntity
  8
text_bubbles
100
AcDbBlockReference
 66
     1
  2
bubble
 10
0.1398892086504357
 20
4.359341731129656
 30
0.0
  0
ATTRIB
  5
6DD
330
6DC
100
AcDbEntity
  8
text_bubbles
100
AcDbText
 10
0.0803653991266263
 20
4.296841731129656
 30
0.0
 40
0.125
  1
2
  7
ROMANS
 72
     4
 11
0.1398892086504357
 21
4.359341731129656
 31
0.0
100
AcDbAttribute
  2
XX
 70
     0
  0
SEQEND
  5
6DE
330
6DC
100
AcDbEntity
  8
text_bubbles
  0
ENDBLK
  5
6E0
330
6C8
100
AcDbEntity
  8
0
100
AcDbBlockEnd
  0
BLOCK
  5
753
330
752
100
AcDbEntity
  8
0
100
AcDbBlockBegin
  2
*D4
 70
     1
 10
0.0
 20
0.0
 30
0.0
  3
*D4
  1

  0
LINE
  5
754
330
752
100
AcDbEntity
  8
image
370
    -2
100
AcDbLine
 10
8.378967254183708
 20
3.480119551182725
 30
0.0
 11
7.646072487152101
 21
3.480119551182725
 31
0.0
  0
LINE
  5
755
330
752
100
AcDbEntity
  8
image
370
    -2
100
AcDbLine
 10
8.378967254183708
 20
3.756211520173267
 30
0.0
 11
7.646072487152101
 21
3.756211520173267
 31
0.0
  0
LINE
  5
756
330
752
100
AcDbEntity
  8
image
370
    -2
100
AcDbLine
 10
7.826072487152101
 20
3.380119551182725
 30
0.0
 11
7.826072487152101
 21
3.280119551182725
 31
0.0
  0
LINE
  5
757
330
752
100
AcDbEntity
  8
image
370
    -2
100
AcDbLine
 10
7.826072487152101
 20
3.856211520173268
 30
0.0
 11
7.826072487152101
 21
3.956211520173268
 31
0.0
  0
MTEXT
  5
758
330
752
100
AcDbEntity
  8
image
100
AcDbMText
 10
8.182739153818774
 20
4.215849051368858
 30
0.0
 40
0.125
 41
0.0
 71
     5
 72
     1
  1
\A1;4" \PMIN.
  7
SIMPLEX
 73
     1
 44
1.0
  0
SOLID
  5
759
330
752
100
AcDbEntity
  8
image
100
AcDbTrace
 10
7.809405820485435
 20
3.380119551182725
 30
0.0
 11
7.842739153818768
 21
3.380119551182725
 31
0.0
 12
7.826072487152101
 22
3.480119551182725
 32
0.0
 13
7.826072487152101
 23
3.480119551182725
 33
0.0
  0
SOLID
  5
75A
330
752
100
AcDbEntity
  8
image
100
AcDbTrace
 10
7.809405820485435
 20
3.856211520173268
 30
0.0
 11
7.842739153818768
 21
3.856211520173268
 31
0.0
 12
7.826072487152101
 22
3.756211520173267
 32
0.0
 13
7.826072487152101
 23
3.756211520173267
 33
0.0
  0
POINT
  5
75B
330
752
100
AcDbEntity
  8
defpoints
 62
     0
100
AcDbPoint
 10
8.441467254183708
 20
3.480119551182725
 30
0.0
  0
POINT
  5
75C
330
752
100
AcDbEntity
  8
defpoints
 62
     0
100
AcDbPoint
 10
8.441467254183708
 20
3.756211520173267
 30
0.0
  0
POINT
  5
75D
330
752
100
AcDbEntity
  8
defpoints
 62
     0
100
AcDbPoint
 10
7.826072487152101
 20
3.756211520173267
 30
0.0
  0
ENDBLK
  5
75E
330
752
100
AcDbEntity
  8
0
100
AcDbBlockEnd
  0
BLOCK
  5
802
330
760
100
AcDbEntity
  8
0
100
AcDbBlockBegin
  2
A$C23310888
 70
     0
 10
0.0
 20
0.0
 30
0.0
  3
A$C23310888
  1

  0
INSERT
  5
761
330
760
100
AcDbEntity
  8
text_bubbles
100
AcDbBlockReference
 66
     1
  2
bubble
 10
3.532840356940078
 20
2.052763953714403
 30
0.0
  0
ATTRIB
  5
762
330
761
100
AcDbEntity
  8
text_bubbles
100
AcDbText
 10
3.473316547416269
 20
2.439770348870612
 30
0.0
 40
0.125
  1
8
  7
ROMANS
 72
     4
 11
3.532840356940078
 21
2.502270348870612
 31
0.0
100
AcDbAttribute
  2
XX
 70
     0
  0
SEQEND
  5
763
330
761
100
AcDbEntity
  8
text_bubbles
  0
INSERT
  5
764
330
760
100
AcDbEntity
  8
text_bubbles
100
AcDbBlockReference
 66
     1
  2
bubble
 10
3.520982900820478
 20
2.509024941862775
 30
0.0
  0
ATTRIB
  5
765
330
764
100
AcDbEntity
  8
text_bubbles
100
AcDbText
 10
3.404864166463887
 20
1.990263953714403
 30
0.0
 40
0.125
  1
10
  7
ROMANS
 72
     4
 11
3.532840356940078
 21
2.052763953714403
 31
0.0
100
AcDbAttribute
  2
XX
 70
     0
  0
SEQEND
  5
766
330
764
100
AcDbEntity
  8
text_bubbles
  0
HATCH
  5
767
330
760
100
AcDbEntity
  8
image
100
AcDbHatch
 10
0.0
 20
0.0
 30
0.0
210
0.0
220
0.0
230
1.0
  2
EARTH
 70
     0
 71
     0
 91
        1
 92
        1
 93
       11
 72
     1
 10
2.394313030047904
 20
0.9536556788217652
 11
2.685936493946953
 21
0.9126188083821238
 72
     1
 10
2.685936493946948
 20
0.9126188083821229
 11
2.823006756250589
 21
0.6789212459544486
 72
     1
 10
2.823006756250593
 20
0.6789212459544495
 11
2.593212537016756
 21
0.4331358738654511
 72
     1
 10
2.593212537016754
 20
0.4331358738654502
 11
2.190064788016388
 21
0.3726968503837184
 72
     1
 10
2.190064788016386
 20
0.3726968503837193
 11
1.92801876268428
 21
0.6507163732946192
 72
     1
 10
1.928018762684282
 20
0.6507163732946183
 11
2.069120486352542
 21
0.9851456415251787
 72
     1
 10
2.069120486352546
 20
0.9851456415251796
 11
2.189390755472135
 21
0.9534431407761106
 72
     1
 10
2.189390755472133
 20
0.9534431407761097
 11
2.189390755472133
 21
0.6477995275604708
 72
     1
 10
2.189390755472133
 20
0.6477995275604717
 11
2.291851892760019
 21
0.4478272816567203
 72
     1
 10
2.291851892760015
 20
0.4478272816567203
 11
2.394313030047899
 21
0.6477995275604717
 72
     1
 10
2.394313030047904
 20
0.6477995275604717
 11
2.394313030047904
 21
0.9536556788217652
 97
        0
 75
     0
 76
     1
 52
45.0
 41
0.75
 77
     0
 78
     6
 53
45.0
 43
-4.621696408066312
 44
-4.77156470810847
 45
0.0
 46
0.2651650429449553
 79
     2
 49
0.1875
 49
-0.1875
 53
45.0
 43
-4.671414853618492
 44
-4.72184626255629
 45
0.0
 46
0.2651650429449553
 79
     2
 49
0.1875
 49
-0.1875
 53
45.0
 43
-4.721133299170673
 44
-4.672127817004112
 45
0.0
 46
0.2651650429449553
 79
     2
 49
0.1875
 49
-0.1875
 53
135.0
 43
-4.721133299170673
 44
-4.638982186635992
 45
-0.2651650429449553
 46
0.0
 79
     2
 49
0.1875
 49
-0.1875
 53
135.0
 43
-4.671414853618492
 44
-4.589263741083813
 45
-0.2651650429449553
 46
0.0
 79
     2
 49
0.1875
 49
-0.1875
 53
135.0
 43
-4.621696408066312
 44
-4.539545295531634
 45
-0.2651650429449553
 46
0.0
 79
     2
 49
0.1875
 49
-0.1875
 98
        1
 10
-4.621696408066312
 20
-4.77156470810847
  0
SOLID
  5
768
330
760
100
AcDbEntity
  8
image
  6
Continuous
100
AcDbTrace
 10
0.8164633257183036
 20
0.015000012263921
 30
0.0
 11
3.407040058914241
 21
0.015000012263921
 31
0.0
 12
0.8164633257183036
 22
0.0000000122639204
 32
0.0
 13
3.407040058914241
 23
0.0000000122639204
 33
0.0
  0
TEXT
  5
769
330
760
100
AcDbEntity
  8
image
100
AcDbText
 10
0.8926567633204962
 20
0.0836546860170565
 30
0.0
 40
0.1300000011920929
  1
GROUND ROD ASSEMBLY
 41
0.9905824537210962
  7
SIMPLEX
 72
     5
 11
3.284205852091802
 21
0.0836546860170565
 31
0.0
100
AcDbText
  0
HATCH
  5
76A
330
760
100
AcDbEntity
  8
image
100
AcDbHatch
 10
0.0
 20
0.0
 30
0.0
210
0.0
220
0.0
230
1.0
  2
EARTH
 70
     0
 71
     0
 91
        2
 92
        1
 93
        7
 72
     1
 10
0.9041625542133653
 20
1.302193079560747
 11
2.189390755472133
 21
1.302193079560747
 72
     1
 10
2.189390755472133
 20
1.302193079560747
 11
2.189390755472133
 21
1.139261950652277
 72
     1
 10
2.189390755472133
 20
1.139261950652277
 11
1.628119740473056
 21
1.028986942498252
 72
     1
 10
1.628119740473054
 20
1.028986942498252
 11
1.189224624295763
 21
1.036820064001006
 72
     1
 10
1.189224624295769
 20
1.036820064001006
 11
1.00896413152273
 21
1.115151254203667
 72
     1
 10
1.008964131522732
 20
1.115151254203666
 11
0.8662880583842502
 21
1.1394110406119
 72
     1
 10
0.8662880583842502
 20
1.139411040611901
 11
0.9041625542133706
 21
1.302193079560747
 97
        0
 92
        1
 93
        6
 72
     1
 10
2.394080871888584
 20
1.302193079560747
 11
3.118574102068959
 21
1.302193079560747
 72
     1
 10
3.118574102068955
 20
1.302193079560747
 11
3.152865908125733
 21
1.118545614528036
 72
     1
 10
3.152865908125733
 20
1.118545614528035
 11
2.960479922809923
 21
1.068152550012025
 72
     1
 10
2.960479922809924
 20
1.068152550012025
 11
2.639145964185682
 21
1.10731813270091
 72
     1
 10
2.63914596418568
 20
1.107318132700911
 11
2.393398672355941
 21
1.139261950652278
 72
     1
 10
2.393398672355943
 20
1.139261950652277
 11
2.394080871888582
 21
1.302193079560746
 97
        0
 75
     0
 76
     1
 52
45.0
 41
0.75
 77
     0
 78
     6
 53
45.0
 43
-4.621696408066312
 44
-4.77156470810847
 45
0.0
 46
0.2651650429449553
 79
     2
 49
0.1875
 49
-0.1875
 53
45.0
 43
-4.671414853618492
 44
-4.72184626255629
 45
0.0
 46
0.2651650429449553
 79
     2
 49
0.1875
 49
-0.1875
 53
45.0
 43
-4.721133299170673
 44
-4.672127817004112
 45
0.0
 46
0.2651650429449553
 79
     2
 49
0.1875
 49
-0.1875
 53
135.0
 43
-4.721133299170673
 44
-4.638982186635992
 45
-0.2651650429449553
 46
0.0
 79
     2
 49
0.1875
 49
-0.1875
 53
135.0
 43
-4.671414853618492
 44
-4.589263741083813
 45
-0.2651650429449553
 46
0.0
 79
     2
 49
0.1875
 49
-0.1875
 53
135.0
 43
-4.621696408066312
 44
-4.539545295531634
 45
-0.2651650429449553
 46
0.0
 79
     2
 49
0.1875
 49
-0.1875
 98
        1
 10
-4.621696408066312
 20
-4.77156470810847
  0
LINE
  5
76B
330
760
100
AcDbEntity
  8
image
100
AcDbLine
 10
1.080354459957406
 20
3.248972317608079
 30
0.0
 11
0.9988344404714277
 21
2.910650673272113
 31
0.0
  0
LINE
  5
76C
330
760
100
AcDbEntity
  8
image
100
AcDbLine
 10
1.130831612367217
 20
3.255897728443783
 30
0.0
 11
1.021018375908725
 21
2.910650673272113
 31
0.0
  0
LINE
  5
76D
102
{ACAD_REACTORS
330
7C5
102
}
330
760
100
AcDbEntity
  8
image
100
AcDbLine
 10
2.973104168457667
 20
2.910650673272113
 30
0.0
 11
1.042503125440604
 21
2.910650673272113
 31
0.0
  0
LINE
  5
76E
330
760
100
AcDbEntity
  8
image
100
AcDbLine
 10
0.9041625542133653
 20
1.302193079560747
 30
0.0
 11
2.189421758926166
 21
1.302193079560747
 31
0.0
  0
LINE
  5
76F
330
760
100
AcDbEntity
  8
image
100
AcDbLine
 10
0.73689810721259
 20
1.113332895874552
 30
0.0
 11
1.056468822581622
 21
2.992785436277139
 31
0.0
  0
LINE
  5
770
330
760
100
AcDbEntity
  8
image
100
AcDbLine
 10
1.181424754135087
 20
2.992785406525723
 30
0.0
 11
0.8391425665969913
 21
0.9797636263088527
 31
0.0
  0
LINE
  5
771
330
760
100
AcDbEntity
  8
image
100
AcDbLine
 10
0.7368979185077658
 20
1.113332927960775
 30
0.0
 11
0.4395070269674984
 21
1.113332927960775
 31
0.0
  0
LINE
  5
772
330
760
100
AcDbEntity
  8
image
100
AcDbLine
 10
0.4395070269674984
 20
0.9797636263088527
 30
0.0
 11
0.8391437986128176
 21
0.9797636263088527
 31
0.0
  0
LINE
  5
773
330
760
100
AcDbEntity
  8
image
100
AcDbLine
 10
0.4395070269674984
 20
1.113332927960775
 30
0.0
 11
0.4395070269674984
 21
0.9809164014702325
 31
0.0
  0
INSERT
  5
774
330
760
100
AcDbEntity
  8
text_bubbles
100
AcDbBlockReference
 66
     1
  2
bubble
 10
0.3400872370756298
 20
2.212054933193429
 30
0.0
  0
ATTRIB
  5
775
330
774
100
AcDbEntity
  8
text_bubbles
100
AcDbText
 10
0.2835396180280107
 20
2.149554933193429
 30
0.0
 40
0.125
  1
9
  7
ROMANS
 72
     4
 11
0.3400872370756298
 21
2.212054933193429
 31
0.0
100
AcDbAttribute
  2
XX
 70
     0
  0
SEQEND
  5
776
330
774
100
AcDbEntity
  8
text_bubbles
  0
INSERT
  5
777
330
760
100
AcDbEntity
  8
text_bubbles
100
AcDbBlockReference
 66
     1
  2
bubble
 10
0.2427345387682047
 20
3.345818658094835
 30
0.0
  0
ATTRIB
  5
778
330
777
100
AcDbEntity
  8
text_bubbles
100
AcDbText
 10
0.1832107292443952
 20
3.283318658094835
 30
0.0
 40
0.125
  1
3
  7
ROMANS
 72
     4
 11
0.2427345387682047
 21
3.345818658094835
 31
0.0
100
AcDbAttribute
  2
XX
 70
     0
  0
SEQEND
  5
779
330
777
100
AcDbEntity
  8
text_bubbles
  0
LINE
  5
77A
330
760
100
AcDbEntity
  8
image
100
AcDbLine
 10
0.8652344928794741
 20
3.237694929463551
 30
0.0
 11
0.709361049027117
 21
2.910650673272113
 31
0.0
  0
LINE
  5
77B
330
760
100
AcDbEntity
  8
image
100
AcDbLine
 10
0.7351210168549338
 20
3.226417541319006
 30
0.0
 11
0.7087837797902319
 21
2.91065067327212
 31
0.0
  0
LINE
  5
77C
330
760
100
AcDbEntity
  8
image
100
AcDbLine
 10
0.7034647328924289
 20
3.206156324399327
 30
0.0
 11
0.7823260290001253
 21
2.910650673272113
 31
0.0
  0
LINE
  5
77D
330
760
100
AcDbEntity
  8
image
100
AcDbLine
 10
0.651387952796001
 20
3.177750807983092
 30
0.0
 11
0.7246250865070829
 21
2.910650673272113
 31
0.0
  0
LINE
  5
77E
330
760
100
AcDbEntity
  8
image
100
AcDbLine
 10
0.7297858451181236
 20
3.248972317608079
 30
0.0
 11
0.6482658256321381
 21
2.910650673272113
 31
0.0
  0
LINE
  5
77F
330
760
100
AcDbEntity
  8
image
100
AcDbLine
 10
1.04250319559683
 20
2.910650673272113
 30
0.0
 11
0.5552292223766396
 21
2.909382956468221
 31
0.0
  0
LINE
  5
780
330
760
100
AcDbEntity
  8
image
100
AcDbLine
 10
0.5391528027345496
 20
3.183901505981855
 30
0.0
 11
0.5843207353889151
 21
2.910650673272113
 31
0.0
  0
LINE
  5
781
330
760
100
AcDbEntity
  8
image
100
AcDbLine
 10
0.5604750354164461
 20
3.203862765029946
 30
0.0
 11
0.6306531391478681
 21
2.91065067327212
 31
0.0
  0
LINE
  5
782
330
760
100
AcDbEntity
  8
image
100
AcDbLine
 10
0.5672980154666059
 20
3.201422071663285
 30
0.0
 11
0.5945578340657756
 21
2.910650673272113
 31
0.0
  0
LINE
  5
783
330
760
100
AcDbEntity
  8
image
100
AcDbLine
 10
0.622247143720494
 20
3.260249705752607
 30
0.0
 11
0.622247143720494
 21
2.910650673272113
 31
0.0
  0
LINE
  5
784
330
760
100
AcDbEntity
  8
image
100
AcDbLine
 10
0.5815665295975743
 20
3.225149824515107
 30
0.0
 11
0.5552292925328653
 21
2.909382956468221
 31
0.0
  0
LINE
  5
785
330
760
100
AcDbEntity
  8
image
100
AcDbLine
 10
0.6661873300478201
 20
3.220359082607441
 30
0.0
 11
0.7039566482594575
 21
2.910650673272113
 31
0.0
  0
LINE
  5
786
330
760
100
AcDbEntity
  8
image
100
AcDbLine
 10
0.6286121551759943
 20
3.201422071663285
 30
0.0
 11
0.6558719737751711
 21
2.910650673272113
 31
0.0
  0
LINE
  5
787
330
760
100
AcDbEntity
  8
image
100
AcDbLine
 10
0.5732349296886392
 20
3.21265316424228
 30
0.0
 11
0.6760792986000093
 21
2.910650673272113
 31
0.0
  0
LINE
  5
788
330
760
100
AcDbEntity
  8
image
100
AcDbLine
 10
0.7388015275734725
 20
3.158753212451821
 30
0.0
 11
0.9393697175277688
 21
2.910650673272113
 31
0.0
  0
LINE
  5
789
330
760
100
AcDbEntity
  8
image
100
AcDbLine
 10
0.8542080754232026
 20
3.177750807983088
 30
0.0
 11
0.9274452091342846
 21
2.910650673272113
 31
0.0
  0
LINE
  5
78A
330
760
100
AcDbEntity
  8
image
100
AcDbLine
 10
0.9379411394821426
 20
3.226417541319002
 30
0.0
 11
0.9116039024174407
 21
2.910650673272116
 31
0.0
  0
LINE
  5
78B
330
760
100
AcDbEntity
  8
image
100
AcDbLine
 10
0.9062848555196376
 20
3.206156324399324
 30
0.0
 11
0.9820328992962723
 21
2.917366907500935
 31
0.0
  0
LINE
  5
78C
330
760
100
AcDbEntity
  8
image
100
AcDbLine
 10
0.9146783717237747
 20
3.177750807983088
 30
0.0
 11
0.9879155054348496
 21
2.910650673272113
 31
0.0
  0
LINE
  5
78D
330
760
100
AcDbEntity
  8
image
100
AcDbLine
 10
0.9285607831300319
 20
3.220359082607438
 30
0.0
 11
0.9663301013416623
 21
2.910650673272113
 31
0.0
  0
LINE
  5
78E
330
760
100
AcDbEntity
  8
image
100
AcDbLine
 10
0.7762699829763671
 20
3.203862765029943
 30
0.0
 11
0.8464480867077819
 21
2.910650673272113
 31
0.0
  0
LINE
  5
78F
330
760
100
AcDbEntity
  8
image
100
AcDbLine
 10
0.8069512819377644
 20
3.177750807983085
 30
0.0
 11
0.8801884156488464
 21
2.910650673272113
 31
0.0
  0
LINE
  5
790
330
760
100
AcDbEntity
  8
image
100
AcDbLine
 10
0.8607085851516993
 20
3.260249705752603
 30
0.0
 11
0.8607085851516993
 21
2.910650673272113
 31
0.0
  0
LINE
  5
791
330
760
100
AcDbEntity
  8
image
100
AcDbLine
 10
0.8855375626482606
 20
3.260249705752603
 30
0.0
 11
0.8855375626482606
 21
2.910650673272113
 31
0.0
  0
LINE
  5
792
330
760
100
AcDbEntity
  8
image
100
AcDbLine
 10
0.7773850423786337
 20
3.220359082607438
 30
0.0
 11
0.8151543605902569
 21
2.910650673272113
 31
0.0
  0
LINE
  5
793
330
760
100
AcDbEntity
  8
image
100
AcDbLine
 10
0.8250672663477027
 20
3.260249705752603
 30
0.0
 11
0.8250672663477027
 21
2.910650673272113
 31
0.0
  0
LINE
  5
794
330
760
100
AcDbEntity
  8
image
100
AcDbLine
 10
0.7659054845211353
 20
3.196687818927242
 30
0.0
 11
0.738847916688898
 21
2.910650673272113
 31
0.0
  0
LINE
  5
795
330
760
100
AcDbEntity
  8
image
100
AcDbLine
 10
0.7743398503174542
 20
3.260249705752607
 30
0.0
 11
0.7743398503174542
 21
2.910650673272113
 31
0.0
  0
LINE
  5
796
330
760
100
AcDbEntity
  8
image
100
AcDbLine
 10
1.036713303399666
 20
3.260249705752603
 30
0.0
 11
1.036713303399666
 21
2.910650673272113
 31
0.0
  0
LINE
  5
797
330
760
100
AcDbEntity
  8
image
100
AcDbLine
 10
1.037013676661765
 20
3.196687818927242
 30
0.0
 11
1.009956108829521
 21
2.910650673272113
 31
0.0
  0
LINE
  5
798
330
760
100
AcDbEntity
  8
image
100
AcDbLine
 10
0.9984114357827005
 20
3.226417541319002
 30
0.0
 11
0.9720741987180057
 21
2.910650673272116
 31
0.0
  0
LINE
  5
799
330
760
100
AcDbEntity
  8
image
100
AcDbLine
 10
0.9667551518201955
 20
3.206156324399324
 30
0.0
 11
1.04250319559683
 21
2.910650673272113
 31
0.0
  0
LINE
  5
79A
330
760
100
AcDbEntity
  8
image
100
AcDbLine
 10
2.393398672355943
 20
1.751653332153517
 30
0.0
 11
2.393398672355943
 21
2.123388325405996
 31
0.0
  0
LINE
  5
79B
330
760
100
AcDbEntity
  8
image
100
AcDbLine
 10
2.189390755472133
 20
2.123388325405996
 30
0.0
 11
2.189390755472133
 21
1.751653332153517
 31
0.0
  0
LINE
  5
79C
330
760
100
AcDbEntity
  8
image
100
AcDbLine
 10
2.959138541472875
 20
2.992784983260539
 30
0.0
 11
3.278709331606941
 21
1.113332927960775
 31
0.0
  0
LINE
  5
79D
330
760
100
AcDbEntity
  8
image
100
AcDbLine
 10
3.176463451501889
 20
0.9797636263088527
 30
0.0
 11
2.834183015118285
 21
2.992785013011855
 31
0.0
  0
LINE
  5
79E
330
760
100
AcDbEntity
  8
image
100
AcDbLine
 10
2.054144211894958
 20
1.751653332153517
 30
0.0
 11
2.530889928592025
 21
1.751653332153517
 31
0.0
  0
LINE
  5
79F
330
760
100
AcDbEntity
  8
image
100
AcDbLine
 10
2.530889928592025
 20
1.590972057389419
 30
0.0
 11
2.054144211894958
 21
1.590972057389419
 31
0.0
  0
LINE
  5
7A0
330
760
100
AcDbEntity
  8
image
100
AcDbLine
 10
2.394313030047904
 20
0.6477995275604717
 30
0.0
 11
2.291851892760015
 21
0.4478272816567203
 31
0.0
  0
LINE
  5
7A1
330
760
100
AcDbEntity
  8
image
100
AcDbLine
 10
2.189390755472133
 20
0.6477995275604717
 30
0.0
 11
2.394313030047904
 21
0.6477995275604717
 31
0.0
  0
ARC
  5
7A2
330
760
100
AcDbEntity
  8
image
100
AcDbCircle
 10
2.340055304879194
 20
1.147285342150339
 30
0.0
 40
0.0539433931532925
100
AcDbArc
 50
188.2000754341179
 51
351.4462450453797
  0
ARC
  5
7A3
330
760
100
AcDbEntity
  8
image
100
AcDbCircle
 10
2.340055304879194
 20
0.9614665322741718
 30
0.0
 40
0.0539433931532925
100
AcDbArc
 50
188.2000754341179
 51
351.4462450453797
  0
ARC
  5
7A4
330
760
100
AcDbEntity
  8
image
100
AcDbCircle
 10
2.340055304879194
 20
1.131238559154216
 30
0.0
 40
0.0539433931532925
100
AcDbArc
 50
8.553754954620259
 51
171.799924565882
  0
LINE
  5
7A5
330
760
100
AcDbEntity
  8
image
100
AcDbLine
 10
2.189390755472133
 20
1.590972057389419
 30
0.0
 11
2.189390755472133
 21
1.139261950652277
 31
0.0
  0
LINE
  5
7A6
330
760
100
AcDbEntity
  8
image
100
AcDbLine
 10
2.189390755472133
 20
0.9536556788217652
 30
0.0
 11
2.189390755472133
 21
0.6477995275604717
 31
0.0
  0
LINE
  5
7A7
330
760
100
AcDbEntity
  8
image
100
AcDbLine
 10
2.189390755472133
 20
0.6477995275604717
 30
0.0
 11
2.291851892760015
 21
0.4478272816567203
 31
0.0
  0
ARC
  5
7A8
330
760
100
AcDbEntity
  8
image
100
AcDbCircle
 10
2.237958700088712
 20
0.9330843894371312
 30
0.0
 40
0.052662358477015
100
AcDbArc
 50
22.35441212888535
 51
157.2575030615996
  0
ARC
  5
7A9
330
760
100
AcDbEntity
  8
image
100
AcDbCircle
 10
2.23804559923854
 20
0.9587433968010657
 30
0.0
 40
0.048942686234648
100
AcDbArc
 50
186.2170483143422
 51
353.3948668761428
  0
ARC
  5
7AA
330
760
100
AcDbEntity
  8
image
100
AcDbCircle
 10
2.23804559923854
 20
1.144562206677233
 30
0.0
 40
0.048942686234648
100
AcDbArc
 50
186.2170483143422
 51
353.3948668761428
  0
LINE
  5
7AB
330
760
100
AcDbEntity
  8
image
100
AcDbLine
 10
2.054144211894958
 20
1.590972057389419
 30
0.0
 11
2.054144211894958
 21
1.751653332153517
 31
0.0
  0
LWPOLYLINE
  5
7AC
330
760
100
AcDbEntity
  8
image
  6
Continuous
100
AcDbPolyline
 90
       22
 70
     0
 43
0.0
 10
2.180369247686763
 20
1.751653332153517
 10
2.175013551956113
 20
1.781928561356413
 10
2.166110764569276
 20
1.81136909682437
 10
2.152457495780631
 20
1.838929811678675
 10
2.134430446896211
 20
1.863850290414325
 10
2.11252699425598
 20
1.885442963114399
 10
2.08735146634303
 20
1.90311207588781
 10
2.059598470023431
 20
1.916370128051666
 10
2.030033725955129
 20
1.92485132254719
 10
1.999472941927622
 20
1.928321658484725
 10
1.968322391880939
 20
1.926662110672721
 10
1.967763795771113
 20
1.937147241591604
 10
1.999788176113519
 20
1.938853342775961
 10
2.032087923245343
 20
1.935185538535598
 10
2.063334953968245
 20
1.926221748950401
 10
2.092667145264997
 20
1.912209289977893
 10
2.119275205606855
 20
1.893534773181751
 10
2.142425003758519
 20
1.870713438902995
 10
2.161477823868623
 20
1.844374940491401
 10
2.175907987996581
 20
1.815245971818177
 10
2.185317359860357
 20
1.784130217386462
 10
2.189560974046956
 20
1.751653332153517
1001
TCAD
1000
TCW25Brush
1002
}
1000
Solid
1071
       -5
1070
     0
1002
{
  0
LINE
  5
7AD
330
760
100
AcDbEntity
  8
image
100
AcDbLine
 10
2.393398672355943
 20
1.139261950652277
 30
0.0
 11
2.393398672355943
 21
1.590972057389419
 31
0.0
  0
LINE
  5
7AE
330
760
100
AcDbEntity
  8
image
100
AcDbLine
 10
2.394313030047904
 20
0.6477995275604717
 30
0.0
 11
2.394313030047904
 21
0.9536556788217652
 31
0.0
  0
LINE
  5
7AF
330
760
100
AcDbEntity
  8
image
100
AcDbLine
 10
3.576100223147201
 20
0.9797636263088527
 30
0.0
 11
3.176463451501889
 21
0.9797636263088527
 31
0.0
  0
LINE
  5
7B0
330
760
100
AcDbEntity
  8
image
100
AcDbLine
 10
3.278709331606941
 20
1.113332927960775
 30
0.0
 11
3.576100223147201
 21
1.113332927960775
 31
0.0
  0
LINE
  5
7B1
330
760
100
AcDbEntity
  8
image
100
AcDbLine
 10
3.576100223147201
 20
1.113332927960775
 30
0.0
 11
3.576100223147201
 21
0.9809164014702325
 31
0.0
  0
LINE
  5
7B2
330
760
100
AcDbEntity
  8
image
100
AcDbLine
 10
2.394080871888584
 20
1.302193079560747
 30
0.0
 11
3.118574102068955
 21
1.302193079560747
 31
0.0
  0
LINE
  5
7B3
330
760
100
AcDbEntity
  8
image
100
AcDbLine
 10
2.530889928592025
 20
1.591957427401397
 30
0.0
 11
2.608499690474638
 21
1.63074255036239
 31
0.0
  0
LINE
  5
7B4
330
760
100
AcDbEntity
  8
image
100
AcDbLine
 10
2.530889928592025
 20
1.751653332153517
 30
0.0
 11
2.530889928592025
 21
1.590972057389419
 31
0.0
  0
LWPOLYLINE
  5
7B5
330
760
100
AcDbEntity
  8
image
100
AcDbPolyline
 90
        5
 70
     0
 43
0.0
 10
2.637291859717117
 20
1.74339954106751
 10
2.637291859717117
 20
1.606603409715158
 10
2.673789387329848
 20
1.606603409715158
 10
2.673789387329848
 20
1.74339954106751
 10
2.637291859717117
 20
1.74339954106751
  0
LINE
  5
7B6
330
760
100
AcDbEntity
  8
image
100
AcDbLine
 10
2.636974230933128
 20
1.640757041547074
 30
0.0
 11
2.674123870463746
 21
1.640757041547074
 31
0.0
  0
LINE
  5
7B7
330
760
100
AcDbEntity
  8
image
100
AcDbLine
 10
2.636974230933128
 20
1.708973968770201
 30
0.0
 11
2.674123870463746
 21
1.708973968770201
 31
0.0
  0
LINE
  5
7B8
330
760
100
AcDbEntity
  8
image
100
AcDbLine
 10
2.608499690474638
 20
1.712868209192524
 30
0.0
 11
2.608499690474638
 21
1.63074255036239
 31
0.0
  0
LINE
  5
7B9
330
760
100
AcDbEntity
  8
image
100
AcDbLine
 10
2.637291859717117
 20
1.65439287611205
 30
0.0
 11
2.608548657857732
 21
1.65439287611205
 31
0.0
  0
LINE
  5
7BA
330
760
100
AcDbEntity
  8
image
100
AcDbLine
 10
2.608548657857732
 20
1.688584320273707
 30
0.0
 11
2.637291859717117
 21
1.688584320273707
 31
0.0
  0
LINE
  5
7BB
330
760
100
AcDbEntity
  8
image
100
AcDbLine
 10
2.530889928592025
 20
1.751653332153517
 30
0.0
 11
2.608499690474638
 21
1.712868209192524
 31
0.0
  0
INSERT
  5
7BC
330
760
100
AcDbEntity
  8
text_bubbles
100
AcDbBlockReference
 66
     1
  2
bubble
 10
2.47426083367558
 20
3.445735153877385
 30
0.0
  0
ATTRIB
  5
7BD
330
7BC
100
AcDbEntity
  8
text_bubbles
100
AcDbText
 10
2.364141786056532
 20
3.383235153877385
 30
0.0
 40
0.125
  1
11
  7
ROMANS
 72
     4
 11
2.47426083367558
 21
3.445735153877385
 31
0.0
100
AcDbAttribute
  2
XX
 70
     0
  0
SEQEND
  5
7BE
330
7BC
100
AcDbEntity
  8
text_bubbles
  0
LINE
  5
7BF
330
760
100
AcDbEntity
  8
image
100
AcDbLine
 10
1.056468822581622
 20
2.992785436277139
 30
0.0
 11
2.959138541472875
 21
2.992784983260539
 31
0.0
  0
LINE
  5
7C0
330
760
100
AcDbEntity
  8
image
100
AcDbLine
 10
2.530889928592025
 20
2.123388325405996
 30
0.0
 11
2.054144211894958
 21
2.123388325405996
 31
0.0
  0
LINE
  5
7C1
330
760
100
AcDbEntity
  8
image
100
AcDbLine
 10
2.054144211894958
 20
2.284069600170092
 30
0.0
 11
2.530889928592025
 21
2.284069600170092
 31
0.0
  0
LINE
  5
7C2
102
{ACAD_REACTORS
330
7C5
102
}
330
760
100
AcDbEntity
  8
image
100
AcDbLine
 10
2.393398672355943
 20
2.634558704281571
 30
0.0
 11
2.189390755472133
 21
2.634558704281571
 31
0.0
  0
DIMENSION
  5
7C3
102
{ACAD_XDICTIONARY
360
7C4
102
}
102
{ACAD_REACTORS
330
7C5
102
}
330
760
100
AcDbEntity
  8
image
100
AcDbDimension
  2
*D4
 10
1.573995988440526
 20
2.910650673272112
 30
0.0
 11
1.930662655107199
 21
3.370288204467702
 31
0.0
 12
-6.252076498711574
 22
-0.8455608469011554
 32
0.0
 70
   128
  1
4" \PMIN.
 71
     5
 42
0.2760919689905421
  3
Standard
100
AcDbAlignedDimension
 13
2.189390755472133
 23
2.634558704281571
 33
0.0
 14
2.189390755472133
 24
2.910650673272113
 34
0.0
 50
90.0
100
AcDbRotatedDimension
1001
ACAD
1000
DSTYLE
1002
{
1070
   340
1005
28
1070
    41
1040
0.1
1070
   140
1040
0.125
1070
   143
1040
25.0
1070
   176
1070
   256
1070
   177
1070
   256
1070
   178
1070
   256
1070
   289
1070
     1
1002
}
  0
LINE
  5
7C6
330
760
100
AcDbEntity
  8
image
100
AcDbLine
 10
2.189390755472133
 20
2.634558704281571
 30
0.0
 11
2.189390755472133
 21
2.284069600170092
 31
0.0
  0
LWPOLYLINE
  5
7C7
330
760
100
AcDbEntity
  8
image
  6
Continuous
100
AcDbPolyline
 90
       20
 70
     0
 43
0.0
 10
2.17842116906818
 20
2.284069600170092
 10
2.175858775524887
 20
2.29254315285831
 10
2.162205506736243
 20
2.320103867712615
 10
2.144178457851816
 20
2.345024346448265
 10
2.122275005211592
 20
2.366617019148338
 10
2.097099477298642
 20
2.38428613192175
 10
2.069346480979043
 20
2.397544184085606
 10
2.039781736910733
 20
2.406025378581129
 10
2.009220952883226
 20
2.409495714518665
 10
1.978070402836544
 20
2.407836166706661
 10
1.977511806726718
 20
2.418321297625543
 10
2.009536187069124
 20
2.4200273988099
 10
2.041835934200954
 20
2.416359594569537
 10
2.073082964923849
 20
2.40739580498434
 10
2.102415156220602
 20
2.393383346011833
 10
2.129023216562466
 20
2.37470882921569
 10
2.15217301471413
 20
2.351887494936934
 10
2.171225834824235
 20
2.32554899652534
 10
2.185655998952193
 20
2.296420027852117
 10
2.189390755472133
 20
2.284069600170091
1001
TCAD
1000
TCW25Brush
1002
}
1000
Solid
1071
       -5
1070
     0
1002
{
  0
LINE
  5
7C8
330
760
100
AcDbEntity
  8
image
100
AcDbLine
 10
2.054144211894958
 20
2.123388325405996
 30
0.0
 11
2.054144211894958
 21
2.284069600170092
 31
0.0
  0
LINE
  5
7C9
330
760
100
AcDbEntity
  8
image
100
AcDbLine
 10
2.393398672355943
 20
2.284069600170092
 30
0.0
 11
2.393398672355943
 21
2.634558704281571
 31
0.0
  0
LWPOLYLINE
  5
7CA
330
760
100
AcDbEntity
  8
image
100
AcDbPolyline
 90
        5
 70
     0
 43
0.0
 10
2.637291859717117
 20
2.275815809084087
 10
2.637291859717117
 20
2.139019677731734
 10
2.673789387329848
 20
2.139019677731734
 10
2.673789387329848
 20
2.275815809084087
 10
2.637291859717117
 20
2.275815809084087
  0
LINE
  5
7CB
330
760
100
AcDbEntity
  8
image
100
AcDbLine
 10
2.636974230933128
 20
2.241390236786776
 30
0.0
 11
2.674123870463746
 21
2.241390236786776
 31
0.0
  0
LINE
  5
7CC
330
760
100
AcDbEntity
  8
image
100
AcDbLine
 10
2.636974230933128
 20
2.17317330956365
 30
0.0
 11
2.674123870463746
 21
2.17317330956365
 31
0.0
  0
LINE
  5
7CD
330
760
100
AcDbEntity
  8
image
100
AcDbLine
 10
2.608499690474638
 20
2.245284477209101
 30
0.0
 11
2.608499690474638
 21
2.163158818378966
 31
0.0
  0
LINE
  5
7CE
330
760
100
AcDbEntity
  8
image
100
AcDbLine
 10
2.530889928592025
 20
2.284069600170092
 30
0.0
 11
2.530889928592025
 21
2.123388325405996
 31
0.0
  0
LINE
  5
7CF
330
760
100
AcDbEntity
  8
image
100
AcDbLine
 10
2.637291859717117
 20
2.186809144128626
 30
0.0
 11
2.608548657857732
 21
2.186809144128626
 31
0.0
  0
LINE
  5
7D0
330
760
100
AcDbEntity
  8
image
100
AcDbLine
 10
2.608548657857732
 20
2.221000588290283
 30
0.0
 11
2.637291859717117
 21
2.221000588290283
 31
0.0
  0
LINE
  5
7D1
330
760
100
AcDbEntity
  8
image
100
AcDbLine
 10
2.530889928592025
 20
2.124373695417975
 30
0.0
 11
2.608499690474638
 21
2.163158818378966
 31
0.0
  0
LINE
  5
7D2
330
760
100
AcDbEntity
  8
image
100
AcDbLine
 10
2.530889928592025
 20
2.284069600170092
 30
0.0
 11
2.608499690474638
 21
2.245284477209101
 31
0.0
  0
LINE
  5
7D3
330
760
100
AcDbEntity
  8
image
100
AcDbLine
 10
2.884775751687286
 20
3.255897728443783
 30
0.0
 11
2.994588988145779
 21
2.910650673272113
 31
0.0
  0
LINE
  5
7D4
330
760
100
AcDbEntity
  8
image
100
AcDbLine
 10
3.048852212234302
 20
3.206156324399324
 30
0.0
 11
2.973104168457667
 21
2.910650673272113
 31
0.0
  0
LINE
  5
7D5
330
760
100
AcDbEntity
  8
image
100
AcDbLine
 10
2.978593687392739
 20
3.196687818927242
 30
0.0
 11
3.005651255224976
 21
2.910650673272113
 31
0.0
  0
LINE
  5
7D6
330
760
100
AcDbEntity
  8
image
100
AcDbLine
 10
2.935252904097091
 20
3.248972317608079
 30
0.0
 11
3.01677292358307
 21
2.910650673272113
 31
0.0
  0
LINE
  5
7D7
330
760
100
AcDbEntity
  8
image
100
AcDbLine
 10
2.973104168457667
 20
2.910650673272113
 30
0.0
 11
3.460378071521632
 21
2.909382956468221
 31
0.0
  0
LINE
  5
7D8
330
760
100
AcDbEntity
  8
image
100
AcDbLine
 10
2.978894060654838
 20
3.260249705752603
 30
0.0
 11
2.978894060654838
 21
2.910650673272113
 31
0.0
  0
LINE
  5
7D9
330
760
100
AcDbEntity
  8
image
100
AcDbLine
 10
3.15037287117503
 20
3.237694929463551
 30
0.0
 11
3.306246315027387
 21
2.910650673272113
 31
0.0
  0
LINE
  5
7DA
330
760
100
AcDbEntity
  8
image
100
AcDbLine
 10
3.280486347199564
 20
3.226417541319006
 30
0.0
 11
3.306823584264265
 21
2.91065067327212
 31
0.0
  0
LINE
  5
7DB
330
760
100
AcDbEntity
  8
image
100
AcDbLine
 10
3.312142631162068
 20
3.206156324399327
 30
0.0
 11
3.233281335054379
 21
2.910650673272113
 31
0.0
  0
LINE
  5
7DC
330
760
100
AcDbEntity
  8
image
100
AcDbLine
 10
3.364219411258496
 20
3.177750807983092
 30
0.0
 11
3.290982277547422
 21
2.910650673272113
 31
0.0
  0
LINE
  5
7DD
330
760
100
AcDbEntity
  8
image
100
AcDbLine
 10
3.285821518936381
 20
3.248972317608079
 30
0.0
 11
3.367341538422366
 21
2.910650673272113
 31
0.0
  0
LINE
  5
7DE
330
760
100
AcDbEntity
  8
image
100
AcDbLine
 10
3.276805836481025
 20
3.158753212451821
 30
0.0
 11
3.076237646526728
 21
2.910650673272113
 31
0.0
  0
LINE
  5
7DF
330
760
100
AcDbEntity
  8
image
100
AcDbLine
 10
3.239337381078137
 20
3.203862765029943
 30
0.0
 11
3.169159277346715
 21
2.910650673272113
 31
0.0
  0
LINE
  5
7E0
330
760
100
AcDbEntity
  8
image
100
AcDbLine
 10
3.20865608211674
 20
3.177750807983085
 30
0.0
 11
3.135418948405658
 21
2.910650673272113
 31
0.0
  0
LINE
  5
7E1
330
760
100
AcDbEntity
  8
image
100
AcDbLine
 10
3.077666224572355
 20
3.226417541319002
 30
0.0
 11
3.104003461637057
 21
2.910650673272116
 31
0.0
  0
LINE
  5
7E2
330
760
100
AcDbEntity
  8
image
100
AcDbLine
 10
3.109322508534867
 20
3.206156324399324
 30
0.0
 11
3.033574464758232
 21
2.917366907500935
 31
0.0
  0
LINE
  5
7E3
330
760
100
AcDbEntity
  8
image
100
AcDbLine
 10
3.100928992330723
 20
3.177750807983088
 30
0.0
 11
3.027691858619648
 21
2.910650673272113
 31
0.0
  0
LINE
  5
7E4
330
760
100
AcDbEntity
  8
image
100
AcDbLine
 10
3.087046580924465
 20
3.220359082607438
 30
0.0
 11
3.049277262712835
 21
2.910650673272113
 31
0.0
  0
LINE
  5
7E5
330
760
100
AcDbEntity
  8
image
100
AcDbLine
 10
3.017195928271804
 20
3.226417541319002
 30
0.0
 11
3.043533165336499
 21
2.910650673272116
 31
0.0
  0
LINE
  5
7E6
330
760
100
AcDbEntity
  8
image
100
AcDbLine
 10
3.154898778902798
 20
3.260249705752603
 30
0.0
 11
3.154898778902798
 21
2.910650673272113
 31
0.0
  0
LINE
  5
7E7
330
760
100
AcDbEntity
  8
image
100
AcDbLine
 10
3.130069801406237
 20
3.260249705752603
 30
0.0
 11
3.130069801406237
 21
2.910650673272113
 31
0.0
  0
LINE
  5
7E8
330
760
100
AcDbEntity
  8
image
100
AcDbLine
 10
3.161399288631295
 20
3.177750807983088
 30
0.0
 11
3.088162154920213
 21
2.910650673272113
 31
0.0
  0
LINE
  5
7E9
330
760
100
AcDbEntity
  8
image
100
AcDbLine
 10
3.238222321675871
 20
3.220359082607438
 30
0.0
 11
3.20045300346424
 21
2.910650673272113
 31
0.0
  0
LINE
  5
7EA
330
760
100
AcDbEntity
  8
image
100
AcDbLine
 10
3.190540097706802
 20
3.260249705752603
 30
0.0
 11
3.190540097706802
 21
2.910650673272113
 31
0.0
  0
LINE
  5
7EB
330
760
100
AcDbEntity
  8
image
100
AcDbLine
 10
3.249701879533362
 20
3.196687818927242
 30
0.0
 11
3.276759447365599
 21
2.910650673272113
 31
0.0
  0
LINE
  5
7EC
330
760
100
AcDbEntity
  8
image
100
AcDbLine
 10
3.241267513737043
 20
3.260249705752607
 30
0.0
 11
3.241267513737043
 21
2.910650673272113
 31
0.0
  0
LINE
  5
7ED
330
760
100
AcDbEntity
  8
image
100
AcDbLine
 10
3.455132328638051
 20
3.203862765029946
 30
0.0
 11
3.384954224906636
 21
2.91065067327212
 31
0.0
  0
LINE
  5
7EE
330
760
100
AcDbEntity
  8
image
100
AcDbLine
 10
3.43404083445693
 20
3.225149824515107
 30
0.0
 11
3.460378071521632
 21
2.909382956468221
 31
0.0
  0
LINE
  5
7EF
330
760
100
AcDbEntity
  8
image
100
AcDbLine
 10
3.448309348587899
 20
3.201422071663285
 30
0.0
 11
3.421049529988722
 21
2.910650673272113
 31
0.0
  0
LINE
  5
7F0
330
760
100
AcDbEntity
  8
image
100
AcDbLine
 10
3.393360220334003
 20
3.260249705752607
 30
0.0
 11
3.393360220334003
 21
2.910650673272113
 31
0.0
  0
LINE
  5
7F1
330
760
100
AcDbEntity
  8
image
100
AcDbLine
 10
3.386995208878503
 20
3.201422071663285
 30
0.0
 11
3.359735390279326
 21
2.910650673272113
 31
0.0
  0
LINE
  5
7F2
330
760
100
AcDbEntity
  8
image
100
AcDbLine
 10
3.476454561319948
 20
3.183901505981855
 30
0.0
 11
3.431286628665582
 21
2.910650673272113
 31
0.0
  0
LINE
  5
7F3
330
760
100
AcDbEntity
  8
image
100
AcDbLine
 10
3.349420034006677
 20
3.220359082607441
 30
0.0
 11
3.311650715795047
 21
2.910650673272113
 31
0.0
  0
LINE
  5
7F4
330
760
100
AcDbEntity
  8
image
100
AcDbLine
 10
3.442372434365865
 20
3.21265316424228
 30
0.0
 11
3.339528065454495
 21
2.910650673272113
 31
0.0
  0
HATCH
  5
7F5
330
760
100
AcDbEntity
  8
image
100
AcDbHatch
 10
0.0
 20
0.0
 30
0.0
210
0.0
220
0.0
230
1.0
  2
EARTH
 70
     0
 71
     0
 91
        2
 92
        1
 93
        6
 72
     1
 10
2.973104168457667
 20
2.910650673272113
 11
3.460378071521632
 21
2.909382956468221
 72
     1
 10
3.460378071521632
 20
2.909382956468221
 11
3.43587853313303
 21
2.793717535200562
 72
     1
 10
3.435878533133029
 20
2.793717535200562
 11
3.229260292744343
 21
2.684391328534505
 72
     1
 10
3.229260292744343
 20
2.684391328534503
 11
3.061129736699121
 21
2.728931648745613
 72
     1
 10
3.061129736699123
 20
2.728931648745613
 11
3.001949718477677
 21
2.741004917323581
 72
     1
 10
3.001949718477683
 20
2.741004917323581
 11
2.973104168457672
 21
2.910650673272113
 97
        0
 92
        1
 93
        5
 72
     1
 10
1.04250319559683
 20
2.910650673272113
 11
1.010179584695097
 21
2.720550148263773
 72
     1
 10
1.010179584695102
 20
2.720550148263773
 11
0.7743001996745625
 21
2.742492219800356
 72
     1
 10
0.7743001996745571
 20
2.742492219800356
 11
0.5278479204985045
 21
2.735028045805086
 72
     1
 10
0.5278479204985099
 20
2.735028045805086
 11
0.5552292223766449
 21
2.909382956468221
 72
     1
 10
0.5552292223766396
 20
2.909382956468221
 11
1.04250319559683
 21
2.910650673272113
 97
        0
 75
     0
 76
     1
 52
45.0
 41
0.75
 77
     0
 78
     6
 53
45.0
 43
-4.621696408066312
 44
-4.77156470810847
 45
0.0
 46
0.2651650429449553
 79
     2
 49
0.1875
 49
-0.1875
 53
45.0
 43
-4.671414853618492
 44
-4.72184626255629
 45
0.0
 46
0.2651650429449553
 79
     2
 49
0.1875
 49
-0.1875
 53
45.0
 43
-4.721133299170673
 44
-4.672127817004112
 45
0.0
 46
0.2651650429449553
 79
     2
 49
0.1875
 49
-0.1875
 53
135.0
 43
-4.721133299170673
 44
-4.638982186635992
 45
-0.2651650429449553
 46
0.0
 79
     2
 49
0.1875
 49
-0.1875
 53
135.0
 43
-4.671414853618492
 44
-4.589263741083813
 45
-0.2651650429449553
 46
0.0
 79
     2
 49
0.1875
 49
-0.1875
 53
135.0
 43
-4.621696408066312
 44
-4.539545295531634
 45
-0.2651650429449553
 46
0.0
 79
     2
 49
0.1875
 49
-0.1875
 98
        1
 10
-4.621696408066312
 20
-4.77156470810847
  0
LEADER
  5
7F6
330
760
100
AcDbEntity
  8
text_bubbles
100
AcDbLeader
  3
Standard
 76
     2
 10
2.674123870463746
 20
2.17317330956365
 30
0.0
 10
3.399094878418446
 20
2.440378789768506
 30
0.0
  0
LEADER
  5
7F7
330
760
100
AcDbEntity
  8
text_bubbles
100
AcDbLeader
  3
Standard
 76
     2
 10
2.213258631081857
 20
2.992785160850993
 30
0.0
 10
2.411134946654571
 20
3.320898834682053
 30
0.0
  0
LEADER
  5
7F8
330
760
100
AcDbEntity
  8
text_bubbles
100
AcDbLeader
  3
Standard
 76
     2
 10
2.393398672355943
 20
1.797146874673761
 30
0.0
 10
3.397534582807481
 20
2.017248721928488
 30
0.0
  0
LEADER
  5
7F9
330
760
100
AcDbEntity
  8
text_bubbles
100
AcDbLeader
  3
Standard
 76
     2
 10
0.5578536822587319
 20
2.909389784396812
 30
0.0
 10
0.3266862265823542
 20
3.233920944465004
 30
0.0
  0
LEADER
  5
7FA
330
760
100
AcDbEntity
  8
text_bubbles
100
AcDbLeader
  3
Standard
 76
     2
 10
0.745895773669127
 20
2.44316518171012
 30
0.0
 10
0.4799764225133539
 20
2.212054933193429
 30
0.0
1001
ACAD
1000
DSTYLE
1002
{
1070
   147
1040
0.09
1070
    77
1070
     0
1070
    41
1040
0.1
1070
   140
1040
0.125
1070
   143
1040
25.0
1070
   176
1070
   256
1070
   177
1070
   256
1070
   178
1070
   256
1070
   289
1070
     1
1002
}
  0
LEADER
  5
7FB
330
760
100
AcDbEntity
  8
text_bubbles
100
AcDbLeader
  3
Standard
 76
     2
 10
0.7844286173864328
 20
1.937154676132164
 30
0.0
 10
0.4799764225133539
 20
2.212054933193429
 30
0.0
1001
ACAD
1000
DSTYLE
1002
{
1070
   147
1040
0.09
1070
    77
1070
     0
1070
    41
1040
0.1
1070
   140
1040
0.125
1070
   143
1040
25.0
1070
   176
1070
   256
1070
   177
1070
   256
1070
   178
1070
   256
1070
   289
1070
     1
1002
}
  0
LWPOLYLINE
  5
7FC
330
760
100
AcDbEntity
  8
image
100
AcDbPolyline
 90
        2
 70
   128
 43
0.01
 10
0.0335930497357504
 20
1.931904676132162
 10
1.968043093826026
 20
1.931904676132162
  0
LWPOLYLINE
  5
7FD
330
760
100
AcDbEntity
  8
image
100
AcDbPolyline
 90
        2
 70
   128
 43
0.01
 10
0.0433410606913549
 20
2.413078732166102
 10
1.977791104781631
 20
2.413078732166102
  0
LWPOLYLINE
  5
7FE
330
760
100
AcDbEntity
  8
image
100
AcDbPolyline
 90
        3
 70
   128
 43
0.01
 10
0.0501872921179123
 20
2.005045694854795
 42
0.9999999999999998
 10
0.0335930497357504
 20
1.931904676132162
 42
-0.9999999999999998
 10
0.0169988073535885
 20
1.85876365740953
 42
5441543991412035
  0
LWPOLYLINE
  5
7FF
330
760
100
AcDbEntity
  8
image
100
AcDbPolyline
 90
        3
 70
   128
 43
0.01
 10
0.0599353030735168
 20
2.486219750888735
 42
0.9999999999999998
 10
0.0433410606913549
 20
2.413078732166102
 42
-0.9999999999999998
 10
0.026746818309193
 20
2.339937713443469
 42
5441543991412035
  0
ENDBLK
  5
803
330
760
100
AcDbEntity
  8
0
100
AcDbBlockEnd
  0
ENDSEC
  0
SECTION
  2
ENTITIES
  0
LWPOLYLINE
  5
25
330
2
100
AcDbEntity
  8
image
100
AcDbPolyline
 90
        4
 70
     1
 43
0.0
 10
0.0
 20
0.0
 10
16.49
 20
0.0
 10
16.49
 20
10.44
 10
0.0
 20
10.44
  0
MTEXT
  5
26
102
{ACAD_XDICTIONARY
360
9B6
102
}
330
2
100
AcDbEntity
  8
text_bubbles
100
AcDbMText
 10
10.73493608717877
 20
8.955616817747992
 30
0.0
 40
0.125
 41
4.429999999999999
 71
     1
 72
     5
  3
RAIN BIRD CONTROLLER\P\P\pi-0.375,l0.375;SOLID BARE COPPER WIRE (#10 AWG) FROM GROUNDING ROD TO CONTROLLER. MAKE WIRE AS SHORT AND STRAIGHT AS POSSIBLE\P\pi0,l0;\P\pi-0.375,l0.375;COVER GROUNDING ROD WITH 10-INCH ROUND VALVE BOX AS SHOWN\P\pi0,l0;\P\
  3
pi-0.375,l0.375;5/8-INCH X 10 FT COPPER CLAD GROUNDING ROD OR GROUNDING PLATE. INSTALL RODS IN SOIL IN A TRIAGULAR PATTERN SPACED A MINIMUM OF 16 FT APART FROM EACH OTHER. GROUNDING GRID TO HAVE A RESISTANCE OF TEN (10) OHMS OR LESS\P\pi0,l0;\P\pi-0.
  1
375,l0.375;BARE COPPER WIRE (#6 AWG MIN.) BETWEEN GROUNDING ROD AND GROUNDING PLATE\P\pi0,l0;\PGROUND ROD CLAMP OR WELDS\P\PCOPPER GROUNDING PLATE\P\P\pi-0.375,l0.375;GROUND ENHANCEMENT MATERIAL (IF REQUIRED)\P\pi0,l0;\PFINISH GRADE\P\P
  7
ROMANS
 73
     1
 44
1.0
  0
INSERT
  5
29
330
2
100
AcDbEntity
  8
text_bubbles
100
AcDbBlockReference
 66
     1
  2
bubble
 10
10.26844069679078
 20
3.981548778193712
 30
0.0
  0
ATTRIB
  5
2A
330
29
100
AcDbEntity
  8
text_bubbles
100
AcDbText
 10
10.20891688726697
 20
3.919048778193712
 30
0.0
 40
0.125
  1
7
  7
ROMANS
 72
     4
 11
10.26844069679078
 21
3.981548778193712
 31
0.0
100
AcDbAttribute
  2
XX
 70
     0
  0
SEQEND
  5
33
330
29
100
AcDbEntity
  8
text_bubbles
  0
INSERT
  5
34
330
2
100
AcDbEntity
  8
text_bubbles
100
AcDbBlockReference
 66
     1
  2
bubble
 10
10.26844069679078
 20
4.390804260710286
 30
0.0
  0
ATTRIB
  5
35
330
34
100
AcDbEntity
  8
text_bubbles
100
AcDbText
 10
10.20594069679078
 20
4.328304260710286
 30
0.0
 40
0.125
  1
6
  7
ROMANS
 72
     4
 11
10.26844069679078
 21
4.390804260710286
 31
0.0
100
AcDbAttribute
  2
XX
 70
     0
  0
SEQEND
  5
36
330
34
100
AcDbEntity
  8
text_bubbles
  0
INSERT
  5
37
330
2
100
AcDbEntity
  8
text_bubbles
100
AcDbBlockReference
 66
     1
  2
bubble
 10
10.26844069679078
 20
5.021073826007492
 30
0.0
  0
ATTRIB
  5
38
330
37
100
AcDbEntity
  8
text_bubbles
100
AcDbText
 10
10.20891688726697
 20
4.958573826007492
 30
0.0
 40
0.125
  1
5
  7
ROMANS
 72
     4
 11
10.26844069679078
 21
5.021073826007492
 31
0.0
100
AcDbAttribute
  2
XX
 70
     0
  0
SEQEND
  5
39
330
37
100
AcDbEntity
  8
text_bubbles
  0
INSERT
  5
3A
330
2
100
AcDbEntity
  8
text_bubbles
100
AcDbBlockReference
 66
     1
  2
bubble
 10
10.26844069679078
 20
7.382993340260851
 30
0.0
  0
ATTRIB
  5
3B
330
3A
100
AcDbEntity
  8
text_bubbles
100
AcDbText
 10
10.20891688726697
 20
7.320493340260851
 30
0.0
 40
0.125
  1
3
  7
ROMANS
 72
     4
 11
10.26844069679078
 21
7.382993340260851
 31
0.0
100
AcDbAttribute
  2
XX
 70
     0
  0
SEQEND
  5
3C
330
3A
100
AcDbEntity
  8
text_bubbles
  0
INSERT
  5
3D
330
2
100
AcDbEntity
  8
text_bubbles
100
AcDbBlockReference
 66
     1
  2
bubble
 10
10.26844069679078
 20
6.719041269234283
 30
0.0
  0
ATTRIB
  5
3E
330
3D
100
AcDbEntity
  8
text_bubbles
100
AcDbText
 10
10.20594069679078
 20
6.656541269234283
 30
0.0
 40
0.125
  1
4
  7
ROMANS
 72
     4
 11
10.26844069679078
 21
6.719041269234283
 31
0.0
100
AcDbAttribute
  2
XX
 70
     0
  0
SEQEND
  5
3F
330
3D
100
AcDbEntity
  8
text_bubbles
  0
INSERT
  5
40
330
2
100
AcDbEntity
  8
text_bubbles
100
AcDbBlockReference
 66
     1
  2
bubble
 10
10.26844069679078
 20
8.881099975295899
 30
0.0
  0
ATTRIB
  5
41
330
40
100
AcDbEntity
  8
text_bubbles
100
AcDbText
 10
10.21784545869554
 20
8.818599975295899
 30
0.0
 40
0.125
  1
1
  7
ROMANS
 72
     4
 11
10.26844069679078
 21
8.881099975295899
 31
0.0
100
AcDbAttribute
  2
XX
 70
     0
  0
SEQEND
  5
42
330
40
100
AcDbEntity
  8
text_bubbles
  0
INSERT
  5
43
330
2
100
AcDbEntity
  8
text_bubbles
100
AcDbBlockReference
 66
     1
  2
bubble
 10
10.26844069679078
 20
8.415621469898752
 30
0.0
  0
ATTRIB
  5
44
330
43
100
AcDbEntity
  8
text_bubbles
100
AcDbText
 10
10.20891688726697
 20
8.353121469898752
 30
0.0
 40
0.125
  1
2
  7
ROMANS
 72
     4
 11
10.26844069679078
 21
8.415621469898752
 31
0.0
100
AcDbAttribute
  2
XX
 70
     0
  0
SEQEND
  5
45
330
43
100
AcDbEntity
  8
text_bubbles
  0
INSERT
  5
46
330
2
100
AcDbEntity
  8
text_bubbles
100
AcDbBlockReference
 66
     1
  2
bubble
 10
5.759811635253273
 20
5.721847243007539
 30
0.0
  0
ATTRIB
  5
47
330
46
100
AcDbEntity
  8
text_bubbles
100
AcDbText
 10
5.697311635253273
 20
5.659347243007539
 30
0.0
 40
0.125
  1
4
  7
ROMANS
 72
     4
 11
5.759811635253273
 21
5.721847243007539
 31
0.0
100
AcDbAttribute
  2
XX
 70
     0
  0
SEQEND
  5
48
330
46
100
AcDbEntity
  8
text_bubbles
  0
INSERT
  5
49
330
2
100
AcDbEntity
  8
text_bubbles
100
AcDbBlockReference
 66
     1
  2
bubble
 10
5.737995463523908
 20
6.117012493823814
 30
0.0
  0
ATTRIB
  5
4A
330
49
100
AcDbEntity
  8
text_bubbles
100
AcDbText
 10
5.675495463523908
 20
6.054512493823814
 30
0.0
 40
0.125
  1
6
  7
ROMANS
 72
     4
 11
5.737995463523908
 21
6.117012493823814
 31
0.0
100
AcDbAttribute
  2
XX
 70
     0
  0
SEQEND
  5
4B
330
49
100
AcDbEntity
  8
text_bubbles
  0
HATCH
  5
4C
330
2
100
AcDbEntity
  8
image
100
AcDbHatch
 10
0.0
 20
0.0
 30
0.0
210
0.0
220
0.0
230
1.0
  2
EARTH
 70
     0
 71
     0
 91
        1
 92
        1
 93
       11
 72
     1
 10
4.621284308361095
 20
4.919959956206845
 11
4.912907772260144
 21
4.878923085767204
 72
     1
 10
4.912907772260144
 20
4.878923085767204
 11
5.049978034563785
 21
4.645225523339529
 72
     1
 10
5.049978034563785
 20
4.645225523339529
 11
4.82018381532995
 21
4.399440151250531
 72
     1
 10
4.82018381532995
 20
4.399440151250531
 11
4.417036066329583
 21
4.339001127768799
 72
     1
 10
4.417036066329583
 20
4.339001127768799
 11
4.154990040997477
 21
4.617020650679699
 72
     1
 10
4.154990040997477
 20
4.617020650679699
 11
4.296091764665737
 21
4.95144991891026
 72
     1
 10
4.296091764665737
 20
4.95144991891026
 11
4.416362033785325
 21
4.919747418161191
 72
     1
 10
4.416362033785325
 20
4.919747418161191
 11
4.416362033785325
 21
4.614103804945552
 72
     1
 10
4.416362033785325
 20
4.614103804945552
 11
4.518823171073211
 21
4.4141315590418
 72
     1
 10
4.518823171073211
 20
4.4141315590418
 11
4.621284308361095
 21
4.614103804945552
 72
     1
 10
4.621284308361095
 20
4.614103804945552
 11
4.621284308361095
 21
4.919959956206845
 97
        0
 75
     0
 76
     1
 52
45.0
 41
0.75
 77
     0
 78
     6
 53
45.0
 43
-2.394725129753119
 44
-0.8052604307233899
 45
0.0
 46
0.2651650429449553
 79
     2
 49
0.1875
 49
-0.1875
 53
45.0
 43
-2.444443575305298
 44
-0.7555419851712109
 45
0.0
 46
0.2651650429449553
 79
     2
 49
0.1875
 49
-0.1875
 53
45.0
 43
-2.494162020857477
 44
-0.7058235396190317
 45
0.0
 46
0.2651650429449553
 79
     2
 49
0.1875
 49
-0.1875
 53
135.0
 43
-2.494162020857477
 44
-0.6726779092509123
 45
-0.2651650429449553
 46
0.0
 79
     2
 49
0.1875
 49
-0.1875
 53
135.0
 43
-2.444443575305298
 44
-0.6229594636987331
 45
-0.2651650429449553
 46
0.0
 79
     2
 49
0.1875
 49
-0.1875
 53
135.0
 43
-2.394725129753119
 44
-0.5732410181465541
 45
-0.2651650429449553
 46
0.0
 79
     2
 49
0.1875
 49
-0.1875
 98
        1
 10
-2.394725129753119
 20
-0.8052604307233899
  0
HATCH
  5
27B
330
2
100
AcDbEntity
  8
image
100
AcDbHatch
 10
0.0
 20
0.0
 30
0.0
210
0.0
220
0.0
230
1.0
  2
EARTH
 70
     0
 71
     0
 91
        2
 92
        1
 93
        7
 72
     1
 10
3.131133832526559
 20
5.268497356945827
 11
4.416362033785327
 21
5.268497356945827
 72
     1
 10
4.416362033785327
 20
5.268497356945827
 11
4.416362033785327
 21
5.105566228037357
 72
     1
 10
4.416362033785327
 20
5.105566228037357
 11
3.855091018786249
 21
4.995291219883332
 72
     1
 10
3.855091018786249
 20
4.995291219883332
 11
3.41619590260896
 21
5.003124341386087
 72
     1
 10
3.41619590260896
 20
5.003124341386087
 11
3.235935409835922
 21
5.081455531588747
 72
     1
 10
3.235935409835922
 20
5.081455531588747
 11
3.09325933669744
 21
5.105715317996981
 72
     1
 10
3.09325933669744
 20
5.105715317996981
 11
3.131133832526559
 21
5.268497356945827
 97
        0
 92
        1
 93
        6
 72
     1
 10
4.621052150201775
 20
5.268497356945827
 11
5.34554538038215
 21
5.268497356945827
 72
     1
 10
5.34554538038215
 20
5.268497356945827
 11
5.379837186438928
 21
5.084849891913116
 72
     1
 10
5.379837186438928
 20
5.084849891913116
 11
5.187451201123118
 21
5.034456827397106
 72
     1
 10
5.187451201123118
 20
5.034456827397106
 11
4.866117242498876
 21
5.073622410085992
 72
     1
 10
4.866117242498876
 20
5.073622410085992
 11
4.620369950669136
 21
5.105566228037358
 72
     1
 10
4.620369950669136
 20
5.105566228037358
 11
4.621052150201775
 21
5.268497356945827
 97
        0
 75
     0
 76
     1
 52
45.0
 41
0.75
 77
     0
 78
     6
 53
45.0
 43
-2.394725129753119
 44
-0.8052604307233899
 45
0.0
 46
0.2651650429449553
 79
     2
 49
0.1875
 49
-0.1875
 53
45.0
 43
-2.444443575305298
 44
-0.7555419851712109
 45
0.0
 46
0.2651650429449553
 79
     2
 49
0.1875
 49
-0.1875
 53
45.0
 43
-2.494162020857477
 44
-0.7058235396190317
 45
0.0
 46
0.2651650429449553
 79
     2
 49
0.1875
 49
-0.1875
 53
135.0
 43
-2.494162020857477
 44
-0.6726779092509123
 45
-0.2651650429449553
 46
0.0
 79
     2
 49
0.1875
 49
-0.1875
 53
135.0
 43
-2.444443575305298
 44
-0.6229594636987331
 45
-0.2651650429449553
 46
0.0
 79
     2
 49
0.1875
 49
-0.1875
 53
135.0
 43
-2.394725129753119
 44
-0.5732410181465541
 45
-0.2651650429449553
 46
0.0
 79
     2
 49
0.1875
 49
-0.1875
 98
        1
 10
-2.394725129753119
 20
-0.8052604307233899
  0
LINE
  5
27D
330
2
100
AcDbEntity
  8
image
100
AcDbLine
 10
3.3073257382706
 20
7.215276594993159
 30
0.0
 11
3.225805718784622
 21
6.876954950657193
 31
0.0
  0
LINE
  5
27E
330
2
100
AcDbEntity
  8
image
100
AcDbLine
 10
3.357802890680409
 20
7.222202005828863
 30
0.0
 11
3.247989654221916
 21
6.876954950657193
 31
0.0
  0
LINE
  5
280
102
{ACAD_REACTORS
330
2FC
102
}
330
2
100
AcDbEntity
  8
image
100
AcDbLine
 10
5.200075446770862
 20
6.876954950657193
 30
0.0
 11
3.269474403753797
 21
6.876954950657193
 31
0.0
  0
SOLID
  5
281
330
2
100
AcDbEntity
  8
image
  6
Continuous
100
AcDbTrace
 10
1.356165567976713
 20
6.384663042437374
 30
0.0
 11
4.204201630626491
 21
6.384663042437374
 31
0.0
 12
1.356165567976713
 22
6.374163042437373
 32
0.0
 13
4.204201630626491
 23
6.374163042437373
 33
0.0
  0
LINE
  5
282
330
2
100
AcDbEntity
  8
image
100
AcDbLine
 10
3.131133832526559
 20
5.268497356945827
 30
0.0
 11
4.416393037239357
 21
5.268497356945827
 31
0.0
  0
LINE
  5
284
330
2
100
AcDbEntity
  8
image
100
AcDbLine
 10
2.96386938552578
 20
5.079637173259632
 30
0.0
 11
3.283440100894816
 21
6.959089713662219
 31
0.0
  0
LINE
  5
285
330
2
100
AcDbEntity
  8
image
100
AcDbLine
 10
3.408396032448283
 20
6.959089683910804
 30
0.0
 11
3.066113844910182
 21
4.946067903693933
 31
0.0
  0
INSERT
  5
287
330
2
100
AcDbEntity
  8
text_bubbles
100
AcDbBlockReference
 66
     1
  2
bubble
 10
2.347222104330579
 20
8.729522564848624
 30
0.0
  0
ATTRIB
  5
288
330
287
100
AcDbEntity
  8
text_bubbles
100
AcDbText
 10
2.296626866235341
 20
8.667022564848624
 30
0.0
 40
0.125
  1
1
  7
ROMANS
 72
     4
 11
2.347222104330579
 21
8.729522564848624
 31
0.0
100
AcDbAttribute
  2
XX
 70
     0
  0
SEQEND
  5
289
330
287
100
AcDbEntity
  8
text_bubbles
  0
LWPOLYLINE
  5
28A
330
2
100
AcDbEntity
  8
image
100
AcDbPolyline
 90
        4
 70
     0
 43
0.0
 10
0.4542653221460587
 20
8.696302353025457
 10
0.4542653221460587
 20
8.150556346230617
 10
1.883779138406903
 20
8.150556346230617
 10
1.883779138406903
 20
8.696302353025457
  0
LWPOLYLINE
  5
291
330
2
100
AcDbEntity
  8
image
100
AcDbPolyline
 90
        4
 70
     0
 43
0.0
 10
0.5078956466390335
 20
8.696302353025457
 10
0.5078956466390335
 20
8.204186670723595
 10
1.830148813913928
 20
8.204186670723592
 10
1.830148813913928
 20
8.696302353025457
  0
LWPOLYLINE
  5
292
330
2
100
AcDbEntity
  8
image
100
AcDbPolyline
 90
        4
 70
     0
 43
0.0
 10
0.4944880618434322
 20
8.696302353025457
 10
0.4944880618434322
 20
8.190779085927994
 10
1.843556398709529
 20
8.190779085927994
 10
1.843556398709529
 20
8.696302353025457
  0
LINE
  5
29B
330
2
100
AcDbEntity
  8
image
100
AcDbLine
 10
2.963869196820958
 20
5.079637205345855
 30
0.0
 11
2.666478305280691
 21
5.079637205345855
 31
0.0
  0
LINE
  5
29C
330
2
100
AcDbEntity
  8
image
100
AcDbLine
 10
2.666478305280691
 20
4.946067903693933
 30
0.0
 11
3.06611507692601
 21
4.946067903693933
 31
0.0
  0
LINE
  5
29D
330
2
100
AcDbEntity
  8
image
100
AcDbLine
 10
2.666478305280691
 20
5.079637205345855
 30
0.0
 11
2.666478305280691
 21
4.947220678855313
 31
0.0
  0
LINE
  5
2AB
330
2
100
AcDbEntity
  8
image
100
AcDbLine
 10
3.092205771192665
 20
7.203999206848632
 30
0.0
 11
2.936332327340307
 21
6.876954950657193
 31
0.0
  0
LINE
  5
2AC
330
2
100
AcDbEntity
  8
image
100
AcDbLine
 10
2.962092295168128
 20
7.192721818704086
 30
0.0
 11
2.935755058103426
 21
6.8769549506572
 31
0.0
  0
LINE
  5
2AD
330
2
100
AcDbEntity
  8
image
100
AcDbLine
 10
2.930436011205623
 20
7.172460601784408
 30
0.0
 11
3.009297307313316
 21
6.876954950657193
 31
0.0
  0
LINE
  5
2AE
330
2
100
AcDbEntity
  8
image
100
AcDbLine
 10
2.878359231109195
 20
7.144055085368172
 30
0.0
 11
2.951596364820273
 21
6.876954950657193
 31
0.0
  0
LINE
  5
2AF
330
2
100
AcDbEntity
  8
image
100
AcDbLine
 10
2.956757123431314
 20
7.215276594993159
 30
0.0
 11
2.875237103945329
 21
6.876954950657193
 31
0.0
  0
LINE
  5
2B0
330
2
100
AcDbEntity
  8
image
100
AcDbLine
 10
3.269474473910024
 20
6.876954950657193
 30
0.0
 11
2.782200500689834
 21
6.875687233853302
 31
0.0
  0
LINE
  5
2B1
330
2
100
AcDbEntity
  8
image
100
AcDbLine
 10
2.766124081047744
 20
7.150205783366935
 30
0.0
 11
2.811292013702109
 21
6.876954950657193
 31
0.0
  0
LINE
  5
2B2
330
2
100
AcDbEntity
  8
image
100
AcDbLine
 10
2.78744631372964
 20
7.170167042415027
 30
0.0
 11
2.857624417461058
 21
6.8769549506572
 31
0.0
  0
LINE
  5
2B3
330
2
100
AcDbEntity
  8
image
100
AcDbLine
 10
2.794269293779796
 20
7.167726349048365
 30
0.0
 11
2.82152911237897
 21
6.876954950657193
 31
0.0
  0
LINE
  5
2B4
330
2
100
AcDbEntity
  8
image
100
AcDbLine
 10
2.849218422033688
 20
7.226553983137687
 30
0.0
 11
2.849218422033688
 21
6.876954950657193
 31
0.0
  0
LINE
  5
2B5
330
2
100
AcDbEntity
  8
image
100
AcDbLine
 10
2.808537807910765
 20
7.191454101900188
 30
0.0
 11
2.782200570846059
 21
6.875687233853302
 31
0.0
  0
LINE
  5
2B6
330
2
100
AcDbEntity
  8
image
100
AcDbLine
 10
2.893158608361014
 20
7.186663359992522
 30
0.0
 11
2.930927926572648
 21
6.876954950657193
 31
0.0
  0
LINE
  5
2B7
330
2
100
AcDbEntity
  8
image
100
AcDbLine
 10
2.855583433489188
 20
7.167726349048365
 30
0.0
 11
2.882843252088365
 21
6.876954950657193
 31
0.0
  0
LINE
  5
2B8
330
2
100
AcDbEntity
  8
image
100
AcDbLine
 10
2.80020620800183
 20
7.17895744162736
 30
0.0
 11
2.9030505769132
 21
6.876954950657193
 31
0.0
  0
LINE
  5
2BA
330
2
100
AcDbEntity
  8
image
100
AcDbLine
 10
2.965772805886667
 20
7.125057489836901
 30
0.0
 11
3.166340995840963
 21
6.876954950657193
 31
0.0
  0
LINE
  5
2BB
330
2
100
AcDbEntity
  8
image
100
AcDbLine
 10
3.081179353736397
 20
7.144055085368169
 30
0.0
 11
3.154416487447479
 21
6.876954950657193
 31
0.0
  0
LINE
  5
2BC
330
2
100
AcDbEntity
  8
image
100
AcDbLine
 10
3.164912417795337
 20
7.192721818704082
 30
0.0
 11
3.138575180730635
 21
6.876954950657196
 31
0.0
  0
LINE
  5
2BD
330
2
100
AcDbEntity
  8
image
100
AcDbLine
 10
3.133256133832828
 20
7.172460601784404
 30
0.0
 11
3.209004177609463
 21
6.883671184886015
 31
0.0
  0
LINE
  5
2BE
330
2
100
AcDbEntity
  8
image
100
AcDbLine
 10
3.141649650036969
 20
7.144055085368169
 30
0.0
 11
3.214886783748044
 21
6.876954950657193
 31
0.0
  0
LINE
  5
2BF
330
2
100
AcDbEntity
  8
image
100
AcDbLine
 10
3.155532061443226
 20
7.186663359992518
 30
0.0
 11
3.193301379654856
 21
6.876954950657193
 31
0.0
  0
LINE
  5
2C0
330
2
100
AcDbEntity
  8
image
100
AcDbLine
 10
3.003241261289558
 20
7.170167042415023
 30
0.0
 11
3.073419365020976
 21
6.876954950657193
 31
0.0
  0
LINE
  5
2C1
330
2
100
AcDbEntity
  8
image
100
AcDbLine
 10
3.033922560250955
 20
7.144055085368165
 30
0.0
 11
3.107159693962037
 21
6.876954950657193
 31
0.0
  0
LINE
  5
2C2
330
2
100
AcDbEntity
  8
image
100
AcDbLine
 10
3.087679863464893
 20
7.226553983137684
 30
0.0
 11
3.087679863464893
 21
6.876954950657193
 31
0.0
  0
LINE
  5
2C3
330
2
100
AcDbEntity
  8
image
100
AcDbLine
 10
3.112508840961455
 20
7.226553983137684
 30
0.0
 11
3.112508840961455
 21
6.876954950657193
 31
0.0
  0
LINE
  5
2C4
330
2
100
AcDbEntity
  8
image
100
AcDbLine
 10
3.004356320691824
 20
7.186663359992518
 30
0.0
 11
3.042125638903451
 21
6.876954950657193
 31
0.0
  0
LINE
  5
2C5
330
2
100
AcDbEntity
  8
image
100
AcDbLine
 10
3.052038544660893
 20
7.226553983137684
 30
0.0
 11
3.052038544660893
 21
6.876954950657193
 31
0.0
  0
LINE
  5
2C6
330
2
100
AcDbEntity
  8
image
100
AcDbLine
 10
2.992876762834329
 20
7.162992096312322
 30
0.0
 11
2.965819195002092
 21
6.876954950657193
 31
0.0
  0
LINE
  5
2C7
330
2
100
AcDbEntity
  8
image
100
AcDbLine
 10
3.001311128630648
 20
7.226553983137687
 30
0.0
 11
3.001311128630648
 21
6.876954950657193
 31
0.0
  0
LINE
  5
2C8
330
2
100
AcDbEntity
  8
image
100
AcDbLine
 10
3.263684581712857
 20
7.226553983137684
 30
0.0
 11
3.263684581712857
 21
6.876954950657193
 31
0.0
  0
LINE
  5
2C9
330
2
100
AcDbEntity
  8
image
100
AcDbLine
 10
3.263984954974956
 20
7.162992096312322
 30
0.0
 11
3.236927387142715
 21
6.876954950657193
 31
0.0
  0
LINE
  5
2CA
330
2
100
AcDbEntity
  8
image
100
AcDbLine
 10
3.225382714095891
 20
7.192721818704082
 30
0.0
 11
3.199045477031196
 21
6.876954950657196
 31
0.0
  0
LINE
  5
2CB
330
2
100
AcDbEntity
  8
image
100
AcDbLine
 10
3.19372643013339
 20
7.172460601784404
 30
0.0
 11
3.269474473910024
 21
6.876954950657193
 31
0.0
  0
LINE
  5
2CC
330
2
100
AcDbEntity
  8
image
100
AcDbLine
 10
4.620369950669136
 20
5.717957609538597
 30
0.0
 11
4.620369950669136
 21
6.089692602791076
 31
0.0
  0
LINE
  5
2CD
330
2
100
AcDbEntity
  8
image
100
AcDbLine
 10
4.416362033785327
 20
6.089692602791076
 30
0.0
 11
4.416362033785327
 21
5.717957609538597
 31
0.0
  0
LINE
  5
2CE
330
2
100
AcDbEntity
  8
image
100
AcDbLine
 10
5.18610981978607
 20
6.959089260645619
 30
0.0
 11
5.505680609920132
 21
5.079637205345855
 31
0.0
  0
LINE
  5
2CF
330
2
100
AcDbEntity
  8
image
100
AcDbLine
 10
5.40343472981508
 20
4.946067903693933
 30
0.0
 11
5.061154293431476
 21
6.959089290396935
 31
0.0
  0
LINE
  5
2D0
330
2
100
AcDbEntity
  8
image
100
AcDbLine
 10
4.281115490208149
 20
5.717957609538597
 30
0.0
 11
4.757861206905216
 21
5.717957609538597
 31
0.0
  0
LINE
  5
2D1
330
2
100
AcDbEntity
  8
image
100
AcDbLine
 10
4.757861206905216
 20
5.557276334774499
 30
0.0
 11
4.281115490208149
 21
5.557276334774499
 31
0.0
  0
LINE
  5
2D2
330
2
100
AcDbEntity
  8
image
100
AcDbLine
 10
4.621284308361095
 20
4.614103804945552
 30
0.0
 11
4.518823171073211
 21
4.4141315590418
 31
0.0
  0
LINE
  5
2D3
330
2
100
AcDbEntity
  8
image
100
AcDbLine
 10
4.416362033785327
 20
4.614103804945552
 30
0.0
 11
4.621284308361095
 21
4.614103804945552
 31
0.0
  0
ARC
  5
2D4
330
2
100
AcDbEntity
  8
image
100
AcDbCircle
 10
4.567026583192387
 20
5.113589619535419
 30
0.0
 40
0.0539433931532925
100
AcDbArc
 50
188.2000754341179
 51
351.4462450453797
  0
ARC
  5
2D5
330
2
100
AcDbEntity
  8
image
100
AcDbCircle
 10
4.567026583192387
 20
4.911724026663127
 30
0.0
 40
0.0539433931532925
100
AcDbArc
 50
8.553754954620316
 51
171.7999245658821
  0
ARC
  5
2D6
330
2
100
AcDbEntity
  8
image
100
AcDbCircle
 10
4.567026583192387
 20
5.097542836539297
 30
0.0
 40
0.0539433931532925
100
AcDbArc
 50
8.553754954620282
 51
171.7999245658821
  0
LINE
  5
2D7
330
2
100
AcDbEntity
  8
image
100
AcDbLine
 10
4.416362033785327
 20
5.557276334774499
 30
0.0
 11
4.416362033785327
 21
5.105566228037357
 31
0.0
  0
LINE
  5
2D8
330
2
100
AcDbEntity
  8
image
100
AcDbLine
 10
4.416362033785327
 20
4.919959956206845
 30
0.0
 11
4.416362033785327
 21
4.614103804945552
 31
0.0
  0
LINE
  5
2D9
330
2
100
AcDbEntity
  8
image
100
AcDbLine
 10
4.416362033785327
 20
4.614103804945552
 30
0.0
 11
4.518823171073211
 21
4.4141315590418
 31
0.0
  0
ARC
  5
2DA
330
2
100
AcDbEntity
  8
image
100
AcDbCircle
 10
4.464929978401906
 20
4.940106169500167
 30
0.0
 40
0.052662358477015
100
AcDbArc
 50
202.7424969384002
 51
337.6455878711146
  0
ARC
  5
2DB
330
2
100
AcDbEntity
  8
image
100
AcDbCircle
 10
4.465016877551731
 20
4.914447162136233
 30
0.0
 40
0.048942686234648
100
AcDbArc
 50
6.605133123857239
 51
173.7829516856578
  0
ARC
  5
2DC
330
2
100
AcDbEntity
  8
image
100
AcDbCircle
 10
4.465016877551731
 20
5.110866484062313
 30
0.0
 40
0.048942686234648
100
AcDbArc
 50
186.2170483143422
 51
353.3948668761428
  0
LINE
  5
2DD
330
2
100
AcDbEntity
  8
image
100
AcDbLine
 10
4.281115490208149
 20
5.557276334774499
 30
0.0
 11
4.281115490208149
 21
5.717957609538597
 31
0.0
  0
LINE
  5
2E0
330
2
100
AcDbEntity
  8
image
100
AcDbLine
 10
4.620369950669136
 20
5.105566228037357
 30
0.0
 11
4.620369950669136
 21
5.557276334774499
 31
0.0
  0
LINE
  5
2E1
330
2
100
AcDbEntity
  8
image
100
AcDbLine
 10
4.621284308361095
 20
4.614103804945552
 30
0.0
 11
4.621284308361095
 21
4.919959956206845
 31
0.0
  0
LINE
  5
2E2
330
2
100
AcDbEntity
  8
image
100
AcDbLine
 10
5.803071501460397
 20
4.946067903693933
 30
0.0
 11
5.40343472981508
 21
4.946067903693933
 31
0.0
  0
LINE
  5
2E3
330
2
100
AcDbEntity
  8
image
100
AcDbLine
 10
5.505680609920132
 20
5.079637205345855
 30
0.0
 11
5.803071501460397
 21
5.079637205345855
 31
0.0
  0
LINE
  5
2E4
330
2
100
AcDbEntity
  8
image
100
AcDbLine
 10
5.803071501460397
 20
5.079637205345855
 30
0.0
 11
5.803071501460397
 21
4.947220678855313
 31
0.0
  0
LINE
  5
2E6
330
2
100
AcDbEntity
  8
image
100
AcDbLine
 10
4.621052150201775
 20
5.268497356945827
 30
0.0
 11
5.34554538038215
 21
5.268497356945827
 31
0.0
  0
LINE
  5
2E7
330
2
100
AcDbEntity
  8
image
100
AcDbLine
 10
4.757861206905216
 20
5.558261704786477
 30
0.0
 11
4.835470968787829
 21
5.597046827747471
 31
0.0
  0
LINE
  5
2E8
330
2
100
AcDbEntity
  8
image
100
AcDbLine
 10
4.757861206905216
 20
5.717957609538597
 30
0.0
 11
4.757861206905216
 21
5.557276334774499
 31
0.0
  0
LWPOLYLINE
  5
2E9
330
2
100
AcDbEntity
  8
image
100
AcDbPolyline
 90
        5
 70
     0
 43
0.0
 10
4.864263138030308
 20
5.70970381845259
 10
4.864263138030308
 20
5.572907687100238
 10
4.900760665643042
 20
5.572907687100238
 10
4.900760665643042
 20
5.70970381845259
 10
4.864263138030308
 20
5.70970381845259
  0
LINE
  5
2EA
330
2
100
AcDbEntity
  8
image
100
AcDbLine
 10
4.863945509246322
 20
5.607061318932155
 30
0.0
 11
4.901095148776937
 21
5.607061318932155
 31
0.0
  0
LINE
  5
2EB
330
2
100
AcDbEntity
  8
image
100
AcDbLine
 10
4.863945509246322
 20
5.675278246155281
 30
0.0
 11
4.901095148776937
 21
5.675278246155281
 31
0.0
  0
LINE
  5
2ED
330
2
100
AcDbEntity
  8
image
100
AcDbLine
 10
4.835470968787829
 20
5.679172486577604
 30
0.0
 11
4.835470968787829
 21
5.597046827747471
 31
0.0
  0
LINE
  5
2EE
330
2
100
AcDbEntity
  8
image
100
AcDbLine
 10
4.864263138030308
 20
5.620697153497131
 30
0.0
 11
4.835519936170925
 21
5.620697153497131
 31
0.0
  0
LINE
  5
2EF
330
2
100
AcDbEntity
  8
image
100
AcDbLine
 10
4.835519936170925
 20
5.654888597658787
 30
0.0
 11
4.864263138030308
 21
5.654888597658787
 31
0.0
  0
LINE
  5
2F0
330
2
100
AcDbEntity
  8
image
100
AcDbLine
 10
4.757861206905216
 20
5.717957609538597
 30
0.0
 11
4.835470968787829
 21
5.679172486577604
 31
0.0
  0
INSERT
  5
2F2
330
2
100
AcDbEntity
  8
text_bubbles
100
AcDbBlockReference
 66
     1
  2
bubble
 10
4.701931524597687
 20
7.467069680958534
 30
0.0
  0
ATTRIB
  5
2F3
330
2F2
100
AcDbEntity
  8
text_bubbles
100
AcDbText
 10
4.642407715073877
 20
7.404569680958534
 30
0.0
 40
0.125
  1
3
  7
ROMANS
 72
     4
 11
4.701931524597687
 21
7.467069680958534
 31
0.0
100
AcDbAttribute
  2
XX
 70
     0
  0
SEQEND
  5
2F4
330
2F2
100
AcDbEntity
  8
text_bubbles
  0
LINE
  5
2F6
330
2
100
AcDbEntity
  8
image
100
AcDbLine
 10
3.283440100894816
 20
6.959089713662219
 30
0.0
 11
5.18610981978607
 21
6.959089260645619
 31
0.0
  0
LINE
  5
2F7
330
2
100
AcDbEntity
  8
image
100
AcDbLine
 10
4.757861206905216
 20
6.089692602791076
 30
0.0
 11
4.281115490208149
 21
6.089692602791076
 31
0.0
  0
LINE
  5
2F8
330
2
100
AcDbEntity
  8
image
100
AcDbLine
 10
4.281115490208149
 20
6.250373877555173
 30
0.0
 11
4.757861206905216
 21
6.250373877555173
 31
0.0
  0
LINE
  5
2F9
102
{ACAD_REACTORS
330
2FC
102
}
330
2
100
AcDbEntity
  8
image
100
AcDbLine
 10
4.620369950669136
 20
6.600862981666651
 30
0.0
 11
4.416362033785327
 21
6.600862981666651
 31
0.0
  0
DIMENSION
  5
2FA
102
{ACAD_XDICTIONARY
360
2FB
102
}
102
{ACAD_REACTORS
330
2FC
102
}
330
2
100
AcDbEntity
  8
image
100
AcDbDimension
  2
*D2
 10
3.800967266753725
 20
6.876954950657193
 30
0.0
 11
4.157633933420391
 21
7.336592481852783
 31
0.0
 70
   160
  1
4" \PMIN.
 71
     5
 42
0.2760919689905421
  3
Standard
100
AcDbAlignedDimension
 13
4.416362033785327
 23
6.600862981666651
 33
0.0
 14
4.416362033785327
 24
6.876954950657193
 34
0.0
 50
90.0
100
AcDbRotatedDimension
1001
ACAD
1000
DSTYLE
1002
{
1070
   340
1005
28
1070
    41
1040
0.1
1070
   140
1040
0.125
1070
   143
1040
25.0
1070
   176
1070
   256
1070
   177
1070
   256
1070
   178
1070
   256
1070
   289
1070
     1
1002
}
  0
LINE
  5
30B
330
2
100
AcDbEntity
  8
image
100
AcDbLine
 10
4.416362033785327
 20
6.600862981666651
 30
0.0
 11
4.416362033785327
 21
6.250373877555173
 31
0.0
  0
LWPOLYLINE
  5
30C
330
2
100
AcDbEntity
  8
image
  6
Continuous
100
AcDbPolyline
 90
       20
 70
     0
 43
0.0
 10
4.405392447381376
 20
6.250373877555173
 10
4.402830053838077
 20
6.25884743024339
 10
4.389176785049433
 20
6.286408145097695
 10
4.371149736165011
 20
6.311328623833345
 10
4.349246283524782
 20
6.332921296533418
 10
4.324070755611834
 20
6.35059040930683
 10
4.296317759292233
 20
6.363848461470686
 10
4.266753015223927
 20
6.372329655966209
 10
4.23619223119642
 20
6.375799991903745
 10
4.205041681149739
 20
6.374140444091741
 10
4.204483085039913
 20
6.384625575010623
 10
4.236507465382318
 20
6.386331676194981
 10
4.268807212514144
 20
6.382663871954617
 10
4.300054243237044
 20
6.37370008236942
 10
4.329386434533797
 20
6.359687623396913
 10
4.355994494875658
 20
6.341013106600771
 10
4.37914429302732
 20
6.318191772322014
 10
4.398197113137425
 20
6.291853273910421
 10
4.412627277265385
 20
6.262724305237197
 10
4.416362033785327
 20
6.250373877555172
1001
TCAD
1000
TCW25Brush
1002
}
1000
Solid
1071
       -5
1070
     0
1002
{
  0
LINE
  5
30D
330
2
100
AcDbEntity
  8
image
100
AcDbLine
 10
4.281115490208149
 20
6.089692602791076
 30
0.0
 11
4.281115490208149
 21
6.250373877555173
 31
0.0
  0
LINE
  5
311
330
2
100
AcDbEntity
  8
image
100
AcDbLine
 10
4.620369950669136
 20
6.250373877555173
 30
0.0
 11
4.620369950669136
 21
6.600862981666651
 31
0.0
  0
LWPOLYLINE
  5
312
330
2
100
AcDbEntity
  8
image
100
AcDbPolyline
 90
        5
 70
     0
 43
0.0
 10
4.864263138030308
 20
6.242120086469167
 10
4.864263138030308
 20
6.105323955116814
 10
4.900760665643042
 20
6.105323955116814
 10
4.900760665643042
 20
6.242120086469167
 10
4.864263138030308
 20
6.242120086469167
  0
LINE
  5
313
330
2
100
AcDbEntity
  8
image
100
AcDbLine
 10
4.863945509246322
 20
6.207694514171857
 30
0.0
 11
4.901095148776937
 21
6.207694514171857
 31
0.0
  0
LINE
  5
314
330
2
100
AcDbEntity
  8
image
100
AcDbLine
 10
4.863945509246322
 20
6.13947758694873
 30
0.0
 11
4.901095148776937
 21
6.13947758694873
 31
0.0
  0
LINE
  5
315
330
2
100
AcDbEntity
  8
image
100
AcDbLine
 10
4.835470968787829
 20
6.211588754594181
 30
0.0
 11
4.835470968787829
 21
6.129463095764046
 31
0.0
  0
LINE
  5
316
330
2
100
AcDbEntity
  8
image
100
AcDbLine
 10
4.757861206905216
 20
6.250373877555173
 30
0.0
 11
4.757861206905216
 21
6.089692602791076
 31
0.0
  0
LINE
  5
317
330
2
100
AcDbEntity
  8
image
100
AcDbLine
 10
4.864263138030308
 20
6.153113421513706
 30
0.0
 11
4.835519936170925
 21
6.153113421513706
 31
0.0
  0
LINE
  5
318
330
2
100
AcDbEntity
  8
image
100
AcDbLine
 10
4.835519936170925
 20
6.187304865675363
 30
0.0
 11
4.864263138030308
 21
6.187304865675363
 31
0.0
  0
LINE
  5
319
330
2
100
AcDbEntity
  8
image
100
AcDbLine
 10
4.757861206905216
 20
6.090677972803055
 30
0.0
 11
4.835470968787829
 21
6.129463095764046
 31
0.0
  0
LINE
  5
31A
330
2
100
AcDbEntity
  8
image
100
AcDbLine
 10
4.757861206905216
 20
6.250373877555173
 30
0.0
 11
4.835470968787829
 21
6.211588754594181
 31
0.0
  0
LINE
  5
31C
330
2
100
AcDbEntity
  8
image
100
AcDbLine
 10
5.111747030000477
 20
7.222202005828863
 30
0.0
 11
5.22156026645897
 21
6.876954950657193
 31
0.0
  0
LINE
  5
31D
330
2
100
AcDbEntity
  8
image
100
AcDbLine
 10
5.275823490547496
 20
7.172460601784404
 30
0.0
 11
5.200075446770862
 21
6.876954950657193
 31
0.0
  0
LINE
  5
31E
330
2
100
AcDbEntity
  8
image
100
AcDbLine
 10
5.20556496570593
 20
7.162992096312322
 30
0.0
 11
5.232622533538171
 21
6.876954950657193
 31
0.0
  0
LINE
  5
31F
330
2
100
AcDbEntity
  8
image
100
AcDbLine
 10
5.162224182410286
 20
7.215276594993159
 30
0.0
 11
5.243744201896264
 21
6.876954950657193
 31
0.0
  0
LINE
  5
320
330
2
100
AcDbEntity
  8
image
100
AcDbLine
 10
5.200075446770862
 20
6.876954950657193
 30
0.0
 11
9.412178530985913
 21
6.875687233853302
 31
0.0
  0
LINE
  5
321
330
2
100
AcDbEntity
  8
image
100
AcDbLine
 10
5.205865338968029
 20
7.226553983137684
 30
0.0
 11
5.205865338968029
 21
6.876954950657193
 31
0.0
  0
LINE
  5
322
330
2
100
AcDbEntity
  8
image
100
AcDbLine
 10
5.377344149488221
 20
7.203999206848632
 30
0.0
 11
5.533217593340578
 21
6.876954950657193
 31
0.0
  0
LINE
  5
323
330
2
100
AcDbEntity
  8
image
100
AcDbLine
 10
5.507457625512758
 20
7.192721818704086
 30
0.0
 11
5.53379486257746
 21
6.8769549506572
 31
0.0
  0
LINE
  5
324
330
2
100
AcDbEntity
  8
image
100
AcDbLine
 10
5.539113909475263
 20
7.172460601784408
 30
0.0
 11
5.46025261336757
 21
6.876954950657193
 31
0.0
  0
LINE
  5
325
330
2
100
AcDbEntity
  8
image
100
AcDbLine
 10
5.591190689571691
 20
7.144055085368172
 30
0.0
 11
5.517953555860612
 21
6.876954950657193
 31
0.0
  0
LINE
  5
326
330
2
100
AcDbEntity
  8
image
100
AcDbLine
 10
5.512792797249572
 20
7.215276594993159
 30
0.0
 11
5.594312816735557
 21
6.876954950657193
 31
0.0
  0
LINE
  5
327
330
2
100
AcDbEntity
  8
image
100
AcDbLine
 10
5.503777114794219
 20
7.125057489836901
 30
0.0
 11
5.303208924839923
 21
6.876954950657193
 31
0.0
  0
LINE
  5
328
330
2
100
AcDbEntity
  8
image
100
AcDbLine
 10
5.466308659391328
 20
7.170167042415023
 30
0.0
 11
5.39613055565991
 21
6.876954950657193
 31
0.0
  0
LINE
  5
329
330
2
100
AcDbEntity
  8
image
100
AcDbLine
 10
5.435627360429931
 20
7.144055085368165
 30
0.0
 11
5.362390226718849
 21
6.876954950657193
 31
0.0
  0
LINE
  5
32A
330
2
100
AcDbEntity
  8
image
100
AcDbLine
 10
5.304637502885549
 20
7.192721818704082
 30
0.0
 11
5.330974739950251
 21
6.876954950657196
 31
0.0
  0
LINE
  5
32B
330
2
100
AcDbEntity
  8
image
100
AcDbLine
 10
5.336293786848058
 20
7.172460601784404
 30
0.0
 11
5.260545743071423
 21
6.883671184886015
 31
0.0
  0
LINE
  5
32C
330
2
100
AcDbEntity
  8
image
100
AcDbLine
 10
5.327900270643917
 20
7.144055085368169
 30
0.0
 11
5.254663136932842
 21
6.876954950657193
 31
0.0
  0
LINE
  5
32D
330
2
100
AcDbEntity
  8
image
100
AcDbLine
 10
5.31401785923766
 20
7.186663359992518
 30
0.0
 11
5.27624854102603
 21
6.876954950657193
 31
0.0
  0
LINE
  5
32E
330
2
100
AcDbEntity
  8
image
100
AcDbLine
 10
5.244167206584995
 20
7.192721818704082
 30
0.0
 11
5.27050444364969
 21
6.876954950657196
 31
0.0
  0
LINE
  5
32F
330
2
100
AcDbEntity
  8
image
100
AcDbLine
 10
5.381870057215992
 20
7.226553983137684
 30
0.0
 11
5.381870057215992
 21
6.876954950657193
 31
0.0
  0
LINE
  5
330
330
2
100
AcDbEntity
  8
image
100
AcDbLine
 10
5.357041079719431
 20
7.226553983137684
 30
0.0
 11
5.357041079719431
 21
6.876954950657193
 31
0.0
  0
LINE
  5
331
330
2
100
AcDbEntity
  8
image
100
AcDbLine
 10
5.388370566944489
 20
7.144055085368169
 30
0.0
 11
5.315133433233407
 21
6.876954950657193
 31
0.0
  0
LINE
  5
332
330
2
100
AcDbEntity
  8
image
100
AcDbLine
 10
5.465193599989062
 20
7.186663359992518
 30
0.0
 11
5.427424281777435
 21
6.876954950657193
 31
0.0
  0
LINE
  5
333
330
2
100
AcDbEntity
  8
image
100
AcDbLine
 10
5.417511376019993
 20
7.226553983137684
 30
0.0
 11
5.417511376019993
 21
6.876954950657193
 31
0.0
  0
LINE
  5
334
330
2
100
AcDbEntity
  8
image
100
AcDbLine
 10
5.476673157846557
 20
7.162992096312322
 30
0.0
 11
5.503730725678794
 21
6.876954950657193
 31
0.0
  0
LINE
  5
335
330
2
100
AcDbEntity
  8
image
100
AcDbLine
 10
5.468238792050238
 20
7.226553983137687
 30
0.0
 11
5.468238792050238
 21
6.876954950657193
 31
0.0
  0
LINE
  5
336
330
2
100
AcDbEntity
  8
image
100
AcDbLine
 10
5.682103606951246
 20
7.170167042415027
 30
0.0
 11
5.611925503219827
 21
6.8769549506572
 31
0.0
  0
LINE
  5
337
330
2
100
AcDbEntity
  8
image
100
AcDbLine
 10
5.661012112770121
 20
7.191454101900188
 30
0.0
 11
5.687349349834827
 21
6.875687233853302
 31
0.0
  0
LINE
  5
338
330
2
100
AcDbEntity
  8
image
100
AcDbLine
 10
5.67528062690109
 20
7.167726349048365
 30
0.0
 11
5.648020808301916
 21
6.876954950657193
 31
0.0
  0
LINE
  5
339
330
2
100
AcDbEntity
  8
image
100
AcDbLine
 10
5.620331498647198
 20
7.226553983137687
 30
0.0
 11
5.620331498647198
 21
6.876954950657193
 31
0.0
  0
LINE
  5
33A
330
2
100
AcDbEntity
  8
image
100
AcDbLine
 10
5.613966487191698
 20
7.167726349048365
 30
0.0
 11
5.586706668592521
 21
6.876954950657193
 31
0.0
  0
LINE
  5
33B
330
2
100
AcDbEntity
  8
image
100
AcDbLine
 10
5.703425839633142
 20
7.150205783366935
 30
0.0
 11
5.658257906978777
 21
6.876954950657193
 31
0.0
  0
LINE
  5
33C
330
2
100
AcDbEntity
  8
image
100
AcDbLine
 10
5.576391312319872
 20
7.186663359992522
 30
0.0
 11
5.538621994108238
 21
6.876954950657193
 31
0.0
  0
LINE
  5
33D
330
2
100
AcDbEntity
  8
image
100
AcDbLine
 10
5.669343712679056
 20
7.17895744162736
 30
0.0
 11
5.566499343767686
 21
6.876954950657193
 31
0.0
  0
INSERT
  5
369
330
2
100
AcDbEntity
  8
title
100
AcDbBlockReference
 66
     1
  2
TITLBLK
 10
0.6064423705144839
 20
0.8842270964783676
 30
0.0
  0
ATTRIB
  5
36A
330
369
100
AcDbEntity
  8
title
100
AcDbText
 10
1.231442370514483
 20
0.9842270964783672
 30
0.0
 40
0.2
  1
CONTROLLER GROUNDING GRID
  7
L200
100
AcDbAttribute
  2
TITLE2
 70
     0
  0
ATTRIB
  5
36B
330
369
100
AcDbEntity
  8
title
100
AcDbText
 10
0.5055556038023419
 20
0.7842270964783671
 30
0.0
 40
0.2
  1
D
  7
L200
 72
     4
 11
0.6064423705144839
 21
0.8842270964783672
 31
0.0
100
AcDbAttribute
  2
#
 70
     0
  0
ATTRIB
  5
36C
330
369
100
AcDbEntity
  8
title
 62
     7
100
AcDbText
 10
1.231442370514483
 20
0.7005637793954893
 30
0.0
 40
0.1
  1
N.T.S.
  7
L100
100
AcDbAttribute
  2
SCALE
 70
     0
  0
ATTRIB
  5
36D
330
369
100
AcDbEntity
  8
title
100
AcDbText
 10
2.713645751168312
 20
0.5927927664583188
 30
0.0
 40
0.2
  1
GROUNDING PLATE DESIGN LAYOUT
  7
L200
100
AcDbAttribute
  2
TITLE3
 70
     0
  0
ATTRIB
  5
36E
330
369
100
AcDbEntity
  8
title
 62
     7
100
AcDbText
 10
0.0455805795680533
 20
0.0604451614574003
 30
0.0
 40
0.08
  1
D-GROUNDING PLATE GRID FOR CONTROLLER.DWG
  7
L80
 72
     2
 11
3.11224724623472
 21
0.0604451614574003
 31
0.0
100
AcDbAttribute
  2
DWG-NAME
 70
     0
  0
ATTRIB
  5
36F
330
369
100
AcDbEntity
  8
title
 62
     7
100
AcDbText
 10
7.693405306156857
 20
0.9696027915446396
 30
0.0
 40
0.08
  1
6-15-10
  7
L80
 72
     2
 11
8.261024353775905
 21
0.9696027915446396
 31
0.0
100
AcDbAttribute
  2
REVISED
 70
     0
  0
ATTRIB
  5
370
330
369
100
AcDbEntity
  8
title
100
AcDbText
 10
1.231442370514483
 20
1.34371230274675
 30
0.0
 40
0.2
  1

  7
L200
100
AcDbAttribute
  2
TITLE1
 70
     0
  0
ATTRIB
  5
371
330
369
100
AcDbEntity
  8
title
100
AcDbText
 10
2.713645751168312
 20
0.2692560808167741
 30
0.0
 40
0.2
  1

  7
L200
100
AcDbAttribute
  2
TITLE4
 70
     0
  0
SEQEND
  5
372
330
369
100
AcDbEntity
  8
text_bubbles
 62
    40
  0
HATCH
  5
387
330
2
100
AcDbEntity
  8
image
100
AcDbHatch
 10
0.0
 20
0.0
 30
0.0
210
0.0
220
0.0
230
1.0
  2
EARTH
 70
     0
 71
     0
 91
        2
 92
        1
 93
        6
 72
     1
 10
5.200075446770862
 20
6.876954950657193
 11
5.687349349834827
 21
6.875687233853302
 72
     1
 10
5.687349349834827
 20
6.875687233853302
 11
5.662849811446225
 21
6.760021812585643
 72
     1
 10
5.662849811446225
 20
6.760021812585643
 11
5.456231571057539
 21
6.650695605919584
 72
     1
 10
5.456231571057539
 20
6.650695605919584
 11
5.288101015012317
 21
6.695235926130695
 72
     1
 10
5.288101015012317
 20
6.695235926130695
 11
5.228920996790873
 21
6.707309194708662
 72
     1
 10
5.228920996790873
 20
6.707309194708662
 11
5.200075446770862
 21
6.876954950657193
 97
        0
 92
        1
 93
        5
 72
     1
 10
3.269474473910024
 20
6.876954950657193
 11
3.237150863008293
 21
6.686854425648853
 72
     1
 10
3.237150863008293
 20
6.686854425648853
 11
3.001271477987753
 21
6.708796497185438
 72
     1
 10
3.001271477987753
 20
6.708796497185438
 11
2.754819198811699
 21
6.701332323190166
 72
     1
 10
2.754819198811699
 20
6.701332323190166
 11
2.782200500689834
 21
6.875687233853302
 72
     1
 10
2.782200500689834
 20
6.875687233853302
 11
3.269474473910024
 21
6.876954950657193
 97
        0
 75
     0
 76
     1
 52
45.0
 41
0.75
 77
     0
 78
     6
 53
45.0
 43
-2.394725129753119
 44
-0.8052604307233899
 45
0.0
 46
0.2651650429449553
 79
     2
 49
0.1875
 49
-0.1875
 53
45.0
 43
-2.444443575305298
 44
-0.7555419851712109
 45
0.0
 46
0.2651650429449553
 79
     2
 49
0.1875
 49
-0.1875
 53
45.0
 43
-2.494162020857477
 44
-0.7058235396190317
 45
0.0
 46
0.2651650429449553
 79
     2
 49
0.1875
 49
-0.1875
 53
135.0
 43
-2.494162020857477
 44
-0.6726779092509123
 45
-0.2651650429449553
 46
0.0
 79
     2
 49
0.1875
 49
-0.1875
 53
135.0
 43
-2.444443575305298
 44
-0.6229594636987331
 45
-0.2651650429449553
 46
0.0
 79
     2
 49
0.1875
 49
-0.1875
 53
135.0
 43
-2.394725129753119
 44
-0.5732410181465541
 45
-0.2651650429449553
 46
0.0
 79
     2
 49
0.1875
 49
-0.1875
 98
        1
 10
-2.394725129753119
 20
-0.8052604307233899
  0
LINE
  5
3A1
330
2
100
AcDbEntity
  8
image
100
AcDbLine
 10
0.4542653221460587
 20
8.696302353025457
 30
0.0
 11
1.883779138406903
 21
8.696302353025457
 31
0.0
  0
LWPOLYLINE
  5
3A7
330
2
100
AcDbEntity
  8
image
100
AcDbPolyline
 90
        5
 70
     0
 43
0.0
 10
1.35493975692267
 20
6.374308153872499
 42
-0.3711189215531887
 10
1.169456429721318
 20
6.519128879846258
 10
1.163842487301648
 20
6.552794261863279
 10
1.163842487301648
 20
6.604414494326084
 10
1.163842487301648
 20
8.150556346230617
  0
LWPOLYLINE
  5
3A8
330
2
100
AcDbEntity
  8
image
100
AcDbPolyline
 90
        5
 70
     0
 43
0.0
 10
1.354448145772532
 20
6.384580853339191
 42
-0.3708484026782814
 10
1.179573404780017
 20
6.520984843856266
 10
1.174126943332761
 20
6.553645885163064
 10
1.174126943332761
 20
6.604414494326084
 10
1.174126943332761
 20
8.150556346230617
  0
SOLID
  5
3A9
330
2
100
AcDbEntity
  8
image
  6
Continuous
100
AcDbTrace
 10
4.843962324974146
 20
6.425375221533819
 30
0.0
 11
5.022111008811596
 21
6.425375221533819
 31
0.0
 12
4.843962324974146
 22
6.435875221533819
 32
0.0
 13
5.022111008811596
 23
6.435875221533819
 33
0.0
  0
LWPOLYLINE
  5
3AA
330
2
100
AcDbEntity
  8
image
  6
Continuous
100
AcDbPolyline
 90
       22
 70
     0
 43
0.0
 10
4.631636171113409
 20
6.250373877555173
 10
4.636991866844061
 20
6.280649106758069
 10
4.645894654230895
 20
6.310089642226026
 10
4.659547923019539
 20
6.337650357080331
 10
4.677574971903961
 20
6.362570835815981
 10
4.69947842454419
 20
6.384163508516055
 10
4.724653952457138
 20
6.401832621289466
 10
4.752406948776739
 20
6.415090673453322
 10
4.781971692845045
 20
6.423571867948846
 10
4.812532476872553
 20
6.427042203886381
 10
4.843683026919233
 20
6.425382656074377
 10
4.844241623029059
 20
6.435867786993259
 10
4.812217242686655
 20
6.437573888177617
 10
4.779917495554828
 20
6.433906083937253
 10
4.748670464831928
 20
6.424942294352057
 10
4.719338273535175
 20
6.410929835379549
 10
4.692730213193314
 20
6.392255318583407
 10
4.669580415041652
 20
6.369433984304651
 10
4.650527594931547
 20
6.343095485893057
 10
4.636097430803587
 20
6.313966517219833
 10
4.626688058939818
 20
6.282850762788118
 10
4.622444444753215
 20
6.250373877555173
1001
TCAD
1000
TCW25Brush
1002
}
1000
Solid
1071
       -5
1070
     0
1002
{
  0
LWPOLYLINE
  5
3C5
330
2
100
AcDbEntity
  8
image
100
AcDbPolyline
 90
        2
 70
     0
 43
0.04
 10
7.32220516303988
 20
5.219048091757731
 10
9.07563691134734
 20
5.219048091757731
  0
LWPOLYLINE
  5
3E9
330
2
100
AcDbEntity
  8
image
100
AcDbPolyline
 90
        2
 70
     0
 43
0.04
 10
7.507251426083001
 20
5.260935483418283
 10
7.782269135807845
 20
5.260935483418283
  0
POLYLINE
  5
3EA
330
2
100
AcDbEntity
  8
image
100
AcDb2dPolyline
 66
     1
 10
0.0
 20
0.0
 30
0.0
 70
     5
 75
     6
  0
VERTEX
  5
3EB
330
3EA
100
AcDbEntity
  8
image
100
AcDbVertex
100
AcDb2dVertex
 10
7.097765352265428
 20
5.360668361303786
 30
0.0
 70
    16
  0
VERTEX
  5
3F6
330
3EA
100
AcDbEntity
  8
image
100
AcDbVertex
100
AcDb2dVertex
 10
7.378590337470224
 20
5.448497421932114
 30
0.0
 70
     8
  0
VERTEX
  5
3F7
330
3EA
100
AcDbEntity
  8
image
100
AcDbVertex
100
AcDb2dVertex
 10
7.429017495959247
 20
5.458323745244652
 30
0.0
 70
     8
  0
VERTEX
  5
3F8
330
3EA
100
AcDbEntity
  8
image
100
AcDbVertex
100
AcDb2dVertex
 10
7.484347450320642
 20
5.467680194950241
 30
0.0
 70
     8
  0
VERTEX
  5
3F9
330
3EA
100
AcDbEntity
  8
image
100
AcDbVertex
100
AcDb2dVertex
 10
7.544647362195772
 20
5.476454896441325
 30
0.0
 70
     8
  0
VERTEX
  5
3FA
330
3EA
100
AcDbEntity
  8
image
100
AcDbVertex
100
AcDb2dVertex
 10
7.609984393225999
 20
5.484535975110348
 30
0.0
 70
     8
  0
VERTEX
  5
3FB
330
3EA
100
AcDbEntity
  8
image
100
AcDbVertex
100
AcDb2dVertex
 10
7.680425705052684
 20
5.491811556349753
 30
0.0
 70
     8
  0
VERTEX
  5
3FC
330
3EA
100
AcDbEntity
  8
image
100
AcDbVertex
100
AcDb2dVertex
 10
7.756038459317189
 20
5.498169765551983
 30
0.0
 70
     8
  0
VERTEX
  5
3FD
330
3EA
100
AcDbEntity
  8
image
100
AcDbVertex
100
AcDb2dVertex
 10
7.836889817660879
 20
5.503498728109483
 30
0.0
 70
     8
  0
VERTEX
  5
3FE
330
3EA
100
AcDbEntity
  8
image
100
AcDbVertex
100
AcDb2dVertex
 10
7.923046941725115
 20
5.507686569414696
 30
0.0
 70
     8
  0
VERTEX
  5
3FF
330
3EA
100
AcDbEntity
  8
image
100
AcDbVertex
100
AcDb2dVertex
 10
8.014353121177846
 20
5.510602769074417
 30
0.0
 70
     8
  0
VERTEX
  5
400
330
3EA
100
AcDbEntity
  8
image
100
AcDbVertex
100
AcDb2dVertex
 10
8.109756157793368
 20
5.512042223552845
 30
0.0
 70
     8
  0
VERTEX
  5
401
330
3EA
100
AcDbEntity
  8
image
100
AcDbVertex
100
AcDb2dVertex
 10
8.20797998137257
 20
5.511781183528527
 30
0.0
 70
     8
  0
VERTEX
  5
402
330
3EA
100
AcDbEntity
  8
image
100
AcDbVertex
100
AcDb2dVertex
 10
8.307748521716337
 20
5.509595899680013
 30
0.0
 70
     8
  0
VERTEX
  5
403
330
3EA
100
AcDbEntity
  8
image
100
AcDbVertex
100
AcDb2dVertex
 10
8.407785708625553
 20
5.505262622685851
 30
0.0
 70
     8
  0
VERTEX
  5
404
330
3EA
100
AcDbEntity
  8
image
100
AcDbVertex
100
AcDb2dVertex
 10
8.506815471901102
 20
5.498557603224591
 30
0.0
 70
     8
  0
VERTEX
  5
405
330
3EA
100
AcDbEntity
  8
image
100
AcDbVertex
100
AcDb2dVertex
 10
8.603561741343872
 20
5.489257091974781
 30
0.0
 70
     8
  0
VERTEX
  5
406
330
3EA
100
AcDbEntity
  8
image
100
AcDbVertex
100
AcDb2dVertex
 10
8.696748446754748
 20
5.477137339614971
 30
0.0
 70
     8
  0
VERTEX
  5
407
330
3EA
100
AcDbEntity
  8
image
100
AcDbVertex
100
AcDb2dVertex
 10
8.78523010990083
 20
5.462045450761323
 30
0.0
 70
     8
  0
VERTEX
  5
408
330
3EA
100
AcDbEntity
  8
image
100
AcDbVertex
100
AcDb2dVertex
 10
8.868383620414093
 20
5.444111945780457
 30
0.0
 70
     8
  0
VERTEX
  5
409
330
3EA
100
AcDbEntity
  8
image
100
AcDbVertex
100
AcDb2dVertex
 10
8.945716459892723
 20
5.42353819897661
 30
0.0
 70
     8
  0
VERTEX
  5
40A
330
3EA
100
AcDbEntity
  8
image
100
AcDbVertex
100
AcDb2dVertex
 10
9.016736109934912
 20
5.400525584654017
 30
0.0
 70
     8
  0
VERTEX
  5
40B
330
3EA
100
AcDbEntity
  8
image
100
AcDbVertex
100
AcDb2dVertex
 10
9.080950052138849
 20
5.375275477116913
 30
0.0
 70
     8
  0
VERTEX
  5
40C
330
3EA
100
AcDbEntity
  8
image
100
AcDbVertex
100
AcDb2dVertex
 10
9.137865768102722
 20
5.347989250669532
 30
0.0
 70
     8
  0
VERTEX
  5
40D
330
3EA
100
AcDbEntity
  8
image
100
AcDbVertex
100
AcDb2dVertex
 10
9.18699073942472
 20
5.318868279616109
 30
0.0
 70
     8
  0
VERTEX
  5
40E
330
3EA
100
AcDbEntity
  8
image
100
AcDbVertex
100
AcDb2dVertex
 10
9.227832447703034
 20
5.288113938260882
 30
0.0
 70
     8
  0
VERTEX
  5
40F
330
3EA
100
AcDbEntity
  8
image
100
AcDbVertex
100
AcDb2dVertex
 10
9.259999116956779
 20
5.255994725729331
 30
0.0
 70
     8
  0
VERTEX
  5
410
330
3EA
100
AcDbEntity
  8
image
100
AcDbVertex
100
AcDb2dVertex
 10
9.283501940888786
 20
5.22304764043193
 30
0.0
 70
     8
  0
VERTEX
  5
411
330
3EA
100
AcDbEntity
  8
image
100
AcDbVertex
100
AcDb2dVertex
 10
9.298452855622814
 20
5.189876805600402
 30
0.0
 70
     8
  0
VERTEX
  5
412
330
3EA
100
AcDbEntity
  8
image
100
AcDbVertex
100
AcDb2dVertex
 10
9.304963797282617
 20
5.157086344466467
 30
0.0
 70
     8
  0
VERTEX
  5
413
330
3EA
100
AcDbEntity
  8
image
100
AcDbVertex
100
AcDb2dVertex
 10
9.303146701991956
 20
5.125280380261845
 30
0.0
 70
     8
  0
VERTEX
  5
414
330
3EA
100
AcDbEntity
  8
image
100
AcDbVertex
100
AcDb2dVertex
 10
9.293113505874588
 20
5.095063036218259
 30
0.0
 70
     8
  0
VERTEX
  5
415
330
3EA
100
AcDbEntity
  8
image
100
AcDbVertex
100
AcDb2dVertex
 10
9.274976145054269
 20
5.06703843556743
 30
0.0
 70
     8
  0
VERTEX
  5
416
330
3EA
100
AcDbEntity
  8
image
100
AcDbVertex
100
AcDb2dVertex
 10
9.248846555654758
 20
5.041810701541078
 30
0.0
 70
     8
  0
VERTEX
  5
417
330
3EA
100
AcDbEntity
  8
image
100
AcDbVertex
100
AcDb2dVertex
 10
9.214769512158451
 20
5.01983479113004
 30
0.0
 70
     8
  0
VERTEX
  5
418
330
3EA
100
AcDbEntity
  8
image
100
AcDbVertex
100
AcDb2dVertex
 10
9.172521142482292
 20
5.000968996361609
 30
0.0
 70
     8
  0
VERTEX
  5
419
330
3EA
100
AcDbEntity
  8
image
100
AcDbVertex
100
AcDb2dVertex
 10
9.121810412901867
 20
4.984922443022195
 30
0.0
 70
     8
  0
VERTEX
  5
41A
330
3EA
100
AcDbEntity
  8
image
100
AcDbVertex
100
AcDb2dVertex
 10
9.062346289692758
 20
4.971404256898207
 30
0.0
 70
     8
  0
VERTEX
  5
41B
330
3EA
100
AcDbEntity
  8
image
100
AcDbVertex
100
AcDb2dVertex
 10
8.993837739130551
 20
4.960123563776052
 30
0.0
 70
     8
  0
VERTEX
  5
41C
330
3EA
100
AcDbEntity
  8
image
100
AcDbVertex
100
AcDb2dVertex
 10
8.915993727490828
 20
4.950789489442141
 30
0.0
 70
     8
  0
VERTEX
  5
41D
330
3EA
100
AcDbEntity
  8
image
100
AcDbVertex
100
AcDb2dVertex
 10
8.828523221049175
 20
4.943111159682882
 30
0.0
 70
     8
  0
VERTEX
  5
41E
330
3EA
100
AcDbEntity
  8
image
100
AcDbVertex
100
AcDb2dVertex
 10
8.731135186081173
 20
4.936797700284683
 30
0.0
 70
     8
  0
VERTEX
  5
41F
330
3EA
100
AcDbEntity
  8
image
100
AcDbVertex
100
AcDb2dVertex
 10
8.62399006404351
 20
4.931617903551575
 30
0.0
 70
     8
  0
VERTEX
  5
420
330
3EA
100
AcDbEntity
  8
image
100
AcDbVertex
100
AcDb2dVertex
 10
8.509054197117281
 20
4.927579227858077
 30
0.0
 70
     8
  0
VERTEX
  5
421
330
3EA
100
AcDbEntity
  8
image
100
AcDbVertex
100
AcDb2dVertex
 10
8.388745402664683
 20
4.924748798096328
 30
0.0
 70
     8
  0
VERTEX
  5
422
330
3EA
100
AcDbEntity
  8
image
100
AcDbVertex
100
AcDb2dVertex
 10
8.265481498047911
 20
4.923193739158469
 30
0.0
 70
     8
  0
VERTEX
  5
423
330
3EA
100
AcDbEntity
  8
image
100
AcDbVertex
100
AcDb2dVertex
 10
8.141680300629165
 20
4.92298117593664
 30
0.0
 70
     8
  0
VERTEX
  5
424
330
3EA
100
AcDbEntity
  8
image
100
AcDbVertex
100
AcDb2dVertex
 10
8.019759627770639
 20
4.92417823332298
 30
0.0
 70
     8
  0
VERTEX
  5
425
330
3EA
100
AcDbEntity
  8
image
100
AcDbVertex
100
AcDb2dVertex
 10
7.902137296834533
 20
4.926852036209631
 30
0.0
 70
     8
  0
VERTEX
  5
426
330
3EA
100
AcDbEntity
  8
image
100
AcDbVertex
100
AcDb2dVertex
 10
7.791231125183043
 20
4.93106970948873
 30
0.0
 70
     8
  0
VERTEX
  5
427
330
3EA
100
AcDbEntity
  8
image
100
AcDbVertex
100
AcDb2dVertex
 10
7.68901382223304
 20
4.936880614763571
 30
0.0
 70
     8
  0
VERTEX
  5
428
330
3EA
100
AcDbEntity
  8
image
100
AcDbVertex
100
AcDb2dVertex
 10
7.595677665620096
 20
4.944263060482041
 30
0.0
 70
     8
  0
VERTEX
  5
429
330
3EA
100
AcDbEntity
  8
image
100
AcDbVertex
100
AcDb2dVertex
 10
7.510969825034455
 20
4.953177591803185
 30
0.0
 70
     8
  0
VERTEX
  5
42A
330
3EA
100
AcDbEntity
  8
image
100
AcDbVertex
100
AcDb2dVertex
 10
7.434637470166364
 20
4.96358475388604
 30
0.0
 70
     8
  0
VERTEX
  5
42B
330
3EA
100
AcDbEntity
  8
image
100
AcDbVertex
100
AcDb2dVertex
 10
7.366427770706067
 20
4.975445091889649
 30
0.0
 70
     8
  0
VERTEX
  5
42C
330
3EA
100
AcDbEntity
  8
image
100
AcDbVertex
100
AcDb2dVertex
 10
7.306087896343811
 20
4.988719150973053
 30
0.0
 70
     8
  0
VERTEX
  5
42D
330
3EA
100
AcDbEntity
  8
image
100
AcDbVertex
100
AcDb2dVertex
 10
7.253365016769842
 20
5.003367476295292
 30
0.0
 70
     8
  0
VERTEX
  5
42E
330
3EA
100
AcDbEntity
  8
image
100
AcDbVertex
100
AcDb2dVertex
 10
7.208006301674402
 20
5.019350613015409
 30
0.0
 70
     8
  0
VERTEX
  5
42F
330
3EA
100
AcDbEntity
  8
image
100
AcDbVertex
100
AcDb2dVertex
 10
7.169711064686782
 20
5.036610659635962
 30
0.0
 70
     8
  0
VERTEX
  5
430
330
3EA
100
AcDbEntity
  8
image
100
AcDbVertex
100
AcDb2dVertex
 10
7.137987195192429
 20
5.055015928033597
 30
0.0
 70
     8
  0
VERTEX
  5
431
330
3EA
100
AcDbEntity
  8
image
100
AcDbVertex
100
AcDb2dVertex
 10
7.112294726515831
 20
5.074416283428475
 30
0.0
 70
     8
  0
VERTEX
  5
432
330
3EA
100
AcDbEntity
  8
image
100
AcDbVertex
100
AcDb2dVertex
 10
7.092093691981479
 20
5.094661591040762
 30
0.0
 70
     8
  0
VERTEX
  5
433
330
3EA
100
AcDbEntity
  8
image
100
AcDbVertex
100
AcDb2dVertex
 10
7.076844124913862
 20
5.115601716090619
 30
0.0
 70
     8
  0
VERTEX
  5
434
330
3EA
100
AcDbEntity
  8
image
100
AcDbVertex
100
AcDb2dVertex
 10
7.06600605863747
 20
5.137086523798211
 30
0.0
 70
     8
  0
VERTEX
  5
435
330
3EA
100
AcDbEntity
  8
image
100
AcDbVertex
100
AcDb2dVertex
 10
7.059039526476792
 20
5.1589658793837
 30
0.0
 70
     8
  0
VERTEX
  5
436
330
3EA
100
AcDbEntity
  8
image
100
AcDbVertex
100
AcDb2dVertex
 10
7.055404561756318
 20
5.18108964806725
 30
0.0
 70
     8
  0
VERTEX
  5
437
330
3EA
100
AcDbEntity
  8
image
100
AcDbVertex
100
AcDb2dVertex
 10
7.054644175505721
 20
5.203301802674135
 30
0.0
 70
     8
  0
VERTEX
  5
438
330
3EA
100
AcDbEntity
  8
image
100
AcDbVertex
100
AcDb2dVertex
 10
7.05663328957542
 20
5.225422746450075
 30
0.0
 70
     8
  0
VERTEX
  5
439
330
3EA
100
AcDbEntity
  8
image
100
AcDbVertex
100
AcDb2dVertex
 10
7.061329803521013
 20
5.247266990245897
 30
0.0
 70
     8
  0
VERTEX
  5
43A
330
3EA
100
AcDbEntity
  8
image
100
AcDbVertex
100
AcDb2dVertex
 10
7.068691616898104
 20
5.268649044912431
 30
0.0
 70
     8
  0
VERTEX
  5
43B
330
3EA
100
AcDbEntity
  8
image
100
AcDbVertex
100
AcDb2dVertex
 10
7.078676629262292
 20
5.289383421300507
 30
0.0
 70
     8
  0
VERTEX
  5
43C
330
3EA
100
AcDbEntity
  8
image
100
AcDbVertex
100
AcDb2dVertex
 10
7.091242740169181
 20
5.309284630260952
 30
0.0
 70
     8
  0
VERTEX
  5
43D
330
3EA
100
AcDbEntity
  8
image
100
AcDbVertex
100
AcDb2dVertex
 10
7.106347849174369
 20
5.328167182644598
 30
0.0
 70
     8
  0
VERTEX
  5
43E
330
3EA
100
AcDbEntity
  8
image
100
AcDbVertex
100
AcDb2dVertex
 10
7.123949855833459
 20
5.345845589302273
 30
0.0
 70
     8
  0
VERTEX
  5
43F
330
3EA
100
AcDbEntity
  8
image
100
AcDbVertex
100
AcDb2dVertex
 10
7.144063277214067
 20
5.362186768357079
 30
0.0
 70
     8
  0
VERTEX
  5
440
330
3EA
100
AcDbEntity
  8
image
100
AcDbVertex
100
AcDb2dVertex
 10
7.166929100431866
 20
5.377267267021212
 30
0.0
 70
     8
  0
VERTEX
  5
441
330
3EA
100
AcDbEntity
  8
image
100
AcDbVertex
100
AcDb2dVertex
 10
7.192844930114545
 20
5.391216039779139
 30
0.0
 70
     8
  0
VERTEX
  5
442
330
3EA
100
AcDbEntity
  8
image
100
AcDbVertex
100
AcDb2dVertex
 10
7.222108370889792
 20
5.404162041115331
 30
0.0
 70
     8
  0
VERTEX
  5
443
330
3EA
100
AcDbEntity
  8
image
100
AcDbVertex
100
AcDb2dVertex
 10
7.255017027385294
 20
5.416234225514257
 30
0.0
 70
     8
  0
VERTEX
  5
444
330
3EA
100
AcDbEntity
  8
image
100
AcDbVertex
100
AcDb2dVertex
 10
7.291868504228742
 20
5.427561547460382
 30
0.0
 70
     8
  0
VERTEX
  5
445
330
3EA
100
AcDbEntity
  8
image
100
AcDbVertex
100
AcDb2dVertex
 10
7.332960406047822
 20
5.438272961438179
 30
0.0
 70
     8
  0
VERTEX
  5
3EC
330
3EA
100
AcDbEntity
  8
image
100
AcDbVertex
100
AcDb2dVertex
 10
7.327010239006122
 20
5.452316077925635
 30
0.0
 70
    16
  0
VERTEX
  5
3ED
330
3EA
100
AcDbEntity
  8
image
100
AcDbVertex
100
AcDb2dVertex
 10
7.865735716531429
 20
5.521051858586354
 30
0.0
 70
    16
  0
VERTEX
  5
3EE
330
3EA
100
AcDbEntity
  8
image
100
AcDbVertex
100
AcDb2dVertex
 10
8.74832854521885
 20
5.509595904217126
 30
0.0
 70
    16
  0
VERTEX
  5
3EF
330
3EA
100
AcDbEntity
  8
image
100
AcDbVertex
100
AcDb2dVertex
 10
9.321440783121657
 20
5.303388562234969
 30
0.0
 70
    16
  0
VERTEX
  5
3F0
330
3EA
100
AcDbEntity
  8
image
100
AcDbVertex
100
AcDb2dVertex
 10
9.332903008512726
 20
5.005533476408289
 30
0.0
 70
    16
  0
VERTEX
  5
3F1
330
3EA
100
AcDbEntity
  8
image
100
AcDbVertex
100
AcDb2dVertex
 10
8.840026516755987
 20
4.925341741378342
 30
0.0
 70
    16
  0
VERTEX
  5
3F2
330
3EA
100
AcDbEntity
  8
image
100
AcDbVertex
100
AcDb2dVertex
 10
7.693802040950372
 20
4.913885759786439
 30
0.0
 70
    16
  0
VERTEX
  5
3F3
330
3EA
100
AcDbEntity
  8
image
100
AcDbVertex
100
AcDb2dVertex
 10
7.13215207054078
 20
5.005533476408289
 30
0.0
 70
    16
  0
VERTEX
  5
3F4
330
3EA
100
AcDbEntity
  8
image
100
AcDbVertex
100
AcDb2dVertex
 10
7.025627486932925
 20
5.180084012672856
 30
0.0
 70
    16
  0
SEQEND
  5
3F5
330
3EA
100
AcDbEntity
  8
image
  0
HATCH
  5
45C
330
2
100
AcDbEntity
  8
image
100
AcDbHatch
 10
0.0
 20
0.0
 30
0.0
210
0.0
220
0.0
230
1.0
  2
EARTH
 70
     0
 71
     0
 91
        1
 92
        7
 72
     0
 73
     1
 93
        7
 10
7.435352284016524
 20
6.716883173354561
 10
8.483820499802996
 20
6.75744680806895
 10
9.304040723491938
 20
6.669527454369607
 10
9.304102781197377
 20
6.875719761415273
 10
5.818683272920453
 20
6.876768768239396
 10
6.068961449589069
 20
6.703361970857322
 10
6.664220848431041
 20
6.59519229643407
 97
        0
 75
     0
 76
     1
 52
45.0
 41
0.75
 77
     0
 78
     6
 53
45.0
 43
0.0
 44
0.0
 45
0.0
 46
0.2651650429449553
 79
     2
 49
0.1875
 49
-0.1875
 53
45.0
 43
-0.0497184455521791
 44
0.0497184455521791
 45
0.0
 46
0.2651650429449553
 79
     2
 49
0.1875
 49
-0.1875
 53
45.0
 43
-0.0994368911043583
 44
0.0994368911043583
 45
0.0
 46
0.2651650429449553
 79
     2
 49
0.1875
 49
-0.1875
 53
135.0
 43
-0.0994368911043583
 44
0.1325825214724777
 45
-0.2651650429449553
 46
0.0
 79
     2
 49
0.1875
 49
-0.1875
 53
135.0
 43
-0.0497184455521791
 44
0.1823009670246568
 45
-0.2651650429449553
 46
0.0
 79
     2
 49
0.1875
 49
-0.1875
 53
135.0
 43
0.0
 44
0.2320194125768359
 45
-0.2651650429449553
 46
0.0
 79
     2
 49
0.1875
 49
-0.1875
 47
0.0067606046039719
 98
        1
 10
7.132696872326507
 20
6.770936513932904
  0
LINE
  5
45D
330
2
100
AcDbEntity
  8
image
100
AcDbLine
 10
6.20106490031994
 20
7.178797409484015
 30
0.0
 11
6.09822053140857
 21
6.876794918513848
 31
0.0
  0
LINE
  5
45E
330
2
100
AcDbEntity
  8
image
100
AcDbLine
 10
6.235147027274026
 20
7.15004575122359
 30
0.0
 11
6.18997909461966
 21
6.876794918513848
 31
0.0
  0
LINE
  5
45F
330
2
100
AcDbEntity
  8
image
100
AcDbLine
 10
6.207001814541973
 20
7.16756631690502
 30
0.0
 11
6.1797419959428
 21
6.876794918513848
 31
0.0
  0
LINE
  5
460
330
2
100
AcDbEntity
  8
image
100
AcDbLine
 10
6.192733300411005
 20
7.191294069756843
 30
0.0
 11
6.21907053747571
 21
6.875527201709957
 31
0.0
  0
LINE
  5
461
330
2
100
AcDbEntity
  8
image
100
AcDbLine
 10
6.213824794592129
 20
7.170007010271682
 30
0.0
 11
6.143646690860711
 21
6.876794918513855
 31
0.0
  0
LINE
  5
462
330
2
100
AcDbEntity
  8
image
100
AcDbLine
 10
5.999959979691121
 20
7.226393950994342
 30
0.0
 11
5.999959979691121
 21
6.876794918513848
 31
0.0
  0
LINE
  5
463
330
2
100
AcDbEntity
  8
image
100
AcDbLine
 10
6.152052686288081
 20
7.226393950994342
 30
0.0
 11
6.152052686288081
 21
6.876794918513848
 31
0.0
  0
LINE
  5
464
330
2
100
AcDbEntity
  8
image
100
AcDbLine
 10
5.949232563660876
 20
7.226393950994339
 30
0.0
 11
5.949232563660876
 21
6.876794918513848
 31
0.0
  0
LINE
  5
465
330
2
100
AcDbEntity
  8
image
100
AcDbLine
 10
5.888762267360315
 20
7.226393950994339
 30
0.0
 11
5.888762267360315
 21
6.876794918513848
 31
0.0
  0
LINE
  5
466
330
2
100
AcDbEntity
  8
image
100
AcDbLine
 10
5.913591244856876
 20
7.226393950994339
 30
0.0
 11
5.913591244856876
 21
6.876794918513848
 31
0.0
  0
LINE
  5
467
330
2
100
AcDbEntity
  8
image
100
AcDbLine
 10
5.920091754585373
 20
7.143895053224824
 30
0.0
 11
5.846854620874291
 21
6.876794918513848
 31
0.0
  0
LINE
  5
468
330
2
100
AcDbEntity
  8
image
100
AcDbLine
 10
6.035498302435103
 20
7.124897457693556
 30
0.0
 11
5.834930112480806
 21
6.876794918513848
 31
0.0
  0
LINE
  5
469
330
2
100
AcDbEntity
  8
image
100
AcDbLine
 10
5.737286153346813
 20
7.162832064168977
 30
0.0
 11
5.764343721179054
 21
6.876794918513848
 31
0.0
  0
LINE
  5
46A
330
2
100
AcDbEntity
  8
image
100
AcDbLine
 10
5.80754467818838
 20
7.172300569641059
 30
0.0
 11
5.731796634411745
 21
6.876794918513848
 31
0.0
  0
LINE
  5
46B
330
2
100
AcDbEntity
  8
image
100
AcDbLine
 10
5.775888394225878
 20
7.192561786560737
 30
0.0
 11
5.802225631290573
 21
6.876794918513851
 31
0.0
  0
LINE
  5
46C
330
2
100
AcDbEntity
  8
image
100
AcDbLine
 10
5.845739046878543
 20
7.186503327849173
 30
0.0
 11
5.807969728666913
 21
6.876794918513848
 31
0.0
  0
LINE
  5
46D
330
2
100
AcDbEntity
  8
image
100
AcDbLine
 10
5.8596214582848
 20
7.143895053224824
 30
0.0
 11
5.786384324573726
 21
6.876794918513848
 31
0.0
  0
LINE
  5
46E
330
2
100
AcDbEntity
  8
image
100
AcDbLine
 10
5.868014974488941
 20
7.172300569641059
 30
0.0
 11
5.792266930712306
 21
6.88351115274267
 31
0.0
  0
LINE
  5
46F
330
2
100
AcDbEntity
  8
image
100
AcDbLine
 10
5.836358690526433
 20
7.192561786560737
 30
0.0
 11
5.862695927591135
 21
6.876794918513851
 31
0.0
  0
LINE
  5
470
330
2
100
AcDbEntity
  8
image
100
AcDbLine
 10
6.044513984890455
 20
7.215116562849814
 30
0.0
 11
6.126034004376441
 21
6.876794918513848
 31
0.0
  0
LINE
  5
471
330
2
100
AcDbEntity
  8
image
100
AcDbLine
 10
6.122911877212574
 20
7.143895053224827
 30
0.0
 11
6.049674743501496
 21
6.876794918513848
 31
0.0
  0
LINE
  5
472
330
2
100
AcDbEntity
  8
image
100
AcDbLine
 10
6.070835097116146
 20
7.172300569641063
 30
0.0
 11
5.991973801008454
 21
6.876794918513848
 31
0.0
  0
LINE
  5
473
330
2
100
AcDbEntity
  8
image
100
AcDbLine
 10
6.039178813153641
 20
7.192561786560741
 30
0.0
 11
6.065516050218343
 21
6.876794918513855
 31
0.0
  0
LINE
  5
474
330
2
100
AcDbEntity
  8
image
100
AcDbLine
 10
6.00839434548744
 20
7.162832064168977
 30
0.0
 11
6.035451913319677
 21
6.876794918513848
 31
0.0
  0
LINE
  5
475
330
2
100
AcDbEntity
  8
image
100
AcDbLine
 10
6.108112499960755
 20
7.186503327849177
 30
0.0
 11
6.070343181749121
 21
6.876794918513848
 31
0.0
  0
LINE
  5
476
330
2
100
AcDbEntity
  8
image
100
AcDbLine
 10
6.145687674832581
 20
7.16756631690502
 30
0.0
 11
6.118427856233404
 21
6.876794918513848
 31
0.0
  0
LINE
  5
477
330
2
100
AcDbEntity
  8
image
100
AcDbLine
 10
5.967348548070814
 20
7.14389505322482
 30
0.0
 11
5.894111414359732
 21
6.876794918513848
 31
0.0
  0
LINE
  5
478
330
2
100
AcDbEntity
  8
image
100
AcDbLine
 10
5.909065337129105
 20
7.203839174705287
 30
0.0
 11
6.064938780981462
 21
6.876794918513848
 31
0.0
  0
LINE
  5
479
330
2
100
AcDbEntity
  8
image
100
AcDbLine
 10
5.996914787629945
 20
7.186503327849173
 30
0.0
 11
5.959145469418318
 21
6.876794918513848
 31
0.0
  0
LINE
  5
47A
330
2
100
AcDbEntity
  8
image
100
AcDbLine
 10
5.998029847032212
 20
7.170007010271678
 30
0.0
 11
5.927851743300793
 21
6.876794918513848
 31
0.0
  0
LINE
  5
47B
330
2
100
AcDbEntity
  8
image
100
AcDbLine
 10
6.688338803383905
 20
7.177529692680124
 30
0.0
 11
6.585494434472535
 21
6.875527201709957
 31
0.0
  0
LINE
  5
47C
330
2
100
AcDbEntity
  8
image
100
AcDbLine
 10
6.722420930337991
 20
7.148778034419699
 30
0.0
 11
6.677252997683625
 21
6.875527201709957
 31
0.0
  0
LINE
  5
47D
330
2
100
AcDbEntity
  8
image
100
AcDbLine
 10
6.694275717605938
 20
7.166298600101129
 30
0.0
 11
6.667015899006765
 21
6.875527201709957
 31
0.0
  0
LINE
  5
47E
330
2
100
AcDbEntity
  8
image
100
AcDbLine
 10
6.68000720347497
 20
7.190026352952951
 30
0.0
 11
6.706344440539675
 21
6.874259484906065
 31
0.0
  0
LINE
  5
47F
330
2
100
AcDbEntity
  8
image
100
AcDbLine
 10
6.701098697656094
 20
7.16873929346779
 30
0.0
 11
6.630920593924676
 21
6.875527201709964
 31
0.0
  0
LINE
  5
480
330
2
100
AcDbEntity
  8
image
100
AcDbLine
 10
6.487233882755086
 20
7.225126234190451
 30
0.0
 11
6.487233882755086
 21
6.875527201709957
 31
0.0
  0
LINE
  5
481
330
2
100
AcDbEntity
  8
image
100
AcDbLine
 10
6.639326589352046
 20
7.225126234190451
 30
0.0
 11
6.639326589352046
 21
6.875527201709957
 31
0.0
  0
LINE
  5
482
330
2
100
AcDbEntity
  8
image
100
AcDbLine
 10
6.436506466724841
 20
7.225126234190447
 30
0.0
 11
6.436506466724841
 21
6.875527201709957
 31
0.0
  0
LINE
  5
483
330
2
100
AcDbEntity
  8
image
100
AcDbLine
 10
6.37603617042428
 20
7.225126234190447
 30
0.0
 11
6.37603617042428
 21
6.875527201709957
 31
0.0
  0
LINE
  5
484
330
2
100
AcDbEntity
  8
image
100
AcDbLine
 10
6.400865147920841
 20
7.225126234190447
 30
0.0
 11
6.400865147920841
 21
6.875527201709957
 31
0.0
  0
LINE
  5
485
330
2
100
AcDbEntity
  8
image
100
AcDbLine
 10
6.407365657649338
 20
7.142627336420932
 30
0.0
 11
6.334128523938256
 21
6.875527201709957
 31
0.0
  0
LINE
  5
486
330
2
100
AcDbEntity
  8
image
100
AcDbLine
 10
6.522772205499068
 20
7.123629740889665
 30
0.0
 11
6.322204015544771
 21
6.875527201709957
 31
0.0
  0
LINE
  5
487
330
2
100
AcDbEntity
  8
image
100
AcDbLine
 10
6.224560056410778
 20
7.161564347365086
 30
0.0
 11
6.251617624243019
 21
6.875527201709957
 31
0.0
  0
LINE
  5
488
330
2
100
AcDbEntity
  8
image
100
AcDbLine
 10
6.294818581252345
 20
7.171032852837168
 30
0.0
 11
6.21907053747571
 21
6.875527201709957
 31
0.0
  0
LINE
  5
489
330
2
100
AcDbEntity
  8
image
100
AcDbLine
 10
6.263162297289843
 20
7.191294069756846
 30
0.0
 11
6.289499534354538
 21
6.87552720170996
 31
0.0
  0
LINE
  5
48A
330
2
100
AcDbEntity
  8
image
100
AcDbLine
 10
6.333012949942508
 20
7.185235611045282
 30
0.0
 11
6.295243631730878
 21
6.875527201709957
 31
0.0
  0
LINE
  5
48B
330
2
100
AcDbEntity
  8
image
100
AcDbLine
 10
6.346895361348765
 20
7.142627336420932
 30
0.0
 11
6.273658227637691
 21
6.875527201709957
 31
0.0
  0
LINE
  5
48C
330
2
100
AcDbEntity
  8
image
100
AcDbLine
 10
6.355288877552906
 20
7.171032852837168
 30
0.0
 11
6.279540833776271
 21
6.882243435938779
 31
0.0
  0
LINE
  5
48D
330
2
100
AcDbEntity
  8
image
100
AcDbLine
 10
6.323632593590398
 20
7.191294069756846
 30
0.0
 11
6.3499698306551
 21
6.87552720170996
 31
0.0
  0
LINE
  5
48E
330
2
100
AcDbEntity
  8
image
100
AcDbLine
 10
6.53178788795442
 20
7.213848846045923
 30
0.0
 11
6.613307907440406
 21
6.875527201709957
 31
0.0
  0
LINE
  5
48F
330
2
100
AcDbEntity
  8
image
100
AcDbLine
 10
6.610185780276539
 20
7.142627336420936
 30
0.0
 11
6.536948646565461
 21
6.875527201709957
 31
0.0
  0
LINE
  5
490
330
2
100
AcDbEntity
  8
image
100
AcDbLine
 10
6.558109000180111
 20
7.171032852837171
 30
0.0
 11
6.479247704072419
 21
6.875527201709957
 31
0.0
  0
LINE
  5
491
330
2
100
AcDbEntity
  8
image
100
AcDbLine
 10
6.526452716217606
 20
7.19129406975685
 30
0.0
 11
6.552789953282308
 21
6.875527201709964
 31
0.0
  0
LINE
  5
492
330
2
100
AcDbEntity
  8
image
100
AcDbLine
 10
6.495668248551405
 20
7.161564347365086
 30
0.0
 11
6.522725816383642
 21
6.875527201709957
 31
0.0
  0
LINE
  5
493
330
2
100
AcDbEntity
  8
image
100
AcDbLine
 10
6.59538640302472
 20
7.185235611045285
 30
0.0
 11
6.557617084813086
 21
6.875527201709957
 31
0.0
  0
LINE
  5
494
330
2
100
AcDbEntity
  8
image
100
AcDbLine
 10
6.632961577896546
 20
7.166298600101129
 30
0.0
 11
6.605701759297369
 21
6.875527201709957
 31
0.0
  0
LINE
  5
495
330
2
100
AcDbEntity
  8
image
100
AcDbLine
 10
6.454622451134779
 20
7.142627336420929
 30
0.0
 11
6.381385317423697
 21
6.875527201709957
 31
0.0
  0
LINE
  5
496
330
2
100
AcDbEntity
  8
image
100
AcDbLine
 10
6.39633924019307
 20
7.202571457901395
 30
0.0
 11
6.552212684045427
 21
6.875527201709957
 31
0.0
  0
LINE
  5
497
330
2
100
AcDbEntity
  8
image
100
AcDbLine
 10
6.48418869069391
 20
7.185235611045282
 30
0.0
 11
6.446419372482283
 21
6.875527201709957
 31
0.0
  0
LINE
  5
498
330
2
100
AcDbEntity
  8
image
100
AcDbLine
 10
6.485303750096177
 20
7.168739293467787
 30
0.0
 11
6.415125646364758
 21
6.875527201709957
 31
0.0
  0
LINE
  5
499
330
2
100
AcDbEntity
  8
image
100
AcDbLine
 10
7.136284164914959
 20
7.177529692680124
 30
0.0
 11
7.033439796003589
 21
6.875527201709957
 31
0.0
  0
LINE
  5
49A
330
2
100
AcDbEntity
  8
image
100
AcDbLine
 10
7.170366291869045
 20
7.148778034419699
 30
0.0
 11
7.12519835921468
 21
6.875527201709957
 31
0.0
  0
LINE
  5
49B
330
2
100
AcDbEntity
  8
image
100
AcDbLine
 10
7.142221079136993
 20
7.166298600101129
 30
0.0
 11
7.114961260537819
 21
6.875527201709957
 31
0.0
  0
LINE
  5
49C
330
2
100
AcDbEntity
  8
image
100
AcDbLine
 10
7.127952565006024
 20
7.190026352952951
 30
0.0
 11
7.15428980207073
 21
6.874259484906065
 31
0.0
  0
LINE
  5
49D
330
2
100
AcDbEntity
  8
image
100
AcDbLine
 10
7.149044059187149
 20
7.16873929346779
 30
0.0
 11
7.07886595545573
 21
6.875527201709964
 31
0.0
  0
LINE
  5
49E
330
2
100
AcDbEntity
  8
image
100
AcDbLine
 10
6.935179244286141
 20
7.225126234190451
 30
0.0
 11
6.935179244286141
 21
6.875527201709957
 31
0.0
  0
LINE
  5
49F
330
2
100
AcDbEntity
  8
image
100
AcDbLine
 10
7.087271950883101
 20
7.225126234190451
 30
0.0
 11
7.087271950883101
 21
6.875527201709957
 31
0.0
  0
LINE
  5
4A0
330
2
100
AcDbEntity
  8
image
100
AcDbLine
 10
6.884451828255896
 20
7.225126234190447
 30
0.0
 11
6.884451828255896
 21
6.875527201709957
 31
0.0
  0
LINE
  5
4A1
330
2
100
AcDbEntity
  8
image
100
AcDbLine
 10
6.823981531955334
 20
7.225126234190447
 30
0.0
 11
6.823981531955334
 21
6.875527201709957
 31
0.0
  0
LINE
  5
4A2
330
2
100
AcDbEntity
  8
image
100
AcDbLine
 10
6.848810509451896
 20
7.225126234190447
 30
0.0
 11
6.848810509451896
 21
6.875527201709957
 31
0.0
  0
LINE
  5
4A3
330
2
100
AcDbEntity
  8
image
100
AcDbLine
 10
6.855311019180392
 20
7.142627336420932
 30
0.0
 11
6.78207388546931
 21
6.875527201709957
 31
0.0
  0
LINE
  5
4A4
330
2
100
AcDbEntity
  8
image
100
AcDbLine
 10
6.970717567030122
 20
7.123629740889665
 30
0.0
 11
6.770149377075826
 21
6.875527201709957
 31
0.0
  0
LINE
  5
4A5
330
2
100
AcDbEntity
  8
image
100
AcDbLine
 10
6.672505417941833
 20
7.161564347365086
 30
0.0
 11
6.699562985774074
 21
6.875527201709957
 31
0.0
  0
LINE
  5
4A6
330
2
100
AcDbEntity
  8
image
100
AcDbLine
 10
6.742763942783399
 20
7.171032852837168
 30
0.0
 11
6.667015899006765
 21
6.875527201709957
 31
0.0
  0
LINE
  5
4A7
330
2
100
AcDbEntity
  8
image
100
AcDbLine
 10
6.711107658820898
 20
7.191294069756846
 30
0.0
 11
6.737444895885593
 21
6.87552720170996
 31
0.0
  0
LINE
  5
4A8
330
2
100
AcDbEntity
  8
image
100
AcDbLine
 10
6.780958311473563
 20
7.185235611045282
 30
0.0
 11
6.743188993261933
 21
6.875527201709957
 31
0.0
  0
LINE
  5
4A9
330
2
100
AcDbEntity
  8
image
100
AcDbLine
 10
6.79484072287982
 20
7.142627336420932
 30
0.0
 11
6.721603589168745
 21
6.875527201709957
 31
0.0
  0
LINE
  5
4AA
330
2
100
AcDbEntity
  8
image
100
AcDbLine
 10
6.803234239083961
 20
7.171032852837168
 30
0.0
 11
6.727486195307326
 21
6.882243435938779
 31
0.0
  0
LINE
  5
4AB
330
2
100
AcDbEntity
  8
image
100
AcDbLine
 10
6.771577955121452
 20
7.191294069756846
 30
0.0
 11
6.797915192186154
 21
6.87552720170996
 31
0.0
  0
LINE
  5
4AC
330
2
100
AcDbEntity
  8
image
100
AcDbLine
 10
6.979733249485475
 20
7.213848846045923
 30
0.0
 11
7.06125326897146
 21
6.875527201709957
 31
0.0
  0
LINE
  5
4AD
330
2
100
AcDbEntity
  8
image
100
AcDbLine
 10
7.058131141807594
 20
7.142627336420936
 30
0.0
 11
6.984894008096516
 21
6.875527201709957
 31
0.0
  0
LINE
  5
4AE
330
2
100
AcDbEntity
  8
image
100
AcDbLine
 10
7.006054361711166
 20
7.171032852837171
 30
0.0
 11
6.927193065603473
 21
6.875527201709957
 31
0.0
  0
LINE
  5
4AF
330
2
100
AcDbEntity
  8
image
100
AcDbLine
 10
6.974398077748661
 20
7.19129406975685
 30
0.0
 11
7.000735314813363
 21
6.875527201709964
 31
0.0
  0
LINE
  5
4B0
330
2
100
AcDbEntity
  8
image
100
AcDbLine
 10
6.94361361008246
 20
7.161564347365086
 30
0.0
 11
6.970671177914697
 21
6.875527201709957
 31
0.0
  0
LINE
  5
4B1
330
2
100
AcDbEntity
  8
image
100
AcDbLine
 10
7.043331764555775
 20
7.185235611045285
 30
0.0
 11
7.005562446344141
 21
6.875527201709957
 31
0.0
  0
LINE
  5
4B2
330
2
100
AcDbEntity
  8
image
100
AcDbLine
 10
7.080906939427601
 20
7.166298600101129
 30
0.0
 11
7.053647120828424
 21
6.875527201709957
 31
0.0
  0
LINE
  5
4B3
330
2
100
AcDbEntity
  8
image
100
AcDbLine
 10
6.902567812665834
 20
7.142627336420929
 30
0.0
 11
6.829330678954752
 21
6.875527201709957
 31
0.0
  0
LINE
  5
4B4
330
2
100
AcDbEntity
  8
image
100
AcDbLine
 10
6.844284601724124
 20
7.202571457901395
 30
0.0
 11
7.000158045576482
 21
6.875527201709957
 31
0.0
  0
LINE
  5
4B5
330
2
100
AcDbEntity
  8
image
100
AcDbLine
 10
6.932134052224965
 20
7.185235611045282
 30
0.0
 11
6.894364734013338
 21
6.875527201709957
 31
0.0
  0
LINE
  5
4B6
330
2
100
AcDbEntity
  8
image
100
AcDbLine
 10
6.933249111627231
 20
7.168739293467787
 30
0.0
 11
6.863071007895813
 21
6.875527201709957
 31
0.0
  0
LINE
  5
4B7
330
2
100
AcDbEntity
  8
image
100
AcDbLine
 10
7.61350009377552
 20
7.178372308817351
 30
0.0
 11
7.51065572486415
 21
6.876369817847184
 31
0.0
  0
LINE
  5
4B8
330
2
100
AcDbEntity
  8
image
100
AcDbLine
 10
7.647582220729606
 20
7.149620650556926
 30
0.0
 11
7.602414288075241
 21
6.876369817847184
 31
0.0
  0
LINE
  5
4B9
330
2
100
AcDbEntity
  8
image
100
AcDbLine
 10
7.619437007997554
 20
7.167141216238356
 30
0.0
 11
7.59217718939838
 21
6.876369817847184
 31
0.0
  0
LINE
  5
4BA
330
2
100
AcDbEntity
  8
image
100
AcDbLine
 10
7.605168493866585
 20
7.190868969090178
 30
0.0
 11
7.631505730931291
 21
6.875102101043292
 31
0.0
  0
LINE
  5
4BB
330
2
100
AcDbEntity
  8
image
100
AcDbLine
 10
7.62625998804771
 20
7.169581909605017
 30
0.0
 11
7.556081884316292
 21
6.876369817847191
 31
0.0
  0
LINE
  5
4BC
330
2
100
AcDbEntity
  8
image
100
AcDbLine
 10
7.412395173146702
 20
7.225968850327678
 30
0.0
 11
7.412395173146702
 21
6.876369817847184
 31
0.0
  0
LINE
  5
4BD
330
2
100
AcDbEntity
  8
image
100
AcDbLine
 10
7.564487879743662
 20
7.225968850327678
 30
0.0
 11
7.564487879743662
 21
6.876369817847184
 31
0.0
  0
LINE
  5
4BE
330
2
100
AcDbEntity
  8
image
100
AcDbLine
 10
7.361667757116457
 20
7.225968850327674
 30
0.0
 11
7.361667757116457
 21
6.876369817847184
 31
0.0
  0
LINE
  5
4BF
330
2
100
AcDbEntity
  8
image
100
AcDbLine
 10
7.301197460815895
 20
7.225968850327674
 30
0.0
 11
7.301197460815895
 21
6.876369817847184
 31
0.0
  0
LINE
  5
4C0
330
2
100
AcDbEntity
  8
image
100
AcDbLine
 10
7.326026438312457
 20
7.225968850327674
 30
0.0
 11
7.326026438312457
 21
6.876369817847184
 31
0.0
  0
LINE
  5
4C1
330
2
100
AcDbEntity
  8
image
100
AcDbLine
 10
7.332526948040953
 20
7.143469952558159
 30
0.0
 11
7.259289814329871
 21
6.876369817847184
 31
0.0
  0
LINE
  5
4C2
330
2
100
AcDbEntity
  8
image
100
AcDbLine
 10
7.447933495890683
 20
7.124472357026892
 30
0.0
 11
7.247365305936387
 21
6.876369817847184
 31
0.0
  0
LINE
  5
4C3
330
2
100
AcDbEntity
  8
image
100
AcDbLine
 10
7.149721346802394
 20
7.162406963502313
 30
0.0
 11
7.176778914634635
 21
6.876369817847184
 31
0.0
  0
LINE
  5
4C4
330
2
100
AcDbEntity
  8
image
100
AcDbLine
 10
7.21997987164396
 20
7.171875468974395
 30
0.0
 11
7.144231827867326
 21
6.876369817847184
 31
0.0
  0
LINE
  5
4C5
330
2
100
AcDbEntity
  8
image
100
AcDbLine
 10
7.188323587681459
 20
7.192136685894073
 30
0.0
 11
7.214660824746154
 21
6.876369817847187
 31
0.0
  0
LINE
  5
4C6
330
2
100
AcDbEntity
  8
image
100
AcDbLine
 10
7.258174240334124
 20
7.186078227182509
 30
0.0
 11
7.220404922122494
 21
6.876369817847184
 31
0.0
  0
LINE
  5
4C7
330
2
100
AcDbEntity
  8
image
100
AcDbLine
 10
7.272056651740381
 20
7.143469952558159
 30
0.0
 11
7.198819518029306
 21
6.876369817847184
 31
0.0
  0
LINE
  5
4C8
330
2
100
AcDbEntity
  8
image
100
AcDbLine
 10
7.280450167944522
 20
7.171875468974395
 30
0.0
 11
7.204702124167887
 21
6.883086052076006
 31
0.0
  0
LINE
  5
4C9
330
2
100
AcDbEntity
  8
image
100
AcDbLine
 10
7.248793883982013
 20
7.192136685894073
 30
0.0
 11
7.275131121046715
 21
6.876369817847187
 31
0.0
  0
LINE
  5
4CA
330
2
100
AcDbEntity
  8
image
100
AcDbLine
 10
7.456949178346036
 20
7.21469146218315
 30
0.0
 11
7.538469197832021
 21
6.876369817847184
 31
0.0
  0
LINE
  5
4CB
330
2
100
AcDbEntity
  8
image
100
AcDbLine
 10
7.535347070668155
 20
7.143469952558163
 30
0.0
 11
7.462109936957077
 21
6.876369817847184
 31
0.0
  0
LINE
  5
4CC
330
2
100
AcDbEntity
  8
image
100
AcDbLine
 10
7.483270290571727
 20
7.171875468974398
 30
0.0
 11
7.404408994464034
 21
6.876369817847184
 31
0.0
  0
LINE
  5
4CD
330
2
100
AcDbEntity
  8
image
100
AcDbLine
 10
7.451614006609222
 20
7.192136685894077
 30
0.0
 11
7.477951243673924
 21
6.876369817847191
 31
0.0
  0
LINE
  5
4CE
330
2
100
AcDbEntity
  8
image
100
AcDbLine
 10
7.420829538943021
 20
7.162406963502313
 30
0.0
 11
7.447887106775258
 21
6.876369817847184
 31
0.0
  0
LINE
  5
4CF
330
2
100
AcDbEntity
  8
image
100
AcDbLine
 10
7.520547693416336
 20
7.186078227182512
 30
0.0
 11
7.482778375204702
 21
6.876369817847184
 31
0.0
  0
LINE
  5
4D0
330
2
100
AcDbEntity
  8
image
100
AcDbLine
 10
7.558122868288162
 20
7.167141216238356
 30
0.0
 11
7.530863049688985
 21
6.876369817847184
 31
0.0
  0
LINE
  5
4D1
330
2
100
AcDbEntity
  8
image
100
AcDbLine
 10
7.379783741526395
 20
7.143469952558156
 30
0.0
 11
7.306546607815313
 21
6.876369817847184
 31
0.0
  0
LINE
  5
4D2
330
2
100
AcDbEntity
  8
image
100
AcDbLine
 10
7.321500530584685
 20
7.203414074038622
 30
0.0
 11
7.477373974437043
 21
6.876369817847184
 31
0.0
  0
LINE
  5
4D3
330
2
100
AcDbEntity
  8
image
100
AcDbLine
 10
7.409349981085526
 20
7.186078227182509
 30
0.0
 11
7.371580662873899
 21
6.876369817847184
 31
0.0
  0
LINE
  5
4D4
330
2
100
AcDbEntity
  8
image
100
AcDbLine
 10
7.410465040487792
 20
7.169581909605014
 30
0.0
 11
7.340286936756374
 21
6.876369817847184
 31
0.0
  0
LINE
  5
4D6
330
2
100
AcDbEntity
  8
image
100
AcDbLine
 10
5.731656432096571
 20
7.18887252150376
 30
0.0
 11
5.757993669161266
 21
6.873105653456874
 31
0.0
  0
LINE
  5
4D7
330
2
100
AcDbEntity
  8
image
100
AcDbLine
 10
5.763312716059073
 20
7.168611304584081
 30
0.0
 11
5.687564672282438
 21
6.87310565345687
 31
0.0
  0
LINE
  5
4D8
330
2
100
AcDbEntity
  8
image
100
AcDbLine
 10
5.693054191217506
 20
7.159142799111999
 30
0.0
 11
5.720111759049747
 21
6.87310565345687
 31
0.0
  0
INSERT
  5
4DD
330
2
100
AcDbEntity
  8
text_bubbles
100
AcDbBlockReference
 66
     1
  2
bubble
 10
10.26844069679078
 20
3.546168175706641
 30
0.0
  0
ATTRIB
  5
4DE
330
4DD
100
AcDbEntity
  8
text_bubbles
100
AcDbText
 10
10.20891688726697
 20
3.483668175706641
 30
0.0
 40
0.125
  1
8
  7
ROMANS
 72
     4
 11
10.26844069679078
 21
3.546168175706641
 31
0.0
100
AcDbAttribute
  2
XX
 70
     0
  0
SEQEND
  5
4DF
330
4DD
100
AcDbEntity
  8
text_bubbles
  0
INSERT
  5
4E1
330
2
100
AcDbEntity
  8
text_bubbles
100
AcDbBlockReference
 66
     1
  2
bubble
 10
10.26844069679078
 20
2.886075020000697
 30
0.0
  0
ATTRIB
  5
4E2
330
4E1
100
AcDbEntity
  8
text_bubbles
100
AcDbText
 10
10.21189307774316
 20
2.823575020000697
 30
0.0
 40
0.125
  1
9
  7
ROMANS
 72
     4
 11
10.26844069679078
 21
2.886075020000697
 31
0.0
100
AcDbAttribute
  2
XX
 70
     0
  0
SEQEND
  5
4E3
330
4E1
100
AcDbEntity
  8
text_bubbles
  0
INSERT
  5
4E5
330
2
100
AcDbEntity
  8
text_bubbles
100
AcDbBlockReference
 66
     1
  2
bubble
 10
8.604356143992845
 20
7.312122935479916
 30
0.0
  0
ATTRIB
  5
4E6
330
4E5
100
AcDbEntity
  8
text_bubbles
100
AcDbText
 10
8.547808524945226
 20
7.249622935479916
 30
0.0
 40
0.125
  1
9
  7
ROMANS
 72
     4
 11
8.604356143992845
 21
7.312122935479916
 31
0.0
100
AcDbAttribute
  2
XX
 70
     0
  0
SEQEND
  5
4E7
330
4E5
100
AcDbEntity
  8
text_bubbles
  0
INSERT
  5
4E9
330
2
100
AcDbEntity
  8
text_bubbles
100
AcDbBlockReference
 66
     1
  2
bubble
 10
8.693844450862451
 20
4.331955509099643
 30
0.0
  0
ATTRIB
  5
4EA
330
4E9
100
AcDbEntity
  8
text_bubbles
100
AcDbText
 10
8.634320641338641
 20
4.269455509099643
 30
0.0
 40
0.125
  1
8
  7
ROMANS
 72
     4
 11
8.693844450862451
 21
4.331955509099643
 31
0.0
100
AcDbAttribute
  2
XX
 70
     0
  0
SEQEND
  5
4EB
330
4E9
100
AcDbEntity
  8
text_bubbles
  0
INSERT
  5
4F0
330
2
100
AcDbEntity
  8
text_bubbles
100
AcDbBlockReference
 66
     1
  2
bubble
 10
7.450203118341708
 20
4.331955509099643
 30
0.0
 41
-1.0
  0
ATTRIB
  5
4F1
330
4F0
100
AcDbEntity
  8
text_bubbles
100
AcDbText
 10
7.390679308817898
 20
4.269455509099643
 30
0.0
 40
0.125
  1
7
  7
ROMANS
 72
     4
 11
7.450203118341708
 21
4.331955509099643
 31
0.0
100
AcDbAttribute
  2
XX
 70
     0
  0
SEQEND
  5
4F2
330
4F0
100
AcDbEntity
  8
text_bubbles
  0
POLYLINE
  5
4F5
330
2
100
AcDbEntity
  8
image
100
AcDb2dPolyline
 66
     1
 10
0.0
 20
0.0
 30
0.0
 70
     4
 75
     6
  0
VERTEX
  5
4F6
330
4F5
100
AcDbEntity
  8
image
100
AcDbVertex
100
AcDb2dVertex
 10
5.020780244140558
 20
6.431086098545091
 30
0.0
 70
    16
  0
VERTEX
  5
50F
330
4F5
100
AcDbEntity
  8
image
100
AcDbVertex
100
AcDb2dVertex
 10
5.020780244140558
 20
6.431086098545091
 30
0.0
 70
     8
  0
VERTEX
  5
510
330
4F5
100
AcDbEntity
  8
image
100
AcDbVertex
100
AcDb2dVertex
 10
5.02878080512118
 20
6.430889891014793
 30
0.0
 70
     8
  0
VERTEX
  5
511
330
4F5
100
AcDbEntity
  8
image
100
AcDbVertex
100
AcDb2dVertex
 10
5.0359930745237
 20
6.430336877789931
 30
0.0
 70
     8
  0
VERTEX
  5
512
330
4F5
100
AcDbEntity
  8
image
100
AcDbVertex
100
AcDb2dVertex
 10
5.04247530601387
 20
6.429480472919565
 30
0.0
 70
     8
  0
VERTEX
  5
513
330
4F5
100
AcDbEntity
  8
image
100
AcDbVertex
100
AcDb2dVertex
 10
5.048285753257443
 20
6.428374090452747
 30
0.0
 70
     8
  0
VERTEX
  5
514
330
4F5
100
AcDbEntity
  8
image
100
AcDbVertex
100
AcDb2dVertex
 10
5.053482669920173
 20
6.427071144438533
 30
0.0
 70
     8
  0
VERTEX
  5
515
330
4F5
100
AcDbEntity
  8
image
100
AcDbVertex
100
AcDb2dVertex
 10
5.05812430966781
 20
6.425625048925979
 30
0.0
 70
     8
  0
VERTEX
  5
516
330
4F5
100
AcDbEntity
  8
image
100
AcDbVertex
100
AcDb2dVertex
 10
5.06226892616611
 20
6.42408921796414
 30
0.0
 70
     8
  0
VERTEX
  5
517
330
4F5
100
AcDbEntity
  8
image
100
AcDbVertex
100
AcDb2dVertex
 10
5.065974773080824
 20
6.422517065602069
 30
0.0
 70
     8
  0
VERTEX
  5
518
330
4F5
100
AcDbEntity
  8
image
100
AcDbVertex
100
AcDb2dVertex
 10
5.069296006669871
 20
6.420945269483066
 30
0.0
 70
     8
  0
VERTEX
  5
519
330
4F5
100
AcDbEntity
  8
image
100
AcDbVertex
100
AcDb2dVertex
 10
5.072270393559829
 20
6.419343561627388
 30
0.0
 70
     8
  0
VERTEX
  5
51A
330
4F5
100
AcDbEntity
  8
image
100
AcDbVertex
100
AcDb2dVertex
 10
5.074931602969443
 20
6.417664937649536
 30
0.0
 70
     8
  0
VERTEX
  5
51B
330
4F5
100
AcDbEntity
  8
image
100
AcDbVertex
100
AcDb2dVertex
 10
5.077313304117458
 20
6.41586239316401
 30
0.0
 70
     8
  0
VERTEX
  5
51C
330
4F5
100
AcDbEntity
  8
image
100
AcDbVertex
100
AcDb2dVertex
 10
5.079449166222616
 20
6.41388892378531
 30
0.0
 70
     8
  0
VERTEX
  5
51D
330
4F5
100
AcDbEntity
  8
image
100
AcDbVertex
100
AcDb2dVertex
 10
5.081372858503664
 20
6.411697525127937
 30
0.0
 70
     8
  0
VERTEX
  5
51E
330
4F5
100
AcDbEntity
  8
image
100
AcDbVertex
100
AcDb2dVertex
 10
5.083118050179344
 20
6.409241192806391
 30
0.0
 70
     8
  0
VERTEX
  5
51F
330
4F5
100
AcDbEntity
  8
image
100
AcDbVertex
100
AcDb2dVertex
 10
5.084718410468402
 20
6.406472922435173
 30
0.0
 70
     8
  0
VERTEX
  5
520
330
4F5
100
AcDbEntity
  8
image
100
AcDbVertex
100
AcDb2dVertex
 10
5.086202175206057
 20
6.40336208993769
 30
0.0
 70
     8
  0
VERTEX
  5
521
330
4F5
100
AcDbEntity
  8
image
100
AcDbVertex
100
AcDb2dVertex
 10
5.087575846693437
 20
6.399943592472987
 30
0.0
 70
     8
  0
VERTEX
  5
522
330
4F5
100
AcDbEntity
  8
image
100
AcDbVertex
100
AcDb2dVertex
 10
5.088840493848142
 20
6.396268707509015
 30
0.0
 70
     8
  0
VERTEX
  5
523
330
4F5
100
AcDbEntity
  8
image
100
AcDbVertex
100
AcDb2dVertex
 10
5.089997185587776
 20
6.392388712513728
 30
0.0
 70
     8
  0
VERTEX
  5
524
330
4F5
100
AcDbEntity
  8
image
100
AcDbVertex
100
AcDb2dVertex
 10
5.091046990829942
 20
6.388354884955076
 30
0.0
 70
     8
  0
VERTEX
  5
525
330
4F5
100
AcDbEntity
  8
image
100
AcDbVertex
100
AcDb2dVertex
 10
5.09199097849224
 20
6.384218502301012
 30
0.0
 70
     8
  0
VERTEX
  5
526
330
4F5
100
AcDbEntity
  8
image
100
AcDbVertex
100
AcDb2dVertex
 10
5.092830217492275
 20
6.380030842019489
 30
0.0
 70
     8
  0
VERTEX
  5
527
330
4F5
100
AcDbEntity
  8
image
100
AcDbVertex
100
AcDb2dVertex
 10
5.093565776747646
 20
6.375843181578457
 30
0.0
 70
     8
  0
VERTEX
  5
528
330
4F5
100
AcDbEntity
  8
image
100
AcDbVertex
100
AcDb2dVertex
 10
5.094198012564224
 20
6.371696649785323
 30
0.0
 70
     8
  0
VERTEX
  5
529
330
4F5
100
AcDbEntity
  8
image
100
AcDbVertex
100
AcDb2dVertex
 10
5.094724430800936
 20
6.367591780805298
 30
0.0
 70
     8
  0
VERTEX
  5
52A
330
4F5
100
AcDbEntity
  8
image
100
AcDbVertex
100
AcDb2dVertex
 10
5.095141824704973
 20
6.363518960143053
 30
0.0
 70
     8
  0
VERTEX
  5
52B
330
4F5
100
AcDbEntity
  8
image
100
AcDbVertex
100
AcDb2dVertex
 10
5.09544698752353
 20
6.35946857330325
 30
0.0
 70
     8
  0
VERTEX
  5
52C
330
4F5
100
AcDbEntity
  8
image
100
AcDbVertex
100
AcDb2dVertex
 10
5.095636712503798
 20
6.355431005790559
 30
0.0
 70
     8
  0
VERTEX
  5
52D
330
4F5
100
AcDbEntity
  8
image
100
AcDbVertex
100
AcDb2dVertex
 10
5.095707792892972
 20
6.351396643109646
 30
0.0
 70
     8
  0
VERTEX
  5
52E
330
4F5
100
AcDbEntity
  8
image
100
AcDbVertex
100
AcDb2dVertex
 10
5.095657021938244
 20
6.347355870765177
 30
0.0
 70
     8
  0
VERTEX
  5
52F
330
4F5
100
AcDbEntity
  8
image
100
AcDbVertex
100
AcDb2dVertex
 10
5.095481192886806
 20
6.343299074261818
 30
0.0
 70
     8
  0
VERTEX
  5
530
330
4F5
100
AcDbEntity
  8
image
100
AcDbVertex
100
AcDb2dVertex
 10
5.095180404950066
 20
6.339202705127392
 30
0.0
 70
     8
  0
VERTEX
  5
531
330
4F5
100
AcDbEntity
  8
image
100
AcDbVertex
100
AcDb2dVertex
 10
5.094767981196291
 20
6.334987478982322
 30
0.0
 70
     8
  0
VERTEX
  5
532
330
4F5
100
AcDbEntity
  8
image
100
AcDbVertex
100
AcDb2dVertex
 10
5.094260550657962
 20
6.330560177470191
 30
0.0
 70
     8
  0
VERTEX
  5
533
330
4F5
100
AcDbEntity
  8
image
100
AcDbVertex
100
AcDb2dVertex
 10
5.09367474236756
 20
6.325827582234579
 30
0.0
 70
     8
  0
VERTEX
  5
534
330
4F5
100
AcDbEntity
  8
image
100
AcDbVertex
100
AcDb2dVertex
 10
5.093027185357565
 20
6.320696474919067
 30
0.0
 70
     8
  0
VERTEX
  5
535
330
4F5
100
AcDbEntity
  8
image
100
AcDbVertex
100
AcDb2dVertex
 10
5.092334508660461
 20
6.315073637167233
 30
0.0
 70
     8
  0
VERTEX
  5
536
330
4F5
100
AcDbEntity
  8
image
100
AcDbVertex
100
AcDb2dVertex
 10
5.091613341308726
 20
6.30886585062266
 30
0.0
 70
     8
  0
VERTEX
  5
537
330
4F5
100
AcDbEntity
  8
image
100
AcDbVertex
100
AcDb2dVertex
 10
5.090880312334844
 20
6.301979896928926
 30
0.0
 70
     8
  0
VERTEX
  5
538
330
4F5
100
AcDbEntity
  8
image
100
AcDbVertex
100
AcDb2dVertex
 10
5.090150551827951
 20
6.294342532977769
 30
0.0
 70
     8
  0
VERTEX
  5
539
330
4F5
100
AcDbEntity
  8
image
100
AcDbVertex
100
AcDb2dVertex
 10
5.089433194103814
 20
6.285960416653547
 30
0.0
 70
     8
  0
VERTEX
  5
53A
330
4F5
100
AcDbEntity
  8
image
100
AcDbVertex
100
AcDb2dVertex
 10
5.088735874534857
 20
6.276860181088775
 30
0.0
 70
     8
  0
VERTEX
  5
53B
330
4F5
100
AcDbEntity
  8
image
100
AcDbVertex
100
AcDb2dVertex
 10
5.088066228493504
 20
6.267068459415967
 30
0.0
 70
     8
  0
VERTEX
  5
53C
330
4F5
100
AcDbEntity
  8
image
100
AcDbVertex
100
AcDb2dVertex
 10
5.087431891352177
 20
6.256611884767639
 30
0.0
 70
     8
  0
VERTEX
  5
53D
330
4F5
100
AcDbEntity
  8
image
100
AcDbVertex
100
AcDb2dVertex
 10
5.0868404984833
 20
6.245517090276306
 30
0.0
 70
     8
  0
VERTEX
  5
53E
330
4F5
100
AcDbEntity
  8
image
100
AcDbVertex
100
AcDb2dVertex
 10
5.086299685259297
 20
6.233810709074482
 30
0.0
 70
     8
  0
VERTEX
  5
53F
330
4F5
100
AcDbEntity
  8
image
100
AcDbVertex
100
AcDb2dVertex
 10
5.085817087052592
 20
6.221519374294683
 30
0.0
 70
     8
  0
VERTEX
  5
540
330
4F5
100
AcDbEntity
  8
image
100
AcDbVertex
100
AcDb2dVertex
 10
5.08539818318629
 20
6.208675935622137
 30
0.0
 70
     8
  0
VERTEX
  5
541
330
4F5
100
AcDbEntity
  8
image
100
AcDbVertex
100
AcDb2dVertex
 10
5.085039828786229
 20
6.195338108952936
 30
0.0
 70
     8
  0
VERTEX
  5
542
330
4F5
100
AcDbEntity
  8
image
100
AcDbVertex
100
AcDb2dVertex
 10
5.084736722928928
 20
6.181569826735885
 30
0.0
 70
     8
  0
VERTEX
  5
543
330
4F5
100
AcDbEntity
  8
image
100
AcDbVertex
100
AcDb2dVertex
 10
5.084483564690907
 20
6.167435021419789
 30
0.0
 70
     8
  0
VERTEX
  5
544
330
4F5
100
AcDbEntity
  8
image
100
AcDbVertex
100
AcDb2dVertex
 10
5.084275053148687
 20
6.152997625453455
 30
0.0
 70
     8
  0
VERTEX
  5
545
330
4F5
100
AcDbEntity
  8
image
100
AcDbVertex
100
AcDb2dVertex
 10
5.084105887378785
 20
6.138321571285687
 30
0.0
 70
     8
  0
VERTEX
  5
546
330
4F5
100
AcDbEntity
  8
image
100
AcDbVertex
100
AcDb2dVertex
 10
5.083970766457723
 20
6.123470791365291
 30
0.0
 70
     8
  0
VERTEX
  5
547
330
4F5
100
AcDbEntity
  8
image
100
AcDbVertex
100
AcDb2dVertex
 10
5.083864389462021
 20
6.108509218141073
 30
0.0
 70
     8
  0
VERTEX
  5
548
330
4F5
100
AcDbEntity
  8
image
100
AcDbVertex
100
AcDb2dVertex
 10
5.083787711447094
 20
6.093481342110465
 30
0.0
 70
     8
  0
VERTEX
  5
549
330
4F5
100
AcDbEntity
  8
image
100
AcDbVertex
100
AcDb2dVertex
 10
5.083766711383936
 20
6.078353885965407
 30
0.0
 70
     8
  0
VERTEX
  5
54A
330
4F5
100
AcDbEntity
  8
image
100
AcDbVertex
100
AcDb2dVertex
 10
5.083833624222439
 20
6.063074130446466
 30
0.0
 70
     8
  0
VERTEX
  5
54B
330
4F5
100
AcDbEntity
  8
image
100
AcDbVertex
100
AcDb2dVertex
 10
5.084020684912496
 20
6.047589356294207
 30
0.0
 70
     8
  0
VERTEX
  5
54C
330
4F5
100
AcDbEntity
  8
image
100
AcDbVertex
100
AcDb2dVertex
 10
5.084360128403996
 20
6.031846844249199
 30
0.0
 70
     8
  0
VERTEX
  5
54D
330
4F5
100
AcDbEntity
  8
image
100
AcDbVertex
100
AcDb2dVertex
 10
5.084884189646832
 20
6.015793875052008
 30
0.0
 70
     8
  0
VERTEX
  5
54E
330
4F5
100
AcDbEntity
  8
image
100
AcDbVertex
100
AcDb2dVertex
 10
5.085625103590894
 20
5.9993777294432
 30
0.0
 70
     8
  0
VERTEX
  5
54F
330
4F5
100
AcDbEntity
  8
image
100
AcDbVertex
100
AcDb2dVertex
 10
5.086615105186074
 20
5.982545688163344
 30
0.0
 70
     8
  0
VERTEX
  5
550
330
4F5
100
AcDbEntity
  8
image
100
AcDbVertex
100
AcDb2dVertex
 10
5.087885353598393
 20
5.965216055907117
 30
0.0
 70
     8
  0
VERTEX
  5
551
330
4F5
100
AcDbEntity
  8
image
100
AcDbVertex
100
AcDb2dVertex
 10
5.089462704858387
 20
5.947191233185651
 30
0.0
 70
     8
  0
VERTEX
  5
552
330
4F5
100
AcDbEntity
  8
image
100
AcDbVertex
100
AcDb2dVertex
 10
5.091372939212728
 20
5.928244644464192
 30
0.0
 70
     8
  0
VERTEX
  5
553
330
4F5
100
AcDbEntity
  8
image
100
AcDbVertex
100
AcDb2dVertex
 10
5.093641836908082
 20
5.908149714207983
 30
0.0
 70
     8
  0
VERTEX
  5
554
330
4F5
100
AcDbEntity
  8
image
100
AcDbVertex
100
AcDb2dVertex
 10
5.096295178191116
 20
5.886679866882268
 30
0.0
 70
     8
  0
VERTEX
  5
555
330
4F5
100
AcDbEntity
  8
image
100
AcDbVertex
100
AcDb2dVertex
 10
5.0993587433085
 20
5.863608526952291
 30
0.0
 70
     8
  0
VERTEX
  5
556
330
4F5
100
AcDbEntity
  8
image
100
AcDbVertex
100
AcDb2dVertex
 10
5.102858312506901
 20
5.838709118883297
 30
0.0
 70
     8
  0
VERTEX
  5
557
330
4F5
100
AcDbEntity
  8
image
100
AcDbVertex
100
AcDb2dVertex
 10
5.106819666032987
 20
5.811755067140531
 30
0.0
 70
     8
  0
VERTEX
  5
558
330
4F5
100
AcDbEntity
  8
image
100
AcDbVertex
100
AcDb2dVertex
 10
5.111255518831171
 20
5.782671130735564
 30
0.0
 70
     8
  0
VERTEX
  5
559
330
4F5
100
AcDbEntity
  8
image
100
AcDbVertex
100
AcDb2dVertex
 10
5.116126324636844
 20
5.751987406865282
 30
0.0
 70
     8
  0
VERTEX
  5
55A
330
4F5
100
AcDbEntity
  8
image
100
AcDbVertex
100
AcDb2dVertex
 10
5.121379471883142
 20
5.720385327272897
 30
0.0
 70
     8
  0
VERTEX
  5
55B
330
4F5
100
AcDbEntity
  8
image
100
AcDbVertex
100
AcDb2dVertex
 10
5.1269623490032
 20
5.688546323701625
 30
0.0
 70
     8
  0
VERTEX
  5
55C
330
4F5
100
AcDbEntity
  8
image
100
AcDbVertex
100
AcDb2dVertex
 10
5.132822344430154
 20
5.657151827894677
 30
0.0
 70
     8
  0
VERTEX
  5
55D
330
4F5
100
AcDbEntity
  8
image
100
AcDbVertex
100
AcDb2dVertex
 10
5.13890684659714
 20
5.626883271595265
 30
0.0
 70
     8
  0
VERTEX
  5
55E
330
4F5
100
AcDbEntity
  8
image
100
AcDbVertex
100
AcDb2dVertex
 10
5.145163243937293
 20
5.598422086546605
 30
0.0
 70
     8
  0
VERTEX
  5
55F
330
4F5
100
AcDbEntity
  8
image
100
AcDbVertex
100
AcDb2dVertex
 10
5.15153892488375
 20
5.572449704491909
 30
0.0
 70
     8
  0
VERTEX
  5
560
330
4F5
100
AcDbEntity
  8
image
100
AcDbVertex
100
AcDb2dVertex
 10
5.157999369773578
 20
5.549478645084226
 30
0.0
 70
     8
  0
VERTEX
  5
561
330
4F5
100
AcDbEntity
  8
image
100
AcDbVertex
100
AcDb2dVertex
 10
5.164582426559573
 20
5.529345779615948
 30
0.0
 70
     8
  0
VERTEX
  5
562
330
4F5
100
AcDbEntity
  8
image
100
AcDbVertex
100
AcDb2dVertex
 10
5.171344035098466
 20
5.511719067289303
 30
0.0
 70
     8
  0
VERTEX
  5
563
330
4F5
100
AcDbEntity
  8
image
100
AcDbVertex
100
AcDb2dVertex
 10
5.178340135246986
 20
5.496266467306518
 30
0.0
 70
     8
  0
VERTEX
  5
564
330
4F5
100
AcDbEntity
  8
image
100
AcDbVertex
100
AcDb2dVertex
 10
5.185626666861862
 20
5.482655938869822
 30
0.0
 70
     8
  0
VERTEX
  5
565
330
4F5
100
AcDbEntity
  8
image
100
AcDbVertex
100
AcDb2dVertex
 10
5.193259569799824
 20
5.470555441181442
 30
0.0
 70
     8
  0
VERTEX
  5
566
330
4F5
100
AcDbEntity
  8
image
100
AcDbVertex
100
AcDb2dVertex
 10
5.201294783917601
 20
5.459632933443606
 30
0.0
 70
     8
  0
VERTEX
  5
567
330
4F5
100
AcDbEntity
  8
image
100
AcDbVertex
100
AcDb2dVertex
 10
5.209788249071922
 20
5.449556374858542
 30
0.0
 70
     8
  0
VERTEX
  5
568
330
4F5
100
AcDbEntity
  8
image
100
AcDbVertex
100
AcDb2dVertex
 10
5.218803989266294
 20
5.440046388166502
 30
0.0
 70
     8
  0
VERTEX
  5
569
330
4F5
100
AcDbEntity
  8
image
100
AcDbVertex
100
AcDb2dVertex
 10
5.228438365091329
 20
5.431034250259829
 30
0.0
 70
     8
  0
VERTEX
  5
56A
330
4F5
100
AcDbEntity
  8
image
100
AcDbVertex
100
AcDb2dVertex
 10
5.238795821284415
 20
5.422503901568892
 30
0.0
 70
     8
  0
VERTEX
  5
56B
330
4F5
100
AcDbEntity
  8
image
100
AcDbVertex
100
AcDb2dVertex
 10
5.24998080258294
 20
5.414439282524058
 30
0.0
 70
     8
  0
VERTEX
  5
56C
330
4F5
100
AcDbEntity
  8
image
100
AcDbVertex
100
AcDb2dVertex
 10
5.262097753724294
 20
5.406824333555695
 30
0.0
 70
     8
  0
VERTEX
  5
56D
330
4F5
100
AcDbEntity
  8
image
100
AcDbVertex
100
AcDb2dVertex
 10
5.275251119445864
 20
5.399642995094171
 30
0.0
 70
     8
  0
VERTEX
  5
56E
330
4F5
100
AcDbEntity
  8
image
100
AcDbVertex
100
AcDb2dVertex
 10
5.28954534448504
 20
5.392879207569855
 30
0.0
 70
     8
  0
VERTEX
  5
56F
330
4F5
100
AcDbEntity
  8
image
100
AcDbVertex
100
AcDb2dVertex
 10
5.305084873579211
 20
5.386516911413113
 30
0.0
 70
     8
  0
VERTEX
  5
570
330
4F5
100
AcDbEntity
  8
image
100
AcDbVertex
100
AcDb2dVertex
 10
5.321919250992091
 20
5.380545400244191
 30
0.0
 70
     8
  0
VERTEX
  5
571
330
4F5
100
AcDbEntity
  8
image
100
AcDbVertex
100
AcDb2dVertex
 10
5.339878419092699
 20
5.374975380442844
 30
0.0
 70
     8
  0
VERTEX
  5
572
330
4F5
100
AcDbEntity
  8
image
100
AcDbVertex
100
AcDb2dVertex
 10
5.358737419776383
 20
5.369822911578704
 30
0.0
 70
     8
  0
VERTEX
  5
573
330
4F5
100
AcDbEntity
  8
image
100
AcDbVertex
100
AcDb2dVertex
 10
5.378271294938491
 20
5.365104053221402
 30
0.0
 70
     8
  0
VERTEX
  5
574
330
4F5
100
AcDbEntity
  8
image
100
AcDbVertex
100
AcDb2dVertex
 10
5.398255086474366
 20
5.360834864940573
 30
0.0
 70
     8
  0
VERTEX
  5
575
330
4F5
100
AcDbEntity
  8
image
100
AcDbVertex
100
AcDb2dVertex
 10
5.418463836279356
 20
5.357031406305847
 30
0.0
 70
     8
  0
VERTEX
  5
576
330
4F5
100
AcDbEntity
  8
image
100
AcDbVertex
100
AcDb2dVertex
 10
5.438672586248808
 20
5.353709736886856
 30
0.0
 70
     8
  0
VERTEX
  5
577
330
4F5
100
AcDbEntity
  8
image
100
AcDbVertex
100
AcDb2dVertex
 10
5.458656378278067
 20
5.350885916253233
 30
0.0
 70
     8
  0
VERTEX
  5
578
330
4F5
100
AcDbEntity
  8
image
100
AcDbVertex
100
AcDb2dVertex
 10
5.478271935498142
 20
5.348558606054338
 30
0.0
 70
     8
  0
VERTEX
  5
579
330
4F5
100
AcDbEntity
  8
image
100
AcDbVertex
100
AcDb2dVertex
 10
5.497702705982676
 20
5.346656876258452
 30
0.0
 70
     8
  0
VERTEX
  5
57A
330
4F5
100
AcDbEntity
  8
image
100
AcDbVertex
100
AcDb2dVertex
 10
5.517213819040977
 20
5.34509239891358
 30
0.0
 70
     8
  0
VERTEX
  5
57B
330
4F5
100
AcDbEntity
  8
image
100
AcDbVertex
100
AcDb2dVertex
 10
5.53707040398235
 20
5.343776846067731
 30
0.0
 70
     8
  0
VERTEX
  5
57C
330
4F5
100
AcDbEntity
  8
image
100
AcDbVertex
100
AcDb2dVertex
 10
5.557537590116101
 20
5.342621889768912
 30
0.0
 70
     8
  0
VERTEX
  5
57D
330
4F5
100
AcDbEntity
  8
image
100
AcDbVertex
100
AcDb2dVertex
 10
5.578880506751536
 20
5.341539202065129
 30
0.0
 70
     8
  0
VERTEX
  5
57E
330
4F5
100
AcDbEntity
  8
image
100
AcDbVertex
100
AcDb2dVertex
 10
5.601364283197962
 20
5.340440455004393
 30
0.0
 70
     8
  0
VERTEX
  5
57F
330
4F5
100
AcDbEntity
  8
image
100
AcDbVertex
100
AcDb2dVertex
 10
5.625254048764684
 20
5.339237320634708
 30
0.0
 70
     8
  0
VERTEX
  5
580
330
4F5
100
AcDbEntity
  8
image
100
AcDbVertex
100
AcDb2dVertex
 10
5.650709148827226
 20
5.337864222131955
 30
0.0
 70
     8
  0
VERTEX
  5
581
330
4F5
100
AcDbEntity
  8
image
100
AcDbVertex
100
AcDb2dVertex
 10
5.677465793025982
 20
5.336346587183497
 30
0.0
 70
     8
  0
VERTEX
  5
582
330
4F5
100
AcDbEntity
  8
image
100
AcDbVertex
100
AcDb2dVertex
 10
5.705154407067567
 20
5.334732594604569
 30
0.0
 70
     8
  0
VERTEX
  5
583
330
4F5
100
AcDbEntity
  8
image
100
AcDbVertex
100
AcDb2dVertex
 10
5.733405416658594
 20
5.333070423210406
 30
0.0
 70
     8
  0
VERTEX
  5
584
330
4F5
100
AcDbEntity
  8
image
100
AcDbVertex
100
AcDb2dVertex
 10
5.761849247505675
 20
5.331408251816243
 30
0.0
 70
     8
  0
VERTEX
  5
585
330
4F5
100
AcDbEntity
  8
image
100
AcDbVertex
100
AcDb2dVertex
 10
5.790116325315424
 20
5.329794259237314
 30
0.0
 70
     8
  0
VERTEX
  5
586
330
4F5
100
AcDbEntity
  8
image
100
AcDbVertex
100
AcDb2dVertex
 10
5.817837075794454
 20
5.328276624288856
 30
0.0
 70
     8
  0
VERTEX
  5
587
330
4F5
100
AcDbEntity
  8
image
100
AcDbVertex
100
AcDb2dVertex
 10
5.844641924649377
 20
5.326903525786103
 30
0.0
 70
     8
  0
VERTEX
  5
588
330
4F5
100
AcDbEntity
  8
image
100
AcDbVertex
100
AcDb2dVertex
 10
5.870229489572253
 20
5.325711352983564
 30
0.0
 70
     8
  0
VERTEX
  5
589
330
4F5
100
AcDbEntity
  8
image
100
AcDbVertex
100
AcDb2dVertex
 10
5.894571156196918
 20
5.324689336892845
 30
0.0
 70
     8
  0
VERTEX
  5
58A
330
4F5
100
AcDbEntity
  8
image
100
AcDbVertex
100
AcDb2dVertex
 10
5.917706502142651
 20
5.323814918964827
 30
0.0
 70
     8
  0
VERTEX
  5
58B
330
4F5
100
AcDbEntity
  8
image
100
AcDbVertex
100
AcDb2dVertex
 10
5.939675105028734
 20
5.323065540650389
 30
0.0
 70
     8
  0
VERTEX
  5
58C
330
4F5
100
AcDbEntity
  8
image
100
AcDbVertex
100
AcDb2dVertex
 10
5.960516542474446
 20
5.322418643400414
 30
0.0
 70
     8
  0
VERTEX
  5
58D
330
4F5
100
AcDbEntity
  8
image
100
AcDbVertex
100
AcDb2dVertex
 10
5.980270392099071
 20
5.32185166866578
 30
0.0
 70
     8
  0
VERTEX
  5
58E
330
4F5
100
AcDbEntity
  8
image
100
AcDbVertex
100
AcDb2dVertex
 10
5.998976231521886
 20
5.321342057897367
 30
0.0
 70
     8
  0
VERTEX
  5
58F
330
4F5
100
AcDbEntity
  8
image
100
AcDbVertex
100
AcDb2dVertex
 10
6.016673638362174
 20
5.320867252546057
 30
0.0
 70
     8
  0
VERTEX
  5
590
330
4F5
100
AcDbEntity
  8
image
100
AcDbVertex
100
AcDb2dVertex
 10
6.033507773120569
 20
5.320400146381865
 30
0.0
 70
     8
  0
VERTEX
  5
591
330
4F5
100
AcDbEntity
  8
image
100
AcDbVertex
100
AcDb2dVertex
 10
6.050046127823121
 20
5.319895442451348
 30
0.0
 70
     8
  0
VERTEX
  5
592
330
4F5
100
AcDbEntity
  8
image
100
AcDbVertex
100
AcDb2dVertex
 10
6.066961777377234
 20
5.319303296120199
 30
0.0
 70
     8
  0
VERTEX
  5
593
330
4F5
100
AcDbEntity
  8
image
100
AcDbVertex
100
AcDb2dVertex
 10
6.084927796690311
 20
5.31857386275411
 30
0.0
 70
     8
  0
VERTEX
  5
594
330
4F5
100
AcDbEntity
  8
image
100
AcDbVertex
100
AcDb2dVertex
 10
6.104617260669757
 20
5.317657297718775
 30
0.0
 70
     8
  0
VERTEX
  5
595
330
4F5
100
AcDbEntity
  8
image
100
AcDbVertex
100
AcDb2dVertex
 10
6.126703244222974
 20
5.316503756379885
 30
0.0
 70
     8
  0
VERTEX
  5
596
330
4F5
100
AcDbEntity
  8
image
100
AcDbVertex
100
AcDb2dVertex
 10
6.151858822257367
 20
5.315063394103135
 30
0.0
 70
     8
  0
VERTEX
  5
597
330
4F5
100
AcDbEntity
  8
image
100
AcDbVertex
100
AcDb2dVertex
 10
6.18075706968034
 20
5.313286366254215
 30
0.0
 70
     8
  0
VERTEX
  5
598
330
4F5
100
AcDbEntity
  8
image
100
AcDbVertex
100
AcDb2dVertex
 10
6.213803601050966
 20
5.311116059154814
 30
0.0
 70
     8
  0
VERTEX
  5
599
330
4F5
100
AcDbEntity
  8
image
100
AcDbVertex
100
AcDb2dVertex
 10
6.250334189535003
 20
5.308468782950597
 30
0.0
 70
     8
  0
VERTEX
  5
59A
330
4F5
100
AcDbEntity
  8
image
100
AcDbVertex
100
AcDb2dVertex
 10
6.289417147949876
 20
5.305254078743225
 30
0.0
 70
     8
  0
VERTEX
  5
59B
330
4F5
100
AcDbEntity
  8
image
100
AcDbVertex
100
AcDb2dVertex
 10
6.330120789113013
 20
5.301381487634358
 30
0.0
 70
     8
  0
VERTEX
  5
59C
330
4F5
100
AcDbEntity
  8
image
100
AcDbVertex
100
AcDb2dVertex
 10
6.371513425841841
 20
5.296760550725657
 30
0.0
 70
     8
  0
VERTEX
  5
59D
330
4F5
100
AcDbEntity
  8
image
100
AcDbVertex
100
AcDb2dVertex
 10
6.412663370953785
 20
5.291300809118784
 30
0.0
 70
     8
  0
VERTEX
  5
59E
330
4F5
100
AcDbEntity
  8
image
100
AcDbVertex
100
AcDb2dVertex
 10
6.452638937266274
 20
5.284911803915396
 30
0.0
 70
     8
  0
VERTEX
  5
59F
330
4F5
100
AcDbEntity
  8
image
100
AcDbVertex
100
AcDb2dVertex
 10
6.490508437596735
 20
5.277503076217156
 30
0.0
 70
     8
  0
VERTEX
  5
5A0
330
4F5
100
AcDbEntity
  8
image
100
AcDbVertex
100
AcDb2dVertex
 10
6.525583068707938
 20
5.269052548712561
 30
0.0
 70
     8
  0
VERTEX
  5
5A1
330
4F5
100
AcDbEntity
  8
image
100
AcDbVertex
100
AcDb2dVertex
 10
6.558145563144031
 20
5.25981167043746
 30
0.0
 70
     8
  0
VERTEX
  5
5A2
330
4F5
100
AcDbEntity
  8
image
100
AcDbVertex
100
AcDb2dVertex
 10
6.588721537394509
 20
5.250100272014537
 30
0.0
 70
     8
  0
VERTEX
  5
5A3
330
4F5
100
AcDbEntity
  8
image
100
AcDbVertex
100
AcDb2dVertex
 10
6.617836607948865
 20
5.240238184066478
 30
0.0
 70
     8
  0
VERTEX
  5
5A4
330
4F5
100
AcDbEntity
  8
image
100
AcDbVertex
100
AcDb2dVertex
 10
6.646016391296591
 20
5.230545237215968
 30
0.0
 70
     8
  0
VERTEX
  5
5A5
330
4F5
100
AcDbEntity
  8
image
100
AcDbVertex
100
AcDb2dVertex
 10
6.673786503927181
 20
5.221341262085692
 30
0.0
 70
     8
  0
VERTEX
  5
5A6
330
4F5
100
AcDbEntity
  8
image
100
AcDbVertex
100
AcDb2dVertex
 10
6.701672562330128
 20
5.212946089298336
 30
0.0
 70
     8
  0
VERTEX
  5
5A7
330
4F5
100
AcDbEntity
  8
image
100
AcDbVertex
100
AcDb2dVertex
 10
6.730200182994924
 20
5.205679549476585
 30
0.0
 70
     8
  0
VERTEX
  5
5A8
330
4F5
100
AcDbEntity
  8
image
100
AcDbVertex
100
AcDb2dVertex
 10
6.759789330594255
 20
5.199773815987617
 30
0.0
 70
     8
  0
VERTEX
  5
5A9
330
4F5
100
AcDbEntity
  8
image
100
AcDbVertex
100
AcDb2dVertex
 10
6.790437362533565
 20
5.195110433176584
 30
0.0
 70
     8
  0
VERTEX
  5
5AA
330
4F5
100
AcDbEntity
  8
image
100
AcDbVertex
100
AcDb2dVertex
 10
6.822035984401488
 20
5.191483288133129
 30
0.0
 70
     8
  0
VERTEX
  5
5AB
330
4F5
100
AcDbEntity
  8
image
100
AcDbVertex
100
AcDb2dVertex
 10
6.854476901786661
 20
5.188686267946897
 30
0.0
 70
     8
  0
VERTEX
  5
5AC
330
4F5
100
AcDbEntity
  8
image
100
AcDbVertex
100
AcDb2dVertex
 10
6.887651820277719
 20
5.186513259707531
 30
0.0
 70
     8
  0
VERTEX
  5
5AD
330
4F5
100
AcDbEntity
  8
image
100
AcDbVertex
100
AcDb2dVertex
 10
6.921452445463297
 20
5.184758150504677
 30
0.0
 70
     8
  0
VERTEX
  5
5AE
330
4F5
100
AcDbEntity
  8
image
100
AcDbVertex
100
AcDb2dVertex
 10
6.955770482932031
 20
5.183214827427978
 30
0.0
 70
     8
  0
VERTEX
  5
5AF
330
4F5
100
AcDbEntity
  8
image
100
AcDbVertex
100
AcDb2dVertex
 10
6.990497638272555
 20
5.181677177567078
 30
0.0
 70
     8
  0
VERTEX
  5
5B0
330
4F5
100
AcDbEntity
  8
image
100
AcDbVertex
100
AcDb2dVertex
 10
7.025627486932925
 20
5.180084012672856
 30
0.0
 70
     8
  0
VERTEX
  5
5B1
330
4F5
100
AcDbEntity
  8
image
100
AcDbVertex
100
AcDb2dVertex
 10
7.06156108379887
 20
5.178953843141124
 30
0.0
 70
     8
  0
VERTEX
  5
5B2
330
4F5
100
AcDbEntity
  8
image
100
AcDbVertex
100
AcDb2dVertex
 10
7.098801353615536
 20
5.178950104028932
 30
0.0
 70
     8
  0
VERTEX
  5
5B3
330
4F5
100
AcDbEntity
  8
image
100
AcDbVertex
100
AcDb2dVertex
 10
7.137851221128073
 20
5.180736230393327
 30
0.0
 70
     8
  0
VERTEX
  5
5B4
330
4F5
100
AcDbEntity
  8
image
100
AcDbVertex
100
AcDb2dVertex
 10
7.179213611081627
 20
5.184975657291357
 30
0.0
 70
     8
  0
VERTEX
  5
5B5
330
4F5
100
AcDbEntity
  8
image
100
AcDbVertex
100
AcDb2dVertex
 10
7.223391448221349
 20
5.192331819780068
 30
0.0
 70
     8
  0
VERTEX
  5
5B6
330
4F5
100
AcDbEntity
  8
image
100
AcDbVertex
100
AcDb2dVertex
 10
7.270887657292384
 20
5.203468152916511
 30
0.0
 70
     8
  0
VERTEX
  5
5B7
330
4F5
100
AcDbEntity
  8
image
100
AcDbVertex
100
AcDb2dVertex
 10
7.32220516303988
 20
5.219048091757731
 30
0.0
 70
     8
  0
VERTEX
  5
4F7
330
4F5
100
AcDbEntity
  8
image
100
AcDbVertex
100
AcDb2dVertex
 10
5.043217909895912
 20
6.431086098545091
 30
0.0
 70
    16
  0
VERTEX
  5
4F8
330
4F5
100
AcDbEntity
  8
image
100
AcDbVertex
100
AcDb2dVertex
 10
5.070033609537706
 20
6.422334744014601
 30
0.0
 70
    16
  0
VERTEX
  5
4F9
330
4F5
100
AcDbEntity
  8
image
100
AcDbVertex
100
AcDb2dVertex
 10
5.085904140259105
 20
6.41030164174368
 30
0.0
 70
    16
  0
VERTEX
  5
4FA
330
4F5
100
AcDbEntity
  8
image
100
AcDbVertex
100
AcDb2dVertex
 10
5.094660292236281
 20
6.375296223621718
 30
0.0
 70
    16
  0
VERTEX
  5
4FB
330
4F5
100
AcDbEntity
  8
image
100
AcDbVertex
100
AcDb2dVertex
 10
5.096849351281648
 20
6.343572553240188
 30
0.0
 70
    16
  0
VERTEX
  5
4FC
330
4F5
100
AcDbEntity
  8
image
100
AcDbVertex
100
AcDb2dVertex
 10
5.090829459957961
 20
6.310208008988443
 30
0.0
 70
    16
  0
VERTEX
  5
4FD
330
4F5
100
AcDbEntity
  8
image
100
AcDbVertex
100
AcDb2dVertex
 10
5.08511468289557
 20
6.2274747923796
 30
0.0
 70
    16
  0
VERTEX
  5
4FE
330
4F5
100
AcDbEntity
  8
image
100
AcDbVertex
100
AcDb2dVertex
 10
5.083614330775311
 20
6.109009067261253
 30
0.0
 70
    16
  0
VERTEX
  5
4FF
330
4F5
100
AcDbEntity
  8
image
100
AcDbVertex
100
AcDb2dVertex
 10
5.083614330775311
 20
5.987544247421826
 30
0.0
 70
    16
  0
VERTEX
  5
500
330
4F5
100
AcDbEntity
  8
image
100
AcDbVertex
100
AcDb2dVertex
 10
5.101618977239885
 20
5.836088072031502
 30
0.0
 70
    16
  0
VERTEX
  5
501
330
4F5
100
AcDbEntity
  8
image
100
AcDbVertex
100
AcDb2dVertex
 10
5.15082775646307
 20
5.538633867295352
 30
0.0
 70
    16
  0
VERTEX
  5
502
330
4F5
100
AcDbEntity
  8
image
100
AcDbVertex
100
AcDb2dVertex
 10
5.204303546210335
 20
5.444074685738544
 30
0.0
 70
    16
  0
VERTEX
  5
503
330
4F5
100
AcDbEntity
  8
image
100
AcDbVertex
100
AcDb2dVertex
 10
5.290687553127128
 20
5.382405638901723
 30
0.0
 70
    16
  0
VERTEX
  5
504
330
4F5
100
AcDbEntity
  8
image
100
AcDbVertex
100
AcDb2dVertex
 10
5.463455482756421
 20
5.345404227133235
 30
0.0
 70
    16
  0
VERTEX
  5
505
330
4F5
100
AcDbEntity
  8
image
100
AcDbVertex
100
AcDb2dVertex
 10
5.607428785515596
 20
5.341292950084734
 30
0.0
 70
    16
  0
VERTEX
  5
506
330
4F5
100
AcDbEntity
  8
image
100
AcDbVertex
100
AcDb2dVertex
 10
5.858353667769299
 20
5.324847896336077
 30
0.0
 70
    16
  0
VERTEX
  5
507
330
4F5
100
AcDbEntity
  8
image
100
AcDbVertex
100
AcDb2dVertex
 10
6.027008091303474
 20
5.320736619287576
 30
0.0
 70
    16
  0
VERTEX
  5
508
330
4F5
100
AcDbEntity
  8
image
100
AcDbVertex
100
AcDb2dVertex
 10
6.133655797189852
 20
5.31740914178996
 30
0.0
 70
    16
  0
VERTEX
  5
509
330
4F5
100
AcDbEntity
  8
image
100
AcDbVertex
100
AcDb2dVertex
 10
6.522911138019156
 20
5.289345011077871
 30
0.0
 70
    16
  0
VERTEX
  5
50A
330
4F5
100
AcDbEntity
  8
image
100
AcDbVertex
100
AcDb2dVertex
 10
6.717750276313929
 20
5.19022927120149
 30
0.0
 70
    16
  0
VERTEX
  5
50B
330
4F5
100
AcDbEntity
  8
image
100
AcDbVertex
100
AcDb2dVertex
 10
6.987288854694673
 20
5.183815200975681
 30
0.0
 70
    16
  0
VERTEX
  5
50C
330
4F5
100
AcDbEntity
  8
image
100
AcDbVertex
100
AcDb2dVertex
 10
7.179816374593364
 20
5.170987060524064
 30
0.0
 70
    16
  0
VERTEX
  5
50D
330
4F5
100
AcDbEntity
  8
image
100
AcDbVertex
100
AcDb2dVertex
 10
7.32220516303988
 20
5.219048091757731
 30
0.0
 70
    16
  0
SEQEND
  5
50E
330
4F5
100
AcDbEntity
  8
image
  0
INSERT
  5
5D2
330
2
100
AcDbEntity
  8
text_bubbles
100
AcDbBlockReference
 66
     1
  2
bubble
 10
1.629956853751456
 20
7.478545511095139
 30
0.0
  0
ATTRIB
  5
5D3
330
5D2
100
AcDbEntity
  8
text_bubbles
100
AcDbText
 10
1.570433044227647
 20
7.416045511095139
 30
0.0
 40
0.125
  1
2
  7
ROMANS
 72
     4
 11
1.629956853751456
 21
7.478545511095139
 31
0.0
100
AcDbAttribute
  2
XX
 70
     0
  0
SEQEND
  5
5D4
330
5D2
100
AcDbEntity
  8
text_bubbles
  0
INSERT
  5
5D6
330
2
100
AcDbEntity
  8
text_bubbles
100
AcDbBlockReference
 66
     1
  2
bubble
 10
6.090655491631888
 20
4.591580184997203
 30
0.0
 41
-1.0
  0
ATTRIB
  5
5D7
330
5D6
100
AcDbEntity
  8
text_bubbles
100
AcDbText
 10
6.031131682108079
 20
4.529080184997203
 30
0.0
 40
0.125
  1
5
  7
ROMANS
 72
     4
 11
6.090655491631888
 21
4.591580184997203
 31
0.0
100
AcDbAttribute
  2
XX
 70
     0
  0
SEQEND
  5
5D8
330
5D6
100
AcDbEntity
  8
text_bubbles
  0
LEADER
  5
622
330
2
100
AcDbEntity
  8
text_bubbles
100
AcDbLeader
  3
Standard
 76
     2
 10
1.16651388782778
 20
7.172120749072267
 30
0.0
 10
1.512440243664125
 20
7.402658552030943
 30
0.0
  0
LEADER
  5
625
330
2
100
AcDbEntity
  8
text_bubbles
100
AcDbLeader
  3
Standard
 76
     2
 10
8.865200339046602
 20
6.875882761783808
 30
0.0
 10
8.649369620839122
 20
7.17967380900247
 30
0.0
  0
LEADER
  5
626
330
2
100
AcDbEntity
  8
text_bubbles
100
AcDbLeader
  3
Standard
 76
     2
 10
4.900760665643042
 20
6.172159176438971
 30
0.0
 10
5.598967155235864
 20
6.132508096328825
 30
0.0
  0
LEADER
  5
627
330
2
100
AcDbEntity
  8
text_bubbles
100
AcDbLeader
  3
Standard
 76
     2
 10
4.44022990939505
 20
6.959089438236073
 30
0.0
 10
4.666603230042868
 20
7.33171497728601
 30
0.0
  0
LEADER
  5
628
330
2
100
AcDbEntity
  8
text_bubbles
100
AcDbLeader
  3
Standard
 76
     2
 10
4.620369950669136
 20
5.93374207807101
 30
0.0
 10
5.627836151622359
 20
5.768231032447551
 30
0.0
  0
LEADER
  5
629
330
2
100
AcDbEntity
  8
text_bubbles
100
AcDbLeader
  3
Standard
 76
     2
 10
1.883779138406903
 20
8.423097802825752
 30
0.0
 10
2.231866485693488
 20
8.65038935152272
 30
0.0
  0
LEADER
  5
86F
330
2
100
AcDbEntity
  8
text_bubbles
100
AcDbLeader
  3
Standard
 76
     2
 10
6.309600711820958
 20
5.303333791325224
 30
0.0
 10
6.131785330314331
 20
4.725286282735433
 30
0.0
  0
LEADER
  5
871
330
2
100
AcDbEntity
  8
text_bubbles
100
AcDbLeader
  3
Standard
 76
     2
 10
7.819688020828187
 20
5.219048091757731
 30
0.0
 10
7.503989656748825
 20
4.461091067675151
 30
0.0
  0
LEADER
  5
872
330
2
100
AcDbEntity
  8
text_bubbles
100
AcDbLeader
  3
Standard
 76
     2
 10
8.565907283321653
 20
4.92957696088515
 30
0.0
 10
8.664560859456212
 20
4.468745331370093
 30
0.0
  0
ENDSEC
  0
SECTION
  2
OBJECTS
  0
DICTIONARY
  5
7
330
0
100
AcDbDictionary
281
     1
  3
ACAD_COLOR
350
65C
  3
ACAD_GROUP
350
20
  3
ACAD_LAYOUT
350
B
  3
ACAD_MATERIAL
350
632
  3
ACAD_MLEADERSTYLE
350
681
  3
ACAD_MLINESTYLE
350
21
  3
ACAD_PLOTSETTINGS
350
22
  3
ACAD_PLOTSTYLENAME
350
6
  3
ACAD_SCALELIST
350
65F
  3
ACAD_TABLESTYLE
350
65D
  3
ACAD_VISUALSTYLE
350
64B
  3
ACDB_RECOMPOSE_DATA
350
8E2
  3
AcDbVariableDictionary
350
342
  3
ASE_INDEX_DICTIONARY
350
389
1001
BBSI_PltSel
1000
1
1000

1001
BBSI_Plots
1000

1000
ANSI_B_(17.00_x_11.00_Inches)
1000
431.799987792969
1000
279.399993896484
1000
0
1000
1
1000
1
1000
-6.60929644347164E-16
1000
1.27967412360443
1000
1
1000
0
1000
1
1000
0.997127765430538
1000
0
1000
1
1000
LaserJet5Shaded.ctb
1000
0
1000
0
1000
1
1000
1
1000
0
1000
0
1000
0
1000
0
1000
0
1000
0
1000
PS1
1000

1001
BBSI_Bookmarks
1000
1
1000
1
1000
0
1000
1
1000
0
1000
0
1000
0
1000
0
1000
0
1000
0
1000
0
1001
BBSI_BookmarksEx
1000
0
1000
0
1000

1000
0
  0
DICTIONARY
  5
5E2
330
10
100
AcDbDictionary
280
     1
281
     1
  3
ACAD_LAYERFILTERS
360
99F
  3
ACAD_LAYERSTATES
360
5E3
  0
DICTIONARY
  5
800
330
760
100
AcDbDictionary
280
     1
281
     1
  3
ACAD_SORTENTS
360
801
  0
DICTIONARY
  5
7C4
330
7C3
100
AcDbDictionary
280
     1
281
     1
  3
ACAD_DIMASSOC
360
7C5
  0
DICTIONARY
  5
9B6
330
26
100
AcDbDictionary
280
     1
281
     1
  3
ACAD_MTEXT_2008_RT
360
9B7
  0
DICTIONARY
  5
2FB
330
2FA
100
AcDbDictionary
280
     1
281
     1
  3
ACAD_DIMASSOC
360
2FC
  0
DICTIONARY
  5
65C
102
{ACAD_REACTORS
330
7
102
}
330
7
100
AcDbDictionary
281
     1
  0
DICTIONARY
  5
20
102
{ACAD_REACTORS
330
7
102
}
330
7
100
AcDbDictionary
281
     1
  0
DICTIONARY
  5
B
102
{ACAD_REACTORS
330
7
102
}
330
7
100
AcDbDictionary
281
     1
  3
Layout1
350
F
  3
Model
350
A
  0
DICTIONARY
  5
632
102
{ACAD_REACTORS
330
7
102
}
330
7
100
AcDbDictionary
281
     1
  3
ByBlock
350
63B
  3
ByLayer
350
633
  3
Global
350
643
  0
DICTIONARY
  5
681
102
{ACAD_REACTORS
330
7
102
}
330
7
100
AcDbDictionary
281
     1
  3
Standard
350
682
  0
DICTIONARY
  5
21
102
{ACAD_REACTORS
330
7
102
}
330
7
100
AcDbDictionary
281
     1
  3
Standard
350
24
  3
WID_SLEEVE
350
75F
  0
DICTIONARY
  5
22
102
{ACAD_REACTORS
330
7
102
}
330
7
100
AcDbDictionary
281
     1
  3
1055 24x36 BW
350
925
  3
1055 24x36 BW Final
350
926
  3
1055 24x36 Color
350
927
  3
1055 24x36 Color Shaded
350
928
  3
1055 30x42 BW
350
929
  3
1055 30x42 BW Final
350
92A
  3
1055 B&W Draft
350
92B
  3
1055 B&W Final
350
92C
  3
1055 BW Half
350
92D
  3
1055 Color Draft
350
92E
  3
1055 Color Final
350
92F
  3
1055+ 24x36 BW
350
930
  3
1055+ 24x36 BW Final
350
931
  3
1055+ 24x36 Color
350
932
  3
1055+ 24x36 Color Shaded
350
933
  3
1055+ 30x42 BW
350
934
  3
1055+ 30x42 BW Final
350
935
  3
1055+ B&W Draft
350
936
  3
1055+ B&W Final
350
937
  3
1055+ BW Half
350
938
  3
1055+ Color Draft
350
939
  3
1055+ Color Final
350
93A
  3
_1055 22x34 True Centered BW
350
93B
  3
_1055 24x36 True Centered BW
350
93C
  3
_1055 24x36 True Centered BW Final
350
93D
  3
_1055 24x36 True Centered Color
350
93E
  3
_1055 30x42 True Centered BW
350
93F
  3
_1055+ 22x34 True Centered BW
350
940
  3
_1055+ 24x36 True Centered BW
350
941
  3
_1055+ 24x36 True Centered BW Final
350
942
  3
_1055+ 24x36 True Centered Color
350
943
  3
_1055+ 30x42 True Centered BW
350
944
  3
DWF BW 11x17 Fit
350
945
  3
DWF BW 11x17 Half
350
946
  3
DWF BW 22x34
350
947
  3
DWF BW 24x36
350
948
  3
DWF BW 30x42
350
949
  3
DWF BW 36x48
350
94A
  3
Laser5 11x17 Fit
350
94B
  3
Laser5 11x17 Full
350
94C
  3
Laser5 11x17 Half
350
94D
  3
Laser5 8x11 Fit
350
94E
  3
Laser5 8x11 Half
350
94F
  3
Laser5 8x11 Portrait Fit
350
950
  3
LaserJet5 11x17
350
951
  3
LaserJet5 8.5x11
350
952
  3
Oki9500 11x17 BW Fit
350
953
  3
Oki9500 11x17 BW Full
350
954
  3
Oki9500 11x17 BW Half
350
955
  3
Oki9500 11x17 Color Fit
350
956
  3
Oki9500 11x17 Color Full
350
957
  3
Oki9500 11x17 Color Half
350
958
  3
Oki9500 8x11 BW Fit
350
959
  3
Oki9500 8x11 BW Portrait Fit
350
95A
  3
Oki9500 8x11 Color Fit
350
95B
  3
Oki9500 8x11 Color Portrait Fit
350
95C
  3
OKI9500 B&W 11x17
350
95D
  3
OKI9500 B&W 8.5x11
350
95E
  3
OKI9500 Color 11x17
350
95F
  3
OKI9500 Color 8.5x11
350
960
  3
Oki9600 11x17 BW Fit
350
961
  3
Oki9600 11x17 BW Full
350
962
  3
Oki9600 11x17 BW Half
350
963
  3
Oki9600 11x17 Color Fit
350
964
  3
Oki9600 11x17 Color Full
350
965
  3
Oki9600 11x17 Color Half
350
966
  3
Oki9600 8x11 BW Fit
350
967
  3
Oki9600 8x11 BW Portrait Fit
350
968
  3
Oki9600 8x11 Color Fit
350
969
  3
Oki9600 8x11 Color Portrait Fit
350
96A
  3
OKI9600 B&W 11x17
350
96B
  3
OKI9600 B&W 8.5x11
350
96C
  3
OKI9600 Color 11x17
350
96D
  3
OKI9600 Color 8.5x11
350
96E
  3
PHX Kyocera 11x17 Fit
350
96F
  3
PHX Oki9500 11x17 BW Fit
350
970
  3
PHX Oki9500 11x17 BW Half
350
971
  0
ACDBDICTIONARYWDFLT
  5
6
102
{ACAD_REACTORS
330
7
102
}
330
7
100
AcDbDictionary
281
     1
  3
Normal
350
5
100
AcDbDictionaryWithDefault
340
5
  0
DICTIONARY
  5
65F
102
{ACAD_REACTORS
330
7
102
}
330
7
100
AcDbDictionary
281
     1
  3
A0
350
660
  3
A1
350
661
  3
A2
350
662
  3
A3
350
663
  3
A4
350
664
  3
A5
350
665
  3
A6
350
666
  3
A7
350
667
  3
A8
350
668
  3
A9
350
669
  3
B0
350
66A
  3
B1
350
66B
  3
B2
350
66C
  3
B3
350
66D
  3
B4
350
66E
  3
B5
350
66F
  3
B6
350
670
  3
B7
350
671
  3
B8
350
672
  3
B9
350
673
  3
C0
350
674
  3
C1
350
675
  3
C2
350
676
  3
C3
350
677
  3
C4
350
678
  3
C5
350
679
  3
C6
350
67A
  3
C7
350
67B
  3
C8
350
67C
  3
C9
350
67D
  3
D0
350
67E
  3
D1
350
67F
  3
D2
350
680
  0
DICTIONARY
  5
65D
102
{ACAD_REACTORS
330
7
102
}
330
7
100
AcDbDictionary
281
     1
  3
Standard
350
65E
  0
DICTIONARY
  5
64B
102
{ACAD_REACTORS
330
7
102
}
330
7
100
AcDbDictionary
281
     1
  3
2dWireframe
350
651
  3
3D Hidden
350
653
  3
3dWireframe
350
652
  3
Basic
350
650
  3
Brighten
350
657
  3
ColorChange
350
65B
  3
Conceptual
350
654
  3
Dim
350
656
  3
Facepattern
350
65A
  3
Flat
350
64C
  3
FlatWithEdges
350
64D
  3
Gouraud
350
64E
  3
GouraudWithEdges
350
64F
  3
Linepattern
350
659
  3
Realistic
350
655
  3
Thicken
350
658
  0
XRECORD
  5
8E2
102
{ACAD_REACTORS
330
7
102
}
330
7
100
AcDbXrecord
280
     1
 90
        1
330
26
330
65E
  0
DICTIONARY
  5
342
102
{ACAD_REACTORS
330
7
102
}
330
7
100
AcDbDictionary
281
     1
  3
CANNOSCALE
350
8E6
  3
CMLEADERSTYLE
350
8E4
  3
CTABLESTYLE
350
8E3
  3
DIMASSOC
350
344
  3
HIDETEXT
350
343
  3
LAYEREVAL
350
9B5
  3
LAYERNOTIFY
350
8E8
  3
LIGHTINGUNITS
350
8E7
  3
MSLTSCALE
350
8E5
  3
SORTENTS
350
5EB
  0
DICTIONARY
  5
389
102
{ACAD_REACTORS
330
7
102
}
330
7
100
AcDbDictionary
281
     1
  3
ASEBlockHierarchyIndexRecord
350
38B
1001
DCO15
1040
1449398528.406
  0
DICTIONARY
  5
99F
102
{ACAD_REACTORS
330
5E2
102
}
330
5E2
100
AcDbDictionary
281
     1
  3
_0100-
350
9A2
  3
_0280-
350
9A1
  3
_Add Alternate
350
9A4
  3
_Bid Alternate
350
9A5
  3
_Color 253
350
9A7
  3
_Color 8
350
9A3
  3
_Color 84
350
9A6
  3
_Contours
350
9AD
  3
_Demo
350
9A8
  3
_Existing
350
9A9
  3
_Hardscape
350
9AC
  3
_NoXref
350
9A0
  3
_Row
350
9AA
  3
_Utility
350
9AB
  0
DICTIONARY
  5
5E3
102
{ACAD_REACTORS
330
5E2
102
}
330
5E2
100
AcDbDictionary
281
     1
  0
SORTENTSTABLE
  5
801
102
{ACAD_REACTORS
330
800
102
}
330
800
100
AcDbSortentsTable
330
760
  0
DIMASSOC
  5
7C5
102
{ACAD_REACTORS
330
7C4
102
}
330
7C4
100
AcDbDimAssoc
330
7C3
 90
        3
 70
     0
 71
     0
  1
AcDbOsnapPointRef
 72
     1
331
7C2
 73
     2
 91
        0
 40
1.0
 10
6.811087163538447
 20
7.406123412390041
 30
0.0
 75
     0
  1
AcDbOsnapPointRef
 72
     8
331
76D
 73
     2
 91
        0
 40
0.4059427067131275
 10
6.811087163538447
 20
7.682215381380583
 30
0.0
 75
     1
  1
AcDbOsnapPointRef
 72
     1
331
7C2
 73
     2
 91
        0
 40
1.0
 10
6.811087163538447
 20
7.406123412390041
 30
0.0
 75
     0
  0
XRECORD
  5
9B7
102
{ACAD_REACTORS
330
9B6
102
}
330
9B6
100
AcDbXrecord
280
     1
 40
18618244.0
  1
RAIN BIRD CONTROLLER\P\P\pxi-3,l3;SOLID BARE COPPER WIRE (#10 AWG) FROM GROUNDING ROD TO CONTROLLER. MAKE WIRE AS SHORT AND STRAIGHT AS POSSIBLE\P\pi0,l0;\P\pi-3,l3;COVER GROUNDING ROD WITH 10-INCH ROUND VALVE BOX AS SHOWN\P\pi0,l0;\P\pi-3,l3;5/8-INC
  1
H X 10 FT COPPER CLAD GROUNDING ROD OR GROUNDING PLATE. INSTALL RODS IN SOIL IN A TRIAGULAR PATTERN SPACED A MINIMUM OF 16 FT APART FROM EACH OTHER. GROUNDING GRID TO HAVE A RESISTANCE OF TEN (10) OHMS OR LESS\P\pi0,l0;\P\pi-3,l3;BARE COPPER WIRE (#6
  1
 AWG MIN.) BETWEEN GROUNDING ROD AND GROUNDING PLATE\P\pi0,l0;\PGROUND ROD CLAMP OR WELDS\P\PCOPPER GROUNDING PLATE\P\P\pi-3,l3;GROUND ENHANCEMENT MATERIAL (IF REQUIRED)\P\pi0,l0;\PFINISH GRADE
  0
DIMASSOC
  5
2FC
102
{ACAD_REACTORS
330
2FB
102
}
330
2FB
100
AcDbDimAssoc
330
2FA
 90
        3
 70
     0
 71
     0
  1
AcDbOsnapPointRef
 72
     1
331
2F9
 73
     2
 91
        0
 40
1.0
 10
4.416362033785327
 20
6.600862981666651
 30
0.0
 75
     0
  1
AcDbOsnapPointRef
 72
     8
331
280
 73
     2
 91
        0
 40
0.4059427067131275
 10
4.416362033785327
 20
6.876954950657193
 30
0.0
 75
     1
  1
AcDbOsnapPointRef
 72
     1
331
2F9
 73
     2
 91
        0
 40
1.0
 10
4.416362033785327
 20
6.600862981666651
 30
0.0
 75
     0
  0
LAYOUT
  5
F
102
{ACAD_REACTORS
330
B
102
}
330
B
100
AcDbPlotSettings
  1

  2
S:\AutoCAD 2002\Plotters\1055ColorDraftShaded.pc3
  4

  6

 40
0.0
 41
0.0
 42
0.0
 43
0.0
 44
0.0
 45
0.0
 46
0.0
 47
0.0
 48
0.0
 49
0.0
140
0.0
141
0.0
142
1.0
143
1.0
 70
   688
 72
     0
 73
     0
 74
     5
  7

 75
    16
147
1.0
 76
     0
 77
     2
 78
   300
148
0.0
149
0.0
100
AcDbLayout
  1
Layout1
 70
     0
 71
     1
 10
0.0
 20
0.0
 11
12.0
 21
9.0
 12
0.0
 22
0.0
 32
0.0
 14
1.000000000000000E+20
 24
1.000000000000000E+20
 34
1.000000000000000E+20
 15
-1.000000000000000E+20
 25
-1.000000000000000E+20
 35
-1.000000000000000E+20
146
0.0
 13
0.0
 23
0.0
 33
0.0
 16
1.0
 26
0.0
 36
0.0
 17
0.0
 27
1.0
 37
0.0
 76
     0
330
C
  0
LAYOUT
  5
A
102
{ACAD_REACTORS
330
B
102
}
330
B
100
AcDbPlotSettings
  1

  2
LaserJet5Shaded.pc3
  4
11x17
  6

 40
5.873749732971191
 41
5.873734951019287
 42
5.873748779296875
 43
5.027069091796875
 44
431.7999877929687
 45
279.3999938964844
 46
-0.0000000000000007
 47
1.279674123604433
 48
0.0
 49
0.0
140
0.0
141
0.0
142
1.0
143
0.9971277654305376
 70
 11956
 72
     0
 73
     0
 74
     1
  7
LaserJet5Shaded.ctb
 75
     0
147
1.002880508064302
 76
     0
 77
     2
 78
   300
148
0.0
149
0.0
100
AcDbLayout
  1
Model
 70
     1
 71
     0
 10
0.0
 20
0.0
 11
12.0
 21
9.0
 12
0.0
 22
0.0
 32
0.0
 14
0.0
 24
0.0
 34
0.0
 15
0.0
 25
0.0
 35
0.0
146
0.0
 13
0.0
 23
0.0
 33
0.0
 16
1.0
 26
0.0
 36
0.0
 17
0.0
 27
1.0
 37
0.0
 76
     0
330
2
331
630
1001
ACAD_PSEXT
1000
LaserJet5Shaded.pc3
1000
HP LaserJet 5Si
1000
CAD Area
1000

1070
     0
  0
MATERIAL
  5
63B
102
{ACAD_XDICTIONARY
360
63C
102
}
102
{ACAD_REACTORS
330
632
102
}
330
632
100
AcDbMaterial
  1
ByBlock
 72
     0
 43
0.0208333333333333
 43
0.0
 43
0.0
 43
0.0
 43
0.0
 43
0.0208333333333333
 43
0.0
 43
0.0
 43
0.0
 43
0.0
 43
1.0
 43
0.0
 43
0.0
 43
0.0
 43
0.0
 43
1.0
 77
     0
 47
0.0208333333333333
 47
0.0
 47
0.0
 47
0.0
 47
0.0
 47
0.0208333333333333
 47
0.0
 47
0.0
 47
0.0
 47
0.0
 47
1.0
 47
0.0
 47
0.0
 47
0.0
 47
0.0
 47
1.0
171
     0
 49
0.0208333333333333
 49
0.0
 49
0.0
 49
0.0
 49
0.0
 49
0.0208333333333333
 49
0.0
 49
0.0
 49
0.0
 49
0.0
 49
1.0
 49
0.0
 49
0.0
 49
0.0
 49
0.0
 49
1.0
175
     0
142
0.0208333333333333
142
0.0
142
0.0
142
0.0
142
0.0
142
0.0208333333333333
142
0.0
142
0.0
142
0.0
142
0.0
142
1.0
142
0.0
142
0.0
142
0.0
142
0.0
142
1.0
179
     0
144
0.0208333333333333
144
0.0
144
0.0
144
0.0
144
0.0
144
0.0208333333333333
144
0.0
144
0.0
144
0.0
144
0.0
144
1.0
144
0.0
144
0.0
144
0.0
144
0.0
144
1.0
147
0.0208333333333333
147
0.0
147
0.0
147
0.0
147
0.0
147
0.0208333333333333
147
0.0
147
0.0
147
0.0
147
0.0
147
1.0
147
0.0
147
0.0
147
0.0
147
0.0
147
1.0
  0
MATERIAL
  5
633
102
{ACAD_XDICTIONARY
360
634
102
}
102
{ACAD_REACTORS
330
632
102
}
330
632
100
AcDbMaterial
  1
ByLayer
 72
     0
 43
0.0208333333333333
 43
0.0
 43
0.0
 43
0.0
 43
0.0
 43
0.0208333333333333
 43
0.0
 43
0.0
 43
0.0
 43
0.0
 43
1.0
 43
0.0
 43
0.0
 43
0.0
 43
0.0
 43
1.0
 77
     0
 47
0.0208333333333333
 47
0.0
 47
0.0
 47
0.0
 47
0.0
 47
0.0208333333333333
 47
0.0
 47
0.0
 47
0.0
 47
0.0
 47
1.0
 47
0.0
 47
0.0
 47
0.0
 47
0.0
 47
1.0
171
     0
 49
0.0208333333333333
 49
0.0
 49
0.0
 49
0.0
 49
0.0
 49
0.0208333333333333
 49
0.0
 49
0.0
 49
0.0
 49
0.0
 49
1.0
 49
0.0
 49
0.0
 49
0.0
 49
0.0
 49
1.0
175
     0
142
0.0208333333333333
142
0.0
142
0.0
142
0.0
142
0.0
142
0.0208333333333333
142
0.0
142
0.0
142
0.0
142
0.0
142
1.0
142
0.0
142
0.0
142
0.0
142
0.0
142
1.0
179
     0
144
0.0208333333333333
144
0.0
144
0.0
144
0.0
144
0.0
144
0.0208333333333333
144
0.0
144
0.0
144
0.0
144
0.0
144
1.0
144
0.0
144
0.0
144
0.0
144
0.0
144
1.0
147
0.0208333333333333
147
0.0
147
0.0
147
0.0
147
0.0
147
0.0208333333333333
147
0.0
147
0.0
147
0.0
147
0.0
147
1.0
147
0.0
147
0.0
147
0.0
147
0.0
147
1.0
  0
MATERIAL
  5
643
102
{ACAD_XDICTIONARY
360
644
102
}
102
{ACAD_REACTORS
330
632
102
}
330
632
100
AcDbMaterial
  1
Global
 72
     0
 43
0.0208333333333333
 43
0.0
 43
0.0
 43
0.0
 43
0.0
 43
0.0208333333333333
 43
0.0
 43
0.0
 43
0.0
 43
0.0
 43
1.0
 43
0.0
 43
0.0
 43
0.0
 43
0.0
 43
1.0
 77
     0
 47
0.0208333333333333
 47
0.0
 47
0.0
 47
0.0
 47
0.0
 47
0.0208333333333333
 47
0.0
 47
0.0
 47
0.0
 47
0.0
 47
1.0
 47
0.0
 47
0.0
 47
0.0
 47
0.0
 47
1.0
171
     0
 49
0.0208333333333333
 49
0.0
 49
0.0
 49
0.0
 49
0.0
 49
0.0208333333333333
 49
0.0
 49
0.0
 49
0.0
 49
0.0
 49
1.0
 49
0.0
 49
0.0
 49
0.0
 49
0.0
 49
1.0
175
     0
142
0.0208333333333333
142
0.0
142
0.0
142
0.0
142
0.0
142
0.0208333333333333
142
0.0
142
0.0
142
0.0
142
0.0
142
1.0
142
0.0
142
0.0
142
0.0
142
0.0
142
1.0
179
     0
144
0.0208333333333333
144
0.0
144
0.0
144
0.0
144
0.0
144
0.0208333333333333
144
0.0
144
0.0
144
0.0
144
0.0
144
1.0
144
0.0
144
0.0
144
0.0
144
0.0
144
1.0
147
0.0208333333333333
147
0.0
147
0.0
147
0.0
147
0.0
147
0.0208333333333333
147
0.0
147
0.0
147
0.0
147
0.0
147
1.0
147
0.0
147
0.0
147
0.0
147
0.0
147
1.0
  0
MLEADERSTYLE
  5
682
102
{ACAD_REACTORS
330
681
102
}
330
681
100
AcDbMLeaderStyle
170
     2
171
     1
172
     0
 90
        2
 40
0.0
 41
0.0
173
     1
 91
-1056964608
340
15
 92
       -2
290
     1
 42
0.09
291
     1
 43
0.36
  3
Standard
 44
0.18
300

342
12
174
     1
178
     6
175
     1
176
     0
 93
-1056964608
 45
0.18
292
     0
297
     0
 46
0.18
 94
-1056964608
 47
1.0
 49
1.0
140
1.0
293
     1
141
0.0
294
     1
177
     0
142
1.0
295
     0
296
     0
143
0.125
1001
ACAD_MLEADERVER
1070
     2
  0
MLINESTYLE
  5
24
102
{ACAD_REACTORS
330
21
102
}
330
21
100
AcDbMlineStyle
  2
STANDARD
 70
     0
  3

 62
   256
 51
90.0
 52
90.0
 71
     2
 49
0.5
 62
   256
  6
BYLAYER
 49
-0.5
 62
   256
  6
BYLAYER
  0
MLINESTYLE
  5
75F
102
{ACAD_REACTORS
330
21
102
}
330
21
100
AcDbMlineStyle
  2
WID_SLEEVE
 70
     1
  3
WID_SLEEVE
 62
   253
 51
90.0
 52
90.0
 71
     2
 49
0.075
 62
   256
  6
BYLAYER
 49
-0.075
 62
   256
  6
BYLAYER
  0
PLOTSETTINGS
  5
925
102
{ACAD_REACTORS
330
22
102
}
330
22
100
AcDbPlotSettings
  1
1055 24x36 BW
  2
1055B&WDraftShaded.pc3
  4
User257
  6

 40
14.98600006103515
 41
8.297271728515625
 42
14.9859619140625
 43
8.29736328125
 44
914.3153076171875
 45
1269.915283203125
 46
0.0
 47
0.0
 48
0.0
 49
0.0
140
0.0
141
0.0
142
1.0
143
1.0
 70
  2800
 72
     0
 73
     2
 74
     1
  7
Full_B&W.ctb
 75
    16
147
1.0
 76
     0
 77
     2
 78
   300
148
-75.74468520391772
149
-27.53050504688192
1001
ACAD_PSEXT
1000
1055B&WDraftShaded.pc3
1000
HP DesignJet 1055CM by HP
1000
FRONT
1000

1070
     0
  0
PLOTSETTINGS
  5
926
102
{ACAD_REACTORS
330
22
102
}
330
22
100
AcDbPlotSettings
  1
1055 24x36 BW Final
  2
1055B&WFinalShaded.pc3
  4
User257
  6

 40
14.98600006103515
 41
8.297271728515625
 42
14.9859619140625
 43
8.29736328125
 44
914.357666015625
 45
1269.957641601562
 46
0.0
 47
0.0
 48
0.0
 49
0.0
140
0.0
141
0.0
142
1.0
143
1.0
 70
  2800
 72
     0
 73
     2
 74
     1
  7
Full_B&W.ctb
 75
    16
147
1.0
 76
     0
 77
     2
 78
   300
148
-75.74468520391772
149
-27.53050504688192
1001
ACAD_PSEXT
1000
1055B&WFinalShaded.pc3
1000
HP DesignJet 1055CM by HP
1000
FRONT
1000

1070
     0
  0
PLOTSETTINGS
  5
927
102
{ACAD_REACTORS
330
22
102
}
330
22
100
AcDbPlotSettings
  1
1055 24x36 Color
  2
1055ColorDraftShaded.pc3
  4
User257
  6

 40
14.98600006103515
 41
8.297271728515625
 42
14.9859619140625
 43
8.29736328125
 44
914.3153076171875
 45
1269.915283203125
 46
0.0
 47
0.0
 48
0.0
 49
0.0
140
0.0
141
0.0
142
1.0
143
1.0
 70
  2800
 72
     0
 73
     2
 74
     1
  7
Color.ctb
 75
    16
147
1.0
 76
     0
 77
     2
 78
   300
148
-75.74468520391772
149
-27.53050504688192
1001
ACAD_PSEXT
1000
1055ColorDraftShaded.pc3
1000
HP DesignJet 1055CM by HP
1000
FRONT
1000

1070
     0
  0
PLOTSETTINGS
  5
928
102
{ACAD_REACTORS
330
22
102
}
330
22
100
AcDbPlotSettings
  1
1055 24x36 Color Shaded
  2
1055ColorDraftShaded.pc3
  4
User257
  6

 40
14.98600006103515
 41
8.297271728515625
 42
14.9859619140625
 43
8.29736328125
 44
914.3153076171875
 45
1269.915283203125
 46
0.0
 47
0.0
 48
0.0
 49
0.0
140
0.0
141
0.0
142
1.0
143
1.0
 70
  2800
 72
     0
 73
     2
 74
     1
  7
Full_Color.ctb
 75
    16
147
1.0
 76
     0
 77
     2
 78
   300
148
-75.74468520391772
149
-27.53050504688192
1001
ACAD_PSEXT
1000
1055ColorDraftShaded.pc3
1000
HP DesignJet 1055CM by HP
1000
FRONT
1000

1070
     0
  0
PLOTSETTINGS
  5
929
102
{ACAD_REACTORS
330
22
102
}
330
22
100
AcDbPlotSettings
  1
1055 30x42 BW
  2
1055B&WDraftShaded.pc3
  4
User257
  6

 40
14.98600006103515
 41
8.297271728515625
 42
14.9859619140625
 43
8.29736328125
 44
914.3153076171875
 45
1269.915283203125
 46
0.0
 47
0.0
 48
0.0
 49
0.0
140
0.0
141
0.0
142
1.0
143
1.0
 70
  2800
 72
     0
 73
     1
 74
     1
  7
Full_B&W.ctb
 75
    16
147
1.0
 76
     0
 77
     2
 78
   300
148
-75.74468520391772
149
-27.53050504688192
1001
ACAD_PSEXT
1000
1055B&WDraftShaded.pc3
1000
HP DesignJet 1055CM by HP
1000
FRONT
1000

1070
     0
  0
PLOTSETTINGS
  5
92A
102
{ACAD_REACTORS
330
22
102
}
330
22
100
AcDbPlotSettings
  1
1055 30x42 BW Final
  2
1055B&WFinalShaded.pc3
  4
User257
  6

 40
14.98600006103515
 41
8.297271728515625
 42
14.9859619140625
 43
8.29736328125
 44
914.357666015625
 45
1269.957641601562
 46
0.0
 47
0.0
 48
0.0
 49
0.0
140
0.0
141
0.0
142
1.0
143
1.0
 70
  2800
 72
     0
 73
     1
 74
     1
  7
Full_B&W.ctb
 75
    16
147
1.0
 76
     0
 77
     2
 78
   300
148
-75.74468520391772
149
-27.53050504688192
1001
ACAD_PSEXT
1000
1055B&WFinalShaded.pc3
1000
HP DesignJet 1055CM by HP
1000
FRONT
1000

1070
     0
  0
PLOTSETTINGS
  5
92B
102
{ACAD_REACTORS
330
22
102
}
330
22
100
AcDbPlotSettings
  1
1055 B&W Draft
  2
1055B&WDraftShaded.pc3
  4
User257
  6

 40
4.995333194732666
 41
8.297271728515625
 42
4.99530029296875
 43
8.29736328125
 44
914.3153076171875
 45
1269.915283203125
 46
0.0
 47
0.0
 48
0.0
 49
0.0
140
0.0
141
0.0
142
1.0
143
30.0
 70
 11936
 72
     0
 73
     2
 74
     1
  7
Full_B&W.ctb
 75
     0
147
3.484472351238056
 76
     0
 77
     2
 78
   300
148
-119.4582094169044
149
-58.17053554795709
1001
ACAD_PSEXT
1000
1055B&WDraftShaded.pc3
1000
HP DesignJet 1055CM by HP
1000
\\aqua-srv01
1000

1070
     0
  0
PLOTSETTINGS
  5
92C
102
{ACAD_REACTORS
330
22
102
}
330
22
100
AcDbPlotSettings
  1
1055 B&W Final
  2
1055B&WFinalShaded.pc3
  4
User257
  6

 40
4.995333194732666
 41
8.297271728515625
 42
4.99530029296875
 43
8.29736328125
 44
914.357666015625
 45
1269.957641601562
 46
0.0
 47
0.0
 48
0.0
 49
0.0
140
0.0
141
0.0
142
1.0
143
30.0
 70
 11936
 72
     0
 73
     2
 74
     1
  7
Full_B&W.ctb
 75
     0
147
3.484472351238056
 76
     0
 77
     2
 78
   300
148
-119.4582094169044
149
-58.17053554795709
1001
ACAD_PSEXT
1000
1055B&WFinalShaded.pc3
1000
HP DesignJet 1055CM by HP
1000
\\aqua-srv01
1000

1070
     0
  0
PLOTSETTINGS
  5
92D
102
{ACAD_REACTORS
330
22
102
}
330
22
100
AcDbPlotSettings
  1
1055 BW Half
  2
1055B&WDraftShaded.pc3
  4
User257
  6

 40
14.98600006103515
 41
8.297271728515625
 42
14.9859619140625
 43
8.29736328125
 44
914.3153076171875
 45
1269.915283203125
 46
0.0
 47
0.0
 48
0.0
 49
0.0
140
0.0
141
0.0
142
1.0
143
2.0
 70
  2800
 72
     0
 73
     2
 74
     1
  7
Full_B&W.ctb
 75
    17
147
0.5
 76
     0
 77
     2
 78
   300
148
-75.74468520391772
149
-27.53050504688192
1001
ACAD_PSEXT
1000
1055B&WDraftShaded.pc3
1000
HP DesignJet 1055CM by HP
1000
FRONT
1000

1070
     0
  0
PLOTSETTINGS
  5
92E
102
{ACAD_REACTORS
330
22
102
}
330
22
100
AcDbPlotSettings
  1
1055 Color Draft
  2
1055ColorDraftShaded.pc3
  4
User257
  6

 40
4.995333194732666
 41
8.297271728515625
 42
4.99530029296875
 43
8.29736328125
 44
914.3153076171875
 45
1269.915283203125
 46
0.0
 47
0.0
 48
0.0
 49
0.0
140
0.0
141
0.0
142
1.0
143
30.0
 70
 11936
 72
     0
 73
     2
 74
     1
  7
Full_Color.ctb
 75
     0
147
3.484472351238056
 76
     0
 77
     2
 78
   300
148
-119.4582094169044
149
-58.17053554795709
1001
ACAD_PSEXT
1000
1055ColorDraftShaded.pc3
1000
HP DesignJet 1055CM by HP
1000
\\aqua-srv01
1000

1070
     0
  0
PLOTSETTINGS
  5
92F
102
{ACAD_REACTORS
330
22
102
}
330
22
100
AcDbPlotSettings
  1
1055 Color Final
  2
1055ColorFinalShaded.pc3
  4
User257
  6

 40
4.995333194732666
 41
8.297271728515625
 42
4.99530029296875
 43
8.29736328125
 44
914.357666015625
 45
1269.957641601562
 46
0.0
 47
0.0
 48
0.0
 49
0.0
140
0.0
141
0.0
142
1.0
143
30.0
 70
 11936
 72
     0
 73
     2
 74
     1
  7
Full_Color.ctb
 75
     0
147
3.484472351238056
 76
     0
 77
     2
 78
   300
148
-119.4582094169044
149
-58.17053554795709
1001
ACAD_PSEXT
1000
1055ColorFinalShaded.pc3
1000
HP DesignJet 1055CM by HP
1000
\\aqua-srv01
1000

1070
     0
  0
PLOTSETTINGS
  5
930
102
{ACAD_REACTORS
330
22
102
}
330
22
100
AcDbPlotSettings
  1
1055+ 24x36 BW
  2
1055_PLUS_B&WDraftShaded.pc3
  4
User257
  6

 40
14.98600006103515
 41
8.297271728515625
 42
14.9859619140625
 43
8.29736328125
 44
914.3153076171875
 45
1269.915283203125
 46
0.0
 47
0.0
 48
0.0
 49
0.0
140
0.0
141
0.0
142
1.0
143
1.0
 70
  2800
 72
     0
 73
     2
 74
     1
  7
Full_B&W.ctb
 75
    16
147
1.0
 76
     0
 77
     2
 78
   300
148
-75.74468520391772
149
-27.53050504688192
1001
ACAD_PSEXT
1000
1055_PLUS_B&WDraftShaded.pc3
1000
HP DesignJet 1055CM by HP
1000
FRONT
1000

1070
     0
  0
PLOTSETTINGS
  5
931
102
{ACAD_REACTORS
330
22
102
}
330
22
100
AcDbPlotSettings
  1
1055+ 24x36 BW Final
  2
1055_PLUS_B&WFinalShaded.pc3
  4
User257
  6

 40
14.98600006103515
 41
8.297271728515625
 42
14.9859619140625
 43
8.29736328125
 44
914.357666015625
 45
1269.957641601562
 46
0.0
 47
0.0
 48
0.0
 49
0.0
140
0.0
141
0.0
142
1.0
143
1.0
 70
  2800
 72
     0
 73
     2
 74
     1
  7
Full_B&W.ctb
 75
    16
147
1.0
 76
     0
 77
     2
 78
   300
148
-75.74468520391772
149
-27.53050504688192
1001
ACAD_PSEXT
1000
1055_PLUS_B&WFinalShaded.pc3
1000
HP DesignJet 1055CM by HP
1000
FRONT
1000

1070
     0
  0
PLOTSETTINGS
  5
932
102
{ACAD_REACTORS
330
22
102
}
330
22
100
AcDbPlotSettings
  1
1055+ 24x36 Color
  2
1055_PLUS_ColorDraftShaded.pc3
  4
User257
  6

 40
14.98600006103515
 41
8.297271728515625
 42
14.9859619140625
 43
8.29736328125
 44
914.3153076171875
 45
1269.915283203125
 46
0.0
 47
0.0
 48
0.0
 49
0.0
140
0.0
141
0.0
142
1.0
143
1.0
 70
  2800
 72
     0
 73
     2
 74
     1
  7
Color.ctb
 75
    16
147
1.0
 76
     0
 77
     2
 78
   300
148
-75.74468520391772
149
-27.53050504688192
1001
ACAD_PSEXT
1000
1055_PLUS_ColorDraftShaded.pc3
1000
HP DesignJet 1055CM by HP
1000
FRONT
1000

1070
     0
  0
PLOTSETTINGS
  5
933
102
{ACAD_REACTORS
330
22
102
}
330
22
100
AcDbPlotSettings
  1
1055+ 24x36 Color Shaded
  2
1055_PLUS_ColorDraftShaded.pc3
  4
User257
  6

 40
14.98600006103515
 41
8.297271728515625
 42
14.9859619140625
 43
8.29736328125
 44
914.3153076171875
 45
1269.915283203125
 46
0.0
 47
0.0
 48
0.0
 49
0.0
140
0.0
141
0.0
142
1.0
143
1.0
 70
  2800
 72
     0
 73
     2
 74
     1
  7
Full_Color.ctb
 75
    16
147
1.0
 76
     0
 77
     2
 78
   300
148
-75.74468520391772
149
-27.53050504688192
1001
ACAD_PSEXT
1000
1055_PLUS_ColorDraftShaded.pc3
1000
HP DesignJet 1055CM by HP
1000
FRONT
1000

1070
     0
  0
PLOTSETTINGS
  5
934
102
{ACAD_REACTORS
330
22
102
}
330
22
100
AcDbPlotSettings
  1
1055+ 30x42 BW
  2
1055_PLUS_B&WDraftShaded.pc3
  4
User257
  6

 40
14.98600006103515
 41
8.297271728515625
 42
14.9859619140625
 43
8.29736328125
 44
914.3153076171875
 45
1269.915283203125
 46
0.0
 47
0.0
 48
0.0
 49
0.0
140
0.0
141
0.0
142
1.0
143
1.0
 70
  2800
 72
     0
 73
     1
 74
     1
  7
Full_B&W.ctb
 75
    16
147
1.0
 76
     0
 77
     2
 78
   300
148
-75.74468520391772
149
-27.53050504688192
1001
ACAD_PSEXT
1000
1055_PLUS_B&WDraftShaded.pc3
1000
HP DesignJet 1055CM by HP
1000
FRONT
1000

1070
     0
  0
PLOTSETTINGS
  5
935
102
{ACAD_REACTORS
330
22
102
}
330
22
100
AcDbPlotSettings
  1
1055+ 30x42 BW Final
  2
1055_PLUS_B&WFinalShaded.pc3
  4
User257
  6

 40
14.98600006103515
 41
8.297271728515625
 42
14.9859619140625
 43
8.29736328125
 44
914.357666015625
 45
1269.957641601562
 46
0.0
 47
0.0
 48
0.0
 49
0.0
140
0.0
141
0.0
142
1.0
143
1.0
 70
  2800
 72
     0
 73
     1
 74
     1
  7
Full_B&W.ctb
 75
    16
147
1.0
 76
     0
 77
     2
 78
   300
148
-75.74468520391772
149
-27.53050504688192
1001
ACAD_PSEXT
1000
1055_PLUS_B&WFinalShaded.pc3
1000
HP DesignJet 1055CM by HP
1000
FRONT
1000

1070
     0
  0
PLOTSETTINGS
  5
936
102
{ACAD_REACTORS
330
22
102
}
330
22
100
AcDbPlotSettings
  1
1055+ B&W Draft
  2
1055_PLUS_B&WDraftShaded.pc3
  4
User257
  6

 40
4.995333194732666
 41
13.2926607131958
 42
4.99530029296875
 43
13.292724609375
 44
914.3153076171875
 45
1269.915283203125
 46
0.0
 47
0.0
 48
0.0
 49
0.0
140
0.0
141
0.0
142
1.0
143
30.0
 70
 11936
 72
     0
 73
     2
 74
     1
  7
Full_B&W.ctb
 75
     0
147
3.484472351238056
 76
     0
 77
     2
 78
   300
148
-119.4582094169044
149
-58.17053554795709
1001
ACAD_PSEXT
1000
1055_PLUS_B&WDraftShaded.pc3
1000
HP DesignJet 1055CM by HP
1000
\\aqua-srv01
1000

1070
     0
  0
PLOTSETTINGS
  5
937
102
{ACAD_REACTORS
330
22
102
}
330
22
100
AcDbPlotSettings
  1
1055+ B&W Final
  2
1055_PLUS_B&WFinalShaded.pc3
  4
User257
  6

 40
4.995333194732666
 41
13.2926607131958
 42
4.99530029296875
 43
13.292724609375
 44
914.357666015625
 45
1269.957641601562
 46
0.0
 47
0.0
 48
0.0
 49
0.0
140
0.0
141
0.0
142
1.0
143
30.0
 70
 11936
 72
     0
 73
     2
 74
     1
  7
Full_B&W.ctb
 75
     0
147
3.484472351238056
 76
     0
 77
     2
 78
   300
148
-119.4582094169044
149
-58.17053554795709
1001
ACAD_PSEXT
1000
1055_PLUS_B&WFinalShaded.pc3
1000
HP DesignJet 1055CM by HP
1000
\\aqua-srv01
1000

1070
     0
  0
PLOTSETTINGS
  5
938
102
{ACAD_REACTORS
330
22
102
}
330
22
100
AcDbPlotSettings
  1
1055+ BW Half
  2
1055_PLUS_B&WDraftShaded.pc3
  4
User257
  6

 40
14.98600006103515
 41
8.297271728515625
 42
14.9859619140625
 43
8.29736328125
 44
914.3153076171875
 45
1269.915283203125
 46
0.0
 47
0.0
 48
0.0
 49
0.0
140
0.0
141
0.0
142
1.0
143
2.0
 70
  2800
 72
     0
 73
     2
 74
     1
  7
Full_B&W.ctb
 75
    17
147
0.5
 76
     0
 77
     2
 78
   300
148
-75.74468520391772
149
-27.53050504688192
1001
ACAD_PSEXT
1000
1055_PLUS_B&WDraftShaded.pc3
1000
HP DesignJet 1055CM by HP
1000
FRONT
1000

1070
     0
  0
PLOTSETTINGS
  5
939
102
{ACAD_REACTORS
330
22
102
}
330
22
100
AcDbPlotSettings
  1
1055+ Color Draft
  2
1055_PLUS_ColorDraftShaded.pc3
  4
User257
  6

 40
4.995333194732666
 41
8.297271728515625
 42
4.99530029296875
 43
8.29736328125
 44
914.3153076171875
 45
1269.915283203125
 46
0.0
 47
0.0
 48
0.0
 49
0.0
140
0.0
141
0.0
142
1.0
143
30.0
 70
 11936
 72
     0
 73
     2
 74
     1
  7
Full_Color.ctb
 75
     0
147
3.484472351238056
 76
     0
 77
     2
 78
   300
148
-119.4582094169044
149
-58.17053554795709
1001
ACAD_PSEXT
1000
1055_PLUS_ColorDraftShaded.pc3
1000
HP DesignJet 1055CM by HP
1000
\\aqua-srv01
1000

1070
     0
  0
PLOTSETTINGS
  5
93A
102
{ACAD_REACTORS
330
22
102
}
330
22
100
AcDbPlotSettings
  1
1055+ Color Final
  2
1055_PLUS_ColorFinalShaded.pc3
  4
User257
  6

 40
4.995333194732666
 41
13.2926607131958
 42
4.99530029296875
 43
13.292724609375
 44
914.357666015625
 45
1269.957641601562
 46
0.0
 47
0.0
 48
0.0
 49
0.0
140
0.0
141
0.0
142
1.0
143
30.0
 70
 11936
 72
     0
 73
     2
 74
     1
  7
Full_Color.ctb
 75
     0
147
3.484472351238056
 76
     0
 77
     2
 78
   300
148
-119.4582094169044
149
-58.17053554795709
1001
ACAD_PSEXT
1000
1055_PLUS_ColorFinalShaded.pc3
1000
HP DesignJet 1055CM by HP
1000
\\aqua-srv01
1000

1070
     0
  0
PLOTSETTINGS
  5
93B
102
{ACAD_REACTORS
330
22
102
}
330
22
100
AcDbPlotSettings
  1
_1055 22x34 True Centered BW
  2
1055B&WDraftShaded 24x36 true.pc3
  4
User1639
  6

 40
0.0
 41
0.0
 42
0.0
 43
0.0
 44
863.6000366210938
 45
558.7999877929687
 46
379.1860116761152
 47
224.9166389522296
 48
0.0
 49
0.0
140
0.0
141
0.0
142
1.0
143
1.0
 70
  2804
 72
     0
 73
     0
 74
     1
  7
Full_B&W.ctb
 75
    16
147
1.0
 76
     0
 77
     2
 78
   300
148
-75.74468520391772
149
-27.53050504688192
1001
ACAD_PSEXT
1000
1055B&WDraftShaded 24x36 true.pc3
1000
HP DesignJet 1055CM by HP
1000
FRONT
1000

1070
     0
  0
PLOTSETTINGS
  5
93C
102
{ACAD_REACTORS
330
22
102
}
330
22
100
AcDbPlotSettings
  1
_1055 24x36 True Centered BW
  2
1055B&WDraftShaded 24x36 true.pc3
  4
User1308
  6

 40
14.98600006103515
 41
8.297332763671875
 42
14.9859619140625
 43
8.29736328125
 44
914.3153076171875
 45
609.5153198242187
 46
389.5576661866133
 47
241.9769569453936
 48
0.0
 49
0.0
140
0.0
141
0.0
142
1.0
143
1.0
 70
  2804
 72
     0
 73
     0
 74
     1
  7
Full_B&W.ctb
 75
    16
147
1.0
 76
     0
 77
     2
 78
   300
148
-75.74468520391772
149
-27.53050504688192
1001
ACAD_PSEXT
1000
1055B&WDraftShaded 24x36 true.pc3
1000
HP DesignJet 1055CM by HP
1000
FRONT
1000

1070
     0
  0
PLOTSETTINGS
  5
93D
102
{ACAD_REACTORS
330
22
102
}
330
22
100
AcDbPlotSettings
  1
_1055 24x36 True Centered BW Final
  2
1055B&WFinalShaded 24x36 true.pc3
  4
User1308
  6

 40
14.98600006103515
 41
8.297332763671875
 42
14.9859619140625
 43
8.29736328125
 44
914.357666015625
 45
609.5576782226562
 46
389.578845385832
 47
241.9981361446124
 48
0.0
 49
0.0
140
0.0
141
0.0
142
1.0
143
1.0
 70
  2804
 72
     0
 73
     0
 74
     1
  7
Full_B&W.ctb
 75
    16
147
1.0
 76
     0
 77
     2
 78
   300
148
-75.74468520391772
149
-27.53050504688192
1001
ACAD_PSEXT
1000
1055B&WFinalShaded 24x36 true.pc3
1000
HP DesignJet 1055CM by HP
1000
FRONT
1000

1070
     0
  0
PLOTSETTINGS
  5
93E
102
{ACAD_REACTORS
330
22
102
}
330
22
100
AcDbPlotSettings
  1
_1055 24x36 True Centered Color
  2
1055ColorDraftShaded 24x36 true.pc3
  4
User1308
  6

 40
14.98600006103515
 41
8.297332763671875
 42
14.9859619140625
 43
8.29736328125
 44
914.3153076171875
 45
609.5153198242187
 46
389.5576661866133
 47
241.9769569453936
 48
0.0
 49
0.0
140
0.0
141
0.0
142
1.0
143
1.0
 70
  2804
 72
     0
 73
     0
 74
     1
  7
Full_Color.ctb
 75
    16
147
1.0
 76
     0
 77
     2
 78
   300
148
-75.74468520391772
149
-27.53050504688192
1001
ACAD_PSEXT
1000
1055ColorDraftShaded 24x36 true.pc3
1000
HP DesignJet 1055CM by HP
1000
FRONT
1000

1070
     0
  0
PLOTSETTINGS
  5
93F
102
{ACAD_REACTORS
330
22
102
}
330
22
100
AcDbPlotSettings
  1
_1055 30x42 True Centered BW
  2
1055B&WDraftShaded 30x42 true.pc3
  4
User286
  6

 40
0.0
 41
0.0
 42
-0.08465576171875
 43
-0.084716796875
 44
761.9153442382812
 45
1066.71533203125
 46
326.5166450557452
 47
480.7860177796309
 48
0.0
 49
0.0
140
0.0
141
0.0
142
1.0
143
1.0
 70
  2804
 72
     0
 73
     1
 74
     1
  7
Full_B&W.ctb
 75
    16
147
1.0
 76
     0
 77
     2
 78
   300
148
-75.74468520391772
149
-27.53050504688192
1001
ACAD_PSEXT
1000
1055B&WDraftShaded 30x42 true.pc3
1000
HP DesignJet 1055CM by HP
1000
FRONT
1000

1070
     0
  0
PLOTSETTINGS
  5
940
102
{ACAD_REACTORS
330
22
102
}
330
22
100
AcDbPlotSettings
  1
_1055+ 22x34 True Centered BW
  2
1055_PLUS_B&WDraftShaded 24x36 true.pc3
  4
User1639
  6

 40
0.0
 41
0.0
 42
0.0
 43
0.0
 44
863.6000366210938
 45
558.7999877929687
 46
379.1860116761152
 47
224.9166389522296
 48
0.0
 49
0.0
140
0.0
141
0.0
142
1.0
143
1.0
 70
  2804
 72
     0
 73
     0
 74
     1
  7
Full_B&W.ctb
 75
    16
147
1.0
 76
     0
 77
     2
 78
   300
148
-75.74468520391772
149
-27.53050504688192
1001
ACAD_PSEXT
1000
1055_PLUS_B&WDraftShaded 24x36 true.pc3
1000
HP DesignJet 1055CM by HP
1000
FRONT
1000

1070
     0
  0
PLOTSETTINGS
  5
941
102
{ACAD_REACTORS
330
22
102
}
330
22
100
AcDbPlotSettings
  1
_1055+ 24x36 True Centered BW
  2
1055_PLUS_B&WDraftShaded 24x36 true.pc3
  4
User1308
  6

 40
14.98600006103515
 41
8.297332763671875
 42
14.9859619140625
 43
8.29736328125
 44
914.3153076171875
 45
609.5153198242187
 46
389.5576661866133
 47
241.9769569453936
 48
0.0
 49
0.0
140
0.0
141
0.0
142
1.0
143
1.0
 70
  2804
 72
     0
 73
     0
 74
     1
  7
Full_B&W.ctb
 75
    16
147
1.0
 76
     0
 77
     2
 78
   300
148
-75.74468520391772
149
-27.53050504688192
1001
ACAD_PSEXT
1000
1055_PLUS_B&WDraftShaded 24x36 true.pc3
1000
HP DesignJet 1055CM by HP
1000
FRONT
1000

1070
     0
  0
PLOTSETTINGS
  5
942
102
{ACAD_REACTORS
330
22
102
}
330
22
100
AcDbPlotSettings
  1
_1055+ 24x36 True Centered BW Final
  2
1055_PLUS_B&WFinalShaded 24x36 true.pc3
  4
User1308
  6

 40
14.98600006103515
 41
8.297332763671875
 42
14.9859619140625
 43
8.29736328125
 44
914.357666015625
 45
609.5576782226562
 46
389.578845385832
 47
241.9981361446124
 48
0.0
 49
0.0
140
0.0
141
0.0
142
1.0
143
1.0
 70
  2804
 72
     0
 73
     0
 74
     1
  7
Full_B&W.ctb
 75
    16
147
1.0
 76
     0
 77
     2
 78
   300
148
-75.74468520391772
149
-27.53050504688192
1001
ACAD_PSEXT
1000
1055_PLUS_B&WFinalShaded 24x36 true.pc3
1000
HP DesignJet 1055CM by HP
1000
FRONT
1000

1070
     0
  0
PLOTSETTINGS
  5
943
102
{ACAD_REACTORS
330
22
102
}
330
22
100
AcDbPlotSettings
  1
_1055+ 24x36 True Centered Color
  2
1055_PLUS_ColorDraftShaded 24x36 true.pc3
  4
User1308
  6

 40
14.98600006103515
 41
8.297332763671875
 42
14.9859619140625
 43
8.29736328125
 44
914.3153076171875
 45
609.5153198242187
 46
389.5576661866133
 47
241.9769569453936
 48
0.0
 49
0.0
140
0.0
141
0.0
142
1.0
143
1.0
 70
  2804
 72
     0
 73
     0
 74
     1
  7
Full_Color.ctb
 75
    16
147
1.0
 76
     0
 77
     2
 78
   300
148
-75.74468520391772
149
-27.53050504688192
1001
ACAD_PSEXT
1000
1055_PLUS_ColorDraftShaded 24x36 true.pc3
1000
HP DesignJet 1055CM by HP
1000
FRONT
1000

1070
     0
  0
PLOTSETTINGS
  5
944
102
{ACAD_REACTORS
330
22
102
}
330
22
100
AcDbPlotSettings
  1
_1055+ 30x42 True Centered BW
  2
1055_PLUS_B&WDraftShaded 30x42 true.pc3
  4
User636
  6

 40
0.0
 41
0.0
 42
0.0
 43
0.0
 44
762.0
 45
1066.800048828125
 46
326.5166450557452
 47
480.7860177796309
 48
0.0
 49
0.0
140
0.0
141
0.0
142
1.0
143
1.0
 70
  2804
 72
     0
 73
     1
 74
     1
  7
Full_B&W.ctb
 75
    16
147
1.0
 76
     0
 77
     2
 78
   300
148
-75.74468520391772
149
-27.53050504688192
1001
ACAD_PSEXT
1000
1055_PLUS_B&WDraftShaded 30x42 true.pc3
1000
HP DesignJet 1055CM by HP
1000
Front
1000

1070
     0
  0
PLOTSETTINGS
  5
945
102
{ACAD_REACTORS
330
22
102
}
330
22
100
AcDbPlotSettings
  1
DWF BW 11x17 Fit
  2
DWF-BW_11x17.pc3
  4
UserDefinedImperial (17.00 x 11.00Inches)
  6

 40
0.0
 41
0.0
 42
0.0
 43
0.0
 44
431.7999877929687
 45
279.3999938964844
 46
80.99316641155249
 47
0.000000000000005
 48
0.0
 49
0.0
140
0.0
141
0.0
142
1.0
143
0.3900025492802298
 70
  2740
 72
     0
 73
     0
 74
     1
  7
Full_B&W.ctb
 75
     0
147
2.564085803658341
 76
     0
 77
     2
 78
   300
148
-75.74468520391772
149
-27.53050504688192
1001
ACAD_PSEXT
1000
DWF-BW_11x17.pc3
1000
DWF eView (optimized for viewing)
1000
File
1000

1070
     0
  0
PLOTSETTINGS
  5
946
102
{ACAD_REACTORS
330
22
102
}
330
22
100
AcDbPlotSettings
  1
DWF BW 11x17 Half
  2
DWF-BW_11x17.pc3
  4
UserDefinedImperial (17.00 x 11.00Inches)
  6

 40
0.0
 41
0.0
 42
0.0
 43
0.0
 44
431.7999877929687
 45
279.3999938964844
 46
189.5929905792686
 47
112.4583194761148
 48
0.0
 49
0.0
140
0.0
141
0.0
142
1.0
143
2.0
 70
  2740
 72
     0
 73
     0
 74
     1
  7
Full_B&W.ctb
 75
    17
147
0.5
 76
     0
 77
     2
 78
   300
148
-75.74468520391772
149
-27.53050504688192
1001
ACAD_PSEXT
1000
DWF-BW_11x17.pc3
1000
DWF eView (optimized for viewing)
1000
File
1000

1070
     0
  0
PLOTSETTINGS
  5
947
102
{ACAD_REACTORS
330
22
102
}
330
22
100
AcDbPlotSettings
  1
DWF BW 22x34
  2
DWF-BW_22x34.pc3
  4
UserDefinedImperial (34.00 x 22.00Inches)
  6

 40
0.0
 41
0.0
 42
0.0
 43
0.0
 44
863.5999755859375
 45
558.7999877929687
 46
379.1859811585372
 47
224.9166389522296
 48
0.0
 49
0.0
140
0.0
141
0.0
142
1.0
143
1.0
 70
  2740
 72
     0
 73
     0
 74
     1
  7
Full_B&W.ctb
 75
    16
147
1.0
 76
     0
 77
     2
 78
   300
148
-75.74468520391772
149
-27.53050504688192
1001
ACAD_PSEXT
1000
DWF-BW_22x34.pc3
1000
DWF eView (optimized for viewing)
1000
File
1000

1070
     0
  0
PLOTSETTINGS
  5
948
102
{ACAD_REACTORS
330
22
102
}
330
22
100
AcDbPlotSettings
  1
DWF BW 24x36
  2
DWF-BW_24x36.pc3
  4
UserDefinedImperial (36.00 x 24.00Inches)
  6

 40
0.0
 41
0.0
 42
0.0
 43
0.0
 44
914.4000244140626
 45
609.5999755859375
 46
404.5860055725996
 47
250.3166328487139
 48
0.0
 49
0.0
140
0.0
141
0.0
142
1.0
143
1.0
 70
  2740
 72
     0
 73
     0
 74
     1
  7
Full_B&W.ctb
 75
    16
147
1.0
 76
     0
 77
     2
 78
   300
148
-75.74468520391772
149
-27.53050504688192
1001
ACAD_PSEXT
1000
DWF-BW_24x36.pc3
1000
DWF eView (optimized for viewing)
1000
File
1000

1070
     0
  0
PLOTSETTINGS
  5
949
102
{ACAD_REACTORS
330
22
102
}
330
22
100
AcDbPlotSettings
  1
DWF BW 30x42
  2
DWF-BW_30x42.pc3
  4
UserDefinedImperial (42.00 x 30.00Inches)
  6

 40
0.0
 41
0.0
 42
0.0
 43
0.0
 44
1066.800048828125
 45
762.0
 46
480.7860177796309
 47
326.5166450557452
 48
0.0
 49
0.0
140
0.0
141
0.0
142
1.0
143
1.0
 70
  2740
 72
     0
 73
     0
 74
     1
  7
Full_B&W.ctb
 75
    16
147
1.0
 76
     0
 77
     2
 78
   300
148
-75.74468520391772
149
-27.53050504688192
1001
ACAD_PSEXT
1000
DWF-BW_30x42.pc3
1000
DWF eView (optimized for viewing)
1000
File
1000

1070
     0
  0
PLOTSETTINGS
  5
94A
102
{ACAD_REACTORS
330
22
102
}
330
22
100
AcDbPlotSettings
  1
DWF BW 36x48
  2
DWF-BW_36x48.pc3
  4
UserDefinedImperial (48.00 x 36.00Inches)
  6

 40
0.0
 41
0.0
 42
0.0
 43
0.0
 44
1219.199951171875
 45
914.4000244140626
 46
556.9859689515058
 47
402.7166572627765
 48
0.0
 49
0.0
140
0.0
141
0.0
142
1.0
143
1.0
 70
  2740
 72
     0
 73
     0
 74
     1
  7
Full_B&W.ctb
 75
    16
147
1.0
 76
     0
 77
     2
 78
   300
148
-75.74468520391772
149
-27.53050504688192
1001
ACAD_PSEXT
1000
DWF-BW_36x48.pc3
1000
DWF eView (optimized for viewing)
1000
File
1000

1070
     0
  0
PLOTSETTINGS
  5
94B
102
{ACAD_REACTORS
330
22
102
}
330
22
100
AcDbPlotSettings
  1
Laser5 11x17 Fit
  2
LaserJet5Shaded.pc3
  4
11x17
  6

 40
5.873749732971191
 41
5.027085304260253
 42
5.873748779296875
 43
5.027069091796875
 44
431.7999877929687
 45
279.3999938964844
 46
79.97401308328474
 47
0.0
 48
0.0
 49
0.0
140
0.0
141
0.0
142
1.0
143
0.4045605831172927
 70
  2740
 72
     0
 73
     0
 74
     1
  7
LaserJet5Shaded.ctb
 75
     0
147
2.471817675104729
 76
     0
 77
     2
 78
   300
148
-75.74468520391772
149
-27.53050504688192
1001
ACAD_PSEXT
1000
LaserJet5Shaded.pc3
1000
HP LaserJet 5Si
1000
\\aqua-srv01
1000

1070
     0
  0
PLOTSETTINGS
  5
94C
102
{ACAD_REACTORS
330
22
102
}
330
22
100
AcDbPlotSettings
  1
Laser5 11x17 Full
  2
LaserJet5Shaded.pc3
  4
11x17
  6

 40
5.873749732971191
 41
5.027085304260253
 42
5.873748779296875
 43
5.027069091796875
 44
431.7999877929687
 45
279.3999938964844
 46
157.4122380059187
 47
80.18956480595884
 48
0.0
 49
0.0
140
0.0
141
0.0
142
1.0
143
1.0
 70
  2724
 72
     0
 73
     0
 74
     1
  7
LaserJet5Shaded.ctb
 75
     0
147
2.433550528115671
 76
     0
 77
     2
 78
   300
148
-75.74468520391772
149
-27.53050504688192
1001
ACAD_PSEXT
1000
LaserJet5Shaded.pc3
1000
HP LaserJet 5Si
1000
\\aqua-srv01
1000

1070
     0
  0
PLOTSETTINGS
  5
94D
102
{ACAD_REACTORS
330
22
102
}
330
22
100
AcDbPlotSettings
  1
Laser5 11x17 Half
  2
LaserJet5Shaded.pc3
  4
11x17
  6

 40
5.873749732971191
 41
5.027085304260253
 42
5.873748779296875
 43
5.027069091796875
 44
431.7999877929687
 45
279.3999938964844
 46
183.7192413231345
 47
107.4312422780862
 48
0.0
 49
0.0
140
0.0
141
0.0
142
1.0
143
2.0
 70
  2740
 72
     0
 73
     0
 74
     1
  7
LaserJet5Shaded.ctb
 75
    17
147
0.5
 76
     0
 77
     2
 78
   300
148
-75.74468520391772
149
-27.53050504688192
1001
ACAD_PSEXT
1000
LaserJet5Shaded.pc3
1000
HP LaserJet 5Si
1000
\\aqua-srv01
1000

1070
     0
  0
PLOTSETTINGS
  5
94E
102
{ACAD_REACTORS
330
22
102
}
330
22
100
AcDbPlotSettings
  1
Laser5 8x11 Fit
  2
LaserJet5Shaded-8x11.pc3
  4
Letter
  6

 40
5.873749732971191
 41
5.027085304260253
 42
5.873748779296875
 43
5.027084350585937
 44
279.3999938964844
 45
215.8999938964844
 46
34.4346667826652
 47
0.0
 48
0.0
 49
0.0
140
0.0
141
0.0
142
1.0
143
0.5293607985003172
 70
  2740
 72
     0
 73
     0
 74
     1
  7
LaserJet5Shaded.ctb
 75
     0
147
1.889070748784206
 76
     0
 77
     2
 78
   300
148
-75.74468520391772
149
-27.53050504688192
1001
ACAD_PSEXT
1000
LaserJet5Shaded-8x11.pc3
1000
HP LaserJet 5Si
1000
\\aqua-srv01
1000

1070
     0
  0
PLOTSETTINGS
  5
94F
102
{ACAD_REACTORS
330
22
102
}
330
22
100
AcDbPlotSettings
  1
Laser5 8x11 Half
  2
LaserJet5Shaded-8x11.pc3
  4
Letter
  6

 40
5.873749732971191
 41
5.027085304260253
 42
5.873748779296875
 43
5.027084350585937
 44
279.3999938964844
 45
215.8999938964844
 46
107.5192443748923
 47
75.68123464869171
 48
0.0
 49
0.0
140
0.0
141
0.0
142
1.0
143
2.0
 70
  2740
 72
     0
 73
     0
 74
     1
  7
LaserJet5Shaded.ctb
 75
    17
147
0.5
 76
     0
 77
     2
 78
   300
148
-75.74468520391772
149
-27.53050504688192
1001
ACAD_PSEXT
1000
LaserJet5Shaded-8x11.pc3
1000
HP LaserJet 5Si
1000
\\aqua-srv01
1000

1070
     0
  0
PLOTSETTINGS
  5
950
102
{ACAD_REACTORS
330
22
102
}
330
22
100
AcDbPlotSettings
  1
Laser5 8x11 Portrait Fit
  2
LaserJet5Shaded-8x11.pc3
  4
Letter
  6

 40
5.873749732971191
 41
5.027085304260253
 42
5.873748779296875
 43
5.027084350585937
 44
279.3999938964844
 45
215.8999938964844
 46
27.24653799736659
 47
0.0000000000000029
 48
0.0
 49
0.0
140
0.0
141
0.0
142
1.0
143
0.5111981924167587
 70
  2740
 72
     0
 73
     1
 74
     1
  7
LaserJet5Shaded.ctb
 75
     0
147
1.956188450652308
 76
     0
 77
     2
 78
   300
148
-75.74468520391772
149
-27.53050504688192
1001
ACAD_PSEXT
1000
LaserJet5Shaded-8x11.pc3
1000
HP LaserJet 5Si
1000
\\aqua-srv01
1000

1070
     0
  0
PLOTSETTINGS
  5
951
102
{ACAD_REACTORS
330
22
102
}
330
22
100
AcDbPlotSettings
  1
LaserJet5 11x17
  2
LaserJet5Shaded.pc3
  4
11x17
  6

 40
7.111999988555908
 41
5.079999923706054
 42
7.11199951171875
 43
5.079986572265625
 44
279.3999938964844
 45
431.7999877929687
 46
0.0
 47
74.88489939702606
 48
0.0
 49
0.0
140
0.0
141
0.0
142
1.0
143
0.3551636250563743
 70
 11956
 72
     0
 73
     1
 74
     1
  7
LaserJet5Shaded.ctb
 75
     0
147
2.815603652658045
 76
     0
 77
     2
 78
   300
148
-119.4582094169044
149
-58.17053554795709
1001
ACAD_PSEXT
1000
LaserJet5Shaded.pc3
1000
HP LaserJet 5Si
1000
\\aqua-srv01
1000

1070
     0
  0
PLOTSETTINGS
  5
952
102
{ACAD_REACTORS
330
22
102
}
330
22
100
AcDbPlotSettings
  1
LaserJet5 8.5x11
  2
LaserJet5Shaded-8x11.pc3
  4
Letter
  6

 40
5.873749732971191
 41
5.873734951019287
 42
6.55108642578125
 43
5.027084350585937
 44
279.3999938964844
 45
215.8999938964844
 46
28.40045128601757
 47
0.0000000000000046
 48
0.0
 49
0.0
140
0.0
141
0.0
142
1.0
143
0.4594207153946231
 70
 11956
 72
     0
 73
     0
 74
     1
  7
LaserJet5Shaded.ctb
 75
     0
147
2.176654135286525
 76
     0
 77
     2
 78
   300
148
-119.4582094169044
149
-58.17053554795709
1001
ACAD_PSEXT
1000
LaserJet5Shaded-8x11.pc3
1000
HP LaserJet 5Si
1000
CAD Area
1000

1070
     0
  0
PLOTSETTINGS
  5
953
102
{ACAD_REACTORS
330
22
102
}
330
22
100
AcDbPlotSettings
  1
Oki9500 11x17 BW Fit
  2
OKI DOKI Color Laser.pc3
  4
Tabloid
  6

 40
5.027083396911621
 41
5.027085304260253
 42
5.027099609375
 43
5.027069091796875
 44
431.7999877929687
 45
279.3999938964844
 46
80.82067083627547
 47
0.0
 48
0.0
 49
0.0
140
0.0
141
0.0
142
1.0
143
0.4045605831172927
 70
  2740
 72
     0
 73
     0
 74
     1
  7
OKIB&WShaded.ctb
 75
     0
147
2.471817675104729
 76
     0
 77
     2
 78
   300
148
-75.74468520391772
149
-27.53050504688192
1001
ACAD_PSEXT
1000
OKI DOKI Color Laser.pc3
1000
OKI C9500(PCL)
1000
FRONT
1000

1070
     0
  0
PLOTSETTINGS
  5
954
102
{ACAD_REACTORS
330
22
102
}
330
22
100
AcDbPlotSettings
  1
Oki9500 11x17 BW Full
  2
OKI DOKI Color Laser.pc3
  4
Tabloid
  6

 40
5.027083396911621
 41
5.027085304260253
 42
5.027099609375
 43
5.027069091796875
 44
431.7999877929687
 45
279.3999938964844
 46
158.2588957589094
 47
80.18956480595884
 48
0.0
 49
0.0
140
0.0
141
0.0
142
1.0
143
1.0
 70
  2724
 72
     0
 73
     0
 74
     1
  7
OKIB&WShaded.ctb
 75
     0
147
2.471817675104729
 76
     0
 77
     2
 78
   300
148
-75.74468520391772
149
-27.53050504688192
1001
ACAD_PSEXT
1000
OKI DOKI Color Laser.pc3
1000
OKI C9500(PCL)
1000
FRONT
1000

1070
     0
  0
PLOTSETTINGS
  5
955
102
{ACAD_REACTORS
330
22
102
}
330
22
100
AcDbPlotSettings
  1
Oki9500 11x17 BW Half
  2
OKI DOKI Color Laser.pc3
  4
Tabloid
  6

 40
5.027083396911621
 41
5.027085304260253
 42
5.027099609375
 43
5.027069091796875
 44
431.7999877929687
 45
279.3999938964844
 46
184.5658990761252
 47
107.4312422780862
 48
0.0
 49
0.0
140
0.0
141
0.0
142
1.0
143
2.0
 70
  2740
 72
     0
 73
     0
 74
     1
  7
OKIB&WShaded.ctb
 75
    17
147
0.5
 76
     0
 77
     2
 78
   300
148
-75.74468520391772
149
-27.53050504688192
1001
ACAD_PSEXT
1000
OKI DOKI Color Laser.pc3
1000
OKI C9500(PCL)
1000
FRONT
1000

1070
     0
  0
PLOTSETTINGS
  5
956
102
{ACAD_REACTORS
330
22
102
}
330
22
100
AcDbPlotSettings
  1
Oki9500 11x17 Color Fit
  2
OKI DOKI Color Laser.pc3
  4
Tabloid
  6

 40
5.027083396911621
 41
5.027085304260253
 42
5.027099609375
 43
5.027069091796875
 44
431.7999877929687
 45
279.3999938964844
 46
80.82067083627547
 47
0.0
 48
0.0
 49
0.0
140
0.0
141
0.0
142
1.0
143
0.4045605831172927
 70
  2740
 72
     0
 73
     0
 74
     1
  7
OKIColorShaded.ctb
 75
     0
147
2.471817675104729
 76
     0
 77
     2
 78
   300
148
-75.74468520391772
149
-27.53050504688192
1001
ACAD_PSEXT
1000
OKI DOKI Color Laser.pc3
1000
OKI C9500(PCL)
1000
FRONT
1000

1070
     0
  0
PLOTSETTINGS
  5
957
102
{ACAD_REACTORS
330
22
102
}
330
22
100
AcDbPlotSettings
  1
Oki9500 11x17 Color Full
  2
OKI DOKI Color Laser.pc3
  4
Tabloid
  6

 40
5.027082920074462
 41
5.027085781097412
 42
5.027099609375
 43
5.027069091796875
 44
431.7999877929687
 45
279.3999938964844
 46
158.258895997328
 47
80.18956456754025
 48
0.0
 49
0.0
140
0.0
141
0.0
142
1.0
143
1.0
 70
  2724
 72
     0
 73
     0
 74
     1
  7
OKIColorShaded.ctb
 75
     0
147
2.471817675104729
 76
     0
 77
     2
 78
   300
148
-75.74468520391772
149
-27.53050504688192
1001
ACAD_PSEXT
1000
OKI DOKI Color Laser.pc3
1000
OKI C9600(PCL)
1000
FRONT
1000

1070
     0
  0
PLOTSETTINGS
  5
958
102
{ACAD_REACTORS
330
22
102
}
330
22
100
AcDbPlotSettings
  1
Oki9500 11x17 Color Half
  2
OKI DOKI Color Laser.pc3
  4
Tabloid
  6

 40
5.027083396911621
 41
5.027085304260253
 42
5.027099609375
 43
5.027069091796875
 44
431.7999877929687
 45
279.3999938964844
 46
184.5658990761252
 47
107.4312422780862
 48
0.0
 49
0.0
140
0.0
141
0.0
142
1.0
143
2.0
 70
  2740
 72
     0
 73
     0
 74
     1
  7
OKIColorShaded.ctb
 75
    17
147
0.5
 76
     0
 77
     2
 78
   300
148
-75.74468520391772
149
-27.53050504688192
1001
ACAD_PSEXT
1000
OKI DOKI Color Laser.pc3
1000
OKI C9500(PCL)
1000
FRONT
1000

1070
     0
  0
PLOTSETTINGS
  5
959
102
{ACAD_REACTORS
330
22
102
}
330
22
100
AcDbPlotSettings
  1
Oki9500 8x11 BW Fit
  2
OKI DOKI Color Laser8x11.pc3
  4
Letter
  6

 40
5.027083396911621
 41
5.027085304260253
 42
5.027099609375
 43
5.027084350585937
 44
279.3999938964844
 45
215.8999938964844
 46
35.28132453565591
 47
0.0
 48
0.0
 49
0.0
140
0.0
141
0.0
142
1.0
143
0.5293607985003172
 70
  2740
 72
     0
 73
     0
 74
     1
  7
OKIB&WShaded.ctb
 75
     0
147
1.889070748784206
 76
     0
 77
     2
 78
   300
148
-75.74468520391772
149
-27.53050504688192
1001
ACAD_PSEXT
1000
OKI DOKI Color Laser8x11.pc3
1000
OKI C9500(PCL)
1000
FRONT
1000

1070
     0
  0
PLOTSETTINGS
  5
95A
102
{ACAD_REACTORS
330
22
102
}
330
22
100
AcDbPlotSettings
  1
Oki9500 8x11 BW Portrait Fit
  2
OKI DOKI Color Laser8x11.pc3
  4
Letter
  6

 40
5.027083396911621
 41
5.027085304260253
 42
5.027099609375
 43
5.027084350585937
 44
279.3999938964844
 45
215.8999938964844
 46
28.0931957503573
 47
0.0000000000000029
 48
0.0
 49
0.0
140
0.0
141
0.0
142
1.0
143
0.5111981924167587
 70
  2740
 72
     0
 73
     1
 74
     1
  7
OKIB&WShaded.ctb
 75
     0
147
1.956188450652308
 76
     0
 77
     2
 78
   300
148
-75.74468520391772
149
-27.53050504688192
1001
ACAD_PSEXT
1000
OKI DOKI Color Laser8x11.pc3
1000
OKI C9500(PCL)
1000
FRONT
1000

1070
     0
  0
PLOTSETTINGS
  5
95B
102
{ACAD_REACTORS
330
22
102
}
330
22
100
AcDbPlotSettings
  1
Oki9500 8x11 Color Fit
  2
OKI DOKI Color Laser8x11.pc3
  4
Letter
  6

 40
5.027083396911621
 41
5.027085304260253
 42
5.027099609375
 43
5.027084350585937
 44
279.3999938964844
 45
215.8999938964844
 46
35.28132453565591
 47
0.0
 48
0.0
 49
0.0
140
0.0
141
0.0
142
1.0
143
0.5293607985003172
 70
  2740
 72
     0
 73
     0
 74
     1
  7
OKIColorShaded.ctb
 75
     0
147
1.889070748784206
 76
     0
 77
     2
 78
   300
148
-75.74468520391772
149
-27.53050504688192
1001
ACAD_PSEXT
1000
OKI DOKI Color Laser8x11.pc3
1000
OKI C9500(PCL)
1000
FRONT
1000

1070
     0
  0
PLOTSETTINGS
  5
95C
102
{ACAD_REACTORS
330
22
102
}
330
22
100
AcDbPlotSettings
  1
Oki9500 8x11 Color Portrait Fit
  2
OKI DOKI Color Laser8x11.pc3
  4
Letter
  6

 40
5.027083396911621
 41
5.027085304260253
 42
5.027099609375
 43
5.027084350585937
 44
279.3999938964844
 45
215.8999938964844
 46
28.0931957503573
 47
0.0000000000000029
 48
0.0
 49
0.0
140
0.0
141
0.0
142
1.0
143
0.5111981924167587
 70
  2740
 72
     0
 73
     1
 74
     1
  7
OKIColorShaded.ctb
 75
     0
147
1.956188450652308
 76
     0
 77
     2
 78
   300
148
-75.74468520391772
149
-27.53050504688192
1001
ACAD_PSEXT
1000
OKI DOKI Color Laser8x11.pc3
1000
OKI C9500(PCL)
1000
FRONT
1000

1070
     0
  0
PLOTSETTINGS
  5
95D
102
{ACAD_REACTORS
330
22
102
}
330
22
100
AcDbPlotSettings
  1
OKI9500 B&W 11x17
  2
OKI DOKI Color Laser.pc3
  4
11x17
  6

 40
5.873749732971191
 41
5.873734951019287
 42
5.873748779296875
 43
5.027069091796875
 44
431.7999877929687
 45
279.3999938964844
 46
72.38759962724653
 47
0.0000000000000057
 48
0.0
 49
0.0
140
0.0
141
0.0
142
1.0
143
0.3507677900220671
 70
 11956
 72
     0
 73
     0
 74
     1
  7
OKIB&WShaded.ctb
 75
     0
147
2.850888902704233
 76
     0
 77
     2
 78
   300
148
-119.4582094169044
149
-58.17053554795709
1001
ACAD_PSEXT
1000
OKI DOKI Color Laser.pc3
1000
HP LaserJet 5Si
1000
CAD Area
1000

1070
     0
  0
PLOTSETTINGS
  5
95E
102
{ACAD_REACTORS
330
22
102
}
330
22
100
AcDbPlotSettings
  1
OKI9500 B&W 8.5x11
  2
OKI DOKI Color Laser8x11.pc3
  4
Letter
  6

 40
5.873749732971191
 41
5.873734951019287
 42
6.55108642578125
 43
5.027084350585937
 44
279.3999938964844
 45
215.8999938964844
 46
28.40045128601757
 47
0.0000000000000046
 48
0.0
 49
0.0
140
0.0
141
0.0
142
1.0
143
0.4594207153946231
 70
 11956
 72
     0
 73
     0
 74
     1
  7
OKIB&WShaded.ctb
 75
     0
147
2.176654135286525
 76
     0
 77
     2
 78
   300
148
-119.4582094169044
149
-58.17053554795709
1001
ACAD_PSEXT
1000
OKI DOKI Color Laser8x11.pc3
1000
HP LaserJet 5Si
1000
CAD Area
1000

1070
     0
  0
PLOTSETTINGS
  5
95F
102
{ACAD_REACTORS
330
22
102
}
330
22
100
AcDbPlotSettings
  1
OKI9500 Color 11x17
  2
OKI DOKI Color Laser.pc3
  4
Tabloid
  6

 40
5.027083396911621
 41
5.027085304260253
 42
5.027099609375
 43
5.027069091796875
 44
431.7999877929687
 45
279.3999938964844
 46
72.80024597690952
 47
0.0
 48
0.0
 49
0.0
140
0.0
141
0.0
142
1.0
143
0.349665202263268
 70
 11956
 72
     0
 73
     0
 74
     1
  7
OKIColorShaded.ctb
 75
     0
147
2.859878516727796
 76
     0
 77
     2
 78
   300
148
-119.4582094169044
149
-58.17053554795709
1001
ACAD_PSEXT
1000
OKI DOKI Color Laser.pc3
1000
OKI C9500(PCL)
1000
FRONT
1000

1070
     0
  0
PLOTSETTINGS
  5
960
102
{ACAD_REACTORS
330
22
102
}
330
22
100
AcDbPlotSettings
  1
OKI9500 Color 8.5x11
  2
OKI DOKI Color Laser8x11.pc3
  4
Letter
  6

 40
5.873749732971191
 41
5.873734951019287
 42
6.55108642578125
 43
5.027084350585937
 44
279.3999938964844
 45
215.8999938964844
 46
28.40045128601757
 47
0.0000000000000046
 48
0.0
 49
0.0
140
0.0
141
0.0
142
1.0
143
0.4594207153946231
 70
 11956
 72
     0
 73
     0
 74
     1
  7
OKIColorShaded.ctb
 75
     0
147
2.176654135286525
 76
     0
 77
     2
 78
   300
148
-119.4582094169044
149
-58.17053554795709
1001
ACAD_PSEXT
1000
OKI DOKI Color Laser8x11.pc3
1000
HP LaserJet 5Si
1000
CAD Area
1000

1070
     0
  0
PLOTSETTINGS
  5
961
102
{ACAD_REACTORS
330
22
102
}
330
22
100
AcDbPlotSettings
  1
Oki9600 11x17 BW Fit
  2
9600 BW 11x17.pc3
  4
Tabloid
  6

 40
5.027082920074462
 41
5.027085781097412
 42
5.027099609375
 43
5.027069091796875
 44
431.7999877929687
 45
279.3999938964844
 46
80.82067130493244
 47
0.000000000000007
 48
0.0
 49
0.0
140
0.0
141
0.0
142
1.0
143
0.4045605838335077
 70
  2804
 72
     0
 73
     0
 74
     1
  7
OKIB&WShaded.ctb
 75
     0
147
2.47181767072874
 76
     0
 77
     2
 78
   300
148
-75.74468520391772
149
-27.53050504688192
1001
ACAD_PSEXT
1000
9600 BW 11x17.pc3
1000
OKI C9600(PCL)
1000
Expansion Area
1000

1070
     0
  0
PLOTSETTINGS
  5
962
102
{ACAD_REACTORS
330
22
102
}
330
22
100
AcDbPlotSettings
  1
Oki9600 11x17 BW Full
  2
9600 BW 11x17.pc3
  4
Tabloid
  6

 40
5.027082920074462
 41
5.027085781097412
 42
5.027099609375
 43
5.027069091796875
 44
431.7999877929687
 45
279.3999938964844
 46
158.258895997328
 47
80.18956456754025
 48
0.0
 49
0.0
140
0.0
141
0.0
142
1.0
143
1.0
 70
  2788
 72
     0
 73
     0
 74
     1
  7
OKIB&WShaded.ctb
 75
     0
147
2.47181767072874
 76
     0
 77
     2
 78
   300
148
-75.74468520391772
149
-27.53050504688192
1001
ACAD_PSEXT
1000
9600 BW 11x17.pc3
1000
OKI C9600(PCL)
1000
Expansion Area
1000

1070
     0
  0
PLOTSETTINGS
  5
963
102
{ACAD_REACTORS
330
22
102
}
330
22
100
AcDbPlotSettings
  1
Oki9600 11x17 BW Half
  2
9600 BW 11x17.pc3
  4
Tabloid
  6

 40
5.027082920074462
 41
5.027085781097412
 42
5.027099609375
 43
5.027069091796875
 44
431.7999877929687
 45
279.3999938964844
 46
184.5658993145439
 47
107.4312420396676
 48
0.0
 49
0.0
140
0.0
141
0.0
142
1.0
143
2.0
 70
  2788
 72
     0
 73
     0
 74
     1
  7
OKIB&WShaded.ctb
 75
     0
147
2.47181767072874
 76
     0
 77
     2
 78
   300
148
-75.74468520391772
149
-27.53050504688192
1001
ACAD_PSEXT
1000
9600 BW 11x17.pc3
1000
OKI C9600(PCL)
1000
Expansion Area
1000

1070
     0
  0
PLOTSETTINGS
  5
964
102
{ACAD_REACTORS
330
22
102
}
330
22
100
AcDbPlotSettings
  1
Oki9600 11x17 Color Fit
  2
9600 Color 11x17.pc3
  4
Tabloid
  6

 40
5.027082920074462
 41
5.027085781097412
 42
5.027099609375
 43
5.027069091796875
 44
431.7999877929687
 45
279.3999938964844
 46
80.82067130493244
 47
0.000000000000007
 48
0.0
 49
0.0
140
0.0
141
0.0
142
1.0
143
0.4045605838335077
 70
  2804
 72
     0
 73
     0
 74
     1
  7
OKIColorShaded.ctb
 75
     0
147
2.47181767072874
 76
     0
 77
     2
 78
   300
148
-75.74468520391772
149
-27.53050504688192
1001
ACAD_PSEXT
1000
9600 Color 11x17.pc3
1000
OKI C9600(PCL)
1000
Expansion Area
1000

1070
     0
  0
PLOTSETTINGS
  5
965
102
{ACAD_REACTORS
330
22
102
}
330
22
100
AcDbPlotSettings
  1
Oki9600 11x17 Color Full
  2
9600 Color 11x17.pc3
  4
Tabloid
  6

 40
5.027082920074462
 41
5.027085781097412
 42
5.027099609375
 43
5.027069091796875
 44
431.7999877929687
 45
279.3999938964844
 46
158.258895997328
 47
80.18956456754025
 48
0.0
 49
0.0
140
0.0
141
0.0
142
1.0
143
1.0
 70
  2788
 72
     0
 73
     0
 74
     1
  7
OKIColorShaded.ctb
 75
     0
147
2.47181767072874
 76
     0
 77
     2
 78
   300
148
-75.74468520391772
149
-27.53050504688192
1001
ACAD_PSEXT
1000
9600 Color 11x17.pc3
1000
OKI C9600(PCL)
1000
Expansion Area
1000

1070
     0
  0
PLOTSETTINGS
  5
966
102
{ACAD_REACTORS
330
22
102
}
330
22
100
AcDbPlotSettings
  1
Oki9600 11x17 Color Half
  2
9600 Color 11x17.pc3
  4
Tabloid
  6

 40
5.027082920074462
 41
5.027085781097412
 42
5.027099609375
 43
5.027069091796875
 44
431.7999877929687
 45
279.3999938964844
 46
184.5658993145439
 47
107.4312420396676
 48
0.0
 49
0.0
140
0.0
141
0.0
142
1.0
143
2.0
 70
  2788
 72
     0
 73
     0
 74
     1
  7
OKIColorShaded.ctb
 75
     0
147
2.47181767072874
 76
     0
 77
     2
 78
   300
148
-75.74468520391772
149
-27.53050504688192
1001
ACAD_PSEXT
1000
9600 Color 11x17.pc3
1000
OKI C9600(PCL)
1000
Expansion Area
1000

1070
     0
  0
PLOTSETTINGS
  5
967
102
{ACAD_REACTORS
330
22
102
}
330
22
100
AcDbPlotSettings
  1
Oki9600 8x11 BW Fit
  2
9600 BW 8.5x11.pc3
  4
Letter
  6

 40
5.027082920074462
 41
5.027070522308349
 42
5.027099609375
 43
5.027084350585937
 44
279.3999938964844
 45
215.8999938964844
 46
35.28131763668624
 47
0.0000000000000033
 48
0.0
 49
0.0
140
0.0
141
0.0
142
1.0
143
0.5293607604865011
 70
  2804
 72
     0
 73
     0
 74
     1
  7
OKIB&WShaded.ctb
 75
     0
147
1.889070884439876
 76
     0
 77
     2
 78
   300
148
-75.74468520391772
149
-27.53050504688192
1001
ACAD_PSEXT
1000
9600 BW 8.5x11.pc3
1000
OKI C9600(PCL)
1000
Expansion Area
1000

1070
     0
  0
PLOTSETTINGS
  5
968
102
{ACAD_REACTORS
330
22
102
}
330
22
100
AcDbPlotSettings
  1
Oki9600 8x11 BW Portrait Fit
  2
9600 BW 8.5x11.pc3
  4
Letter
  6

 40
5.027082920074462
 41
5.027070522308349
 42
5.027099609375
 43
5.027084350585937
 44
279.3999938964844
 45
215.8999938964844
 46
28.09318833520237
 47
-0.0000000000000029
 48
0.0
 49
0.0
140
0.0
141
0.0
142
1.0
143
0.5111981557072135
 70
  2804
 72
     0
 73
     1
 74
     1
  7
OKIB&WShaded.ctb
 75
     0
147
1.956188591127753
 76
     0
 77
     2
 78
   300
148
-75.74468520391772
149
-27.53050504688192
1001
ACAD_PSEXT
1000
9600 BW 8.5x11.pc3
1000
OKI C9600(PCL)
1000
Expansion Area
1000

1070
     0
  0
PLOTSETTINGS
  5
969
102
{ACAD_REACTORS
330
22
102
}
330
22
100
AcDbPlotSettings
  1
Oki9600 8x11 Color Fit
  2
9600 Color 8.5x11.pc3
  4
Letter
  6

 40
5.027082920074462
 41
5.027070522308349
 42
5.027099609375
 43
5.027084350585937
 44
279.3999938964844
 45
215.8999938964844
 46
35.28131763668624
 47
0.0000000000000033
 48
0.0
 49
0.0
140
0.0
141
0.0
142
1.0
143
0.5293607604865011
 70
  2804
 72
     0
 73
     0
 74
     1
  7
OKIColorShaded.ctb
 75
     0
147
1.889070884439876
 76
     0
 77
     2
 78
   300
148
-75.74468520391772
149
-27.53050504688192
1001
ACAD_PSEXT
1000
9600 Color 8.5x11.pc3
1000
OKI C9600(PCL)
1000
Expansion Area
1000

1070
     0
  0
PLOTSETTINGS
  5
96A
102
{ACAD_REACTORS
330
22
102
}
330
22
100
AcDbPlotSettings
  1
Oki9600 8x11 Color Portrait Fit
  2
9600 Color 8.5x11.pc3
  4
Letter
  6

 40
5.027082920074462
 41
5.027070522308349
 42
5.027099609375
 43
5.027084350585937
 44
279.3999938964844
 45
215.8999938964844
 46
28.09318833520237
 47
-0.0000000000000029
 48
0.0
 49
0.0
140
0.0
141
0.0
142
1.0
143
0.5111981557072135
 70
  2804
 72
     0
 73
     1
 74
     1
  7
OKIColorShaded.ctb
 75
     0
147
1.956188591127753
 76
     0
 77
     2
 78
   300
148
-75.74468520391772
149
-27.53050504688192
1001
ACAD_PSEXT
1000
9600 Color 8.5x11.pc3
1000
OKI C9600(PCL)
1000
Expansion Area
1000

1070
     0
  0
PLOTSETTINGS
  5
96B
102
{ACAD_REACTORS
330
22
102
}
330
22
100
AcDbPlotSettings
  1
OKI9600 B&W 11x17
  2
9600 BW 11x17.pc3
  4
Tabloid
  6

 40
5.027082920074462
 41
5.027085781097412
 42
5.027099609375
 43
5.027069091796875
 44
431.7999877929687
 45
279.3999938964844
 46
72.80024645976547
 47
-0.0000000000000027
 48
0.0
 49
0.0
140
0.0
141
0.0
142
1.0
143
0.3496652028822988
 70
 11956
 72
     0
 73
     0
 74
     1
  7
OKIB&WShaded.ctb
 75
     0
147
2.859878511664802
 76
     0
 77
     2
 78
   300
148
-119.4582094169044
149
-58.17053554795709
1001
ACAD_PSEXT
1000
9600 BW 11x17.pc3
1000
OKI C9600(PCL)
1000
Expansion Area
1000

1070
     0
  0
PLOTSETTINGS
  5
96C
102
{ACAD_REACTORS
330
22
102
}
330
22
100
AcDbPlotSettings
  1
OKI9600 B&W 8.5x11
  2
9600 BW 8.5x11.pc3
  4
Letter
  6

 40
5.027082920074462
 41
5.027070522308349
 42
5.027099609375
 43
5.027084350585937
 44
279.3999938964844
 45
215.8999938964844
 46
29.15175911978468
 47
0.0000000000000065
 48
0.0
 49
0.0
140
0.0
141
0.0
142
1.0
143
0.4575310722549676
 70
 11956
 72
     0
 73
     0
 74
     1
  7
OKIB&WShaded.ctb
 75
     0
147
2.185643906262899
 76
     0
 77
     2
 78
   300
148
-119.4582094169044
149
-58.17053554795709
1001
ACAD_PSEXT
1000
9600 BW 8.5x11.pc3
1000
OKI C9600(PCL)
1000
Expansion Area
1000

1070
     0
  0
PLOTSETTINGS
  5
96D
102
{ACAD_REACTORS
330
22
102
}
330
22
100
AcDbPlotSettings
  1
OKI9600 Color 11x17
  2
9600 Color 11x17.pc3
  4
Tabloid
  6

 40
5.027082920074462
 41
5.027085781097412
 42
5.027099609375
 43
5.027069091796875
 44
431.7999877929687
 45
279.3999938964844
 46
72.80024645976547
 47
-0.0000000000000027
 48
0.0
 49
0.0
140
0.0
141
0.0
142
1.0
143
0.3496652028822988
 70
 11956
 72
     0
 73
     0
 74
     1
  7
OKIColorShaded.ctb
 75
     0
147
2.859878511664802
 76
     0
 77
     2
 78
   300
148
-119.4582094169044
149
-58.17053554795709
1001
ACAD_PSEXT
1000
9600 Color 11x17.pc3
1000
OKI C9600(PCL)
1000
Expansion Area
1000

1070
     0
  0
PLOTSETTINGS
  5
96E
102
{ACAD_REACTORS
330
22
102
}
330
22
100
AcDbPlotSettings
  1
OKI9600 Color 8.5x11
  2
9600 Color 8.5x11.pc3
  4
Letter
  6

 40
5.027082920074462
 41
5.027070522308349
 42
5.027099609375
 43
5.027084350585937
 44
279.3999938964844
 45
215.8999938964844
 46
29.15175911978468
 47
0.0000000000000065
 48
0.0
 49
0.0
140
0.0
141
0.0
142
1.0
143
0.4575310722549676
 70
 11956
 72
     0
 73
     0
 74
     1
  7
OKIColorShaded.ctb
 75
     0
147
2.185643906262899
 76
     0
 77
     2
 78
   300
148
-119.4582094169044
149
-58.17053554795709
1001
ACAD_PSEXT
1000
9600 Color 8.5x11.pc3
1000
OKI C9600(PCL)
1000
Expansion Area
1000

1070
     0
  0
PLOTSETTINGS
  5
96F
102
{ACAD_REACTORS
330
22
102
}
330
22
100
AcDbPlotSettings
  1
PHX Kyocera 11x17 Fit
  2
PHX_Kyocera.pc3
  4
Tabloid
  6

 40
4.984749794006347
 41
5.069418907165527
 42
5.069427490234375
 43
4.9847412109375
 44
431.7999877929687
 45
279.3999938964844
 46
80.8206764601584
 47
-0.0000000000000226
 48
0.0
 49
0.0
140
0.0
141
0.0
142
1.0
143
0.4045605917118723
 70
  2740
 72
     0
 73
     0
 74
     1
  7
LaserJet5Shaded.ctb
 75
     0
147
2.471817622592858
 76
     0
 77
     2
 78
   300
148
-75.74468520391772
149
-27.53050504688192
1001
ACAD_PSEXT
1000
PHX_Kyocera.pc3
1000
Kyocera Mita KM-2050 KX
1000
Arizona
1000

1070
     0
  0
PLOTSETTINGS
  5
970
102
{ACAD_REACTORS
330
22
102
}
330
22
100
AcDbPlotSettings
  1
PHX Oki9500 11x17 BW Fit
  2
PHX OKI BW.pc3
  4
Tabloid
  6

 40
5.027082920074462
 41
5.027085781097412
 42
5.027099609375
 43
5.027069091796875
 44
431.7999877929687
 45
279.3999938964844
 46
80.82067130493246
 47
0.0
 48
0.0
 49
0.0
140
0.0
141
0.0
142
1.0
143
0.4045605838335077
 70
  2740
 72
     0
 73
     0
 74
     1
  7
OKIB&WShaded.ctb
 75
     0
147
2.47181767072874
 76
     0
 77
     2
 78
   300
148
-75.74468520391772
149
-27.53050504688192
1001
ACAD_PSEXT
1000
PHX OKI BW.pc3
1000
OKI C9500(PCL)
1000
Arizona
1000

1070
     0
  0
PLOTSETTINGS
  5
971
102
{ACAD_REACTORS
330
22
102
}
330
22
100
AcDbPlotSettings
  1
PHX Oki9500 11x17 BW Half
  2
PHX OKI BW.pc3
  4
Tabloid
  6

 40
5.027082920074462
 41
5.027085781097412
 42
5.027099609375
 43
5.027069091796875
 44
431.7999877929687
 45
279.3999938964844
 46
184.5658993145439
 47
107.4312420396676
 48
0.0
 49
0.0
140
0.0
141
0.0
142
1.0
143
2.0
 70
  2724
 72
     0
 73
     0
 74
     1
  7
OKIB&WShaded.ctb
 75
     0
147
2.47181767072874
 76
     0
 77
     2
 78
   300
148
-75.74468520391772
149
-27.53050504688192
1001
ACAD_PSEXT
1000
PHX OKI BW.pc3
1000
OKI C9500(PCL)
1000
Arizona
1000

1070
     0
  0
ACDBPLACEHOLDER
  5
5
102
{ACAD_REACTORS
330
6
102
}
330
6
  0
SCALE
  5
660
102
{ACAD_REACTORS
330
65F
102
}
330
65F
100
AcDbScale
 70
     0
300
1:1
140
1.0
141
1.0
290
     1
  0
SCALE
  5
661
102
{ACAD_REACTORS
330
65F
102
}
330
65F
100
AcDbScale
 70
     0
300
1:2
140
1.0
141
2.0
290
     0
  0
SCALE
  5
662
102
{ACAD_REACTORS
330
65F
102
}
330
65F
100
AcDbScale
 70
     0
300
1:4
140
1.0
141
4.0
290
     0
  0
SCALE
  5
663
102
{ACAD_REACTORS
330
65F
102
}
330
65F
100
AcDbScale
 70
     0
300
1:5
140
1.0
141
5.0
290
     0
  0
SCALE
  5
664
102
{ACAD_REACTORS
330
65F
102
}
330
65F
100
AcDbScale
 70
     0
300
1:8
140
1.0
141
8.0
290
     0
  0
SCALE
  5
665
102
{ACAD_REACTORS
330
65F
102
}
330
65F
100
AcDbScale
 70
     0
300
1:10
140
1.0
141
10.0
290
     0
  0
SCALE
  5
666
102
{ACAD_REACTORS
330
65F
102
}
330
65F
100
AcDbScale
 70
     0
300
1:16
140
1.0
141
16.0
290
     0
  0
SCALE
  5
667
102
{ACAD_REACTORS
330
65F
102
}
330
65F
100
AcDbScale
 70
     0
300
1:20
140
1.0
141
20.0
290
     0
  0
SCALE
  5
668
102
{ACAD_REACTORS
330
65F
102
}
330
65F
100
AcDbScale
 70
     0
300
1:30
140
1.0
141
30.0
290
     0
  0
SCALE
  5
669
102
{ACAD_REACTORS
330
65F
102
}
330
65F
100
AcDbScale
 70
     0
300
1:40
140
1.0
141
40.0
290
     0
  0
SCALE
  5
66A
102
{ACAD_REACTORS
330
65F
102
}
330
65F
100
AcDbScale
 70
     0
300
1:50
140
1.0
141
50.0
290
     0
  0
SCALE
  5
66B
102
{ACAD_REACTORS
330
65F
102
}
330
65F
100
AcDbScale
 70
     0
300
1:100
140
1.0
141
100.0
290
     0
  0
SCALE
  5
66C
102
{ACAD_REACTORS
330
65F
102
}
330
65F
100
AcDbScale
 70
     0
300
2:1
140
2.0
141
1.0
290
     0
  0
SCALE
  5
66D
102
{ACAD_REACTORS
330
65F
102
}
330
65F
100
AcDbScale
 70
     0
300
4:1
140
4.0
141
1.0
290
     0
  0
SCALE
  5
66E
102
{ACAD_REACTORS
330
65F
102
}
330
65F
100
AcDbScale
 70
     0
300
8:1
140
8.0
141
1.0
290
     0
  0
SCALE
  5
66F
102
{ACAD_REACTORS
330
65F
102
}
330
65F
100
AcDbScale
 70
     0
300
10:1
140
10.0
141
1.0
290
     0
  0
SCALE
  5
670
102
{ACAD_REACTORS
330
65F
102
}
330
65F
100
AcDbScale
 70
     0
300
100:1
140
100.0
141
1.0
290
     0
  0
SCALE
  5
671
102
{ACAD_REACTORS
330
65F
102
}
330
65F
100
AcDbScale
 70
     0
300
1/128" = 1'-0"
140
0.0078125
141
12.0
290
     0
  0
SCALE
  5
672
102
{ACAD_REACTORS
330
65F
102
}
330
65F
100
AcDbScale
 70
     0
300
1/64" = 1'-0"
140
0.015625
141
12.0
290
     0
  0
SCALE
  5
673
102
{ACAD_REACTORS
330
65F
102
}
330
65F
100
AcDbScale
 70
     0
300
1/32" = 1'-0"
140
0.03125
141
12.0
290
     0
  0
SCALE
  5
674
102
{ACAD_REACTORS
330
65F
102
}
330
65F
100
AcDbScale
 70
     0
300
1/16" = 1'-0"
140
0.0625
141
12.0
290
     0
  0
SCALE
  5
675
102
{ACAD_REACTORS
330
65F
102
}
330
65F
100
AcDbScale
 70
     0
300
3/32" = 1'-0"
140
0.09375
141
12.0
290
     0
  0
SCALE
  5
676
102
{ACAD_REACTORS
330
65F
102
}
330
65F
100
AcDbScale
 70
     0
300
1/8" = 1'-0"
140
0.125
141
12.0
290
     0
  0
SCALE
  5
677
102
{ACAD_REACTORS
330
65F
102
}
330
65F
100
AcDbScale
 70
     0
300
3/16" = 1'-0"
140
0.1875
141
12.0
290
     0
  0
SCALE
  5
678
102
{ACAD_REACTORS
330
65F
102
}
330
65F
100
AcDbScale
 70
     0
300
1/4" = 1'-0"
140
0.25
141
12.0
290
     0
  0
SCALE
  5
679
102
{ACAD_REACTORS
330
65F
102
}
330
65F
100
AcDbScale
 70
     0
300
3/8" = 1'-0"
140
0.375
141
12.0
290
     0
  0
SCALE
  5
67A
102
{ACAD_REACTORS
330
65F
102
}
330
65F
100
AcDbScale
 70
     0
300
1/2" = 1'-0"
140
0.5
141
12.0
290
     0
  0
SCALE
  5
67B
102
{ACAD_REACTORS
330
65F
102
}
330
65F
100
AcDbScale
 70
     0
300
3/4" = 1'-0"
140
0.75
141
12.0
290
     0
  0
SCALE
  5
67C
102
{ACAD_REACTORS
330
65F
102
}
330
65F
100
AcDbScale
 70
     0
300
1" = 1'-0"
140
1.0
141
12.0
290
     0
  0
SCALE
  5
67D
102
{ACAD_REACTORS
330
65F
102
}
330
65F
100
AcDbScale
 70
     0
300
1-1/2" = 1'-0"
140
1.5
141
12.0
290
     0
  0
SCALE
  5
67E
102
{ACAD_REACTORS
330
65F
102
}
330
65F
100
AcDbScale
 70
     0
300
3" = 1'-0"
140
3.0
141
12.0
290
     0
  0
SCALE
  5
67F
102
{ACAD_REACTORS
330
65F
102
}
330
65F
100
AcDbScale
 70
     0
300
6" = 1'-0"
140
6.0
141
12.0
290
     0
  0
SCALE
  5
680
102
{ACAD_REACTORS
330
65F
102
}
330
65F
100
AcDbScale
 70
     0
300
1'-0" = 1'-0"
140
12.0
141
12.0
290
     0
  0
TABLESTYLE
  5
65E
102
{ACAD_XDICTIONARY
360
8E0
102
}
102
{ACAD_REACTORS
330
65D
102
}
330
65D
100
AcDbTableStyle
  3
Standard
 70
     0
 71
     0
 40
0.06
 41
0.06
280
     0
281
     0
  7
STANDARD
140
0.18
170
     2
 62
     0
 63
     7
283
     0
274
    -2
284
     1
 64
     0
275
    -2
285
     1
 65
     0
276
    -2
286
     1
 66
     0
277
    -2
287
     1
 67
     0
278
    -2
288
     1
 68
     0
279
    -2
289
     1
 69
     0
  7
STANDARD
140
0.25
170
     5
 62
     0
 63
     7
283
     0
274
    -2
284
     1
 64
     0
275
    -2
285
     1
 65
     0
276
    -2
286
     1
 66
     0
277
    -2
287
     1
 67
     0
278
    -2
288
     1
 68
     0
279
    -2
289
     1
 69
     0
  7
STANDARD
140
0.18
170
     5
 62
     0
 63
     7
283
     0
274
    -2
284
     1
 64
     0
275
    -2
285
     1
 65
     0
276
    -2
286
     1
 66
     0
277
    -2
287
     1
 67
     0
278
    -2
288
     1
 68
     0
279
    -2
289
     1
 69
     0
  0
VISUALSTYLE
  5
651
102
{ACAD_REACTORS
330
64B
102
}
330
64B
100
AcDbVisualStyle
  2
2dWireframe
 70
     4
 71
     0
 72
     2
 73
     0
 90
        0
 40
-0.6
 41
-30.0
 62
     5
 63
     7
421
 16777215
 74
     1
 91
        4
 64
     7
 65
   257
 75
     1
175
     1
 42
1.0
 92
        0
 66
   257
 43
1.0
 76
     1
 77
     6
 78
     2
 67
     7
 79
     5
170
     0
171
     0
290
     0
174
     0
 93
        1
 44
0.0
173
     0
291
     0
 45
0.0
1001
ACAD
1000
AcDbSavedByObjectVersion
1070
     0
  0
VISUALSTYLE
  5
653
102
{ACAD_REACTORS
330
64B
102
}
330
64B
100
AcDbVisualStyle
  2
3D Hidden
 70
     6
 71
     1
 72
     2
 73
     2
 90
        0
 40
-0.6
 41
-30.0
 62
     5
 63
     7
421
 16777215
 74
     2
 91
        2
 64
     7
 65
   257
 75
     2
175
     1
 42
40.0
 92
        0
 66
   257
 43
1.0
 76
     1
 77
     6
 78
     2
 67
     7
 79
     3
170
     0
171
     0
290
     0
174
     0
 93
        1
 44
0.0
173
     0
291
     0
 45
0.0
1001
ACAD
1000
AcDbSavedByObjectVersion
1070
     0
  0
VISUALSTYLE
  5
652
102
{ACAD_REACTORS
330
64B
102
}
330
64B
100
AcDbVisualStyle
  2
3dWireframe
 70
     5
 71
     0
 72
     2
 73
     0
 90
        0
 40
-0.6
 41
-30.0
 62
     5
 63
     7
421
 16777215
 74
     1
 91
        4
 64
     7
 65
   257
 75
     1
175
     1
 42
1.0
 92
        0
 66
   257
 43
1.0
 76
     1
 77
     6
 78
     2
 67
     7
 79
     5
170
     0
171
     0
290
     0
174
     0
 93
        1
 44
0.0
173
     0
291
     0
 45
0.0
1001
ACAD
1000
AcDbSavedByObjectVersion
1070
     0
  0
VISUALSTYLE
  5
650
102
{ACAD_REACTORS
330
64B
102
}
330
64B
100
AcDbVisualStyle
  2
Basic
 70
     7
 71
     1
 72
     0
 73
     1
 90
        0
 40
-0.6
 41
-30.0
 62
     5
 63
     7
421
 16777215
 74
     0
 91
        4
 64
     7
 65
   257
 75
     1
175
     1
 42
1.0
 92
        8
 66
     7
 43
1.0
 76
     1
 77
     6
 78
     2
 67
     7
 79
     5
170
     0
171
     0
290
     0
174
     0
 93
        1
 44
0.0
173
     0
291
     1
 45
0.0
1001
ACAD
1000
AcDbSavedByObjectVersion
1070
     0
  0
VISUALSTYLE
  5
657
102
{ACAD_REACTORS
330
64B
102
}
330
64B
100
AcDbVisualStyle
  2
Brighten
 70
    12
 71
     2
 72
     2
 73
     0
 90
        0
 40
-0.6
 41
-30.0
 62
     5
 63
     7
421
 16777215
 74
     1
 91
        4
 64
     7
 65
   257
 75
     1
175
     1
 42
1.0
 92
        8
 66
     7
 43
1.0
 76
     1
 77
     6
 78
     2
 67
     7
 79
     5
170
     0
171
     0
290
     0
174
     0
 93
        1
 44
50.0
173
     0
291
     1
 45
0.0
1001
ACAD
1000
AcDbSavedByObjectVersion
1070
     0
  0
VISUALSTYLE
  5
65B
102
{ACAD_REACTORS
330
64B
102
}
330
64B
100
AcDbVisualStyle
  2
ColorChange
 70
    16
 71
     2
 72
     2
 73
     3
 90
        0
 40
-0.6
 41
-30.0
 62
     5
 63
     8
421
  8421504
 74
     1
 91
        4
 64
     7
 65
   257
 75
     1
175
     1
 42
1.0
 92
        8
 66
     8
424
  8421504
 43
1.0
 76
     1
 77
     6
 78
     2
 67
     7
 79
     5
170
     0
171
     0
290
     0
174
     0
 93
        1
 44
0.0
173
     0
291
     1
 45
0.0
1001
ACAD
1000
AcDbSavedByObjectVersion
1070
     0
  0
VISUALSTYLE
  5
654
102
{ACAD_REACTORS
330
64B
102
}
330
64B
100
AcDbVisualStyle
  2
Conceptual
 70
     9
 71
     3
 72
     2
 73
     0
 90
        0
 40
-0.6
 41
-30.0
 62
     5
 63
     7
421
 16777215
 74
     2
 91
        2
 64
     7
 65
   257
 75
     1
175
     1
 42
40.0
 92
        8
 66
     7
 43
1.0
 76
     1
 77
     6
 78
     2
 67
     7
 79
     3
170
     0
171
     0
290
     0
174
     0
 93
        1
 44
0.0
173
     0
291
     0
 45
0.0
1001
ACAD
1000
AcDbSavedByObjectVersion
1070
     0
  0
VISUALSTYLE
  5
656
102
{ACAD_REACTORS
330
64B
102
}
330
64B
100
AcDbVisualStyle
  2
Dim
 70
    11
 71
     2
 72
     2
 73
     0
 90
        0
 40
-0.6
 41
-30.0
 62
     5
 63
     7
421
 16777215
 74
     1
 91
        4
 64
     7
 65
   257
 75
     1
175
     1
 42
1.0
 92
        8
 66
     7
 43
1.0
 76
     1
 77
     6
 78
     2
 67
     7
 79
     5
170
     0
171
     0
290
     0
174
     0
 93
        1
 44
-50.0
173
     0
291
     1
 45
0.0
1001
ACAD
1000
AcDbSavedByObjectVersion
1070
     0
  0
VISUALSTYLE
  5
65A
102
{ACAD_REACTORS
330
64B
102
}
330
64B
100
AcDbVisualStyle
  2
Facepattern
 70
    15
 71
     2
 72
     2
 73
     0
 90
        0
 40
-0.6
 41
-30.0
 62
     5
 63
     7
421
 16777215
 74
     1
 91
        4
 64
     7
 65
   257
 75
     1
175
     1
 42
1.0
 92
        8
 66
     7
 43
1.0
 76
     1
 77
     6
 78
     2
 67
     7
 79
     5
170
     0
171
     0
290
     0
174
     0
 93
        1
 44
0.0
173
     0
291
     1
 45
0.0
1001
ACAD
1000
AcDbSavedByObjectVersion
1070
     0
  0
VISUALSTYLE
  5
64C
102
{ACAD_REACTORS
330
64B
102
}
330
64B
100
AcDbVisualStyle
  2
Flat
 70
     0
 71
     2
 72
     1
 73
     1
 90
        2
 40
-0.6
 41
30.0
 62
     5
 63
     7
421
 16777215
 74
     0
 91
        4
 64
     7
 65
   257
 75
     1
175
     1
 42
1.0
 92
        8
 66
     7
 43
1.0
 76
     1
 77
     6
 78
     2
 67
     7
 79
     5
170
     0
171
     0
290
     0
174
     0
 93
       13
 44
0.0
173
     0
291
     1
 45
0.0
1001
ACAD
1000
AcDbSavedByObjectVersion
1070
     0
  0
VISUALSTYLE
  5
64D
102
{ACAD_REACTORS
330
64B
102
}
330
64B
100
AcDbVisualStyle
  2
FlatWithEdges
 70
     1
 71
     2
 72
     1
 73
     1
 90
        2
 40
-0.6
 41
30.0
 62
     5
 63
     7
421
 16777215
 74
     1
 91
        4
 64
     7
 65
   257
 75
     1
175
     1
 42
1.0
 92
        0
 66
   257
 43
1.0
 76
     1
 77
     6
 78
     2
 67
     7
 79
     5
170
     0
171
     0
290
     0
174
     0
 93
       13
 44
0.0
173
     0
291
     1
 45
0.0
1001
ACAD
1000
AcDbSavedByObjectVersion
1070
     0
  0
VISUALSTYLE
  5
64E
102
{ACAD_REACTORS
330
64B
102
}
330
64B
100
AcDbVisualStyle
  2
Gouraud
 70
     2
 71
     2
 72
     2
 73
     1
 90
        2
 40
-0.6
 41
30.0
 62
     5
 63
     7
421
 16777215
 74
     0
 91
        4
 64
     7
 65
   257
 75
     1
175
     1
 42
1.0
 92
        0
 66
     7
 43
1.0
 76
     1
 77
     6
 78
     2
 67
     7
 79
     5
170
     0
171
     0
290
     0
174
     0
 93
       13
 44
0.0
173
     0
291
     1
 45
0.0
1001
ACAD
1000
AcDbSavedByObjectVersion
1070
     0
  0
VISUALSTYLE
  5
64F
102
{ACAD_REACTORS
330
64B
102
}
330
64B
100
AcDbVisualStyle
  2
GouraudWithEdges
 70
     3
 71
     2
 72
     2
 73
     1
 90
        2
 40
-0.6
 41
30.0
 62
     5
 63
     7
421
 16777215
 74
     1
 91
        4
 64
     7
 65
   257
 75
     1
175
     1
 42
1.0
 92
        0
 66
   257
 43
1.0
 76
     1
 77
     6
 78
     2
 67
     7
 79
     5
170
     0
171
     0
290
     0
174
     0
 93
       13
 44
0.0
173
     0
291
     1
 45
0.0
1001
ACAD
1000
AcDbSavedByObjectVersion
1070
     0
  0
VISUALSTYLE
  5
659
102
{ACAD_REACTORS
330
64B
102
}
330
64B
100
AcDbVisualStyle
  2
Linepattern
 70
    14
 71
     2
 72
     2
 73
     0
 90
        0
 40
-0.6
 41
-30.0
 62
     5
 63
     7
421
 16777215
 74
     1
 91
        4
 64
     7
 65
   257
 75
     7
175
     7
 42
1.0
 92
        8
 66
     7
 43
1.0
 76
     1
 77
     6
 78
     2
 67
     7
 79
     5
170
     0
171
     0
290
     0
174
     0
 93
        1
 44
0.0
173
     0
291
     1
 45
0.0
1001
ACAD
1000
AcDbSavedByObjectVersion
1070
     0
  0
VISUALSTYLE
  5
655
102
{ACAD_REACTORS
330
64B
102
}
330
64B
100
AcDbVisualStyle
  2
Realistic
 70
     8
 71
     2
 72
     2
 73
     0
 90
        0
 40
-0.6
 41
-30.0
 62
     5
 63
     7
421
 16777215
 74
     1
 91
        0
 64
     7
 65
   257
 75
     1
175
     1
 42
1.0
 92
        8
 66
     8
424
  7895160
 43
1.0
 76
     1
 77
     6
 78
     2
 67
     7
 79
     5
170
     0
171
     0
290
     0
174
     0
 93
       13
 44
0.0
173
     0
291
     0
 45
0.0
1001
ACAD
1000
AcDbSavedByObjectVersion
1070
     0
  0
VISUALSTYLE
  5
658
102
{ACAD_REACTORS
330
64B
102
}
330
64B
100
AcDbVisualStyle
  2
Thicken
 70
    13
 71
     2
 72
     2
 73
     0
 90
        0
 40
-0.6
 41
-30.0
 62
     5
 63
     7
421
 16777215
 74
     1
 91
        4
 64
     7
 65
   257
 75
     1
175
     1
 42
1.0
 92
       12
 66
     7
 43
1.0
 76
     1
 77
     6
 78
     2
 67
     7
 79
     5
170
     0
171
     0
290
     0
174
     0
 93
        1
 44
0.0
173
     0
291
     1
 45
0.0
1001
ACAD
1000
AcDbSavedByObjectVersion
1070
     0
  0
DICTIONARYVAR
  5
8E6
102
{ACAD_REACTORS
330
342
102
}
330
342
100
DictionaryVariables
280
     0
  1
1:1
  0
DICTIONARYVAR
  5
8E4
102
{ACAD_REACTORS
330
342
102
}
330
342
100
DictionaryVariables
280
     0
  1
STANDARD
  0
DICTIONARYVAR
  5
8E3
102
{ACAD_REACTORS
330
342
102
}
330
342
100
DictionaryVariables
280
     0
  1
STANDARD
  0
DICTIONARYVAR
  5
344
102
{ACAD_REACTORS
330
342
102
}
330
342
100
DictionaryVariables
280
     0
  1
1
  0
DICTIONARYVAR
  5
343
102
{ACAD_REACTORS
330
342
102
}
330
342
100
DictionaryVariables
280
     0
  1
1
  0
DICTIONARYVAR
  5
9B5
102
{ACAD_REACTORS
330
342
102
}
330
342
100
DictionaryVariables
280
     0
  1
0
  0
DICTIONARYVAR
  5
8E8
102
{ACAD_REACTORS
330
342
102
}
330
342
100
DictionaryVariables
280
     0
  1
15
  0
DICTIONARYVAR
  5
8E7
102
{ACAD_REACTORS
330
342
102
}
330
342
100
DictionaryVariables
280
     0
  1
0
  0
DICTIONARYVAR
  5
8E5
102
{ACAD_REACTORS
330
342
102
}
330
342
100
DictionaryVariables
280
     0
  1
0
  0
DICTIONARYVAR
  5
5EB
102
{ACAD_REACTORS
330
342
102
}
330
342
100
DictionaryVariables
280
     0
  1
1
  0
XRECORD
  5
38B
102
{ACAD_REACTORS
330
389
102
}
330
389
100
AcDbXrecord
280
     1
330
4DD
330
4E1
330
4E5
330
4E9
330
4F0
330
287
330
2F2
330
369
330
29
330
34
330
37
330
3A
330
3D
330
40
330
43
330
46
330
49
  0
XRECORD
  5
9A2
102
{ACAD_REACTORS
330
99F
102
}
330
99F
100
AcDbXrecord
280
     1
  1
_0100-
  1
*0100-*
  1
*
  1
*
 70
     0
  1
*
  1
*
  0
XRECORD
  5
9A1
102
{ACAD_REACTORS
330
99F
102
}
330
99F
100
AcDbXrecord
280
     1
  1
_0280-
  1
*0280-*
  1
*
  1
*
 70
     0
  1
*
  1
*
  0
XRECORD
  5
9A4
102
{ACAD_REACTORS
330
99F
102
}
330
99F
100
AcDbXrecord
280
     1
  1
_Add Alternate
  1
*add*alt*
  1
*
  1
*
 70
     0
  1
*
  1
*
  0
XRECORD
  5
9A5
102
{ACAD_REACTORS
330
99F
102
}
330
99F
100
AcDbXrecord
280
     1
  1
_Bid Alternate
  1
*bid*alt*
  1
*
  1
*
 70
     0
  1
*
  1
*
  0
XRECORD
  5
9A7
102
{ACAD_REACTORS
330
99F
102
}
330
99F
100
AcDbXrecord
280
     1
  1
_Color 253
  1
*
  1
253
  1
*
 70
     0
  1
*
  1
*
  0
XRECORD
  5
9A3
102
{ACAD_REACTORS
330
99F
102
}
330
99F
100
AcDbXrecord
280
     1
  1
_Color 8
  1
*
  1
8
  1
*
 70
     0
  1
*
  1
*
  0
XRECORD
  5
9A6
102
{ACAD_REACTORS
330
99F
102
}
330
99F
100
AcDbXrecord
280
     1
  1
_Color 84
  1
*
  1
84
  1
*
 70
     0
  1
*
  1
*
  0
XRECORD
  5
9AD
102
{ACAD_REACTORS
330
99F
102
}
330
99F
100
AcDbXrecord
280
     1
  1
_Contours
  1
*contour*,*cont-*,*cp cont*,*p-cont*
  1
*
  1
*
 70
     0
  1
*
  1
*
  0
XRECORD
  5
9A8
102
{ACAD_REACTORS
330
99F
102
}
330
99F
100
AcDbXrecord
280
     1
  1
_Demo
  1
*demo*
  1
*
  1
*
 70
     0
  1
*
  1
*
  0
XRECORD
  5
9A9
102
{ACAD_REACTORS
330
99F
102
}
330
99F
100
AcDbXrecord
280
     1
  1
_Existing
  1
*exist*,*ex*
  1
*
  1
*
 70
     0
  1
*
  1
*
  0
XRECORD
  5
9AC
102
{ACAD_REACTORS
330
99F
102
}
330
99F
100
AcDbXrecord
280
     1
  1
_Hardscape
  1
*sidewalk*,*sw*,*curb*,*walk*,*-lip*,*tbc*
  1
*
  1
*
 70
     0
  1
*
  1
*
  0
XRECORD
  5
9A0
102
{ACAD_REACTORS
330
99F
102
}
330
99F
100
AcDbXrecord
280
     1
  1
_NoXref
  1
~*|*
  1
*
  1
*
 70
     0
  1
*
  1
*
  0
XRECORD
  5
9AA
102
{ACAD_REACTORS
330
99F
102
}
330
99F
100
AcDbXrecord
280
     1
  1
_Row
  1
*row*
  1
*
  1
*
 70
     0
  1
*
  1
*
  0
XRECORD
  5
9AB
102
{ACAD_REACTORS
330
99F
102
}
330
99F
100
AcDbXrecord
280
     1
  1
_Utility
  1
*ut-*,*utility*,*wat*
  1
*
  1
*
 70
     0
  1
*
  1
*
  0
DICTIONARY
  5
63C
330
63B
100
AcDbDictionary
280
     1
281
     1
  3
ACAD_XREC_ROUNDTRIP
360
9BA
  3
BUMPTILE
360
63E
  3
DIFFUSETILE
360
63D
  3
OPACITYTILE
360
641
  3
REFLECTIONTILE
360
640
  3
REFRACTIONTILE
360
642
  3
SPECULARTILE
360
63F
  0
DICTIONARY
  5
634
330
633
100
AcDbDictionary
280
     1
281
     1
  3
ACAD_XREC_ROUNDTRIP
360
9B9
  3
BUMPTILE
360
636
  3
DIFFUSETILE
360
635
  3
OPACITYTILE
360
639
  3
REFLECTIONTILE
360
638
  3
REFRACTIONTILE
360
63A
  3
SPECULARTILE
360
637
  0
DICTIONARY
  5
644
330
643
100
AcDbDictionary
280
     1
281
     1
  3
ACAD_XREC_ROUNDTRIP
360
9BB
  3
BUMPTILE
360
646
  3
DIFFUSETILE
360
645
  3
OPACITYTILE
360
649
  3
REFLECTIONTILE
360
648
  3
REFRACTIONTILE
360
64A
  3
SPECULARTILE
360
647
  0
DICTIONARY
  5
8E0
330
65E
100
AcDbDictionary
280
     1
281
     1
  3
ACAD_ROUNDTRIP_2008_TABLESTYLE_CELLSTYLEMAP
360
9B8
  3
ACAD_XREC_ROUNDTRIP
360
9BC
  0
XRECORD
  5
9BA
102
{ACAD_REACTORS
330
63C
102
}
330
63C
100
AcDbXrecord
280
     1
102
MATERIAL
148
0.0
149
0.0
149
0.0
 93
        0
 94
      127
282
     0
 72
     0
 77
     0
171
     0
175
     0
179
     0
273
     0
  0
XRECORD
  5
63E
102
{ACAD_REACTORS
330
63C
102
}
330
63C
100
AcDbXrecord
280
     1
270
     1
271
     1
  0
XRECORD
  5
63D
102
{ACAD_REACTORS
330
63C
102
}
330
63C
100
AcDbXrecord
280
     1
270
     1
271
     1
  0
XRECORD
  5
641
102
{ACAD_REACTORS
330
63C
102
}
330
63C
100
AcDbXrecord
280
     1
270
     1
271
     1
  0
XRECORD
  5
640
102
{ACAD_REACTORS
330
63C
102
}
330
63C
100
AcDbXrecord
280
     1
270
     1
271
     1
  0
XRECORD
  5
642
102
{ACAD_REACTORS
330
63C
102
}
330
63C
100
AcDbXrecord
280
     1
270
     1
271
     1
  0
XRECORD
  5
63F
102
{ACAD_REACTORS
330
63C
102
}
330
63C
100
AcDbXrecord
280
     1
270
     1
271
     1
  0
XRECORD
  5
9B9
102
{ACAD_REACTORS
330
634
102
}
330
634
100
AcDbXrecord
280
     1
102
MATERIAL
148
0.0
149
0.0
149
0.0
 93
        0
 94
      127
282
     0
 72
     0
 77
     0
171
     0
175
     0
179
     0
273
     0
  0
XRECORD
  5
636
102
{ACAD_REACTORS
330
634
102
}
330
634
100
AcDbXrecord
280
     1
270
     1
271
     1
  0
XRECORD
  5
635
102
{ACAD_REACTORS
330
634
102
}
330
634
100
AcDbXrecord
280
     1
270
     1
271
     1
  0
XRECORD
  5
639
102
{ACAD_REACTORS
330
634
102
}
330
634
100
AcDbXrecord
280
     1
270
     1
271
     1
  0
XRECORD
  5
638
102
{ACAD_REACTORS
330
634
102
}
330
634
100
AcDbXrecord
280
     1
270
     1
271
     1
  0
XRECORD
  5
63A
102
{ACAD_REACTORS
330
634
102
}
330
634
100
AcDbXrecord
280
     1
270
     1
271
     1
  0
XRECORD
  5
637
102
{ACAD_REACTORS
330
634
102
}
330
634
100
AcDbXrecord
280
     1
270
     1
271
     1
  0
XRECORD
  5
9BB
102
{ACAD_REACTORS
330
644
102
}
330
644
100
AcDbXrecord
280
     1
102
MATERIAL
148
0.0
149
0.0
149
0.0
 93
        0
 94
      127
282
     0
 72
     0
 77
     0
171
     0
175
     0
179
     0
273
     0
  0
XRECORD
  5
646
102
{ACAD_REACTORS
330
644
102
}
330
644
100
AcDbXrecord
280
     1
270
     1
271
     1
  0
XRECORD
  5
645
102
{ACAD_REACTORS
330
644
102
}
330
644
100
AcDbXrecord
280
     1
270
     1
271
     1
  0
XRECORD
  5
649
102
{ACAD_REACTORS
330
644
102
}
330
644
100
AcDbXrecord
280
     1
270
     1
271
     1
  0
XRECORD
  5
648
102
{ACAD_REACTORS
330
644
102
}
330
644
100
AcDbXrecord
280
     1
270
     1
271
     1
  0
XRECORD
  5
64A
102
{ACAD_REACTORS
330
644
102
}
330
644
100
AcDbXrecord
280
     1
270
     1
271
     1
  0
XRECORD
  5
647
102
{ACAD_REACTORS
330
644
102
}
330
644
100
AcDbXrecord
280
     1
270
     1
271
     1
  0
CELLSTYLEMAP
  5
9B8
102
{ACAD_REACTORS
330
8E0
102
}
330
8E0
100
AcDbCellStyleMap
 90
        3
300
CELLSTYLE
  1
TABLEFORMAT_BEGIN
 90
        5
170
     1
 91
        0
 92
    32768
 62
   257
 93
        1
300
CONTENTFORMAT
  1
CONTENTFORMAT_BEGIN
 90
        0
 91
        0
 92
      512
 93
        0
300

 40
0.0
140
1.0
 94
        5
 62
     0
340
12
144
0.25
309
CONTENTFORMAT_END
171
     0
 94
        0
309
TABLEFORMAT_END
  1
CELLSTYLE_BEGIN
 90
        1
 91
        1
300
_TITLE
309
CELLSTYLE_END
300
CELLSTYLE
  1
TABLEFORMAT_BEGIN
 90
        5
170
     1
 91
        0
 92
        0
 62
   257
 93
        1
300
CONTENTFORMAT
  1
CONTENTFORMAT_BEGIN
 90
        0
 91
        0
 92
      512
 93
        0
300

 40
0.0
140
1.0
 94
        5
 62
     0
340
12
144
0.18
309
CONTENTFORMAT_END
171
     0
 94
        0
309
TABLEFORMAT_END
  1
CELLSTYLE_BEGIN
 90
        2
 91
        1
300
_HEADER
309
CELLSTYLE_END
300
CELLSTYLE
  1
TABLEFORMAT_BEGIN
 90
        5
170
     1
 91
        0
 92
        0
 62
   257
 93
        1
300
CONTENTFORMAT
  1
CONTENTFORMAT_BEGIN
 90
        0
 91
        0
 92
      512
 93
        0
300

 40
0.0
140
1.0
 94
        2
 62
     0
340
12
144
0.18
309
CONTENTFORMAT_END
171
     0
 94
        0
309
TABLEFORMAT_END
  1
CELLSTYLE_BEGIN
 90
        3
 91
        2
300
_DATA
309
CELLSTYLE_END
  0
XRECORD
  5
9BC
102
{ACAD_REACTORS
330
8E0
102
}
330
8E0
100
AcDbXrecord
280
     1
102
ACAD_ROUNDTRIP_PRE2007_TABLESTYLE
 90
      512
 91
        0
  1

 92
      512
 93
        0
  2

 94
      512
 95
        0
  3

  0
ENDSEC
  0
EOF
