  0
SECTION
  2
HEADER
  9
$ACADVER
  1
AC1015
  9
$ACADMAINTVER
 70
    13
  9
$DWGCODEPAGE
  3
ANSI_1252
  9
$INSBASE
 10
0.0
 20
0.0
 30
0.0
  9
$EXTMIN
 10
-12.23490040218863
 20
0.6448054555834173
 30
0.0
  9
$EXTMAX
 10
4.255099597811364
 20
11.08480545558341
 30
0.03
  9
$LIMMIN
 10
0.0
 20
0.0
  9
$LIMMAX
 10
12.0
 20
9.0
  9
$ORTHOMODE
 70
     1
  9
$REGENMODE
 70
     1
  9
$FILLMODE
 70
     1
  9
$QTEXTMODE
 70
     0
  9
$MIRRTEXT
 70
     0
  9
$LTSCALE
 40
1.0
  9
$ATTMODE
 70
     1
  9
$TEXTSIZE
 40
0.1103
  9
$TRACEWID
 40
0.05
  9
$TEXTSTYLE
  7
ROMANS
  9
$CLAYER
  8
IMAGE
  9
$CELTYPE
  6
ByLayer
  9
$CECOLOR
 62
   256
  9
$CELTSCALE
 40
1.0
  9
$DISPSILH
 70
     0
  9
$DIMSCALE
 40
1.0
  9
$DIMASZ
 40
0.18
  9
$DIMEXO
 40
0.0625
  9
$DIMDLI
 40
0.38
  9
$DIMRND
 40
0.0
  9
$DIMDLE
 40
0.0
  9
$DIMEXE
 40
0.18
  9
$DIMTP
 40
0.0
  9
$DIMTM
 40
0.0
  9
$DIMTXT
 40
0.18
  9
$DIMCEN
 40
0.09
  9
$DIMTSZ
 40
0.0
  9
$DIMTOL
 70
     0
  9
$DIMLIM
 70
     0
  9
$DIMTIH
 70
     1
  9
$DIMTOH
 70
     1
  9
$DIMSE1
 70
     0
  9
$DIMSE2
 70
     0
  9
$DIMTAD
 70
     0
  9
$DIMZIN
 70
     0
  9
$DIMBLK
  1

  9
$DIMASO
 70
     1
  9
$DIMSHO
 70
     1
  9
$DIMPOST
  1

  9
$DIMAPOST
  1

  9
$DIMALT
 70
     0
  9
$DIMALTD
 70
     2
  9
$DIMALTF
 40
25.4
  9
$DIMLFAC
 40
1.0
  9
$DIMTOFL
 70
     0
  9
$DIMTVP
 40
0.0
  9
$DIMTIX
 70
     0
  9
$DIMSOXD
 70
     0
  9
$DIMSAH
 70
     0
  9
$DIMBLK1
  1

  9
$DIMBLK2
  1

  9
$DIMSTYLE
  2
STANDARD
  9
$DIMCLRD
 70
     0
  9
$DIMCLRE
 70
     0
  9
$DIMCLRT
 70
     0
  9
$DIMTFAC
 40
1.0
  9
$DIMGAP
 40
0.09
  9
$DIMJUST
 70
     0
  9
$DIMSD1
 70
     0
  9
$DIMSD2
 70
     0
  9
$DIMTOLJ
 70
     1
  9
$DIMTZIN
 70
     0
  9
$DIMALTZ
 70
     0
  9
$DIMALTTZ
 70
     0
  9
$DIMUPT
 70
     0
  9
$DIMDEC
 70
     4
  9
$DIMTDEC
 70
     4
  9
$DIMALTU
 70
     2
  9
$DIMALTTD
 70
     2
  9
$DIMTXSTY
  7
STANDARD
  9
$DIMAUNIT
 70
     0
  9
$DIMADEC
 70
     0
  9
$DIMALTRND
 40
0.0
  9
$DIMAZIN
 70
     0
  9
$DIMDSEP
 70
    46
  9
$DIMATFIT
 70
     3
  9
$DIMFRAC
 70
     0
  9
$DIMLDRBLK
  1

  9
$DIMLUNIT
 70
     2
  9
$DIMLWD
 70
    -2
  9
$DIMLWE
 70
    -2
  9
$DIMTMOVE
 70
     2
  9
$LUNITS
 70
     2
  9
$LUPREC
 70
     4
  9
$SKETCHINC
 40
0.1
  9
$FILLETRAD
 40
0.0
  9
$AUNITS
 70
     0
  9
$AUPREC
 70
     0
  9
$MENU
  1
c:\acad13nt\win\SUPPORT\ACAD
  9
$ELEVATION
 40
0.0
  9
$PELEVATION
 40
0.0
  9
$THICKNESS
 40
0.0
  9
$LIMCHECK
 70
     0
  9
$CHAMFERA
 40
0.0
  9
$CHAMFERB
 40
0.0
  9
$CHAMFERC
 40
0.0
  9
$CHAMFERD
 40
0.0
  9
$SKPOLY
 70
     0
  9
$TDCREATE
 40
2449623.385097569
  9
$TDUCREATE
 40
2449623.676764236
  9
$TDUPDATE
 40
2453013.697931099
  9
$TDUUPDATE
 40
2453013.989597766
  9
$TDINDWG
 40
1.3454915394
  9
$TDUSRTIMER
 40
1.3454915394
  9
$USRTIMER
 70
     1
  9
$ANGBASE
 50
0.0
  9
$ANGDIR
 70
     0
  9
$PDMODE
 70
     0
  9
$PDSIZE
 40
0.0
  9
$PLINEWID
 40
0.0
  9
$SPLFRAME
 70
     0
  9
$SPLINETYPE
 70
     6
  9
$SPLINESEGS
 70
     8
  9
$HANDSEED
  5
42C2
  9
$SURFTAB1
 70
     6
  9
$SURFTAB2
 70
     6
  9
$SURFTYPE
 70
     6
  9
$SURFU
 70
     6
  9
$SURFV
 70
     6
  9
$UCSBASE
  2

  9
$UCSNAME
  2

  9
$UCSORG
 10
0.0
 20
0.0
 30
0.0
  9
$UCSXDIR
 10
1.0
 20
0.0
 30
0.0
  9
$UCSYDIR
 10
0.0
 20
1.0
 30
0.0
  9
$UCSORTHOREF
  2

  9
$UCSORTHOVIEW
 70
     0
  9
$UCSORGTOP
 10
0.0
 20
0.0
 30
0.0
  9
$UCSORGBOTTOM
 10
0.0
 20
0.0
 30
0.0
  9
$UCSORGLEFT
 10
0.0
 20
0.0
 30
0.0
  9
$UCSORGRIGHT
 10
0.0
 20
0.0
 30
0.0
  9
$UCSORGFRONT
 10
0.0
 20
0.0
 30
0.0
  9
$UCSORGBACK
 10
0.0
 20
0.0
 30
0.0
  9
$PUCSBASE
  2

  9
$PUCSNAME
  2

  9
$PUCSORG
 10
0.0
 20
0.0
 30
0.0
  9
$PUCSXDIR
 10
1.0
 20
0.0
 30
0.0
  9
$PUCSYDIR
 10
0.0
 20
1.0
 30
0.0
  9
$PUCSORTHOREF
  2

  9
$PUCSORTHOVIEW
 70
     0
  9
$PUCSORGTOP
 10
0.0
 20
0.0
 30
0.0
  9
$PUCSORGBOTTOM
 10
0.0
 20
0.0
 30
0.0
  9
$PUCSORGLEFT
 10
0.0
 20
0.0
 30
0.0
  9
$PUCSORGRIGHT
 10
0.0
 20
0.0
 30
0.0
  9
$PUCSORGFRONT
 10
0.0
 20
0.0
 30
0.0
  9
$PUCSORGBACK
 10
0.0
 20
0.0
 30
0.0
  9
$USERI1
 70
     0
  9
$USERI2
 70
     0
  9
$USERI3
 70
     0
  9
$USERI4
 70
     0
  9
$USERI5
 70
     0
  9
$USERR1
 40
0.0
  9
$USERR2
 40
0.0
  9
$USERR3
 40
0.0
  9
$USERR4
 40
0.0
  9
$USERR5
 40
0.0
  9
$WORLDVIEW
 70
     1
  9
$SHADEDGE
 70
     3
  9
$SHADEDIF
 70
    70
  9
$TILEMODE
 70
     1
  9
$MAXACTVP
 70
    16
  9
$PINSBASE
 10
0.0
 20
0.0
 30
0.0
  9
$PLIMCHECK
 70
     0
  9
$PEXTMIN
 10
1.000000000000000E+20
 20
1.000000000000000E+20
 30
1.000000000000000E+20
  9
$PEXTMAX
 10
-1.000000000000000E+20
 20
-1.000000000000000E+20
 30
-1.000000000000000E+20
  9
$PLIMMIN
 10
0.0
 20
0.0
  9
$PLIMMAX
 10
12.0
 20
9.0
  9
$UNITMODE
 70
     0
  9
$VISRETAIN
 70
     0
  9
$PLINEGEN
 70
     1
  9
$PSLTSCALE
 70
     1
  9
$TREEDEPTH
 70
  3020
  9
$CMLSTYLE
  2
Standard
  9
$CMLJUST
 70
     0
  9
$CMLSCALE
 40
1.0
  9
$PROXYGRAPHICS
 70
     1
  9
$MEASUREMENT
 70
     0
  9
$CELWEIGHT
370
    -1
  9
$ENDCAPS
280
     0
  9
$JOINSTYLE
280
     0
  9
$LWDISPLAY
290
     0
  9
$INSUNITS
 70
     0
  9
$HYPERLINKBASE
  1

  9
$STYLESHEET
  1
OKIColorShaded.ctb
  9
$XEDIT
290
     1
  9
$CEPSNTYPE
380
     0
  9
$PSTYLEMODE
290
     1
  9
$FINGERPRINTGUID
  2
{6B607ED5-4747-4B87-A3A8-30661A3053A3}
  9
$VERSIONGUID
  2
{E4A8087F-4378-404B-9B01-32B32BBF8CB4}
  9
$EXTNAMES
290
     1
  9
$PSVPSCALE
 40
0.0
  9
$OLESTARTUP
290
     0
  0
ENDSEC
  0
SECTION
  2
CLASSES
  0
CLASS
  1
ACDBDICTIONARYWDFLT
  2
AcDbDictionaryWithDefault
  3
AutoCAD 2000
 90
        0
280
     0
281
     0
  0
CLASS
  1
ACDBPLACEHOLDER
  2
AcDbPlaceHolder
  3
AutoCAD 2000
 90
        0
280
     0
281
     0
  0
CLASS
  1
LAYOUT
  2
AcDbLayout
  3
AutoCAD 2000
 90
        0
280
     0
281
     0
  0
CLASS
  1
DICTIONARYVAR
  2
AcDbDictionaryVar
  3
AutoCAD 2000
 90
        0
280
     0
281
     0
  0
ENDSEC
  0
SECTION
  2
TABLES
  0
TABLE
  2
VPORT
  5
420A
330
0
100
AcDbSymbolTable
 70
     2
  0
VPORT
  5
42C1
330
420A
100
AcDbSymbolTableRecord
100
AcDbViewportTableRecord
  2
*Active
 70
     0
 10
0.0
 20
0.0
 11
1.0
 21
1.0
 12
-3.990130728734549
 22
5.864615803183498
 13
0.0
 23
0.0
 14
0.14
 24
0.14
 15
0.14
 25
0.14
 16
0.0
 26
0.0
 36
1.0
 17
0.0
 27
0.0
 37
0.0
 40
11.00725303868469
 41
1.505548705302096
 42
50.0
 43
0.0
 44
0.0
 50
0.0
 51
0.0
 71
     0
 72
 20000
 73
     1
 74
     1
 75
     0
 76
     0
 77
     0
 78
     0
281
     0
 65
     1
110
0.0
120
0.0
130
0.0
111
1.0
121
0.0
131
0.0
112
0.0
122
1.0
132
0.0
 79
     0
146
0.0
  0
ENDTAB
  0
TABLE
  2
LTYPE
  5
4207
330
0
100
AcDbSymbolTable
 70
     2
  0
LTYPE
  5
4215
330
4207
100
AcDbSymbolTableRecord
100
AcDbLinetypeTableRecord
  2
ByBlock
 70
     0
  3

 72
    65
 73
     0
 40
0.0
  0
LTYPE
  5
4216
330
4207
100
AcDbSymbolTableRecord
100
AcDbLinetypeTableRecord
  2
ByLayer
 70
     0
  3

 72
    65
 73
     0
 40
0.0
  0
LTYPE
  5
4217
330
4207
100
AcDbSymbolTableRecord
100
AcDbLinetypeTableRecord
  2
CONTINUOUS
 70
     0
  3
Solid line
 72
    65
 73
     0
 40
0.0
  0
LTYPE
  5
422A
330
4207
100
AcDbSymbolTableRecord
100
AcDbLinetypeTableRecord
  2
0
 70
     0
  3
Solid Line
 72
    65
 73
     0
 40
0.0
  0
ENDTAB
  0
TABLE
  2
LAYER
  5
4204
330
0
100
AcDbSymbolTable
 70
     7
  0
LAYER
  5
4212
330
4204
100
AcDbSymbolTableRecord
100
AcDbLayerTableRecord
  2
0
 70
     0
 62
     7
  6
CONTINUOUS
370
    -3
390
4211
  0
LAYER
  5
4231
330
4204
100
AcDbSymbolTableRecord
100
AcDbLayerTableRecord
  2
TEXT_BUBBLES
 70
     0
 62
     6
  6
CONTINUOUS
370
    -3
390
4211
  0
LAYER
  5
4232
330
4204
100
AcDbSymbolTableRecord
100
AcDbLayerTableRecord
  2
IMAGE
 70
     0
 62
     7
  6
CONTINUOUS
370
    -3
390
4211
  0
LAYER
  5
4235
330
4204
100
AcDbSymbolTableRecord
100
AcDbLayerTableRecord
  2
TEXT_LEADERS
 70
     0
 62
    -5
  6
CONTINUOUS
370
    -3
390
4211
  0
LAYER
  5
4237
330
4204
100
AcDbSymbolTableRecord
100
AcDbLayerTableRecord
  2
INSTRUCT-CALLOUT
 70
     0
 62
     4
  6
CONTINUOUS
370
    -3
390
4211
  0
LAYER
  5
4239
330
4204
100
AcDbSymbolTableRecord
100
AcDbLayerTableRecord
  2
DEFPOINTS
 70
     0
 62
     7
  6
CONTINUOUS
290
     0
370
    -3
390
4211
  0
LAYER
  5
425A
330
4204
100
AcDbSymbolTableRecord
100
AcDbLayerTableRecord
  2
TITLE
 70
     0
 62
     4
  6
CONTINUOUS
370
    -3
390
4211
  0
ENDTAB
  0
TABLE
  2
STYLE
  5
4205
330
0
100
AcDbSymbolTable
 70
     6
  0
STYLE
  5
4213
330
4205
100
AcDbSymbolTableRecord
100
AcDbTextStyleTableRecord
  2
STANDARD
 70
     0
 40
0.0
 41
1.0
 50
0.0
 71
     0
 42
0.2
  3
txt
  4

  0
STYLE
  5
4228
330
4205
100
AcDbSymbolTableRecord
100
AcDbTextStyleTableRecord
  2
ROMANS
 70
     0
 40
0.0
 41
1.0
 50
0.0
 71
     0
 42
0.1103
  3
romans.shx
  4

  0
STYLE
  5
4229
330
4205
100
AcDbSymbolTableRecord
100
AcDbTextStyleTableRecord
  2
SIMPLEX
 70
     0
 40
0.0
 41
1.0
 50
0.0
 71
     0
 42
0.2
  3
SIMPLEX
  4

  0
STYLE
  5
425B
330
4205
100
AcDbSymbolTableRecord
100
AcDbTextStyleTableRecord
  2
L100
 70
     0
 40
0.1
 41
1.0
 50
0.0
 71
     0
 42
0.1
  3
romans.shx
  4

  0
STYLE
  5
425C
330
4205
100
AcDbSymbolTableRecord
100
AcDbTextStyleTableRecord
  2
L200
 70
     0
 40
0.2
 41
1.0
 50
0.0
 71
     0
 42
0.081
  3
ARIAL.TTF
  4

1001
ACAD
1000
Arial
1071
       34
  0
STYLE
  5
425D
330
4205
100
AcDbSymbolTableRecord
100
AcDbTextStyleTableRecord
  2
L80
 70
     0
 40
0.08
 41
1.0
 50
0.0
 71
     0
 42
0.08
  3
ROMANS
  4

  0
ENDTAB
  0
TABLE
  2
VIEW
  5
4208
330
0
100
AcDbSymbolTable
 70
     0
  0
ENDTAB
  0
TABLE
  2
UCS
  5
4209
330
0
100
AcDbSymbolTable
 70
     0
  0
ENDTAB
  0
TABLE
  2
APPID
  5
420B
330
0
100
AcDbSymbolTable
 70
     3
  0
APPID
  5
4214
330
420B
100
AcDbSymbolTableRecord
100
AcDbRegAppTableRecord
  2
ACAD
 70
     0
  0
APPID
  5
422C
330
420B
100
AcDbSymbolTableRecord
100
AcDbRegAppTableRecord
  2
RAK
 70
     0
  0
APPID
  5
422D
330
420B
100
AcDbSymbolTableRecord
100
AcDbRegAppTableRecord
  2
ABNSLEADERTOOLS
 70
     0
  0
ENDTAB
  0
TABLE
  2
DIMSTYLE
  5
420C
330
0
100
AcDbSymbolTable
 70
     1
100
AcDbDimStyleTable
 71
     0
  0
DIMSTYLE
105
422E
102
{ACAD_REACTORS
330
3969
102
}
330
420C
100
AcDbSymbolTableRecord
100
AcDbDimStyleTableRecord
  2
STANDARD
 70
     0
279
     2
340
4213
  0
ENDTAB
  0
TABLE
  2
BLOCK_RECORD
  5
4203
330
0
100
AcDbSymbolTable
 70
     2
  0
BLOCK_RECORD
  5
4220
330
4203
100
AcDbSymbolTableRecord
100
AcDbBlockTableRecord
  2
*Model_Space
340
4223
  0
BLOCK_RECORD
  5
421C
330
4203
100
AcDbSymbolTableRecord
100
AcDbBlockTableRecord
  2
*Paper_Space
340
421F
  0
BLOCK_RECORD
  5
424D
330
4203
100
AcDbSymbolTableRecord
100
AcDbBlockTableRecord
  2
TITLBLK
340
0
102
{BLKREFS
331
425E
102
}
  0
BLOCK_RECORD
  5
426A
330
4203
100
AcDbSymbolTableRecord
100
AcDbBlockTableRecord
  2
*D1
340
0
  0
ENDTAB
  0
ENDSEC
  0
SECTION
  2
BLOCKS
  0
BLOCK
  5
423C
330
4220
100
AcDbEntity
  8
0
100
AcDbBlockBegin
  2
*Model_Space
 70
     0
 10
0.0
 20
0.0
 30
0.0
  3
*Model_Space
  1

  0
ENDBLK
  5
423D
330
4220
100
AcDbEntity
  8
0
100
AcDbBlockEnd
  0
BLOCK
  5
423A
330
421C
100
AcDbEntity
 67
     1
  8
0
100
AcDbBlockBegin
  2
*Paper_Space
 70
     0
 10
0.0
 20
0.0
 30
0.0
  3
*Paper_Space
  1

  0
ENDBLK
  5
423B
330
421C
100
AcDbEntity
 67
     1
  8
0
100
AcDbBlockEnd
  0
BLOCK
  5
4258
330
424D
100
AcDbEntity
  8
0
100
AcDbBlockBegin
  2
TITLBLK
 70
     2
 10
0.0
 20
0.0
 30
0.0
  3
TITLBLK
  1

  0
LWPOLYLINE
  5
424E
330
424D
100
AcDbEntity
  8
TITLE
 62
     3
100
AcDbPolyline
 90
        2
 70
     0
 43
0.04
 39
0.03
 10
0.3424999999999994
 20
-0.0000000000000003
 10
7.654581983261419
 20
-0.0000000000000003
  0
ATTDEF
  5
424F
330
424D
100
AcDbEntity
  8
TITLE
100
AcDbText
 10
0.625
 20
0.0999999999999998
 30
0.0
 40
0.2
  1
TITLE
  7
L200
100
AcDbAttributeDefinition
  3
DETAIL TITLE TOP 2ND LINE
  2
TITLE2
 70
     0
  0
LWPOLYLINE
  5
4250
330
424D
100
AcDbEntity
  8
TITLE
 62
     3
100
AcDbPolyline
 90
        2
 70
     1
 43
0.03
 10
0.0
 20
-0.3425000000000002
 42
0.9999999999999998
 10
0.0
 20
0.3425000000000002
 42
0.9999999999999998
  0
ATTDEF
  5
4251
330
424D
100
AcDbEntity
  8
TITLE
100
AcDbText
 10
-0.0776944065484311
 20
-0.1000000000000003
 30
0.0
 40
0.2
  1
#
  7
L200
 72
     4
 11
0.0
 21
-0.0000000000000003
 31
0.0
100
AcDbAttributeDefinition
  3
#
  2
#
 70
     0
  0
ATTDEF
  5
4252
330
424D
100
AcDbEntity
  8
TITLE
 62
     7
100
AcDbText
 10
0.625
 20
-0.1836633170828782
 30
0.0
 40
0.1
  1
N.T.S.
  7
L100
100
AcDbAttributeDefinition
  3
SCALE
  2
SCALE
 70
     0
  0
ATTDEF
  5
4253
330
424D
100
AcDbEntity
  8
TITLE
100
AcDbText
 10
2.107203380653828
 20
-0.2914343300200487
 30
0.0
 40
0.2
  1
TITLE2
  7
L200
100
AcDbAttributeDefinition
  3
DETAIL TITLE BOTTOM 1
  2
TITLE3
 70
     0
  0
ATTDEF
  5
4254
330
424D
100
AcDbEntity
  8
TITLE
 62
     7
100
AcDbText
 10
7.570772459451895
 20
-0.1618486459795794
 30
0.0
 40
0.08
  1
-
  7
L80
 72
     2
 11
7.654581983261419
 21
-0.1618486459795794
 31
0.0
100
AcDbAttributeDefinition
  3
DWG-NAME
  2
DWG-NAME
 70
     0
  0
ATTDEF
  5
4255
330
424D
100
AcDbEntity
  8
TITLE
 62
     7
100
AcDbText
 10
7.570772459451895
 20
0.0853756950662722
 30
0.0
 40
0.08
  1
-
  7
L80
 72
     2
 11
7.654581983261419
 21
0.0853756950662722
 31
0.0
100
AcDbAttributeDefinition
  3
REVISION DATE
  2
REVISED
 70
     0
  0
ATTDEF
  5
4256
330
424D
100
AcDbEntity
  8
TITLE
100
AcDbText
 10
0.625
 20
0.459485206268383
 30
0.0
 40
0.2
  1
TITLE
  7
L200
100
AcDbAttributeDefinition
  3
DETAIL TITLE TOP LINE
  2
TITLE1
 70
     0
  0
ATTDEF
  5
4257
330
424D
100
AcDbEntity
  8
TITLE
100
AcDbText
 10
2.107203380653828
 20
-0.6149710156615936
 30
0.0
 40
0.2
  1
TITLE2
  7
L200
100
AcDbAttributeDefinition
  3
DETAIL TITLE BOTTOM 2
  2
TITLE4
 70
     0
  0
ENDBLK
  5
4259
330
424D
100
AcDbEntity
  8
0
100
AcDbBlockEnd
  0
BLOCK
  5
4275
330
426A
100
AcDbEntity
  8
0
100
AcDbBlockBegin
  2
*D1
 70
     1
 10
0.0
 20
0.0
 30
0.0
  3
*D1
  1

  0
LINE
  5
428D
330
426A
100
AcDbEntity
  8
IMAGE
 62
     0
370
    -2
100
AcDbLine
 10
-7.390414104009535
 20
6.788776356894231
 30
0.0
 11
-7.390414104009535
 21
7.310935235168967
 31
0.0
  0
LINE
  5
428E
330
426A
100
AcDbEntity
  8
IMAGE
 62
     0
370
    -2
100
AcDbLine
 10
-8.580954309366205
 20
6.496665436001739
 30
0.0
 11
-8.580954309366205
 21
7.310935235168967
 31
0.0
  0
LINE
  5
428F
330
426A
100
AcDbEntity
  8
IMAGE
 62
     0
370
    -2
100
AcDbLine
 10
-7.210414104009535
 20
7.130935235168967
 30
0.0
 11
-7.030414104009534
 21
7.130935235168967
 31
0.0
  0
LINE
  5
4290
330
426A
100
AcDbEntity
  8
IMAGE
 62
     0
370
    -2
100
AcDbLine
 10
-8.760954309366205
 20
7.130935235168967
 30
0.0
 11
-8.940954309366205
 21
7.130935235168967
 31
0.0
  0
MTEXT
  5
4291
330
426A
100
AcDbEntity
  8
IMAGE
 62
     0
100
AcDbMText
 10
-7.98568420668787
 20
7.130935235168967
 30
0.0
 40
0.125
 41
0.0
 71
     5
 72
     1
  1
\A1;6" MIN.
  7
ROMANS
 73
     1
 44
1.0
  0
SOLID
  5
4292
330
426A
100
AcDbEntity
  8
IMAGE
 62
     0
100
AcDbTrace
 10
-7.210414104009535
 20
7.160935235168968
 30
0.0
 11
-7.210414104009535
 21
7.100935235168967
 31
0.0
 12
-7.390414104009535
 22
7.130935235168967
 32
0.0
 13
-7.390414104009535
 23
7.130935235168967
 33
0.0
  0
SOLID
  5
4293
330
426A
100
AcDbEntity
  8
IMAGE
 62
     0
100
AcDbTrace
 10
-8.760954309366205
 20
7.160935235168968
 30
0.0
 11
-8.760954309366205
 21
7.100935235168967
 31
0.0
 12
-8.580954309366205
 22
7.130935235168967
 32
0.0
 13
-8.580954309366205
 23
7.130935235168967
 33
0.0
  0
POINT
  5
4294
330
426A
100
AcDbEntity
  8
DEFPOINTS
 62
     0
100
AcDbPoint
 10
-7.390414104009535
 20
6.726276356894231
 30
0.0
  0
POINT
  5
4295
330
426A
100
AcDbEntity
  8
DEFPOINTS
 62
     0
100
AcDbPoint
 10
-8.580954309366205
 20
6.434165436001739
 30
0.0
  0
POINT
  5
4296
330
426A
100
AcDbEntity
  8
DEFPOINTS
 62
     0
100
AcDbPoint
 10
-8.580954309366205
 20
7.130935235168967
 30
0.0
  0
ENDBLK
  5
4276
330
426A
100
AcDbEntity
  8
0
100
AcDbBlockEnd
  0
ENDSEC
  0
SECTION
  2
ENTITIES
  0
TEXT
  5
C2
330
4220
100
AcDbEntity
  8
TEXT_BUBBLES
100
AcDbText
 10
5.73545314889218
 20
7.411373466191943
 30
0.0
 40
0.1250000018625
  1

  7
ROMANS
100
AcDbText
  0
TEXT
  5
C3
330
4220
100
AcDbEntity
  8
TEXT_BUBBLES
100
AcDbText
 10
5.73545314889218
 20
4.693796247183193
 30
0.0
 40
0.1250000018625
  1

  7
ROMANS
100
AcDbText
  0
TEXT
  5
C4
330
4220
100
AcDbEntity
  8
TEXT_BUBBLES
100
AcDbText
 10
5.73545314889218
 20
7.023148149190693
 30
0.0
 40
0.1250000018625
  1

  7
ROMANS
100
AcDbText
  0
TEXT
  5
C5
330
4220
100
AcDbEntity
  8
TEXT_BUBBLES
100
AcDbText
 10
21.12887382507374
 20
1.79238915443375
 30
0.0
 40
0.1250000018625
  1

  7
ROMANS
100
AcDbText
  0
TEXT
  5
C6
330
4220
100
AcDbEntity
  8
TEXT_BUBBLES
100
AcDbText
 10
21.12887382507374
 20
1.210015416145
 30
0.0
 40
0.1250000018625
  1

  7
ROMANS
100
AcDbText
  0
TEXT
  5
C7
330
4220
100
AcDbEntity
  8
TEXT_BUBBLES
100
AcDbText
 10
21.12887382507374
 20
1.404139995575
 30
0.0
 40
0.1250000018625
  1

  7
ROMANS
100
AcDbText
  0
TEXT
  5
C8
330
4220
100
AcDbEntity
  8
TEXT_BUBBLES
100
AcDbText
 10
21.12887382507374
 20
2.18063831329375
 30
0.0
 40
0.1250000018625
  1

  7
ROMANS
100
AcDbText
  0
TEXT
  5
C9
330
4220
100
AcDbEntity
  8
TEXT_BUBBLES
100
AcDbText
 10
21.12887382507374
 20
3.15126121044125
 30
0.0
 40
0.1250000018625
  1

  7
ROMANS
100
AcDbText
  0
TEXT
  5
CA
330
4220
100
AcDbEntity
  8
TEXT_BUBBLES
100
AcDbText
 10
21.12887382507374
 20
3.73363494873
 30
0.0
 40
0.1250000018625
  1

  7
ROMANS
100
AcDbText
  0
TEXT
  5
CB
330
4220
100
AcDbEntity
  8
TEXT_BUBBLES
100
AcDbText
 10
21.12887382507374
 20
3.539510369301249
 30
0.0
 40
0.1250000018625
  1

  7
ROMANS
100
AcDbText
  0
TEXT
  5
CC
330
4220
100
AcDbEntity
  8
TEXT_BUBBLES
100
AcDbText
 10
5.73545314889218
 20
3.917345613179443
 30
0.0
 40
0.1250000018625
  1

  7
ROMANS
100
AcDbText
  0
TEXT
  5
CD
330
4220
100
AcDbEntity
  8
TEXT_BUBBLES
100
AcDbText
 10
21.12887382507374
 20
2.7630120515825
 30
0.0
 40
0.1250000018625
  1

  7
ROMANS
100
AcDbText
  0
TEXT
  5
CE
330
4220
100
AcDbEntity
  8
TEXT_BUBBLES
100
AcDbText
 10
21.12887382507374
 20
2.5688874721525
 30
0.0
 40
0.1250000018625
  1

  7
ROMANS
100
AcDbText
  0
TEXT
  5
CF
330
4220
100
AcDbEntity
  8
TEXT_BUBBLES
100
AcDbText
 10
5.73545314889218
 20
6.052584856686943
 30
0.0
 40
0.1250000018625
  1

  7
ROMANS
100
AcDbText
  0
TEXT
  5
D0
330
4220
100
AcDbEntity
  8
TEXT_BUBBLES
100
AcDbText
 10
5.73545314889218
 20
7.993711441694443
 30
0.0
 40
0.1250000018625
  1

  7
ROMANS
100
AcDbText
  0
TEXT
  5
D1
330
4220
100
AcDbEntity
  8
TEXT_BUBBLES
100
AcDbText
 10
5.73545314889218
 20
6.440810173688193
 30
0.0
 40
0.1250000018625
  1

  7
ROMANS
100
AcDbText
  0
TEXT
  5
D2
330
4220
100
AcDbEntity
  8
TEXT_BUBBLES
100
AcDbText
 10
5.73545314889218
 20
5.082021564184443
 30
0.0
 40
0.1250000018625
  1

  7
ROMANS
100
AcDbText
  0
TEXT
  5
D3
330
4220
100
AcDbEntity
  8
TEXT_BUBBLES
100
AcDbText
 10
5.73545314889218
 20
4.305570930181944
 30
0.0
 40
0.1250000018625
  1

  7
ROMANS
100
AcDbText
  0
CIRCLE
  5
10DB
330
4220
100
AcDbEntity
  8
TEXT_BUBBLES
100
AcDbCircle
 10
-6.312449834113127
 20
7.129996974247847
 30
0.0
 40
0.1562887347020049
  0
TEXT
  5
10DC
330
4220
100
AcDbEntity
  8
TEXT_BUBBLES
100
AcDbText
 10
-6.363057614873777
 20
7.067481480367045
 30
0.0
 40
0.1250309877616039
  1
1
  7
ROMANS
 72
     4
 11
-6.312449834113127
 21
7.129996974247847
 31
0.0
100
AcDbText
  0
TEXT
  5
110B
330
4220
100
AcDbEntity
  8
TEXT_BUBBLES
100
AcDbText
 10
5.73545314889218
 20
7.411373466191943
 30
0.0
 40
0.1250000018625
  1

  7
ROMANS
100
AcDbText
  0
TEXT
  5
110C
330
4220
100
AcDbEntity
  8
TEXT_BUBBLES
100
AcDbText
 10
5.73545314889218
 20
4.693796247183193
 30
0.0
 40
0.1250000018625
  1

  7
ROMANS
100
AcDbText
  0
TEXT
  5
110D
330
4220
100
AcDbEntity
  8
TEXT_BUBBLES
100
AcDbText
 10
5.73545314889218
 20
7.023148149190693
 30
0.0
 40
0.1250000018625
  1

  7
ROMANS
100
AcDbText
  0
TEXT
  5
110E
330
4220
100
AcDbEntity
  8
TEXT_BUBBLES
100
AcDbText
 10
21.12887382507374
 20
1.79238915443375
 30
0.0
 40
0.1250000018625
  1

  7
ROMANS
100
AcDbText
  0
TEXT
  5
110F
330
4220
100
AcDbEntity
  8
TEXT_BUBBLES
100
AcDbText
 10
21.12887382507374
 20
1.210015416145
 30
0.0
 40
0.1250000018625
  1

  7
ROMANS
100
AcDbText
  0
TEXT
  5
1110
330
4220
100
AcDbEntity
  8
TEXT_BUBBLES
100
AcDbText
 10
21.12887382507374
 20
1.404139995575
 30
0.0
 40
0.1250000018625
  1

  7
ROMANS
100
AcDbText
  0
TEXT
  5
1111
330
4220
100
AcDbEntity
  8
TEXT_BUBBLES
100
AcDbText
 10
21.12887382507374
 20
2.18063831329375
 30
0.0
 40
0.1250000018625
  1

  7
ROMANS
100
AcDbText
  0
TEXT
  5
1112
330
4220
100
AcDbEntity
  8
TEXT_BUBBLES
100
AcDbText
 10
21.12887382507374
 20
3.15126121044125
 30
0.0
 40
0.1250000018625
  1

  7
ROMANS
100
AcDbText
  0
TEXT
  5
1113
330
4220
100
AcDbEntity
  8
TEXT_BUBBLES
100
AcDbText
 10
21.12887382507374
 20
3.73363494873
 30
0.0
 40
0.1250000018625
  1

  7
ROMANS
100
AcDbText
  0
TEXT
  5
1114
330
4220
100
AcDbEntity
  8
TEXT_BUBBLES
100
AcDbText
 10
21.12887382507374
 20
3.539510369301249
 30
0.0
 40
0.1250000018625
  1

  7
ROMANS
100
AcDbText
  0
TEXT
  5
1115
330
4220
100
AcDbEntity
  8
TEXT_BUBBLES
100
AcDbText
 10
5.73545314889218
 20
3.917345613179443
 30
0.0
 40
0.1250000018625
  1

  7
ROMANS
100
AcDbText
  0
TEXT
  5
1116
330
4220
100
AcDbEntity
  8
TEXT_BUBBLES
100
AcDbText
 10
21.12887382507374
 20
2.7630120515825
 30
0.0
 40
0.1250000018625
  1

  7
ROMANS
100
AcDbText
  0
TEXT
  5
1117
330
4220
100
AcDbEntity
  8
TEXT_BUBBLES
100
AcDbText
 10
21.12887382507374
 20
2.5688874721525
 30
0.0
 40
0.1250000018625
  1

  7
ROMANS
100
AcDbText
  0
TEXT
  5
1118
330
4220
100
AcDbEntity
  8
TEXT_BUBBLES
100
AcDbText
 10
5.73545314889218
 20
6.052584856686943
 30
0.0
 40
0.1250000018625
  1

  7
ROMANS
100
AcDbText
  0
TEXT
  5
1119
330
4220
100
AcDbEntity
  8
TEXT_BUBBLES
100
AcDbText
 10
5.73545314889218
 20
7.993711441694443
 30
0.0
 40
0.1250000018625
  1

  7
ROMANS
100
AcDbText
  0
TEXT
  5
111A
330
4220
100
AcDbEntity
  8
TEXT_BUBBLES
100
AcDbText
 10
5.73545314889218
 20
6.440810173688193
 30
0.0
 40
0.1250000018625
  1

  7
ROMANS
100
AcDbText
  0
TEXT
  5
111B
330
4220
100
AcDbEntity
  8
TEXT_BUBBLES
100
AcDbText
 10
5.73545314889218
 20
5.082021564184443
 30
0.0
 40
0.1250000018625
  1

  7
ROMANS
100
AcDbText
  0
TEXT
  5
111C
330
4220
100
AcDbEntity
  8
TEXT_BUBBLES
100
AcDbText
 10
5.73545314889218
 20
4.305570930181944
 30
0.0
 40
0.1250000018625
  1

  7
ROMANS
100
AcDbText
  0
TEXT
  5
111D
330
4220
100
AcDbEntity
  8
TEXT_LEADERS
100
AcDbText
 10
6.05239987373375
 20
5.673787593841249
 30
0.0
 40
0.1250000018625
  1

  7
SIMPLEX
100
AcDbText
  0
TEXT
  5
111E
330
4220
100
AcDbEntity
  8
TEXT_BUBBLES
100
AcDbText
 10
10.30274987220749
 20
0.13391179964
 30
0.0
 40
0.1250000018625
  1

  7
SIMPLEX
100
AcDbText
  0
TEXT
  5
111F
330
4220
100
AcDbEntity
  8
TEXT_BUBBLES
100
AcDbText
 10
10.30274987220749
 20
1.175578609108749
 30
0.0
 40
0.1250000018625
  1

  7
SIMPLEX
100
AcDbText
  0
TEXT
  5
1120
330
4220
100
AcDbEntity
  8
TEXT_BUBBLES
100
AcDbText
 10
10.30274987220749
 20
0.7589118927712501
 30
0.0
 40
0.1250000018625
  1

  7
SIMPLEX
100
AcDbText
  0
TEXT
  5
1121
330
4220
100
AcDbEntity
  8
TEXT_BUBBLES
100
AcDbText
 10
10.30274987220749
 20
-1.949422061443749
 30
0.0
 40
0.1250000018625
  1

  7
SIMPLEX
100
AcDbText
  0
TEXT
  5
1122
330
4220
100
AcDbEntity
  8
TEXT_BUBBLES
100
AcDbText
 10
10.30274987220749
 20
-1.532755196095
 30
0.0
 40
0.1250000018625
  1

  7
SIMPLEX
100
AcDbText
  0
TEXT
  5
1123
330
4220
100
AcDbEntity
  8
TEXT_BUBBLES
100
AcDbText
 10
10.30274987220749
 20
1.800578832626249
 30
0.0
 40
0.1250000018625
  1

  7
SIMPLEX
100
AcDbText
  0
LWPOLYLINE
  5
1126
330
4220
100
AcDbEntity
  8
INSTRUCT-CALLOUT
100
AcDbPolyline
 90
        4
 70
     1
 43
0.0
 10
-2.091023700946683
 20
10.59345841041864
 10
-2.091023700946683
 20
8.877370624487262
 10
3.820948179338523
 20
8.877370624487262
 10
3.820948179338523
 20
10.59345841041864
  0
TEXT
  5
112C
330
4220
100
AcDbEntity
  8
INSTRUCT-CALLOUT
100
AcDbText
 10
-1.263170854424087
 20
10.64497065614762
 30
0.0
 40
0.1250000018625
  1
CHOOSING EQUIPMENT CALLOUT METHOD
  7
ROMANS
100
AcDbText
  0
TEXT
  5
112D
330
4220
100
AcDbEntity
  8
INSTRUCT-CALLOUT
100
AcDbText
 10
-1.554108065732489
 20
10.40198937859736
 30
0.0
 40
0.1250000018625
  1
CHOOSE EITHER LEADERS OR BUBBLE CALLOUTS
  7
ROMANS
100
AcDbText
  0
TEXT
  5
112E
330
4220
100
AcDbEntity
  8
INSTRUCT-CALLOUT
100
AcDbText
 10
-1.554108065732489
 20
10.19961432423861
 30
0.0
 40
0.1250000018625
  1
BY TURNING ON THE APPROPRIATE LAYER:
  7
ROMANS
100
AcDbText
  0
TEXT
  5
112F
330
4220
100
AcDbEntity
  8
INSTRUCT-CALLOUT
100
AcDbText
 10
-1.008678400403959
 20
9.778342706144643
 30
0.0
 40
0.1250000018625
  1
TEXT_LEADERS         TEXT_BUBBLES
  7
ROMANS
100
AcDbText
  0
LINE
  5
1130
330
4220
100
AcDbEntity
  8
INSTRUCT-CALLOUT
100
AcDbLine
 10
-0.7764752085796234
 20
9.349352786394234
 30
0.0
 11
-0.5635556056755254
 21
9.349352786394231
 31
0.0
  0
LINE
  5
1131
330
4220
100
AcDbEntity
  8
INSTRUCT-CALLOUT
100
AcDbLine
 10
-1.226116481202008
 20
9.16224075232192
 30
0.0
 11
-0.7764752085796234
 21
9.349352786394234
 31
0.0
  0
SOLID
  5
1132
330
4220
100
AcDbEntity
  8
INSTRUCT-CALLOUT
100
AcDbTrace
 10
-1.092700860045243
 20
9.166988136481119
 30
0.0
 11
-1.128719430188578
 21
9.253542888544942
 31
0.0
 12
-1.370374401308378
 22
9.102209802083033
 32
0.0
 13
-1.370374401308378
 23
9.102209802083033
 33
0.0
  0
TEXT
  5
1133
330
4220
100
AcDbEntity
  8
INSTRUCT-CALLOUT
100
AcDbText
 10
-0.5229700790862584
 20
9.248179959216265
 30
0.0
 40
0.156250002328125
  1
ITEM 1
  7
ROMANS
100
AcDbText
  0
SOLID
  5
1134
330
4220
100
AcDbEntity
  8
INSTRUCT-CALLOUT
100
AcDbTrace
 10
2.254907465031978
 20
9.187966315467679
 30
0.0
 11
2.279598548866883
 21
9.097526208882946
 31
0.0
 12
1.995932687195232
 22
9.0686730106706
 32
0.0
 13
1.995932687195232
 23
9.0686730106706
 33
0.0
  0
LINE
  5
1135
330
4220
100
AcDbEntity
  8
INSTRUCT-CALLOUT
100
AcDbLine
 10
2.146666198169786
 20
9.109824817062108
 30
0.0
 11
2.546480912114861
 21
9.218978366225574
 31
0.0
  0
TEXT
  5
1136
330
4220
100
AcDbEntity
  8
INSTRUCT-CALLOUT
100
AcDbText
 10
2.671653753214004
 20
9.192293124214955
 30
0.0
 40
0.15625
  1
1
  7
ROMANS
 72
     4
 11
2.734897800833051
 21
9.270418124214955
 31
0.0
100
AcDbText
  0
CIRCLE
  5
1137
330
4220
100
AcDbEntity
  8
INSTRUCT-CALLOUT
100
AcDbCircle
 10
2.734897800833051
 20
9.270418124214955
 30
0.0
 40
0.1953125
  0
TEXT
  5
1138
330
4220
100
AcDbEntity
  8
INSTRUCT-CALLOUT
100
AcDbText
 10
-1.62762719533025
 20
8.37727762696349
 30
0.0
 40
0.1250000018625
  1
LAYER "INSTRUCT-CALLOUT".
  7
ROMANS
100
AcDbText
  0
TEXT
  5
1139
330
4220
100
AcDbEntity
  8
INSTRUCT-CALLOUT
100
AcDbText
 10
-1.62762719533025
 20
8.579652681323491
 30
0.0
 40
0.1250000018625
  1
TO TURN OFF THIS INSTRUCTION BOX, TURN OFF
  7
ROMANS
100
AcDbText
  0
TEXT
  5
11AC
330
4220
100
AcDbEntity
  8
TEXT_BUBBLES
100
AcDbText
 10
0.374157011509
 20
0.8800902366639999
 30
0.0
 40
0.125
  1

  7
ROMANS
100
AcDbText
  0
TEXT
  5
11AD
330
4220
100
AcDbEntity
  8
TEXT_BUBBLES
100
AcDbText
 10
0.374157011509
 20
1.284850120543999
 30
0.0
 40
0.125
  1

  7
ROMANS
100
AcDbText
  0
TEXT
  5
11AE
330
4220
100
AcDbEntity
  8
TEXT_BUBBLES
100
AcDbText
 10
0.374157011509
 20
1.082470178604
 30
0.0
 40
0.125
  1

  7
ROMANS
100
AcDbText
  0
TEXT
  5
11AF
330
4220
100
AcDbEntity
  8
TEXT_BUBBLES
100
AcDbText
 10
0.144923001528
 20
1.415030121802999
 30
0.0
 40
0.125
  1

  7
ROMANS
100
AcDbText
  0
TEXT
  5
11B8
330
4220
100
AcDbEntity
  8
TEXT_BUBBLES
100
AcDbText
 10
0.144923001528
 20
1.123830199241999
 30
0.0
 40
0.125
  1

  7
ROMANS
100
AcDbText
  0
TEXT
  5
11B9
330
4220
100
AcDbEntity
  8
TEXT_BUBBLES
100
AcDbText
 10
0.144923001528
 20
0.9782302379609999
 30
0.0
 40
0.125
  1

  7
ROMANS
100
AcDbText
  0
TEXT
  5
11BA
330
4220
100
AcDbEntity
  8
TEXT_BUBBLES
100
AcDbText
 10
0.144923001528
 20
0.8326302766799999
 30
0.0
 40
0.125
  1

  7
ROMANS
100
AcDbText
  0
TEXT
  5
11CA
330
4220
100
AcDbEntity
  8
TEXT_BUBBLES
100
AcDbText
 10
0.144923001528
 20
1.706230044365
 30
0.0
 40
0.125
  1

  7
ROMANS
100
AcDbText
  0
TEXT
  5
11CE
330
4220
100
AcDbEntity
  8
TEXT_BUBBLES
100
AcDbText
 10
0.144923001528
 20
0.687030315399
 30
0.0
 40
0.125
  1

  7
ROMANS
100
AcDbText
  0
TEXT
  5
11CF
330
4220
100
AcDbEntity
  8
TEXT_BUBBLES
100
AcDbText
 10
0.144923001528
 20
0.395830392838
 30
0.0
 40
0.125
  1

  7
ROMANS
100
AcDbText
  0
TEXT
  5
29B5
330
4220
100
AcDbEntity
  8
TEXT_BUBBLES
100
AcDbText
 10
-6.104393662203665
 20
6.696593897737806
 30
0.0
 40
0.1250000018625
  1
RAIN SENSOR: RAIN BIRD RSD-CEx
  7
ROMANS
100
AcDbText
  0
LWPOLYLINE
  5
2DAF
330
4220
100
AcDbEntity
  8
IMAGE
100
AcDbPolyline
 90
        2
 70
     0
 43
0.0
 10
-8.580954309366205
 20
6.434165436001739
 10
-11.56988184317742
 20
8.159823552235927
  0
LWPOLYLINE
  5
2DB0
330
4220
100
AcDbEntity
  8
IMAGE
100
AcDbPolyline
 90
        2
 70
     0
 43
0.0
 10
-8.643454309366205
 20
6.325912260528685
 10
-11.56988184317742
 20
8.015485984938521
  0
LWPOLYLINE
  5
2DB1
330
4220
100
AcDbEntity
  8
IMAGE
100
AcDbPolyline
 90
        2
 70
     0
 43
0.0
 10
-9.46821383578537
 20
5.647386856744246
 10
-11.56988184317742
 20
6.860785446559268
  0
LWPOLYLINE
  5
2DB2
330
4220
100
AcDbEntity
  8
IMAGE
100
AcDbPolyline
 90
        3
 70
     0
 43
0.0
 10
-8.643454309366205
 20
6.325912260528685
 10
-8.643454309366205
 20
6.325912260528685
 10
-8.580954309366205
 20
6.434165436001739
  0
LWPOLYLINE
  5
2DB3
330
4220
100
AcDbEntity
  8
IMAGE
100
AcDbPolyline
 90
        2
 70
     0
 43
0.0
 10
-9.430834072575787
 20
5.337130505798135
 10
-8.805834072575787
 20
6.419662260528685
  0
LWPOLYLINE
  5
2DB4
330
4220
100
AcDbEntity
  8
IMAGE
100
AcDbPolyline
 90
        2
 70
     0
 43
0.0
 10
-9.59321383578537
 20
5.430880505798135
 10
-8.96821383578537
 20
6.513412260528683
  0
LWPOLYLINE
  5
2DB5
330
4220
100
AcDbEntity
  8
IMAGE
100
AcDbPolyline
 90
        2
 70
     0
 43
0.0
 10
-9.430834072575787
 20
5.337130505798135
 10
-9.59321383578537
 20
5.430880505798135
  0
LWPOLYLINE
  5
2DB6
330
4220
100
AcDbEntity
  8
IMAGE
100
AcDbPolyline
 90
        2
 70
     0
 43
0.0
 10
-10.60487217825244
 20
6.303636856744244
 10
-10.60487217825244
 20
3.114531674934844
  0
LWPOLYLINE
  5
2E06
330
4220
100
AcDbEntity
  8
IMAGE
100
AcDbPolyline
 90
        2
 70
     0
 43
0.0
 10
-8.805834072575787
 20
6.419662260528685
 10
-8.805834072575787
 20
6.419662260528685
  0
LWPOLYLINE
  5
2FB1
330
4220
100
AcDbEntity
  8
IMAGE
100
AcDbPolyline
 90
        6
 70
     0
 43
0.0
 10
-11.56988184317742
 20
8.610614826345216
 10
-11.56988184317742
 20
7.591813539788521
 10
-11.67522133343136
 20
7.540345078689977
 10
-11.46228557526734
 20
7.511970435117689
 10
-11.56988184317742
 20
7.465073465165641
 10
-11.56988184317742
 20
6.423388523464584
  0
LWPOLYLINE
  5
2FB7
330
4220
100
AcDbEntity
  8
IMAGE
100
AcDbPolyline
 90
        6
 70
     0
 43
0.0
 10
-10.30530100114157
 20
3.114531674934843
 10
-11.06653842719694
 20
3.114531674934845
 10
-11.11800688829549
 20
3.219871165188784
 10
-11.14638153186777
 20
3.006935407024769
 10
-11.19327850181982
 20
3.114531674934845
 10
-11.7778760155093
 20
3.114531674934845
  0
CIRCLE
  5
30C1
330
4220
100
AcDbEntity
  8
TEXT_BUBBLES
100
AcDbCircle
 10
-8.39361576103831
 20
5.54242464979452
 30
0.0
 40
0.1562887347020049
  0
TEXT
  5
30C2
330
4220
100
AcDbEntity
  8
TEXT_BUBBLES
100
AcDbText
 10
-8.453154326639074
 20
5.479909155913718
 30
0.0
 40
0.1250309877616039
  1
5
  7
ROMANS
 72
     4
 11
-8.39361576103831
 21
5.54242464979452
 31
0.0
100
AcDbText
  0
CIRCLE
  5
30C3
330
4220
100
AcDbEntity
  8
TEXT_BUBBLES
100
AcDbCircle
 10
-6.312449834113127
 20
6.765795802345809
 30
0.0
 40
0.1562887347020049
  0
TEXT
  5
30C4
330
4220
100
AcDbEntity
  8
TEXT_BUBBLES
100
AcDbText
 10
-6.104393662203665
 20
6.332392725835767
 30
0.0
 40
0.1250000018625
  1
FEMALE ADAPTER (SLIP X FIPT)
  7
ROMANS
100
AcDbText
  0
TEXT
  5
30C5
330
4220
100
AcDbEntity
  8
TEXT_BUBBLES
100
AcDbText
 10
-6.371988399713891
 20
6.703280308465006
 30
0.0
 40
0.1250309877616039
  1
2
  7
ROMANS
 72
     4
 11
-6.312449834113127
 21
6.765795802345809
 31
0.0
100
AcDbText
  0
TEXT
  5
30CF
330
4220
100
AcDbEntity
  8
TEXT_BUBBLES
100
AcDbText
 10
-6.104393662203665
 20
4.146155552829294
 30
0.0
 40
0.1250000018625
  1
WIRE TO IRRIGATION CONTROLLER
  7
ROMANS
100
AcDbText
  0
CIRCLE
  5
30D0
330
4220
100
AcDbEntity
  8
TEXT_BUBBLES
100
AcDbCircle
 10
-6.312449834113127
 20
4.215357457437296
 30
0.0
 40
0.1562887347020049
  0
TEXT
  5
30D1
330
4220
100
AcDbEntity
  8
TEXT_BUBBLES
100
AcDbText
 10
-6.371988399713891
 20
4.152841963556494
 30
0.0
 40
0.1250309877616039
  1
8
  7
ROMANS
 72
     4
 11
-6.312449834113127
 21
4.215357457437296
 31
0.0
100
AcDbText
  0
TEXT
  5
30D6
330
4220
100
AcDbEntity
  8
TEXT_BUBBLES
100
AcDbText
 10
-6.104393662203665
 20
7.060795069639845
 30
0.0
 40
0.1250000018625
  1
EAVE OF BUILDING
  7
ROMANS
100
AcDbText
  0
TEXT
  5
30D7
330
4220
100
AcDbEntity
  8
TEXT_BUBBLES
100
AcDbText
 10
-6.371988399713891
 20
6.339079136562967
 30
0.0
 40
0.1250309877616039
  1
3
  7
ROMANS
 72
     4
 11
-6.312449834113127
 21
6.40159463044377
 31
0.0
100
AcDbText
  0
CIRCLE
  5
30D8
330
4220
100
AcDbEntity
  8
TEXT_BUBBLES
100
AcDbCircle
 10
-6.312449834113127
 20
6.40159463044377
 30
0.0
 40
0.1562887347020049
  0
TEXT
  5
30DA
330
4220
100
AcDbEntity
  8
TEXT_BUBBLES
100
AcDbText
 10
-6.104393662203665
 20
5.60399038203169
 30
0.0
 40
0.1250000018625
  1
SECURE WITH APPROVED PIPE 
  7
ROMANS
100
AcDbText
  0
CIRCLE
  5
30DB
330
4220
100
AcDbEntity
  8
TEXT_BUBBLES
100
AcDbCircle
 10
-6.312449834113127
 20
5.673192286639692
 30
0.0
 40
0.1562887347020049
  0
TEXT
  5
30DC
330
4220
100
AcDbEntity
  8
TEXT_BUBBLES
100
AcDbText
 10
-6.371988399713891
 20
5.61067679275889
 30
0.0
 40
0.1250309877616039
  1
5
  7
ROMANS
 72
     4
 11
-6.312449834113127
 21
5.673192286639692
 31
0.0
100
AcDbText
  0
TEXT
  5
30E9
330
4220
100
AcDbEntity
  8
TEXT_BUBBLES
100
AcDbText
 10
-9.487060299008616
 20
7.59176956449628
 30
0.0
 40
0.1250309877616039
  1
1
  7
ROMANS
 72
     4
 11
-9.436452518247968
 21
7.654285058377082
 31
0.0
100
AcDbText
  0
CIRCLE
  5
30EA
330
4220
100
AcDbEntity
  8
TEXT_BUBBLES
100
AcDbCircle
 10
-9.436452518247968
 20
7.654285058377082
 30
0.0
 40
0.1562887347020049
  0
TEXT
  5
30EB
330
4220
100
AcDbEntity
  8
TEXT_BUBBLES
100
AcDbText
 10
-8.25073834399904
 20
6.542697561790786
 30
0.0
 40
0.1250309877616039
  1
2
  7
ROMANS
 72
     4
 11
-8.191199778398276
 21
6.605213055671589
 31
0.0
100
AcDbText
  0
CIRCLE
  5
30EC
330
4220
100
AcDbEntity
  8
TEXT_BUBBLES
100
AcDbCircle
 10
-8.191199778398276
 20
6.605213055671589
 30
0.0
 40
0.1562887347020049
  0
TEXT
  5
30FD
330
4220
100
AcDbEntity
  8
TEXT_BUBBLES
100
AcDbText
 10
-9.805364430389573
 20
3.311360315532736
 30
0.0
 40
0.1250309877616039
  1
8
  7
ROMANS
 72
     4
 11
-9.745825864788809
 21
3.373875809413537
 31
0.0
100
AcDbText
  0
CIRCLE
  5
30FE
330
4220
100
AcDbEntity
  8
TEXT_BUBBLES
100
AcDbCircle
 10
-9.745825864788809
 20
3.373875809413537
 30
0.0
 40
0.1562887347020049
  0
TEXT
  5
3100
330
4220
100
AcDbEntity
  8
TEXT_BUBBLES
100
AcDbText
 10
-6.104393662203665
 20
5.421374725283549
 30
0.0
 40
0.1250000018625
  1
 ANCHOR (1 OF 3)
  7
ROMANS
100
AcDbText
  0
CIRCLE
  5
3109
330
4220
100
AcDbEntity
  8
TEXT_BUBBLES
100
AcDbCircle
 10
-7.215507791166171
 20
5.54242464979452
 30
0.0
 40
0.1562887347020049
  0
TEXT
  5
310A
330
4220
100
AcDbEntity
  8
TEXT_BUBBLES
100
AcDbText
 10
-7.275046356766934
 20
5.479909155913718
 30
0.0
 40
0.1250309877616039
  1
3
  7
ROMANS
 72
     4
 11
-7.215507791166171
 21
5.54242464979452
 31
0.0
100
AcDbText
  0
TEXT
  5
3117
330
4220
100
AcDbEntity
  8
TEXT_BUBBLES
100
AcDbText
 10
-6.104393662203665
 20
5.968191553933729
 30
0.0
 40
0.1250000018625
  1
3/4-INCH CLASS 200 PVC PIPE
  7
ROMANS
100
AcDbText
  0
CIRCLE
  5
3118
330
4220
100
AcDbEntity
  8
TEXT_BUBBLES
100
AcDbCircle
 10
-6.312449834113127
 20
6.037393458541731
 30
0.0
 40
0.1562887347020049
  0
TEXT
  5
3119
330
4220
100
AcDbEntity
  8
TEXT_BUBBLES
100
AcDbText
 10
-6.37496532799393
 20
5.974877964660929
 30
0.0
 40
0.1250309877616039
  1
4
  7
ROMANS
 72
     4
 11
-6.312449834113127
 21
6.037393458541731
 31
0.0
100
AcDbText
  0
LWPOLYLINE
  5
3498
330
4220
100
AcDbEntity
  8
IMAGE
100
AcDbPolyline
 90
       10
 70
     0
 43
0.0
 10
-7.771039104009535
 20
6.246891360819846
 10
-7.771039104009535
 20
6.249937764570143
 42
-0.2539389008046782
 10
-7.751404587528979
 20
6.266276356894232
 10
-7.265673620490089
 20
6.266276356894232
 42
-0.2539389008046782
 10
-7.246039104009534
 20
6.249937764570143
 10
-7.246039104009534
 20
6.05761494921832
 42
-0.2539389008046782
 10
-7.265673620490089
 20
6.041276356894232
 10
-7.751404587528979
 20
6.041276356894232
 42
-0.2539389008046782
 10
-7.771039104009535
 20
6.057614949218315
 10
-7.771039104009535
 20
6.072459420843539
  0
CIRCLE
  5
3499
330
4220
100
AcDbEntity
  8
IMAGE
100
AcDbCircle
 10
-7.582451303742599
 20
6.207726706403636
 30
0.0
 40
0.05625
  0
CIRCLE
  5
349A
330
4220
100
AcDbEntity
  8
IMAGE
100
AcDbCircle
 10
-7.582451303742599
 20
6.207726706403636
 30
0.0
 40
0.034375
  0
CIRCLE
  5
349B
330
4220
100
AcDbEntity
  8
IMAGE
100
AcDbCircle
 10
-7.582451303742599
 20
6.207726706403636
 30
0.0
 40
0.0285092706372003
  0
LWPOLYLINE
  5
349C
330
4220
100
AcDbEntity
  8
IMAGE
100
AcDbPolyline
 90
       14
 70
     1
 43
0.0
 10
-7.596484544800436
 20
6.194710244773087
 10
-7.600543558043304
 20
6.201479269946538
 10
-7.58786074186624
 20
6.209084459394127
 10
-7.58786074186624
 20
6.209084459394127
 10
-7.595448745978233
 20
6.221777564857775
 10
-7.588674229245263
 20
6.225827406007661
 10
-7.581091710483688
 20
6.213143476360253
 10
-7.568418062684761
 20
6.220743168034184
 10
-7.564359049441893
 20
6.213974142860735
 10
-7.577041865618959
 20
6.206368953413146
 10
-7.577041865618959
 20
6.206368953413146
 10
-7.569453861506966
 20
6.193675847949497
 10
-7.576228378239934
 20
6.18962600679961
 10
-7.583810897001509
 20
6.202309936447019
  0
LWPOLYLINE
  5
349D
330
4220
100
AcDbEntity
  8
IMAGE
100
AcDbPolyline
 90
        2
 70
     0
 43
0.0
 10
-7.564164104009535
 20
6.375026356894232
 10
-7.216664104009534
 20
6.375026356894232
  0
LWPOLYLINE
  5
349E
330
4220
100
AcDbEntity
  8
IMAGE
100
AcDbPolyline
 90
        2
 70
     0
 43
0.0
 10
-7.564164104009535
 20
6.353776356894232
 10
-7.216664104009534
 20
6.353776356894232
  0
LWPOLYLINE
  5
349F
330
4220
100
AcDbEntity
  8
IMAGE
100
AcDbPolyline
 90
        8
 70
     1
 43
0.0
 10
-7.564164104009535
 20
6.353776356894232
 10
-7.539164104009534
 20
6.326276356894232
 10
-7.241664104009535
 20
6.326276356894232
 10
-7.216664104009534
 20
6.353776356894232
 10
-7.216664104009534
 20
6.375026356894232
 10
-7.241664104009535
 20
6.402526356894232
 10
-7.539164104009534
 20
6.402526356894232
 10
-7.564164104009535
 20
6.375026356894232
  0
LWPOLYLINE
  5
34A0
330
4220
100
AcDbEntity
  8
IMAGE
100
AcDbPolyline
 90
        4
 70
     1
 43
0.0
 10
-7.540414104009535
 20
6.271276356894231
 10
-7.240414104009534
 20
6.271276356894231
 10
-7.240414104009534
 20
6.321276356894232
 10
-7.540414104009535
 20
6.321276356894232
  0
LWPOLYLINE
  5
34A1
330
4220
100
AcDbEntity
  8
IMAGE
100
AcDbPolyline
 90
        2
 70
     0
 43
0.0
 10
-7.504789104009534
 20
6.266276356894232
 10
-7.504789104009534
 20
6.271276356894231
  0
LWPOLYLINE
  5
34A2
330
4220
100
AcDbEntity
  8
IMAGE
100
AcDbPolyline
 90
        2
 70
     0
 43
0.0
 10
-7.276039104009536
 20
6.266276356894232
 10
-7.276039104009536
 20
6.271276356894231
  0
LWPOLYLINE
  5
34A3
330
4220
100
AcDbEntity
  8
IMAGE
100
AcDbPolyline
 90
        2
 70
     0
 43
0.0
 10
-7.276039104009536
 20
6.321276356894232
 10
-7.276039104009536
 20
6.326276356894232
  0
LWPOLYLINE
  5
34A4
330
4220
100
AcDbEntity
  8
IMAGE
100
AcDbPolyline
 90
        2
 70
     0
 43
0.0
 10
-7.504789104009534
 20
6.321276356894232
 10
-7.504789104009534
 20
6.326276356894232
  0
LWPOLYLINE
  5
34A5
330
4220
100
AcDbEntity
  8
IMAGE
100
AcDbPolyline
 90
        4
 70
     0
 43
0.0
 10
-7.314664104009535
 20
6.671276356894232
 10
-7.314664104009535
 20
6.726276356894231
 10
-7.466164104009534
 20
6.726276356894231
 10
-7.466164104009534
 20
6.671276356894232
  0
LWPOLYLINE
  5
34A6
330
4220
100
AcDbEntity
  8
IMAGE
100
AcDbPolyline
 90
        2
 70
     0
 43
0.0
 10
-7.536176939248342
 20
6.654994302187532
 10
-7.537914104009535
 20
6.402526356894232
  0
LWPOLYLINE
  5
34A7
330
4220
100
AcDbEntity
  8
IMAGE
100
AcDbPolyline
 90
        2
 70
     0
 43
0.0
 10
-7.244651268770727
 20
6.654994302187532
 10
-7.242914104009534
 20
6.402526356894232
  0
LWPOLYLINE
  5
34A8
330
4220
100
AcDbEntity
  8
IMAGE
100
AcDbPolyline
 90
        2
 70
     0
 43
0.0
 10
-7.466164104009534
 20
6.671276356894232
 10
-7.314664104009535
 20
6.671276356894232
  0
LWPOLYLINE
  5
34A9
330
4220
100
AcDbEntity
  8
IMAGE
100
AcDbPolyline
 90
        2
 70
     0
 43
0.0
 10
-7.536176939248342
 20
6.654994302187532
 10
-7.244651268770727
 20
6.654994302187532
  0
LWPOLYLINE
  5
34AA
330
4220
100
AcDbEntity
  8
IMAGE
100
AcDbPolyline
 90
        2
 70
     0
 43
0.0
 10
-7.536176939248342
 20
6.654994302187532
 42
-0.0859347361966609
 10
-7.466164104009534
 20
6.671276356894232
 42
-0.0285319259738663
  0
LWPOLYLINE
  5
34AB
330
4220
100
AcDbEntity
  8
IMAGE
100
AcDbPolyline
 90
        2
 70
     0
 43
0.0
 10
-7.244651268770727
 20
6.654994302187532
 42
0.0859347361966609
 10
-7.314664104009535
 20
6.671276356894232
 42
0.0285319259738663
  0
LWPOLYLINE
  5
34AC
330
4220
100
AcDbEntity
  8
IMAGE
100
AcDbPolyline
 90
        2
 70
     0
 43
0.0
 10
-7.382914104009534
 20
6.402526356894232
 10
-7.382914104009534
 20
6.654994302187532
  0
LWPOLYLINE
  5
34AD
330
4220
100
AcDbEntity
  8
IMAGE
100
AcDbPolyline
 90
        2
 70
     0
 43
0.0
 10
-7.397914104009535
 20
6.402526356894232
 10
-7.397914104009535
 20
6.654994302187532
  0
LWPOLYLINE
  5
34AE
330
4220
100
AcDbEntity
  8
IMAGE
100
AcDbPolyline
 90
        2
 70
     0
 43
0.0
 10
-7.442914104009535
 20
6.402526356894232
 10
-7.442914104009535
 20
6.654994302187532
  0
LWPOLYLINE
  5
34AF
330
4220
100
AcDbEntity
  8
IMAGE
100
AcDbPolyline
 90
        2
 70
     0
 43
0.0
 10
-7.337914104009534
 20
6.402526356894232
 10
-7.337914104009534
 20
6.654994302187532
  0
LWPOLYLINE
  5
34B0
330
4220
100
AcDbEntity
  8
IMAGE
100
AcDbPolyline
 90
        2
 70
     0
 43
0.0
 10
-7.322914104009536
 20
6.402526356894232
 10
-7.322914104009536
 20
6.654994302187532
  0
LWPOLYLINE
  5
34B1
330
4220
100
AcDbEntity
  8
IMAGE
100
AcDbPolyline
 90
        2
 70
     0
 43
0.0
 10
-7.457914104009534
 20
6.402526356894232
 10
-7.457914104009534
 20
6.654994302187532
  0
LWPOLYLINE
  5
34B2
330
4220
100
AcDbEntity
  8
IMAGE
100
AcDbPolyline
 90
        2
 70
     0
 43
0.0
 10
-7.495165271402223
 20
6.402526356894232
 10
-7.495165271402223
 20
6.654994302187532
  0
LWPOLYLINE
  5
34B3
330
4220
100
AcDbEntity
  8
IMAGE
100
AcDbPolyline
 90
        2
 70
     0
 43
0.0
 10
-7.504478063250394
 20
6.402526356894232
 10
-7.504478063250394
 20
6.654994302187532
  0
LWPOLYLINE
  5
34B4
330
4220
100
AcDbEntity
  8
IMAGE
100
AcDbPolyline
 90
        2
 70
     0
 43
0.0
 10
-7.285662936616846
 20
6.402526356894232
 10
-7.285662936616846
 20
6.654994302187532
  0
LWPOLYLINE
  5
34B5
330
4220
100
AcDbEntity
  8
IMAGE
100
AcDbPolyline
 90
        2
 70
     0
 43
0.0
 10
-7.276350144768676
 20
6.402526356894232
 10
-7.276350144768676
 20
6.654994302187532
  0
LWPOLYLINE
  5
34B6
330
4220
100
AcDbEntity
  8
IMAGE
100
AcDbPolyline
 90
        2
 70
     0
 43
0.0
 10
-7.385414104009536
 20
6.271276356894231
 10
-7.385414104009536
 20
6.321276356894232
  0
LWPOLYLINE
  5
34B7
330
4220
100
AcDbEntity
  8
IMAGE
100
AcDbPolyline
 90
        2
 70
     0
 43
0.0
 10
-7.395414104009534
 20
6.271276356894231
 10
-7.395414104009534
 20
6.321276356894232
  0
LWPOLYLINE
  5
34B8
330
4220
100
AcDbEntity
  8
IMAGE
100
AcDbPolyline
 90
        2
 70
     0
 43
0.0
 10
-7.410414104009534
 20
6.271276356894231
 10
-7.410414104009534
 20
6.321276356894232
  0
LWPOLYLINE
  5
34B9
330
4220
100
AcDbEntity
  8
IMAGE
100
AcDbPolyline
 90
        2
 70
     0
 43
0.0
 10
-7.370414104009535
 20
6.271276356894231
 10
-7.370414104009535
 20
6.321276356894232
  0
LWPOLYLINE
  5
34BA
330
4220
100
AcDbEntity
  8
IMAGE
100
AcDbPolyline
 90
        2
 70
     0
 43
0.0
 10
-7.360414104009535
 20
6.271276356894231
 10
-7.360414104009535
 20
6.321276356894232
  0
LWPOLYLINE
  5
34BB
330
4220
100
AcDbEntity
  8
IMAGE
100
AcDbPolyline
 90
        2
 70
     0
 43
0.0
 10
-7.420414104009534
 20
6.271276356894231
 10
-7.420414104009534
 20
6.321276356894232
  0
LWPOLYLINE
  5
34BC
330
4220
100
AcDbEntity
  8
IMAGE
100
AcDbPolyline
 90
        2
 70
     0
 43
0.0
 10
-7.435414104009534
 20
6.271276356894231
 10
-7.435414104009534
 20
6.321276356894232
  0
LWPOLYLINE
  5
34BD
330
4220
100
AcDbEntity
  8
IMAGE
100
AcDbPolyline
 90
        2
 70
     0
 43
0.0
 10
-7.445414104009534
 20
6.271276356894231
 10
-7.445414104009534
 20
6.321276356894232
  0
LWPOLYLINE
  5
34BE
330
4220
100
AcDbEntity
  8
IMAGE
100
AcDbPolyline
 90
        2
 70
     0
 43
0.0
 10
-7.460414104009535
 20
6.271276356894231
 10
-7.460414104009535
 20
6.321276356894232
  0
LWPOLYLINE
  5
34BF
330
4220
100
AcDbEntity
  8
IMAGE
100
AcDbPolyline
 90
        2
 70
     0
 43
0.0
 10
-7.470414104009533
 20
6.271276356894231
 10
-7.470414104009533
 20
6.321276356894232
  0
LWPOLYLINE
  5
34C0
330
4220
100
AcDbEntity
  8
IMAGE
100
AcDbPolyline
 90
        2
 70
     0
 43
0.0
 10
-7.482914104009534
 20
6.271276356894231
 10
-7.482914104009534
 20
6.321276356894232
  0
LWPOLYLINE
  5
34C1
330
4220
100
AcDbEntity
  8
IMAGE
100
AcDbPolyline
 90
        2
 70
     0
 43
0.0
 10
-7.505414104009533
 20
6.271276356894231
 10
-7.505414104009533
 20
6.321276356894232
  0
LWPOLYLINE
  5
34C2
330
4220
100
AcDbEntity
  8
IMAGE
100
AcDbPolyline
 90
        2
 70
     0
 43
0.0
 10
-7.310414104009536
 20
6.271276356894231
 10
-7.310414104009536
 20
6.321276356894232
  0
LWPOLYLINE
  5
34C3
330
4220
100
AcDbEntity
  8
IMAGE
100
AcDbPolyline
 90
        2
 70
     0
 43
0.0
 10
-7.320414104009534
 20
6.271276356894231
 10
-7.320414104009534
 20
6.321276356894232
  0
LWPOLYLINE
  5
34C4
330
4220
100
AcDbEntity
  8
IMAGE
100
AcDbPolyline
 90
        2
 70
     0
 43
0.0
 10
-7.335414104009535
 20
6.271276356894231
 10
-7.335414104009535
 20
6.321276356894232
  0
LWPOLYLINE
  5
34C5
330
4220
100
AcDbEntity
  8
IMAGE
100
AcDbPolyline
 90
        2
 70
     0
 43
0.0
 10
-7.345414104009535
 20
6.271276356894231
 10
-7.345414104009535
 20
6.321276356894232
  0
LWPOLYLINE
  5
34C6
330
4220
100
AcDbEntity
  8
IMAGE
100
AcDbPolyline
 90
        2
 70
     0
 43
0.0
 10
-7.490414104009532
 20
6.271276356894231
 10
-7.490414104009532
 20
6.321276356894232
  0
LWPOLYLINE
  5
34C7
330
4220
100
AcDbEntity
  8
IMAGE
100
AcDbPolyline
 90
        2
 70
     0
 43
0.0
 10
-7.512914104009533
 20
6.271276356894231
 10
-7.512914104009533
 20
6.321276356894232
  0
LWPOLYLINE
  5
34C8
330
4220
100
AcDbEntity
  8
IMAGE
100
AcDbPolyline
 90
        2
 70
     0
 43
0.0
 10
-7.525414104009533
 20
6.271276356894231
 10
-7.525414104009533
 20
6.321276356894232
  0
LWPOLYLINE
  5
34C9
330
4220
100
AcDbEntity
  8
IMAGE
100
AcDbPolyline
 90
        2
 70
     0
 43
0.0
 10
-7.532914104009533
 20
6.271276356894231
 10
-7.532914104009533
 20
6.321276356894232
  0
LWPOLYLINE
  5
34CA
330
4220
100
AcDbEntity
  8
IMAGE
100
AcDbPolyline
 90
        2
 70
     0
 43
0.0
 10
-7.297914104009535
 20
6.271276356894231
 10
-7.297914104009535
 20
6.321276356894232
  0
LWPOLYLINE
  5
34CB
330
4220
100
AcDbEntity
  8
IMAGE
100
AcDbPolyline
 90
        2
 70
     0
 43
0.0
 10
-7.275414104009536
 20
6.271276356894231
 10
-7.275414104009536
 20
6.321276356894232
  0
LWPOLYLINE
  5
34CC
330
4220
100
AcDbEntity
  8
IMAGE
100
AcDbPolyline
 90
        2
 70
     0
 43
0.0
 10
-7.290414104009537
 20
6.271276356894231
 10
-7.290414104009537
 20
6.321276356894232
  0
LWPOLYLINE
  5
34CD
330
4220
100
AcDbEntity
  8
IMAGE
100
AcDbPolyline
 90
        2
 70
     0
 43
0.0
 10
-7.267914104009536
 20
6.271276356894231
 10
-7.267914104009536
 20
6.321276356894232
  0
LWPOLYLINE
  5
34CE
330
4220
100
AcDbEntity
  8
IMAGE
100
AcDbPolyline
 90
        2
 70
     0
 43
0.0
 10
-7.255414104009537
 20
6.271276356894231
 10
-7.255414104009537
 20
6.321276356894232
  0
LWPOLYLINE
  5
34CF
330
4220
100
AcDbEntity
  8
IMAGE
100
AcDbPolyline
 90
        2
 70
     0
 43
0.0
 10
-7.247914104009536
 20
6.271276356894231
 10
-7.247914104009536
 20
6.321276356894232
  0
LWPOLYLINE
  5
34D0
330
4220
100
AcDbEntity
  8
IMAGE
100
AcDbPolyline
 90
        2
 70
     0
 43
0.0
 10
-7.771039104009535
 20
6.246891360819828
 42
-0.419279349704197
 10
-7.771039104009535
 20
6.072459420843522
 42
14.27302418867091
  0
LWPOLYLINE
  5
34D4
330
4220
100
AcDbEntity
  8
IMAGE
100
AcDbPolyline
 90
        2
 70
     0
 43
0.0
 10
-7.777385967854376
 20
6.076878210972613
 10
-7.782015632134228
 20
6.077283570075731
  0
LWPOLYLINE
  5
34E8
330
4220
100
AcDbEntity
  8
IMAGE
100
AcDbPolyline
 90
        3
 70
     0
 43
0.0
 10
-7.777713288967856
 20
6.2628363078088
 10
-7.773387668596948
 20
6.154679944833044
 10
-7.771039104009535
 20
6.095957222493217
  0
LWPOLYLINE
  5
34E9
330
4220
100
AcDbEntity
  8
IMAGE
100
AcDbPolyline
 90
        2
 70
     0
 43
0.0
 10
-7.780405773731532
 20
6.154679944833044
 10
-7.783214069018447
 20
6.226703499635807
  0
LWPOLYLINE
  5
34F4
330
4220
100
AcDbEntity
  8
IMAGE
100
AcDbPolyline
 90
        3
 70
     0
 43
0.0
 10
-7.783214069018447
 20
6.108052351566745
 10
-7.782015632134228
 20
6.077283570075731
 10
-7.783214069018447
 20
6.073608558282644
  0
LWPOLYLINE
  5
34FC
330
4220
100
AcDbEntity
  8
IMAGE
100
AcDbPolyline
 90
        3
 70
     0
 43
0.0
 10
-7.771039104009535
 20
6.064180387128685
 10
-7.777385967854376
 20
6.076878210972613
 10
-7.780419562115481
 20
6.154679944833045
  0
LWPOLYLINE
  5
34FD
330
4220
100
AcDbEntity
  8
IMAGE
100
AcDbPolyline
 90
        2
 70
     0
 43
0.0
 10
-7.771039104009535
 20
6.246891360819828
 10
-7.771039104009535
 20
6.072459420843522
  0
LWPOLYLINE
  5
354D
330
4220
100
AcDbEntity
  8
IMAGE
100
AcDbPolyline
 90
        2
 70
     0
 43
0.0
 10
-7.246039104009534
 20
6.249937764570143
 10
-7.545272155440576
 20
6.249937764570143
  0
LWPOLYLINE
  5
354E
330
4220
100
AcDbEntity
  8
IMAGE
100
AcDbPolyline
 90
        2
 70
     0
 43
0.0
 10
-7.619630452044621
 20
6.249937764570143
 10
-7.771039104009535
 20
6.249937764570143
  0
LWPOLYLINE
  5
354F
330
4220
100
AcDbEntity
  8
IMAGE
100
AcDbPolyline
 90
        2
 70
     0
 43
0.0
 10
-7.771039104009535
 20
6.057614949218315
 10
-7.246039104009534
 20
6.05761494921832
  0
LWPOLYLINE
  5
367D
330
4220
100
AcDbEntity
  8
IMAGE
100
AcDbPolyline
 90
        4
 70
     1
 43
0.0
 10
-7.783214069018447
 20
6.275572048081304
 10
-7.924466680617159
 20
6.275572048081304
 10
-7.924466680617159
 20
6.047529652776788
 10
-7.783214069018447
 20
6.047529652776788
  0
LWPOLYLINE
  5
367F
330
4220
100
AcDbEntity
  8
IMAGE
100
AcDbPolyline
 90
        4
 70
     1
 43
0.0
 10
-7.952100942063536
 20
6.29043452905131
 10
-7.924466680617159
 20
6.29043452905131
 10
-7.924466680617159
 20
6.032667171806782
 10
-7.952100942063536
 20
6.032667171806782
  0
LWPOLYLINE
  5
3680
330
4220
100
AcDbEntity
  8
IMAGE
100
AcDbPolyline
 90
        4
 70
     1
 43
0.0
 10
-8.093353553662248
 20
6.275572048081304
 10
-7.952100942063536
 20
6.275572048081304
 10
-7.952100942063536
 20
6.047529652776788
 10
-8.093353553662248
 20
6.047529652776788
  0
LWPOLYLINE
  5
3681
330
4220
100
AcDbEntity
  8
IMAGE
100
AcDbPolyline
 90
        2
 70
     0
 43
0.0
 10
-7.952100942063536
 20
6.263571400602382
 10
-7.924466680617159
 20
6.263571400602382
  0
LWPOLYLINE
  5
3682
330
4220
100
AcDbEntity
  8
IMAGE
100
AcDbPolyline
 90
        2
 70
     0
 43
0.0
 10
-7.952100942063536
 20
6.192595859003406
 10
-7.924466680617159
 20
6.192595859003406
  0
LWPOLYLINE
  5
3683
330
4220
100
AcDbEntity
  8
IMAGE
100
AcDbPolyline
 90
        2
 70
     0
 43
0.0
 10
-7.952100942063536
 20
6.106094421850306
 10
-7.924466680617159
 20
6.106094421850306
  0
LWPOLYLINE
  5
3684
330
4220
100
AcDbEntity
  8
IMAGE
100
AcDbPolyline
 90
        2
 70
     0
 43
0.0
 10
-7.952100942063536
 20
6.041772854554649
 10
-7.924466680617159
 20
6.041772854554649
  0
LWPOLYLINE
  5
3693
330
4220
100
AcDbEntity
  8
IMAGE
100
AcDbPolyline
 90
        7
 70
     1
 43
0.0
 10
-8.686304178400261
 20
6.047658690489534
 10
-8.686304178400261
 20
6.275443010368558
 10
-8.820548509200595
 20
6.275443010368558
 42
0.2679491924311787
 10
-8.919182013000106
 20
6.218496930398782
 10
-8.98630417840026
 20
6.102237929611671
 10
-8.789037170801265
 20
5.988345769672158
 10
-8.754792840000931
 20
6.047658690489534
  0
LWPOLYLINE
  5
36A2
330
4220
100
AcDbEntity
  8
IMAGE
100
AcDbPolyline
 90
        2
 70
     0
 43
0.0
 10
-8.093353553662248
 20
6.262143395968898
 10
-8.686304178400261
 20
6.262143395968898
  0
LWPOLYLINE
  5
36A3
330
4220
100
AcDbEntity
  8
IMAGE
100
AcDbPolyline
 90
        2
 70
     0
 43
0.0
 10
-8.093353553662248
 20
6.06062453294032
 10
-8.686304178400261
 20
6.06062453294032
  0
LWPOLYLINE
  5
36A4
330
4220
100
AcDbEntity
  8
IMAGE
100
AcDbPolyline
 90
        3
 70
     0
 43
0.0
 10
-7.783214069018447
 20
6.249231427499321
 10
-7.777713288967856
 20
6.2628363078088
 10
-7.771039104009535
 20
6.246891360819828
  0
LWPOLYLINE
  5
36A5
330
4220
100
AcDbEntity
  8
IMAGE
100
AcDbPolyline
 90
        7
 70
     1
 43
0.0
 10
-9.543061476424369
 20
5.256531843583879
 10
-9.543061476424369
 20
5.028747523704854
 10
-9.408817145624036
 20
5.028747523704854
 42
0.2679491924311787
 10
-9.310183641824524
 20
5.085693603674631
 10
-9.243061476424371
 20
5.201952604461741
 10
-9.440328484023366
 20
5.315844764401254
 10
-9.4745728148237
 20
5.256531843583879
  0
LWPOLYLINE
  5
36A8
330
4220
100
AcDbEntity
  8
IMAGE
100
AcDbPolyline
 90
        2
 70
     0
 43
0.0
 10
-9.254290225368219
 20
5.208435525687135
 10
-9.117699626112283
 20
5.4450173834347
  0
LWPOLYLINE
  5
36AA
330
4220
100
AcDbEntity
  8
IMAGE
100
AcDbPolyline
 90
        2
 70
     0
 43
0.0
 10
-9.429099735079518
 20
5.30936184317586
 10
-9.292509135823582
 20
5.545943700923426
  0
LWPOLYLINE
  5
36AC
330
4220
100
AcDbEntity
  8
IMAGE
100
AcDbPolyline
 90
        9
 70
     1
 43
0.0
 10
-10.59561404124452
 20
5.142510645931596
 42
-0.4142135623730974
 10
-10.48159284359228
 20
5.256531843583879
 10
-10.36757164594
 20
5.256531843583879
 10
-10.22631903434129
 20
5.256531843583879
 10
-10.22631903434129
 20
5.028489448279362
 10
-10.36757164594
 20
5.028489448279362
 10
-10.36757164594
 20
4.887236836680649
 10
-10.59561404124452
 20
4.887236836680649
 10
-10.59561404124452
 20
5.028489448279362
  0
LWPOLYLINE
  5
36B8
330
4220
100
AcDbEntity
  8
IMAGE
100
AcDbPolyline
 90
        2
 70
     0
 43
0.0
 10
-10.38066652610354
 20
4.887236836680649
 10
-10.38066652610354
 20
4.68411237245157
  0
LWPOLYLINE
  5
36C1
330
4220
100
AcDbEntity
  8
IMAGE
100
AcDbPolyline
 90
        2
 70
     0
 43
0.0
 10
-10.22631903434129
 20
5.243566001133092
 10
-9.543061476424369
 20
5.243566001133092
  0
LWPOLYLINE
  5
36C2
330
4220
100
AcDbEntity
  8
IMAGE
100
AcDbPolyline
 90
        2
 70
     0
 43
0.0
 10
-10.22632393171129
 20
5.041455289805248
 10
-9.543066373794372
 20
5.04171336523074
  0
TEXT
  5
37EC
330
4220
100
AcDbEntity
  8
TEXT_BUBBLES
100
AcDbText
 10
-6.73884465803254
 20
9.880666297194856
 30
0.0
 40
0.1250000018625
  1

  7
ROMANS
100
AcDbText
  0
TEXT
  5
37ED
330
4220
100
AcDbEntity
  8
TEXT_BUBBLES
100
AcDbText
 10
-6.73884465803254
 20
7.163089078186105
 30
0.0
 40
0.1250000018625
  1

  7
ROMANS
100
AcDbText
  0
TEXT
  5
37EE
330
4220
100
AcDbEntity
  8
TEXT_BUBBLES
100
AcDbText
 10
-6.73884465803254
 20
9.492440980193606
 30
0.0
 40
0.1250000018625
  1

  7
ROMANS
100
AcDbText
  0
TEXT
  5
37EF
330
4220
100
AcDbEntity
  8
TEXT_BUBBLES
100
AcDbText
 10
8.654576018149025
 20
4.261681985436662
 30
0.0
 40
0.1250000018625
  1

  7
ROMANS
100
AcDbText
  0
TEXT
  5
37F0
330
4220
100
AcDbEntity
  8
TEXT_BUBBLES
100
AcDbText
 10
8.654576018149025
 20
3.679308247147912
 30
0.0
 40
0.1250000018625
  1

  7
ROMANS
100
AcDbText
  0
TEXT
  5
37F1
330
4220
100
AcDbEntity
  8
TEXT_BUBBLES
100
AcDbText
 10
8.654576018149025
 20
3.873432826577912
 30
0.0
 40
0.1250000018625
  1

  7
ROMANS
100
AcDbText
  0
TEXT
  5
37F2
330
4220
100
AcDbEntity
  8
TEXT_BUBBLES
100
AcDbText
 10
8.654576018149025
 20
4.649931144296662
 30
0.0
 40
0.1250000018625
  1

  7
ROMANS
100
AcDbText
  0
TEXT
  5
37F3
330
4220
100
AcDbEntity
  8
TEXT_BUBBLES
100
AcDbText
 10
8.654576018149025
 20
5.620554041444162
 30
0.0
 40
0.1250000018625
  1

  7
ROMANS
100
AcDbText
  0
TEXT
  5
37F4
330
4220
100
AcDbEntity
  8
TEXT_BUBBLES
100
AcDbText
 10
8.654576018149025
 20
6.202927779732911
 30
0.0
 40
0.1250000018625
  1

  7
ROMANS
100
AcDbText
  0
TEXT
  5
37F5
330
4220
100
AcDbEntity
  8
TEXT_BUBBLES
100
AcDbText
 10
8.654576018149025
 20
6.008803200304162
 30
0.0
 40
0.1250000018625
  1

  7
ROMANS
100
AcDbText
  0
TEXT
  5
37F6
330
4220
100
AcDbEntity
  8
TEXT_BUBBLES
100
AcDbText
 10
-6.73884465803254
 20
6.386638444182356
 30
0.0
 40
0.1250000018625
  1

  7
ROMANS
100
AcDbText
  0
TEXT
  5
37F7
330
4220
100
AcDbEntity
  8
TEXT_BUBBLES
100
AcDbText
 10
8.654576018149025
 20
5.232304882585411
 30
0.0
 40
0.1250000018625
  1

  7
ROMANS
100
AcDbText
  0
TEXT
  5
37F8
330
4220
100
AcDbEntity
  8
TEXT_BUBBLES
100
AcDbText
 10
8.654576018149025
 20
5.038180303155412
 30
0.0
 40
0.1250000018625
  1

  7
ROMANS
100
AcDbText
  0
TEXT
  5
37F9
330
4220
100
AcDbEntity
  8
TEXT_BUBBLES
100
AcDbText
 10
-6.73884465803254
 20
8.521877687689855
 30
0.0
 40
0.1250000018625
  1

  7
ROMANS
100
AcDbText
  0
TEXT
  5
37FA
330
4220
100
AcDbEntity
  8
TEXT_BUBBLES
100
AcDbText
 10
-6.73884465803254
 20
10.46300427269735
 30
0.0
 40
0.1250000018625
  1

  7
ROMANS
100
AcDbText
  0
TEXT
  5
37FB
330
4220
100
AcDbEntity
  8
TEXT_BUBBLES
100
AcDbText
 10
-6.73884465803254
 20
8.910103004691105
 30
0.0
 40
0.1250000018625
  1

  7
ROMANS
100
AcDbText
  0
TEXT
  5
37FC
330
4220
100
AcDbEntity
  8
TEXT_BUBBLES
100
AcDbText
 10
-6.73884465803254
 20
7.551314395187355
 30
0.0
 40
0.1250000018625
  1

  7
ROMANS
100
AcDbText
  0
TEXT
  5
37FD
330
4220
100
AcDbEntity
  8
TEXT_BUBBLES
100
AcDbText
 10
-6.73884465803254
 20
6.774863761184856
 30
0.0
 40
0.1250000018625
  1

  7
ROMANS
100
AcDbText
  0
TEXT
  5
3800
330
4220
100
AcDbEntity
  8
TEXT_BUBBLES
100
AcDbText
 10
-6.73884465803254
 20
9.880666297194856
 30
0.0
 40
0.1250000018625
  1

  7
ROMANS
100
AcDbText
  0
TEXT
  5
3801
330
4220
100
AcDbEntity
  8
TEXT_BUBBLES
100
AcDbText
 10
-6.73884465803254
 20
7.163089078186105
 30
0.0
 40
0.1250000018625
  1

  7
ROMANS
100
AcDbText
  0
TEXT
  5
3802
330
4220
100
AcDbEntity
  8
TEXT_BUBBLES
100
AcDbText
 10
-6.73884465803254
 20
9.492440980193606
 30
0.0
 40
0.1250000018625
  1

  7
ROMANS
100
AcDbText
  0
TEXT
  5
3803
330
4220
100
AcDbEntity
  8
TEXT_BUBBLES
100
AcDbText
 10
8.654576018149025
 20
4.261681985436662
 30
0.0
 40
0.1250000018625
  1

  7
ROMANS
100
AcDbText
  0
TEXT
  5
3804
330
4220
100
AcDbEntity
  8
TEXT_BUBBLES
100
AcDbText
 10
8.654576018149025
 20
3.679308247147912
 30
0.0
 40
0.1250000018625
  1

  7
ROMANS
100
AcDbText
  0
TEXT
  5
3805
330
4220
100
AcDbEntity
  8
TEXT_BUBBLES
100
AcDbText
 10
8.654576018149025
 20
3.873432826577912
 30
0.0
 40
0.1250000018625
  1

  7
ROMANS
100
AcDbText
  0
TEXT
  5
3806
330
4220
100
AcDbEntity
  8
TEXT_BUBBLES
100
AcDbText
 10
8.654576018149025
 20
4.649931144296662
 30
0.0
 40
0.1250000018625
  1

  7
ROMANS
100
AcDbText
  0
TEXT
  5
3807
330
4220
100
AcDbEntity
  8
TEXT_BUBBLES
100
AcDbText
 10
8.654576018149025
 20
5.620554041444162
 30
0.0
 40
0.1250000018625
  1

  7
ROMANS
100
AcDbText
  0
TEXT
  5
3808
330
4220
100
AcDbEntity
  8
TEXT_BUBBLES
100
AcDbText
 10
8.654576018149025
 20
6.202927779732911
 30
0.0
 40
0.1250000018625
  1

  7
ROMANS
100
AcDbText
  0
TEXT
  5
3809
330
4220
100
AcDbEntity
  8
TEXT_BUBBLES
100
AcDbText
 10
8.654576018149025
 20
6.008803200304162
 30
0.0
 40
0.1250000018625
  1

  7
ROMANS
100
AcDbText
  0
TEXT
  5
380A
330
4220
100
AcDbEntity
  8
TEXT_BUBBLES
100
AcDbText
 10
-6.73884465803254
 20
6.386638444182356
 30
0.0
 40
0.1250000018625
  1

  7
ROMANS
100
AcDbText
  0
TEXT
  5
380B
330
4220
100
AcDbEntity
  8
TEXT_BUBBLES
100
AcDbText
 10
8.654576018149025
 20
5.232304882585411
 30
0.0
 40
0.1250000018625
  1

  7
ROMANS
100
AcDbText
  0
TEXT
  5
380C
330
4220
100
AcDbEntity
  8
TEXT_BUBBLES
100
AcDbText
 10
8.654576018149025
 20
5.038180303155412
 30
0.0
 40
0.1250000018625
  1

  7
ROMANS
100
AcDbText
  0
TEXT
  5
380D
330
4220
100
AcDbEntity
  8
TEXT_BUBBLES
100
AcDbText
 10
-6.73884465803254
 20
8.521877687689855
 30
0.0
 40
0.1250000018625
  1

  7
ROMANS
100
AcDbText
  0
TEXT
  5
380E
330
4220
100
AcDbEntity
  8
TEXT_BUBBLES
100
AcDbText
 10
-6.73884465803254
 20
10.46300427269735
 30
0.0
 40
0.1250000018625
  1

  7
ROMANS
100
AcDbText
  0
TEXT
  5
380F
330
4220
100
AcDbEntity
  8
TEXT_BUBBLES
100
AcDbText
 10
-6.73884465803254
 20
8.910103004691105
 30
0.0
 40
0.1250000018625
  1

  7
ROMANS
100
AcDbText
  0
TEXT
  5
3810
330
4220
100
AcDbEntity
  8
TEXT_BUBBLES
100
AcDbText
 10
-6.73884465803254
 20
7.551314395187355
 30
0.0
 40
0.1250000018625
  1

  7
ROMANS
100
AcDbText
  0
TEXT
  5
3811
330
4220
100
AcDbEntity
  8
TEXT_BUBBLES
100
AcDbText
 10
-6.73884465803254
 20
6.774863761184856
 30
0.0
 40
0.1250000018625
  1

  7
ROMANS
100
AcDbText
  0
TEXT
  5
3812
330
4220
100
AcDbEntity
  8
TEXT_LEADERS
100
AcDbText
 10
-6.42189793319097
 20
8.143080424844161
 30
0.0
 40
0.1250000018625
  1

  7
SIMPLEX
100
AcDbText
  0
TEXT
  5
3813
330
4220
100
AcDbEntity
  8
TEXT_BUBBLES
100
AcDbText
 10
-2.171547934717221
 20
2.603204630642911
 30
0.0
 40
0.1250000018625
  1

  7
SIMPLEX
100
AcDbText
  0
TEXT
  5
3814
330
4220
100
AcDbEntity
  8
TEXT_BUBBLES
100
AcDbText
 10
-2.171547934717221
 20
3.644871440111661
 30
0.0
 40
0.1250000018625
  1

  7
SIMPLEX
100
AcDbText
  0
TEXT
  5
3815
330
4220
100
AcDbEntity
  8
TEXT_BUBBLES
100
AcDbText
 10
-2.171547934717221
 20
3.228204723774162
 30
0.0
 40
0.1250000018625
  1

  7
SIMPLEX
100
AcDbText
  0
TEXT
  5
3816
330
4220
100
AcDbEntity
  8
TEXT_BUBBLES
100
AcDbText
 10
-2.171547934717221
 20
0.5198707695591623
 30
0.0
 40
0.1250000018625
  1

  7
SIMPLEX
100
AcDbText
  0
TEXT
  5
3817
330
4220
100
AcDbEntity
  8
TEXT_BUBBLES
100
AcDbText
 10
-2.171547934717221
 20
0.936537634907912
 30
0.0
 40
0.1250000018625
  1

  7
SIMPLEX
100
AcDbText
  0
TEXT
  5
3818
330
4220
100
AcDbEntity
  8
TEXT_BUBBLES
100
AcDbText
 10
-2.171547934717221
 20
4.269871663629162
 30
0.0
 40
0.1250000018625
  1

  7
SIMPLEX
100
AcDbText
  0
TEXT
  5
382D
330
4220
100
AcDbEntity
  8
TEXT_BUBBLES
100
AcDbText
 10
-12.10014079541572
 20
3.349383067666912
 30
0.0
 40
0.125
  1

  7
ROMANS
100
AcDbText
  0
TEXT
  5
382E
330
4220
100
AcDbEntity
  8
TEXT_BUBBLES
100
AcDbText
 10
-12.10014079541572
 20
3.754142951546912
 30
0.0
 40
0.125
  1

  7
ROMANS
100
AcDbText
  0
TEXT
  5
382F
330
4220
100
AcDbEntity
  8
TEXT_BUBBLES
100
AcDbText
 10
-12.10014079541572
 20
3.551763009606911
 30
0.0
 40
0.125
  1

  7
ROMANS
100
AcDbText
  0
TEXT
  5
3830
330
4220
100
AcDbEntity
  8
TEXT_BUBBLES
100
AcDbText
 10
-12.32937480539672
 20
3.884322952805911
 30
0.0
 40
0.125
  1

  7
ROMANS
100
AcDbText
  0
TEXT
  5
3831
330
4220
100
AcDbEntity
  8
TEXT_BUBBLES
100
AcDbText
 10
-12.32937480539672
 20
3.593123030244911
 30
0.0
 40
0.125
  1

  7
ROMANS
100
AcDbText
  0
TEXT
  5
3832
330
4220
100
AcDbEntity
  8
TEXT_BUBBLES
100
AcDbText
 10
-12.32937480539672
 20
3.447523068963912
 30
0.0
 40
0.125
  1

  7
ROMANS
100
AcDbText
  0
TEXT
  5
3833
330
4220
100
AcDbEntity
  8
TEXT_BUBBLES
100
AcDbText
 10
-12.32937480539672
 20
3.301923107682911
 30
0.0
 40
0.125
  1

  7
ROMANS
100
AcDbText
  0
TEXT
  5
3834
330
4220
100
AcDbEntity
  8
TEXT_BUBBLES
100
AcDbText
 10
-12.32937480539672
 20
4.175522875367912
 30
0.0
 40
0.125
  1

  7
ROMANS
100
AcDbText
  0
TEXT
  5
3835
330
4220
100
AcDbEntity
  8
TEXT_BUBBLES
100
AcDbText
 10
-12.32937480539672
 20
3.156323146401911
 30
0.0
 40
0.125
  1

  7
ROMANS
100
AcDbText
  0
TEXT
  5
3836
330
4220
100
AcDbEntity
  8
TEXT_BUBBLES
100
AcDbText
 10
-12.32937480539672
 20
2.865123223840912
 30
0.0
 40
0.125
  1

  7
ROMANS
100
AcDbText
  0
LWPOLYLINE
  5
391F
330
4220
100
AcDbEntity
  8
IMAGE
100
AcDbPolyline
 90
        4
 70
     1
 43
0.0
 10
-10.60487217825244
 20
4.68411237245157
 10
-10.36052528481339
 20
4.68411237245157
 10
-10.36052528481339
 20
4.535834961220805
 10
-10.60487217825244
 20
4.535834961220805
  0
LWPOLYLINE
  5
3920
330
4220
100
AcDbEntity
  8
IMAGE
100
AcDbPolyline
 90
        2
 70
     0
 43
0.0
 10
-10.58218538913211
 20
4.68411237245157
 10
-10.58218538913211
 20
4.887236836680649
  0
LWPOLYLINE
  5
3921
330
4220
100
AcDbEntity
  8
IMAGE
100
AcDbPolyline
 90
        2
 70
     0
 43
0.0
 10
-10.38066652610354
 20
4.535834961220805
 10
-10.38066652610354
 20
3.547722065078557
  0
LWPOLYLINE
  5
3922
330
4220
100
AcDbEntity
  8
IMAGE
100
AcDbPolyline
 90
        4
 70
     1
 43
0.0
 10
-10.60487217825244
 20
4.68411237245157
 10
-10.56616945607577
 20
4.68411237245157
 10
-10.56616945607577
 20
4.535834961220805
 10
-10.60487217825244
 20
4.535834961220805
  0
ARC
  5
3923
330
4220
100
AcDbEntity
  8
IMAGE
100
AcDbCircle
 10
-10.57631148218243
 20
4.609358314536511
 30
0.0
 40
0.0492466048404467
100
AcDbArc
 50
281.8847456550813
 51
348.170817723828
  0
LINE
  5
3924
330
4220
100
AcDbEntity
  8
IMAGE
100
AcDbLine
 10
-10.54042576436309
 20
4.619056384547326
 30
0.0
 11
-10.54047287185778
 21
4.599292492377527
 31
0.0
  0
LWPOLYLINE
  5
3925
330
4220
100
AcDbEntity
  8
IMAGE
100
AcDbPolyline
 90
        2
 70
     0
 43
0.0
 10
-10.54047287185778
 20
4.599292492377526
 10
-10.52811072224519
 20
4.599263027032726
  0
LWPOLYLINE
  5
3926
330
4220
100
AcDbEntity
  8
IMAGE
100
AcDbPolyline
 90
        2
 70
     0
 43
0.0
 10
-10.54042576436309
 20
4.619056384547326
 10
-10.5280233052651
 20
4.619026823124348
  0
ARC
  5
3927
330
4220
100
AcDbEntity
  8
IMAGE
100
AcDbCircle
 10
-10.57631148218243
 20
4.609358314536511
 30
0.0
 40
0.0492466048404467
100
AcDbArc
 50
11.32233720135347
 51
78.11525434491864
  0
LWPOLYLINE
  5
3928
330
4220
100
AcDbEntity
  8
IMAGE
100
AcDbPolyline
 90
        4
 70
     1
 43
0.0
 10
-9.033163271844935
 20
6.025916537350569
 10
-8.999645731244328
 20
6.006565176262233
 10
-9.07378443685971
 20
5.878153171329
 10
-9.107301977460318
 20
5.897504532417334
  0
LWPOLYLINE
  5
3929
330
4220
100
AcDbEntity
  8
IMAGE
100
AcDbPolyline
 90
        4
 70
     1
 43
0.0
 10
-9.033163271844935
 20
6.025916537350569
 10
-8.821552654790906
 20
5.90374309063104
 10
-8.895691360406289
 20
5.775331085697807
 10
-9.107301977460318
 20
5.897504532417334
  0
LINE
  5
392A
330
4220
100
AcDbEntity
  8
IMAGE
100
AcDbLine
 10
-9.009879034186068
 20
5.937353192212523
 30
0.0
 11
-9.019801776558082
 21
5.920260713263166
 31
0.0
  0
LWPOLYLINE
  5
392B
330
4220
100
AcDbEntity
  8
IMAGE
100
AcDbPolyline
 90
        2
 70
     0
 43
0.0
 10
-9.019801776558082
 20
5.920260713263166
 10
-9.009110573620592
 20
5.914054120719741
  0
LWPOLYLINE
  5
392C
330
4220
100
AcDbEntity
  8
IMAGE
100
AcDbPolyline
 90
        2
 70
     0
 43
0.0
 10
-9.009879034186068
 20
5.937353192212521
 10
-8.999152970249308
 20
5.931126361720261
  0
ARC
  5
392D
330
4220
100
AcDbEntity
  8
IMAGE
100
AcDbCircle
 10
-9.045806012456063
 20
5.946897276125147
 30
0.0
 40
0.0492466048404467
100
AcDbArc
 50
341.3223372013534
 51
48.11525434491866
  0
ARC
  5
392E
330
4220
100
AcDbEntity
  8
IMAGE
100
AcDbCircle
 10
-9.045806012456063
 20
5.946897276125147
 30
0.0
 40
0.0492466048404467
100
AcDbArc
 50
251.8847456550814
 51
318.170817723828
  0
LWPOLYLINE
  5
392F
330
4220
100
AcDbEntity
  8
IMAGE
100
AcDbPolyline
 90
        2
 70
     0
 43
0.0
 10
-8.845028825381437
 20
5.917297064041026
 10
-8.800265919745113
 20
5.994828690897552
  0
LWPOLYLINE
  5
3930
330
4220
100
AcDbEntity
  8
IMAGE
100
AcDbPolyline
 90
        2
 70
     0
 43
0.0
 10
-9.019838335092735
 20
6.018223381529752
 10
-8.975075429456412
 20
6.095755008386277
  0
CIRCLE
  5
3932
330
4220
100
AcDbEntity
  8
TEXT_BUBBLES
100
AcDbCircle
 10
-7.826483680158249
 20
5.54242464979452
 30
0.0
 40
0.1562887347020049
  0
TEXT
  5
3934
330
4220
100
AcDbEntity
  8
TEXT_BUBBLES
100
AcDbText
 10
-7.888999174039051
 20
5.479909155913718
 30
0.0
 40
0.1250309877616039
  1
4
  7
ROMANS
 72
     4
 11
-7.826483680158249
 21
5.54242464979452
 31
0.0
100
AcDbText
  0
LWPOLYLINE
  5
3944
330
4220
100
AcDbEntity
  8
IMAGE
100
AcDbPolyline
 90
        2
 70
     0
 43
0.0
 10
-10.38066652610354
 20
3.248423898621167
 10
-10.38066652610354
 20
3.114531674934843
  0
LWPOLYLINE
  5
3946
330
4220
100
AcDbEntity
  8
IMAGE
100
AcDbPolyline
 90
        6
 70
     0
 43
0.0
 10
-10.33834858333193
 20
3.547722065078557
 10
-10.47372592769512
 20
3.547722065078558
 10
-10.48618020968536
 20
3.573211999852754
 10
-10.49304627493928
 20
3.521686037712533
 10
-10.50439435249598
 20
3.547722065078558
 10
-10.64585462021875
 20
3.547722065078558
  0
LWPOLYLINE
  5
3948
330
4220
100
AcDbEntity
  8
IMAGE
100
AcDbPolyline
 90
        2
 70
     0
 43
0.0
 10
-10.58218538913211
 20
3.114531674934843
 10
-10.58218538913211
 20
3.248423898621167
  0
LWPOLYLINE
  5
3949
330
4220
100
AcDbEntity
  8
IMAGE
100
AcDbPolyline
 90
        2
 70
     0
 43
0.0
 10
-10.58218538913211
 20
3.547722065078557
 10
-10.58218538913211
 20
4.535834961220805
  0
LWPOLYLINE
  5
394A
330
4220
100
AcDbEntity
  8
IMAGE
100
AcDbPolyline
 90
        4
 70
     0
 43
0.0
 10
-10.47015809481683
 20
3.547722065078558
 42
0.0291374776558967
 10
-10.48925008162749
 20
3.402200752883219
 42
0.0861727378812992
 10
-10.48106781509873
 20
3.320426382964837
 42
-0.0598140808451038
 10
-10.47002641956713
 20
3.248423898621168
 42
-0.0598140808451038
  0
LWPOLYLINE
  5
394B
330
4220
100
AcDbEntity
  8
IMAGE
100
AcDbPolyline
 90
        4
 70
     0
 43
0.0
 10
-10.45742984494838
 20
3.547722065078558
 42
0.0296162607954267
 10
-10.47678264199422
 20
3.401299116043469
 42
0.0861727378812996
 10
-10.46902618956826
 20
3.323780373809156
 42
-0.060136404660153
 10
-10.45752000581452
 20
3.248423898621167
 42
-0.060136404660153
  0
LWPOLYLINE
  5
394C
330
4220
100
AcDbEntity
  8
IMAGE
100
AcDbPolyline
 90
        4
 70
     0
 43
0.0
 10
-10.44469684596946
 20
3.547722065078558
 42
0.0301049294621438
 10
-10.46431520236095
 20
3.400397479203719
 42
0.0861727378812989
 10
-10.45698456403778
 20
3.327134364653475
 42
-0.0604343501283955
 10
-10.4450140774893
 20
3.248423898621167
 42
-0.0604343501283955
  0
LWPOLYLINE
  5
394D
330
4220
100
AcDbEntity
  8
IMAGE
100
AcDbPolyline
 90
        6
 70
     0
 43
0.0
 10
-10.33834858333193
 20
3.248423898621167
 10
-10.47372592769512
 20
3.248423898621167
 10
-10.48618020968536
 20
3.273913833395363
 10
-10.49304627493928
 20
3.222387871255143
 10
-10.50439435249598
 20
3.248423898621167
 10
-10.64585462021875
 20
3.248423898621167
  0
ARC
  5
394F
330
4220
100
AcDbEntity
  8
IMAGE
100
AcDbCircle
 10
-9.244338107571532
 20
5.603029600452059
 30
0.0
 40
0.0492466048404467
100
AcDbArc
 50
341.3223372013534
 51
48.11525434491866
  0
LWPOLYLINE
  5
3950
330
4220
100
AcDbEntity
  8
IMAGE
100
AcDbPolyline
 90
        4
 70
     1
 43
0.0
 10
-9.231695366960405
 20
5.682048861677481
 10
-9.198177826359797
 20
5.662697500589144
 10
-9.27231653197518
 20
5.534285495655911
 10
-9.305834072575787
 20
5.553636856744246
  0
LWPOLYLINE
  5
3951
330
4220
100
AcDbEntity
  8
IMAGE
100
AcDbPolyline
 90
        4
 70
     1
 43
0.0
 10
-9.231695366960405
 20
5.682048861677481
 10
-9.020084749906375
 20
5.559875414957952
 10
-9.094223455521758
 20
5.431463410024718
 10
-9.305834072575787
 20
5.553636856744246
  0
LWPOLYLINE
  5
3952
330
4220
100
AcDbEntity
  8
IMAGE
100
AcDbPolyline
 90
        2
 70
     0
 43
0.0
 10
-9.208411129301538
 20
5.593485516539432
 10
-9.197685065364778
 20
5.587258686047173
  0
LINE
  5
3953
330
4220
100
AcDbEntity
  8
IMAGE
100
AcDbLine
 10
-9.208411129301538
 20
5.593485516539434
 30
0.0
 11
-9.218333871673552
 21
5.576393037590078
 31
0.0
  0
LWPOLYLINE
  5
3954
330
4220
100
AcDbEntity
  8
IMAGE
100
AcDbPolyline
 90
        2
 70
     0
 43
0.0
 10
-9.218333871673552
 20
5.576393037590078
 10
-9.207642668736061
 20
5.570186445046653
  0
ARC
  5
3955
330
4220
100
AcDbEntity
  8
IMAGE
100
AcDbCircle
 10
-9.244338107571532
 20
5.603029600452059
 30
0.0
 40
0.0492466048404467
100
AcDbArc
 50
251.8847456550814
 51
318.170817723828
  0
LWPOLYLINE
  5
3958
330
4220
100
AcDbEntity
  8
IMAGE
100
AcDbPolyline
 90
        2
 70
     0
 43
0.0
 10
-9.043560920496902
 20
5.573429388367935
 10
-8.919167530996819
 20
5.78888505910779
  0
LWPOLYLINE
  5
3959
330
4220
100
AcDbEntity
  8
IMAGE
100
AcDbPolyline
 90
        2
 70
     0
 43
0.0
 10
-9.218370430208201
 20
5.674355705856661
 10
-9.093977040708118
 20
5.889811376596515
  0
DIMENSION
  5
3969
330
4220
100
AcDbEntity
  8
IMAGE
100
AcDbDimension
  2
*D1
 10
-8.580954309366205
 20
7.130935235168967
 30
0.0
 11
-7.98568420668787
 21
7.130935235168967
 31
0.0
 70
   160
  1
6" MIN.
 71
     5
 42
1.19054020535667
  3
STANDARD
100
AcDbAlignedDimension
 13
-7.390414104009535
 23
6.726276356894231
 33
0.0
 14
-8.580954309366205
 24
6.434165436001739
 34
0.0
100
AcDbRotatedDimension
1001
ACAD
1000
DSTYLE
1002
{
1070
   140
1040
0.125
1070
   340
1005
4228
1002
}
  0
TEXT
  5
39E2
330
4220
100
AcDbEntity
  8
TEXT_LEADERS
100
AcDbText
 10
-6.845695024386283
 20
4.71015663552846
 30
0.0
 40
0.1250000018625
  1
SECURE WITH APPROVED PIPE 
  7
ROMANS
100
AcDbText
  0
TEXT
  5
39E3
330
4220
100
AcDbEntity
  8
TEXT_LEADERS
100
AcDbText
 10
-6.845695024386283
 20
4.527540978780321
 30
0.0
 40
0.1250000018625
  1
 ANCHOR (1 OF 3)
  7
ROMANS
100
AcDbText
  0
TEXT
  5
39E4
330
4220
100
AcDbEntity
  8
TEXT_LEADERS
100
AcDbText
 10
-6.845695024386283
 20
2.923266944395602
 30
0.0
 40
0.1250000018625
  1
WIRE TO IRRIGATION CONTROLLER
  7
ROMANS
100
AcDbText
  0
TEXT
  5
39E5
330
4220
100
AcDbEntity
  8
TEXT_LEADERS
100
AcDbText
 10
-6.845695024386283
 20
6.929660602565814
 30
0.0
 40
0.1250000018625
  1
RAIN SENSOR:  RAIN BIRD RSD-CEx
  7
ROMANS
100
AcDbText
  0
TEXT
  5
39E6
330
4220
100
AcDbEntity
  8
TEXT_LEADERS
100
AcDbText
 10
-6.845695024386283
 20
5.16208628339796
 30
0.0
 40
0.1250000018625
  1
3/4-INCH CLASS 200 PVC PIPE
  7
ROMANS
100
AcDbText
  0
TEXT
  5
39E7
330
4220
100
AcDbEntity
  8
TEXT_LEADERS
100
AcDbText
 10
-6.845695024386283
 20
5.513710955196688
 30
0.0
 40
0.1250000018625
  1
FEMALE ADAPTER (SLIP X FIPT)
  7
ROMANS
100
AcDbText
  0
TEXT
  5
39E8
330
4220
100
AcDbEntity
  8
TEXT_LEADERS
100
AcDbText
 10
-6.845695024386283
 20
7.983718317563671
 30
0.0
 40
0.1250000018625
  1
EAVE OF BUILDING
  7
ROMANS
100
AcDbText
  0
TEXT
  5
3A74
330
4220
100
AcDbEntity
  8
TEXT_LEADERS
100
AcDbText
 10
-6.845695024386283
 20
3.900691611638408
 30
0.0
 40
0.1250000018625
  1
 (1 OF 2)
  7
ROMANS
100
AcDbText
  0
TEXT
  5
3A75
330
4220
100
AcDbEntity
  8
TEXT_LEADERS
100
AcDbText
 10
-6.845695024386283
 20
4.083307268386548
 30
0.0
 40
0.1250000018625
  1
45%%d EL (SLIP X SLIP)
  7
ROMANS
100
AcDbText
  0
TEXT
  5
3A7B
330
4220
100
AcDbEntity
  8
TEXT_BUBBLES
100
AcDbText
 10
-6.104393662203665
 20
5.05717355338151
 30
0.0
 40
0.1250000018625
  1
45%%d EL (SLIP X SLIP)
  7
ROMANS
100
AcDbText
  0
TEXT
  5
3A7C
330
4220
100
AcDbEntity
  8
TEXT_BUBBLES
100
AcDbText
 10
-6.37496532799393
 20
5.063859964108711
 30
0.0
 40
0.1250309877616039
  1
6
  7
ROMANS
 72
     4
 11
-6.312449834113127
 21
5.126375457989514
 31
0.0
100
AcDbText
  0
CIRCLE
  5
3A7D
330
4220
100
AcDbEntity
  8
TEXT_BUBBLES
100
AcDbCircle
 10
-6.312449834113127
 20
5.126375457989514
 30
0.0
 40
0.1562887347020049
  0
TEXT
  5
3A7E
330
4220
100
AcDbEntity
  8
TEXT_BUBBLES
100
AcDbText
 10
-6.104393662203665
 20
4.874557896633372
 30
0.0
 40
0.1250000018625
  1
 (1 OF 2)
  7
ROMANS
100
AcDbText
  0
CIRCLE
  5
3A8A
330
4220
100
AcDbEntity
  8
TEXT_BUBBLES
100
AcDbCircle
 10
-8.642955786779296
 20
4.747340686980855
 30
0.0
 40
0.1562887347020049
  0
TEXT
  5
3A8B
330
4220
100
AcDbEntity
  8
TEXT_BUBBLES
100
AcDbText
 10
-8.705471280660098
 20
4.684825193100053
 30
0.0
 40
0.1250309877616039
  1
6
  7
ROMANS
 72
     4
 11
-8.642955786779296
 21
4.747340686980855
 31
0.0
100
AcDbText
  0
TEXT
  5
3A8E
330
4220
100
AcDbEntity
  8
TEXT_BUBBLES
100
AcDbText
 10
-9.988444105972984
 20
4.654433615085333
 30
0.0
 40
0.1250309877616039
  1
7
  7
ROMANS
 72
     4
 11
-9.92890554037222
 21
4.716949108966136
 31
0.0
100
AcDbText
  0
CIRCLE
  5
3A8F
330
4220
100
AcDbEntity
  8
TEXT_BUBBLES
100
AcDbCircle
 10
-9.92890554037222
 20
4.716949108966136
 30
0.0
 40
0.1562887347020049
  0
TEXT
  5
3A93
330
4220
100
AcDbEntity
  8
TEXT_BUBBLES
100
AcDbText
 10
-6.104393662203665
 20
4.510356724731333
 30
0.0
 40
0.1250000018625
  1
90%%d EL (SLIP X SLIP)
  7
ROMANS
100
AcDbText
  0
CIRCLE
  5
3A94
330
4220
100
AcDbEntity
  8
TEXT_BUBBLES
100
AcDbCircle
 10
-6.312449834113127
 20
4.579558629339335
 30
0.0
 40
0.1562887347020049
  0
TEXT
  5
3A95
330
4220
100
AcDbEntity
  8
TEXT_BUBBLES
100
AcDbText
 10
-6.371988399713891
 20
4.517043135458533
 30
0.0
 40
0.1250309877616039
  1
7
  7
ROMANS
 72
     4
 11
-6.312449834113127
 21
4.579558629339335
 31
0.0
100
AcDbText
  0
TEXT
  5
3AAC
330
4220
100
AcDbEntity
  8
TEXT_LEADERS
100
AcDbText
 10
-6.845695024386283
 20
3.446251514014732
 30
0.0
 40
0.1250000018625
  1
90%%d EL (SLIP X SLIP)
  7
ROMANS
100
AcDbText
  0
INSERT
  5
425E
330
4220
100
AcDbEntity
  8
TITLE
 62
    42
100
AcDbBlockReference
 66
     1
  2
TITLBLK
 10
-11.62845803167414
 20
1.529032552061784
 30
0.0
  0
ATTRIB
  5
425F
330
425E
100
AcDbEntity
  8
TITLE
100
AcDbText
 10
-11.00345803167414
 20
1.629032552061784
 30
0.0
 40
0.2
  1
RAIN SENSOR
  7
L200
100
AcDbAttribute
  2
TITLE2
 70
     0
  0
ATTRIB
  5
4260
330
425E
100
AcDbEntity
  8
TITLE
100
AcDbText
 10
-11.72934479838628
 20
1.429032552061784
 30
0.0
 40
0.2
  1
D
  7
L200
 72
     4
 11
-11.62845803167414
 21
1.529032552061784
 31
0.0
100
AcDbAttribute
  2
#
 70
     0
  0
ATTRIB
  5
4261
330
425E
100
AcDbEntity
  8
TITLE
 62
     7
100
AcDbText
 10
-11.00345803167414
 20
1.345369234978906
 30
0.0
 40
0.1
  1
N.T.S.
  7
L100
100
AcDbAttribute
  2
SCALE
 70
     0
  0
ATTRIB
  5
4262
330
425E
100
AcDbEntity
  8
TITLE
100
AcDbText
 10
-9.521254651020319
 20
1.237598222041736
 30
0.0
 40
0.2
  1
RSD-CEx ROOF CONDUIT
  7
L200
100
AcDbAttribute
  2
TITLE3
 70
     0
  0
ATTRIB
  5
4263
330
425E
100
AcDbEntity
  8
TITLE
 62
     7
100
AcDbText
 10
-11.97247781285996
 20
0.7295171036041386
 30
0.0
 40
0.08
  1
C-RSD-CEx ROOF CONDUIT.DWG
  7
L80
 72
     2
 11
-9.983906384288539
 21
0.7295171036041386
 31
0.0
100
AcDbAttribute
  2
DWG-NAME
 70
     0
  0
ATTRIB
  5
4264
330
425E
100
AcDbEntity
  8
TITLE
 62
     7
100
AcDbText
 10
-4.545304619841299
 20
1.614408247128056
 30
0.0
 40
0.08
  1
1-07-04
  7
L80
 72
     2
 11
-3.973876048412728
 21
1.614408247128056
 31
0.0
100
AcDbAttribute
  2
REVISED
 70
     0
  0
ATTRIB
  5
4265
330
425E
100
AcDbEntity
  8
TITLE
100
AcDbText
 10
-11.00345803167414
 20
1.988517758330167
 30
0.0
 40
0.2
  1

  7
L200
100
AcDbAttribute
  2
TITLE1
 70
     0
  0
ATTRIB
  5
4266
330
425E
100
AcDbEntity
  8
TITLE
100
AcDbText
 10
-9.521254651020319
 20
0.9140615364001913
 30
0.0
 40
0.2
  1

  7
L200
100
AcDbAttribute
  2
TITLE4
 70
     0
  0
SEQEND
  5
4267
330
425E
100
AcDbEntity
  8
TEXT_BUBBLES
 62
    40
  0
LWPOLYLINE
  5
4268
330
4220
100
AcDbEntity
  8
IMAGE
100
AcDbPolyline
 90
        4
 70
     1
 43
0.0
 10
-12.23490040218863
 20
0.6448054555834173
 10
4.255099597811364
 20
0.6448054555834175
 10
4.255099597811364
 20
11.08480545558341
 10
-12.23490040218863
 20
11.08480545558341
  0
LEADER
  5
4283
330
4220
100
AcDbEntity
  8
TEXT_LEADERS
100
AcDbLeader
  3
STANDARD
 76
     3
 10
-9.99774451536731
 20
7.252149642821701
 30
0.0
 10
-8.42401361245847
 20
8.049751934779083
 30
0.0
 10
-6.876935515871148
 20
8.049751934779083
 30
0.0
1001
ACAD
1000
DSTYLE
1002
{
1070
   147
1040
0.09
1070
    77
1070
     0
1002
}
  0
LEADER
  5
4285
330
4220
100
AcDbEntity
  8
TEXT_LEADERS
100
AcDbLeader
  3
STANDARD
 76
     3
 10
-7.243531809832918
 20
6.492299603226024
 30
0.0
 10
-7.007674491472963
 20
6.993382061654561
 30
0.0
 10
-6.876935515871148
 20
6.993382061654561
 30
0.0
1001
ACAD
1000
DSTYLE
1002
{
1070
   147
1040
0.09
1070
    77
1070
     0
1002
}
  0
LEADER
  5
4286
330
4220
100
AcDbEntity
  8
TEXT_LEADERS
100
AcDbLeader
  3
STANDARD
 76
     3
 10
-7.857477987213592
 20
6.047529652776788
 30
0.0
 10
-7.345416890123561
 20
5.577628638241222
 30
0.0
 10
-6.866040594807296
 20
5.577628638241222
 30
0.0
1001
ACAD
1000
DSTYLE
1002
{
1070
   147
1040
0.09
1070
    77
1070
     0
1002
}
  0
LEADER
  5
4287
330
4220
100
AcDbEntity
  8
TEXT_LEADERS
100
AcDbLeader
  3
STANDARD
 76
     3
 10
-8.413118691394618
 20
6.06062453294032
 30
0.0
 10
-7.443471141116027
 20
5.229135502450046
 30
0.0
 10
-6.866040594807296
 20
5.229135502450046
 30
0.0
1001
ACAD
1000
DSTYLE
1002
{
1070
   147
1040
0.09
1070
    77
1070
     0
1002
}
  0
LEADER
  5
4288
330
4220
100
AcDbEntity
  8
TEXT_LEADERS
100
AcDbLeader
  3
STANDARD
 76
     3
 10
-8.874559529494339
 20
5.811932490494258
 30
0.0
 10
-7.770318657284979
 20
4.782628636180089
 30
0.0
 10
-6.866040594807296
 20
4.782628636180089
 30
0.0
1001
ACAD
1000
DSTYLE
1002
{
1070
   147
1040
0.09
1070
    77
1070
     0
1002
}
  0
LEADER
  5
4289
330
4220
100
AcDbEntity
  8
TEXT_LEADERS
100
AcDbLeader
  3
STANDARD
 76
     3
 10
-9.349277948442471
 20
5.045549477677634
 30
0.0
 10
-7.443471141116027
 20
4.12920399696163
 30
0.0
 10
-6.855145673743443
 20
4.12920399696163
 30
0.0
1001
ACAD
1000
DSTYLE
1002
{
1070
   147
1040
0.09
1070
    77
1070
     0
1002
}
  0
LEADER
  5
428A
330
4220
100
AcDbEntity
  8
TEXT_LEADERS
100
AcDbLeader
  3
STANDARD
 76
     3
 10
-10.36757164594
 20
5.028489448279362
 30
0.0
 10
-8.641911956571105
 20
3.499376042624405
 30
0.0
 10
-6.855145673743443
 20
3.499376042624405
 30
0.0
1001
ACAD
1000
DSTYLE
1002
{
1070
   147
1040
0.09
1070
    77
1070
     0
1002
}
  0
LEADER
  5
428B
330
4220
100
AcDbEntity
  8
TEXT_LEADERS
100
AcDbLeader
  3
STANDARD
 76
     3
 10
-10.45883884293525
 20
3.457595816086828
 30
0.0
 10
-8.641911956571105
 20
2.996601247980289
 30
0.0
 10
-6.866040594807296
 20
2.996601247980289
 30
0.0
1001
ACAD
1000
DSTYLE
1002
{
1070
   147
1040
0.09
1070
    77
1070
     0
1002
}
  0
LEADER
  5
4297
330
4220
100
AcDbEntity
  8
TEXT_BUBBLES
100
AcDbLeader
  3
STANDARD
 76
     2
 10
-10.13830338039279
 20
7.333301341381153
 30
0.0
 10
-9.592741252949972
 20
7.654285058377082
 30
0.0
1001
ACAD
1000
DSTYLE
1002
{
1070
   147
1040
0.09
1070
    77
1070
     0
1002
}
  0
LEADER
  5
4299
330
4220
100
AcDbEntity
  8
TEXT_BUBBLES
100
AcDbLeader
  3
STANDARD
 76
     2
 10
-7.537152670170742
 20
6.513188074798816
 30
0.0
 10
-8.035265804964041
 20
6.615737528283779
 30
0.0
1001
ACAD
1000
DSTYLE
1002
{
1070
   147
1040
0.09
1070
    77
1070
     0
1002
}
  0
LEADER
  5
429A
330
4220
100
AcDbEntity
  8
TEXT_BUBBLES
100
AcDbLeader
  3
STANDARD
 76
     2
 10
-7.847159445755284
 20
6.047529652776788
 30
0.0
 10
-7.371796525868176
 20
5.54242464979452
 30
0.0
1001
ACAD
1000
DSTYLE
1002
{
1070
   147
1040
0.09
1070
    77
1070
     0
1002
}
  0
LEADER
  5
429B
330
4220
100
AcDbEntity
  8
TEXT_BUBBLES
100
AcDbLeader
  3
STANDARD
 76
     2
 10
-8.346097846508437
 20
6.06062453294032
 30
0.0
 10
-7.982772414860254
 20
5.54242464979452
 30
0.0
1001
ACAD
1000
DSTYLE
1002
{
1070
   147
1040
0.09
1070
    77
1070
     0
1002
}
  0
LEADER
  5
429C
330
4220
100
AcDbEntity
  8
TEXT_BUBBLES
100
AcDbLeader
  3
STANDARD
 76
     2
 10
-8.868135429454929
 20
5.823059358155424
 30
0.0
 10
-8.549904495740314
 20
5.54242464979452
 30
0.0
1001
ACAD
1000
DSTYLE
1002
{
1070
   147
1040
0.09
1070
    77
1070
     0
1002
}
  0
LEADER
  5
429D
330
4220
100
AcDbEntity
  8
TEXT_BUBBLES
100
AcDbLeader
  3
STANDARD
 76
     2
 10
-9.310183641824524
 20
5.085693603674631
 30
0.0
 10
-8.7992445214813
 20
4.747340686980855
 30
0.0
1001
ACAD
1000
DSTYLE
1002
{
1070
   147
1040
0.09
1070
    77
1070
     0
1002
}
  0
LEADER
  5
429E
330
4220
100
AcDbEntity
  8
TEXT_BUBBLES
100
AcDbLeader
  3
STANDARD
 76
     2
 10
-10.36757164594
 20
5.028489448279362
 30
0.0
 10
-10.08519427507422
 20
4.716949108966136
 30
0.0
1001
ACAD
1000
DSTYLE
1002
{
1070
   147
1040
0.09
1070
    77
1070
     0
1002
}
  0
LEADER
  5
429F
330
4220
100
AcDbEntity
  8
TEXT_BUBBLES
100
AcDbLeader
  3
STANDARD
 76
     2
 10
-10.46431520236095
 20
3.400397479203719
 30
0.0
 10
-9.902114599490813
 20
3.373875809413537
 30
0.0
1001
ACAD
1000
DSTYLE
1002
{
1070
   147
1040
0.09
1070
    77
1070
     0
1002
}
  0
LWPOLYLINE
  5
42A3
330
4220
100
AcDbEntity
  8
IMAGE
  6
0
100
AcDbPolyline
 90
       25
 70
     0
 43
0.0
 10
-7.520410362232161
 20
6.083628809907923
 10
-7.520051434868198
 20
6.083988555806354
 10
-7.515109942288391
 20
6.082461170490151
 10
-7.515019903496975
 20
6.082461170490151
 10
-7.515019903496975
 20
6.082550800014333
 10
-7.514930273972792
 20
6.082550800014333
 10
-7.514840235181377
 20
6.082640838805749
 10
-7.514750605657194
 20
6.082640838805749
 10
-7.514750605657194
 20
6.082730877597165
 10
-7.514660566865778
 20
6.082730877597165
 10
-7.514660566865778
 20
6.082820507121348
 10
-7.514570937341596
 20
6.08291013664553
 10
-7.514570937341596
 20
6.083089804961128
 10
-7.515828615550785
 20
6.084707229068747
 10
-7.512055171655984
 20
6.084168224121953
 10
-7.511965542131802
 20
6.084168224121953
 10
-7.511965542131802
 20
6.084257853646135
 10
-7.511875503340386
 20
6.084257853646135
 10
-7.511875503340386
 20
6.084347892437551
 10
-7.511875503340386
 20
6.084437521961733
 10
-7.511875503340386
 20
6.084527560753149
 10
-7.511875503340386
 20
6.084617190277331
 10
-7.511875503340386
 20
6.084707229068747
 10
-7.511875503340386
 20
6.08479685859293
 10
-7.511875503340386
 20
6.084976526908529
  0
LWPOLYLINE
  5
42A4
330
4220
100
AcDbEntity
  8
IMAGE
  6
0
100
AcDbPolyline
 90
       52
 70
     1
 43
0.0
 10
-7.410172186496372
 20
6.087222585487126
 10
-7.40738712297098
 20
6.086863658123162
 10
-7.407207454655381
 20
6.086593951016148
 10
-7.407117825131199
 20
6.086414282700549
 10
-7.406938156815601
 20
6.086144575593535
 10
-7.406848118024185
 20
6.085875277753754
 10
-7.406848118024185
 20
6.085605570646739
 10
-7.406758079232768
 20
6.085336272806959
 10
-7.406758079232768
 20
6.085066565699944
 10
-7.406758079232768
 20
6.084707229068747
 10
-7.406758079232768
 20
6.084437521961733
 10
-7.406758079232768
 20
6.08407859459777
 10
-7.406758079232768
 20
6.083808887490755
 10
-7.406758079232768
 20
6.083539180383741
 10
-7.406848118024185
 20
6.083179843752544
 10
-7.406848118024185
 20
6.08291013664553
 10
-7.406848118024185
 20
6.082371131698734
 10
-7.407027786339783
 20
6.082101833858954
 10
-7.407117825131199
 20
6.081832126751939
 10
-7.407207454655381
 20
6.081562828912159
 10
-7.407297493446797
 20
6.081383160596559
 10
-7.40738712297098
 20
6.081113453489545
 10
-7.407477161762396
 20
6.080933785173948
 10
-7.407566791286578
 20
6.080664078066933
 10
-7.407656830077995
 20
6.080484409751334
 10
-7.407746459602177
 20
6.080304741435735
 10
-7.407836498393593
 20
6.080125073120138
 10
-7.407926127917775
 20
6.079855775280356
 10
-7.408016166709191
 20
6.079676106964758
 10
-7.408105796233374
 20
6.079496029381926
 10
-7.408195835024789
 20
6.079316770333561
 10
-7.408375503340388
 20
6.079047063226546
 10
-7.408734839971584
 20
6.078597687803934
 10
-7.409004547078599
 20
6.078148721648555
 10
-7.409363883709796
 20
6.077789385017358
 10
-7.409723220340993
 20
6.077430048386161
 10
-7.41008255697219
 20
6.077160341279147
 10
-7.410531932394802
 20
6.07680100464795
 10
-7.410891269026
 20
6.076531297540936
 10
-7.411340235181379
 20
6.076351629225337
 10
-7.411789610603991
 20
6.076082331385556
 10
-7.412328615550787
 20
6.075902663069958
 10
-7.412777581706166
 20
6.075812624278541
 10
-7.413316995920195
 20
6.075722994754359
 10
-7.41385600086699
 20
6.075632955962943
 10
-7.414395005813785
 20
6.075632955962943
 10
-7.415473015707376
 20
6.075812624278541
 10
-7.410531932394802
 20
6.087132955962943
 10
-7.410441893603387
 20
6.087132955962943
 10
-7.41035185481197
 20
6.087132955962943
 10
-7.410262225287788
 20
6.087132955962943
 10
-7.410172186496372
 20
6.087222585487126
  0
LWPOLYLINE
  5
42A5
330
4220
100
AcDbEntity
  8
IMAGE
  6
0
100
AcDbPolyline
 90
       76
 70
     1
 43
0.0
 10
-7.432363883709796
 20
6.087851629225337
 10
-7.43227384491838
 20
6.087761999701154
 10
-7.432184215394197
 20
6.087761999701154
 10
-7.432094176602781
 20
6.087761999701154
 10
-7.432004547078599
 20
6.087761999701154
 10
-7.431914508287182
 20
6.087761999701154
 10
-7.431734839971585
 20
6.087761999701154
 10
-7.431644801180168
 20
6.087761999701154
 10
-7.431555171655985
 20
6.087671960909738
 10
-7.43146513286457
 20
6.087671960909738
 10
-7.431375503340388
 20
6.087671960909738
 10
-7.431195835024789
 20
6.087582331385556
 10
-7.431105796233373
 20
6.087582331385556
 10
-7.43101616670919
 20
6.08749229259414
 10
-7.430926127917775
 20
6.087402663069958
 10
-7.430656830077994
 20
6.087312624278541
 10
-7.430656830077994
 20
6.086953287647345
 10
-7.430656830077994
 20
6.08668358054033
 10
-7.430656830077994
 20
6.086503912224732
 10
-7.430746459602176
 20
6.086234614384951
 10
-7.430746459602176
 20
6.085964907277936
 10
-7.430836498393592
 20
6.085785648229572
 10
-7.43101616670919
 20
6.085515941122557
 10
-7.431105796233373
 20
6.085336272806959
 10
-7.431285464548971
 20
6.085066565699944
 10
-7.431375503340388
 20
6.084886897384346
 10
-7.431555171655985
 20
6.084707229068747
 10
-7.431734839971585
 20
6.084527560753149
 10
-7.431914508287182
 20
6.084347892437551
 10
-7.432094176602781
 20
6.084168224121953
 10
-7.432363883709796
 20
6.083808887490755
 10
-7.432633181549576
 20
6.083628809907923
 10
-7.432812849865174
 20
6.083449550859558
 10
-7.432992518180773
 20
6.083359512068142
 10
-7.433262225287788
 20
6.08326988254396
 10
-7.433441893603386
 20
6.083179843752544
 10
-7.433711600710401
 20
6.083089804961128
 10
-7.433890859758765
 20
6.083000175436946
 10
-7.434070937341597
 20
6.083000175436946
 10
-7.434340235181378
 20
6.08291013664553
 10
-7.434519903496976
 20
6.08291013664553
 10
-7.434789610603991
 20
6.08291013664553
 10
-7.43496927891959
 20
6.08291013664553
 10
-7.435238986026604
 20
6.08291013664553
 10
-7.435418245074969
 20
6.08291013664553
 10
-7.435777990973399
 20
6.08291013664553
 10
-7.43604728881318
 20
6.08291013664553
 10
-7.436137327604596
 20
6.083000175436946
 10
-7.436226957128778
 20
6.083089804961128
 10
-7.436316995920194
 20
6.083179843752544
 10
-7.436406625444377
 20
6.083359512068142
 10
-7.436406625444377
 20
6.083449550859558
 10
-7.436316995920194
 20
6.083628809907923
 10
-7.436316995920194
 20
6.083808887490755
 10
-7.436226957128778
 20
6.083988555806354
 10
-7.436226957128778
 20
6.084168224121953
 10
-7.436137327604596
 20
6.084347892437551
 10
-7.43604728881318
 20
6.084527560753149
 10
-7.435957250021764
 20
6.084707229068747
 10
-7.435867620497582
 20
6.084886897384346
 10
-7.435687952181983
 20
6.08515660449136
 10
-7.435598322657801
 20
6.085336272806959
 10
-7.435508283866385
 20
6.085515941122557
 10
-7.435418245074969
 20
6.085695609438156
 10
-7.435328615550786
 20
6.085875277753754
 10
-7.435238986026604
 20
6.085964907277936
 10
-7.435148947235187
 20
6.086144575593535
 10
-7.435148947235187
 20
6.086324653176367
 10
-7.435058908443772
 20
6.086503912224732
 10
-7.43496927891959
 20
6.086593951016148
 10
-7.434879240128173
 20
6.086773619331746
 10
-7.434789610603991
 20
6.086863658123162
 10
-7.434699571812575
 20
6.08704332643876
 10
-7.434519903496976
 20
6.087132955962943
 10
-7.434430273972794
 20
6.087222585487126
 10
-7.434070937341597
 20
6.08749229259414
  0
LWPOLYLINE
  5
42A6
330
4220
100
AcDbEntity
  8
IMAGE
  6
0
100
AcDbPolyline
 90
       84
 70
     1
 43
0.0
 10
-7.415203717867595
 20
6.09288316059656
 10
-7.41430496702237
 20
6.092793121805144
 10
-7.413226957128779
 20
6.092793121805144
 10
-7.412238986026604
 20
6.092793121805144
 10
-7.41116056686578
 20
6.09288316059656
 10
-7.41008255697219
 20
6.09288316059656
 10
-7.408914508287183
 20
6.09288316059656
 10
-7.407836498393593
 20
6.092793121805144
 10
-7.406758079232768
 20
6.092703083013728
 10
-7.405680069339178
 20
6.092613453489545
 10
-7.404692098237004
 20
6.092433785173946
 10
-7.403703717867595
 20
6.092164078066932
 10
-7.402805376289603
 20
6.09180515070297
 10
-7.401906625444377
 20
6.091355775280357
 10
-7.401098322657801
 20
6.090816361066328
 10
-7.399750605657197
 20
6.089469053332956
 10
-7.399750605657197
 20
6.08937901454154
 10
-7.39966056686578
 20
6.089289385017358
 10
-7.39966056686578
 20
6.089199346225941
 10
-7.39966056686578
 20
6.089109307434525
 10
-7.399570937341598
 20
6.089109307434525
 10
-7.399570937341598
 20
6.089019677910344
 10
-7.399480898550182
 20
6.088929639118926
 10
-7.399480898550182
 20
6.088840009594744
 10
-7.399391269026
 20
6.088840009594744
 10
-7.399211191443168
 20
6.088391043439366
 10
-7.399031523127569
 20
6.088031297540935
 10
-7.398941893603387
 20
6.087582331385556
 10
-7.398762225287788
 20
6.087132955962943
 10
-7.398672186496372
 20
6.08668358054033
 10
-7.39858255697219
 20
6.086234614384951
 10
-7.39858255697219
 20
6.085785648229572
 10
-7.398492518180773
 20
6.085336272806959
 10
-7.398492518180773
 20
6.084886897384346
 10
-7.398492518180773
 20
6.084437521961733
 10
-7.398492518180773
 20
6.083988555806354
 10
-7.39858255697219
 20
6.083539180383741
 10
-7.398672186496372
 20
6.083000175436946
 10
-7.398762225287788
 20
6.082550800014333
 10
-7.398941893603387
 20
6.081652458436341
 10
-7.399121561918985
 20
6.081293121805144
 10
-7.399211191443168
 20
6.080933785173948
 10
-7.399301230234583
 20
6.080664078066933
 10
-7.399391269026
 20
6.080304741435735
 10
-7.399480898550182
 20
6.079945404804539
 10
-7.39966056686578
 20
6.079586068173342
 10
-7.399750605657197
 20
6.079316770333561
 10
-7.399840235181379
 20
6.078957024435131
 10
-7.400019903496978
 20
6.07868772659535
 10
-7.400109942288393
 20
6.078328389964153
 10
-7.40019998107981
 20
6.078059092124372
 10
-7.400379240128174
 20
6.077699346225942
 10
-7.400558908443772
 20
6.077430048386161
 10
-7.400738576759371
 20
6.077160341279147
 10
-7.401008283866386
 20
6.076711375123767
 10
-7.401098322657801
 20
6.076621336332351
 10
-7.401098322657801
 20
6.076531297540936
 10
-7.401187952181984
 20
6.076441668016753
 10
-7.401187952181984
 20
6.076351629225337
 10
-7.4012779909734
 20
6.076261999701155
 10
-7.4012779909734
 20
6.076171960909738
 10
-7.4012779909734
 20
6.076082331385556
 10
-7.402265962075574
 20
6.074644575593535
 10
-7.403434010760581
 20
6.073386897384346
 10
-7.404602059445587
 20
6.072398517014938
 10
-7.405949776446193
 20
6.071589804961128
 10
-7.40738712297098
 20
6.071050800014333
 10
-7.408914508287183
 20
6.070511795067538
 10
-7.410531932394802
 20
6.070242497227757
 10
-7.412148947235189
 20
6.069972790120742
 10
-7.41385600086699
 20
6.069882751329326
 10
-7.415563054498792
 20
6.069793121805144
 10
-7.417359737654776
 20
6.069793121805144
 10
-7.419066791286578
 20
6.069793121805144
 10
-7.420863883709795
 20
6.069793121805144
 10
-7.422570937341598
 20
6.069882751329326
 10
-7.425895005813785
 20
6.069882751329326
 10
-7.424187952181983
 20
6.075183580540331
 10
-7.415652684022974
 20
6.092793121805144
 10
-7.415563054498792
 20
6.092793121805144
 10
-7.415473015707376
 20
6.092793121805144
 10
-7.415383386183194
 20
6.092793121805144
 10
-7.415293347391777
 20
6.092793121805144
 10
-7.415203717867595
 20
6.09288316059656
  0
LWPOLYLINE
  5
42A7
330
4220
100
AcDbEntity
  8
IMAGE
  6
0
100
AcDbPolyline
 90
      111
 70
     1
 43
0.0
 10
-7.473692098237002
 20
6.10087901454154
 10
-7.472793347391776
 20
6.100789385017357
 10
-7.471804967022368
 20
6.100789385017357
 10
-7.470906625444376
 20
6.100789385017357
 10
-7.469918245074968
 20
6.100789385017357
 10
-7.468930273972794
 20
6.100789385017357
 10
-7.467941893603385
 20
6.10087901454154
 10
-7.466953513233977
 20
6.10087901454154
 10
-7.465965542131803
 20
6.10087901454154
 10
-7.464977161762394
 20
6.10087901454154
 10
-7.463988781392986
 20
6.10087901454154
 10
-7.463000401023578
 20
6.100789385017357
 10
-7.462012429921404
 20
6.100609716701759
 10
-7.461113679076178
 20
6.100430048386161
 10
-7.460215337498186
 20
6.100160341279146
 10
-7.458418654342201
 20
6.099441668016752
 10
-7.458058908443772
 20
6.098902663069957
 10
-7.457699571812574
 20
6.098363658123162
 10
-7.457430273972794
 20
6.09773461438495
 10
-7.457250196389962
 20
6.097195609438155
 10
-7.457070937341597
 20
6.096476936175761
 10
-7.456891269025999
 20
6.09584789243755
 10
-7.456891269025999
 20
6.095129219175157
 10
-7.456801230234582
 20
6.094410545912762
 10
-7.456891269025999
 20
6.093691463383136
 10
-7.456891269025999
 20
6.092972790120742
 10
-7.457070937341597
 20
6.092344155649764
 10
-7.45716056686578
 20
6.091625073120138
 10
-7.457430273972794
 20
6.090906399857743
 10
-7.457699571812574
 20
6.090277356119532
 10
-7.458238986026604
 20
6.089109307434525
 10
-7.4585983226578
 20
6.088660341279147
 10
-7.458867620497581
 20
6.088301004647949
 10
-7.459137327604596
 20
6.087941668016752
 10
-7.459496664235793
 20
6.087671960909738
 10
-7.459765962075573
 20
6.087312624278541
 10
-7.46012529870677
 20
6.08704332643876
 10
-7.460485044605201
 20
6.086773619331746
 10
-7.460754342444981
 20
6.086503912224732
 10
-7.461113679076178
 20
6.086234614384951
 10
-7.461473015707375
 20
6.085964907277936
 10
-7.461832352338572
 20
6.085695609438156
 10
-7.462281727761185
 20
6.085515941122557
 10
-7.462641064392381
 20
6.085246234015543
 10
-7.463000401023578
 20
6.085066565699944
 10
-7.463719074285972
 20
6.084707229068747
 10
-7.46362944476179
 20
6.084257853646135
 10
-7.463539405970373
 20
6.08371884869934
 10
-7.463449776446191
 20
6.08326988254396
 10
-7.463359737654775
 20
6.082730877597165
 10
-7.463180069339177
 20
6.082191463383136
 10
-7.463090439814995
 20
6.081652458436341
 10
-7.463000401023578
 20
6.081113453489545
 10
-7.462910771499396
 20
6.080484409751334
 10
-7.462910771499396
 20
6.079945404804539
 10
-7.462910771499396
 20
6.079316770333561
 10
-7.462910771499396
 20
6.07868772659535
 10
-7.462910771499396
 20
6.078148721648555
 10
-7.463000401023578
 20
6.077519677910343
 10
-7.463180069339177
 20
6.076890634172132
 10
-7.46362944476179
 20
6.075812624278541
 10
-7.463809113077388
 20
6.075632955962943
 10
-7.46389874260157
 20
6.075453287647345
 10
-7.463988781392986
 20
6.075363248855929
 10
-7.463988781392986
 20
6.075183580540331
 10
-7.464078410917169
 20
6.075093951016148
 10
-7.464168449708585
 20
6.074914282700549
 10
-7.464258488500001
 20
6.074824243909134
 10
-7.464258488500001
 20
6.074734614384951
 10
-7.464348118024183
 20
6.07455453680212
 10
-7.464438156815599
 20
6.074464907277937
 10
-7.464527786339782
 20
6.074375277753754
 10
-7.464617825131198
 20
6.074195609438156
 10
-7.464617825131198
 20
6.074105570646739
 10
-7.46470745465538
 20
6.073925902331142
 10
-7.464887122970979
 20
6.073746234015543
 10
-7.466055171655985
 20
6.072668224121952
 10
-7.467312849865174
 20
6.071769882543961
 10
-7.468660566865779
 20
6.071140838805749
 10
-7.470097913390566
 20
6.070601833858954
 10
-7.471535669182587
 20
6.07033212675194
 10
-7.473063054498791
 20
6.070062828912158
 10
-7.474680069339177
 20
6.069972790120742
 10
-7.476297493446796
 20
6.069972790120742
 10
-7.477914508287182
 20
6.069972790120742
 10
-7.479621561918984
 20
6.070062828912158
 10
-7.481328615550785
 20
6.070152458436341
 10
-7.482945630391171
 20
6.070242497227757
 10
-7.484653093290207
 20
6.07033212675194
 10
-7.486270108130592
 20
6.07033212675194
 10
-7.489414508287182
 20
6.070242497227757
 10
-7.488695835024788
 20
6.072129219175157
 10
-7.487977161762394
 20
6.074015941122557
 10
-7.487078410917169
 20
6.075902663069958
 10
-7.486270108130592
 20
6.077789385017358
 10
-7.485281727761184
 20
6.079676106964758
 10
-7.484383386183192
 20
6.081652458436341
 10
-7.483395005813783
 20
6.083539180383741
 10
-7.482316995920194
 20
6.085515941122557
 10
-7.481328615550785
 20
6.087402663069958
 10
-7.480340235181377
 20
6.089289385017358
 10
-7.479262225287787
 20
6.09126573648894
 10
-7.478184215394196
 20
6.09315245843634
 10
-7.477195835024788
 20
6.09503918038374
 10
-7.476117825131197
 20
6.096925902331141
 10
-7.474141064392381
 20
6.100789385017357
 10
-7.474051434868199
 20
6.100789385017357
 10
-7.473961396076783
 20
6.100789385017357
 10
-7.473871357285367
 20
6.100789385017357
 10
-7.473781727761185
 20
6.100789385017357
 10
-7.473692098237002
 20
6.10087901454154
  0
LWPOLYLINE
  5
42A8
330
4220
100
AcDbEntity
  8
IMAGE
  6
0
100
AcDbPolyline
 90
      103
 70
     1
 43
0.0
 10
-7.439102059445587
 20
6.09288316059656
 10
-7.438203717867595
 20
6.092793121805144
 10
-7.437305376289603
 20
6.092793121805144
 10
-7.436316995920194
 20
6.092793121805144
 10
-7.435328615550786
 20
6.092793121805144
 10
-7.434250605657195
 20
6.09288316059656
 10
-7.433262225287788
 20
6.092972790120742
 10
-7.43227384491838
 20
6.092972790120742
 10
-7.431285464548971
 20
6.093062828912158
 10
-7.430297493446797
 20
6.092972790120742
 10
-7.429309113077389
 20
6.09288316059656
 10
-7.428320732707981
 20
6.092793121805144
 10
-7.427422391129988
 20
6.092523414698129
 10
-7.426524049551996
 20
6.092164078066932
 10
-7.425715337498187
 20
6.09180515070297
 10
-7.424187952181983
 20
6.090547063226547
 10
-7.423918245074969
 20
6.09000805827975
 10
-7.423738576759371
 20
6.089558682857139
 10
-7.423558908443772
 20
6.089019677910344
 10
-7.423379240128173
 20
6.08857030248773
 10
-7.423289610603991
 20
6.088031297540935
 10
-7.423289610603991
 20
6.08749229259414
 10
-7.423289610603991
 20
6.086953287647345
 10
-7.423289610603991
 20
6.086503912224732
 10
-7.423379240128173
 20
6.085964907277936
 10
-7.42346927891959
 20
6.085425902331141
 10
-7.423558908443772
 20
6.084886897384346
 10
-7.423738576759371
 20
6.084437521961733
 10
-7.423828615550787
 20
6.083898517014938
 10
-7.424098322657801
 20
6.083449550859558
 10
-7.424457659288998
 20
6.082550800014333
 10
-7.42454728881318
 20
6.082461170490151
 10
-7.42454728881318
 20
6.082371131698734
 10
-7.424637327604596
 20
6.082281502174552
 10
-7.424637327604596
 20
6.082191463383136
 10
-7.424726957128779
 20
6.082101833858954
 10
-7.424726957128779
 20
6.082011795067537
 10
-7.424816995920195
 20
6.082011795067537
 10
-7.424816995920195
 20
6.081922165543355
 10
-7.424816995920195
 20
6.081832126751939
 10
-7.424906625444377
 20
6.081832126751939
 10
-7.424906625444377
 20
6.081742497227756
 10
-7.424906625444377
 20
6.081652458436341
 10
-7.426883386183193
 20
6.079586068173342
 10
-7.431824878763
 20
6.077699346225942
 10
-7.431914508287182
 20
6.077609307434526
 10
-7.432004547078599
 20
6.077609307434526
 10
-7.432004547078599
 20
6.077519677910343
 10
-7.432004547078599
 20
6.077430048386161
 10
-7.432004547078599
 20
6.077340009594745
 10
-7.429578820184403
 20
6.069972790120742
 10
-7.435867620497582
 20
6.069882751329326
 10
-7.439191688969769
 20
6.077609307434526
 10
-7.439641064392382
 20
6.077250380070563
 10
-7.440000401023579
 20
6.076890634172132
 10
-7.440270108130593
 20
6.076531297540936
 10
-7.44062944476179
 20
6.076082331385556
 10
-7.440898742601571
 20
6.075632955962943
 10
-7.441168449708586
 20
6.075183580540331
 10
-7.441437747548366
 20
6.074734614384951
 10
-7.44170745465538
 20
6.074195609438156
 10
-7.441887122970979
 20
6.073746234015543
 10
-7.442156830077993
 20
6.073207229068747
 10
-7.442426127917775
 20
6.072668224121952
 10
-7.442605796233372
 20
6.072129219175157
 10
-7.442875503340387
 20
6.071679843752544
 10
-7.443145210447402
 20
6.071140838805749
 10
-7.443684215394196
 20
6.070242497227757
 10
-7.450871766552601
 20
6.069882751329326
 10
-7.45051202065417
 20
6.070961170490151
 10
-7.450152684022974
 20
6.072039180383741
 10
-7.449703717867595
 20
6.073207229068747
 10
-7.449164712920799
 20
6.074285238962338
 10
-7.448715337498186
 20
6.075453287647345
 10
-7.448176332551391
 20
6.076531297540936
 10
-7.44754728881318
 20
6.077699346225942
 10
-7.447008283866384
 20
6.078777356119532
 10
-7.446379240128173
 20
6.079945404804539
 10
-7.445750605657195
 20
6.081023823965363
 10
-7.445211191443167
 20
6.082191463383136
 10
-7.444582556972189
 20
6.08326988254396
 10
-7.444043552025394
 20
6.084437521961733
 10
-7.443414508287182
 20
6.085515941122557
 10
-7.442336498393592
 20
6.087851629225337
 10
-7.442156830077993
 20
6.088121336332351
 10
-7.441977161762395
 20
6.088480672963548
 10
-7.441797493446796
 20
6.088750380070562
 10
-7.441617825131198
 20
6.089109307434525
 10
-7.441437747548366
 20
6.08937901454154
 10
-7.441258488500001
 20
6.089738351172736
 10
-7.441078410917169
 20
6.09000805827975
 10
-7.440898742601571
 20
6.090367394910948
 10
-7.440719074285972
 20
6.090637102017963
 10
-7.440539405970374
 20
6.090996438649159
 10
-7.440449776446191
 20
6.09126573648894
 10
-7.440270108130593
 20
6.091535443595955
 10
-7.440090439814995
 20
6.091894780227152
 10
-7.439910771499397
 20
6.092164078066932
 10
-7.439461396076784
 20
6.092793121805144
 10
-7.439371766552601
 20
6.092793121805144
 10
-7.439281727761185
 20
6.092793121805144
 10
-7.439191688969769
 20
6.092793121805144
 10
-7.439102059445587
 20
6.09288316059656
  0
LWPOLYLINE
  5
42A9
330
4220
100
AcDbEntity
  8
IMAGE
  6
0
100
AcDbPolyline
 90
       12
 70
     1
 43
0.0
 10
-7.451590439814995
 20
6.09288316059656
 10
-7.444492518180773
 20
6.09288316059656
 10
-7.455902888656591
 20
6.070242497227757
 10
-7.46282073270798
 20
6.070062828912158
 10
-7.462910771499396
 20
6.070062828912158
 10
-7.462910771499396
 20
6.070152458436341
 10
-7.463000401023578
 20
6.070242497227757
 10
-7.463000401023578
 20
6.07033212675194
 10
-7.463000401023578
 20
6.070422165543355
 10
-7.451770108130593
 20
6.092793121805144
 10
-7.451680069339177
 20
6.092793121805144
 10
-7.451590439814995
 20
6.09288316059656
  0
LWPOLYLINE
  5
42AA
330
4220
100
AcDbEntity
  8
IMAGE
  6
0
100
AcDbPolyline
 90
       60
 70
     1
 43
0.0
 10
-7.579797493446794
 20
6.09315245843634
 10
-7.569734839971581
 20
6.09315245843634
 10
-7.573867620497579
 20
6.070691463383136
 10
-7.580246459602173
 20
6.070511795067538
 10
-7.580426127917771
 20
6.070601833858954
 10
-7.58060579623337
 20
6.070691463383136
 10
-7.580695835024786
 20
6.070871131698734
 10
-7.580695835024786
 20
6.071050800014333
 10
-7.580695835024786
 20
6.071230877597165
 10
-7.580695835024786
 20
6.071410545912764
 10
-7.580695835024786
 20
6.071589804961128
 10
-7.58060579623337
 20
6.071859512068143
 10
-7.58060579623337
 20
6.072039180383741
 10
-7.580516166709188
 20
6.072218848699339
 10
-7.580426127917771
 20
6.072398517014938
 10
-7.580336498393589
 20
6.072668224121952
 10
-7.580246459602173
 20
6.07284789243755
 10
-7.580156420810757
 20
6.07302756075315
 10
-7.579977161762393
 20
6.073476526908528
 10
-7.580066791286575
 20
6.073476526908528
 10
-7.580066791286575
 20
6.073566565699945
 10
-7.580066791286575
 20
6.07365660449136
 10
-7.580156420810757
 20
6.07365660449136
 10
-7.580156420810757
 20
6.073746234015543
 10
-7.580246459602173
 20
6.073836272806959
 10
-7.580246459602173
 20
6.073925902331142
 10
-7.580246459602173
 20
6.074015941122557
 10
-7.580875503340385
 20
6.073925902331142
 10
-7.581414508287179
 20
6.073925902331142
 10
-7.581953513233975
 20
6.074015941122557
 10
-7.58249251818077
 20
6.074015941122557
 10
-7.583121561918981
 20
6.074015941122557
 10
-7.583660566865777
 20
6.074105570646739
 10
-7.584199571812572
 20
6.074105570646739
 10
-7.584738576759368
 20
6.074105570646739
 10
-7.585277581706162
 20
6.074105570646739
 10
-7.585816995920191
 20
6.074015941122557
 10
-7.586356000866986
 20
6.073925902331142
 10
-7.586895005813782
 20
6.073746234015543
 10
-7.587344381236395
 20
6.073566565699945
 10
-7.587793347391774
 20
6.073297267860164
 10
-7.588602059445584
 20
6.072578185330536
 10
-7.588781727761182
 20
6.072398517014938
 10
-7.588871766552598
 20
6.072218848699339
 10
-7.58896139607678
 20
6.072039180383741
 10
-7.589051025600963
 20
6.071949550859559
 10
-7.58914106439238
 20
6.071769882543961
 10
-7.589230693916562
 20
6.071679843752544
 10
-7.589320732707977
 20
6.071500175436946
 10
-7.589410771499394
 20
6.071410545912764
 10
-7.589590439814992
 20
6.071230877597165
 10
-7.589680069339174
 20
6.071140838805749
 10
-7.589770108130591
 20
6.070961170490151
 10
-7.589859737654773
 20
6.070871131698734
 10
-7.590039405970371
 20
6.070781502174552
 10
-7.590129444761787
 20
6.070691463383136
 10
-7.590398742601568
 20
6.070511795067538
 10
-7.598125298706768
 20
6.070511795067538
 10
-7.579887122970976
 20
6.09315245843634
 10
-7.579797493446794
 20
6.09315245843634
  0
LWPOLYLINE
  5
42AB
330
4220
100
AcDbEntity
  8
IMAGE
  6
0
100
AcDbPolyline
 90
       71
 70
     1
 43
0.0
 10
-7.548441893603384
 20
6.09315245843634
 10
-7.541344381236395
 20
6.09315245843634
 10
-7.540086293759974
 20
6.083000175436946
 10
-7.540086293759974
 20
6.082820507121348
 10
-7.539996664235791
 20
6.082640838805749
 10
-7.539906625444375
 20
6.082640838805749
 10
-7.539816995920192
 20
6.082550800014333
 10
-7.539726957128776
 20
6.082550800014333
 10
-7.539637327604594
 20
6.082640838805749
 10
-7.539547288813178
 20
6.082730877597165
 10
-7.539457659288995
 20
6.082820507121348
 10
-7.539367620497579
 20
6.08291013664553
 10
-7.539277990973397
 20
6.083089804961128
 10
-7.539187952181981
 20
6.083179843752544
 10
-7.539097913390565
 20
6.083359512068142
 10
-7.539008283866382
 20
6.083449550859558
 10
-7.5389186543422
 20
6.083539180383741
 10
-7.538738576759368
 20
6.083808887490755
 10
-7.538738576759368
 20
6.083988555806354
 10
-7.538648947235186
 20
6.084257853646135
 10
-7.53855890844377
 20
6.084527560753149
 10
-7.538469278919587
 20
6.084707229068747
 10
-7.538379240128171
 20
6.084976526908529
 10
-7.538289610603989
 20
6.08515660449136
 10
-7.538199571812573
 20
6.085336272806959
 10
-7.53810994228839
 20
6.085515941122557
 10
-7.538019903496975
 20
6.085695609438156
 10
-7.537930273972792
 20
6.085875277753754
 10
-7.537840235181376
 20
6.086054946069352
 10
-7.537660566865778
 20
6.086234614384951
 10
-7.537570937341596
 20
6.086414282700549
 10
-7.537480898550179
 20
6.086593951016148
 10
-7.537211191443165
 20
6.08704332643876
 10
-7.537031523127566
 20
6.087402663069958
 10
-7.536762225287786
 20
6.087851629225337
 10
-7.536582556972187
 20
6.088210965856533
 10
-7.536312849865173
 20
6.088660341279147
 10
-7.536133181549574
 20
6.089109307434525
 10
-7.535953513233976
 20
6.089469053332956
 10
-7.535773844918377
 20
6.089828389964154
 10
-7.535594176602779
 20
6.090277356119532
 10
-7.535324878762998
 20
6.090637102017963
 10
-7.535145210447399
 20
6.090996438649159
 10
-7.534965132864567
 20
6.091355775280357
 10
-7.534695835024787
 20
6.091715111911553
 10
-7.534516166709188
 20
6.09207444854275
 10
-7.534246459602174
 20
6.092433785173946
 10
-7.533617825131196
 20
6.09315245843634
 10
-7.526879240128171
 20
6.09315245843634
 10
-7.532988781392985
 20
6.080844155649764
 10
-7.538469278919587
 20
6.070601833858954
 10
-7.545207454655378
 20
6.070511795067538
 10
-7.546375503340385
 20
6.081472790120742
 10
-7.546465542131802
 20
6.081472790120742
 10
-7.546465542131802
 20
6.081562828912159
 10
-7.546555171655984
 20
6.081562828912159
 10
-7.546555171655984
 20
6.081652458436341
 10
-7.546644801180166
 20
6.081652458436341
 10
-7.546644801180166
 20
6.081742497227756
 10
-7.546734839971582
 20
6.081742497227756
 10
-7.546734839971582
 20
6.081832126751939
 10
-7.546824469495764
 20
6.081832126751939
 10
-7.54691450828718
 20
6.081832126751939
 10
-7.547004547078596
 20
6.081922165543355
 10
-7.55275434244498
 20
6.070601833858954
 10
-7.559582556972187
 20
6.070511795067538
 10
-7.54880123023458
 20
6.09315245843634
 10
-7.548711600710398
 20
6.09315245843634
 10
-7.548621561918982
 20
6.09315245843634
 10
-7.548531523127566
 20
6.09315245843634
 10
-7.548441893603384
 20
6.09315245843634
  0
LWPOLYLINE
  5
42AC
330
4220
100
AcDbEntity
  8
IMAGE
  6
0
100
AcDbPolyline
 90
       38
 70
     1
 43
0.0
 10
-7.560570528074361
 20
6.09315245843634
 10
-7.553742722814387
 20
6.09315245843634
 10
-7.564883386183191
 20
6.070511795067538
 10
-7.57180123023458
 20
6.070511795067538
 10
-7.57180123023458
 20
6.071140838805749
 10
-7.571621561918981
 20
6.071769882543961
 10
-7.571441893603383
 20
6.072398517014938
 10
-7.571262225287785
 20
6.07302756075315
 10
-7.570902888656588
 20
6.07365660449136
 10
-7.570633181549573
 20
6.074195609438156
 10
-7.570273844918377
 20
6.074824243909134
 10
-7.56991450828718
 20
6.075453287647345
 10
-7.569555171655983
 20
6.076082331385556
 10
-7.569195835024786
 20
6.076621336332351
 10
-7.568836498393589
 20
6.077250380070563
 10
-7.568566791286575
 20
6.07787901454154
 10
-7.568207454655378
 20
6.078508058279751
 10
-7.567937747548364
 20
6.079226731542145
 10
-7.567398742601568
 20
6.080574448542749
 10
-7.567039405970372
 20
6.081293121805144
 10
-7.566590439814993
 20
6.082101833858954
 10
-7.566231103183795
 20
6.08291013664553
 10
-7.565781727761183
 20
6.08371884869934
 10
-7.565422391129986
 20
6.084437521961733
 10
-7.564973015707373
 20
6.085246234015543
 10
-7.564613679076176
 20
6.086054946069352
 10
-7.564164712920797
 20
6.086863658123162
 10
-7.563804967022366
 20
6.087582331385556
 10
-7.56344563039117
 20
6.088391043439366
 10
-7.56299666423579
 20
6.089199346225941
 10
-7.562637327604594
 20
6.089918019488336
 10
-7.562187952181981
 20
6.090726731542146
 10
-7.561828615550783
 20
6.091535443595955
 10
-7.560930273972791
 20
6.09315245843634
 10
-7.560840235181376
 20
6.09315245843634
 10
-7.560750605657194
 20
6.09315245843634
 10
-7.560660566865777
 20
6.09315245843634
 10
-7.560570528074361
 20
6.09315245843634
  0
LWPOLYLINE
  5
42AD
330
4220
100
AcDbEntity
  8
IMAGE
  6
0
100
AcDbPolyline
 90
      126
 70
     0
 43
0.0
 10
-7.608367620497578
 20
6.101508058279751
 10
-7.60737924012817
 20
6.101418428755569
 10
-7.606390859758762
 20
6.101328389964153
 10
-7.605312849865171
 20
6.101418428755569
 10
-7.604234839971581
 20
6.101418428755569
 10
-7.603066791286575
 20
6.101508058279751
 10
-7.601988781392984
 20
6.101508058279751
 10
-7.600820732707977
 20
6.101597687803933
 10
-7.599742722814387
 20
6.101597687803933
 10
-7.598664303653563
 20
6.101597687803933
 10
-7.597586293759972
 20
6.101508058279751
 10
-7.596508283866381
 20
6.101418428755569
 10
-7.595430273972791
 20
6.101238351172736
 10
-7.594441893603383
 20
6.10087901454154
 10
-7.593453513233975
 20
6.100519677910343
 10
-7.59165683007799
 20
6.099441668016752
 10
-7.591387122970976
 20
6.098992292594139
 10
-7.591027786339779
 20
6.098453287647345
 10
-7.590758079232765
 20
6.098003912224732
 10
-7.590488781392984
 20
6.097554946069353
 10
-7.590309113077386
 20
6.097015941122557
 10
-7.590129444761787
 20
6.096476936175761
 10
-7.590039405970371
 20
6.095937521961733
 10
-7.589949776446188
 20
6.095398926282172
 10
-7.589859737654773
 20
6.094859512068143
 10
-7.589859737654773
 20
6.094320507121347
 10
-7.589859737654773
 20
6.093781502174552
 10
-7.589859737654773
 20
6.093242087960523
 10
-7.589949776446188
 20
6.092703083013728
 10
-7.590039405970371
 20
6.092164078066932
 10
-7.590219074285969
 20
6.091176106964757
 10
-7.590398742601568
 20
6.090367394910948
 10
-7.590668449708583
 20
6.089648312381321
 10
-7.590938156815597
 20
6.088929639118926
 10
-7.591207454655378
 20
6.088301004647949
 10
-7.591566791286575
 20
6.087671960909738
 10
-7.591926127917772
 20
6.08704332643876
 10
-7.592375503340385
 20
6.086503912224732
 10
-7.592734839971581
 20
6.085964907277936
 10
-7.593273844918376
 20
6.085515941122557
 10
-7.593723220340989
 20
6.085066565699944
 10
-7.594262225287785
 20
6.084617190277331
 10
-7.59480123023458
 20
6.084257853646135
 10
-7.595340235181375
 20
6.083898517014938
 10
-7.595969278919587
 20
6.083539180383741
 10
-7.597137327604593
 20
6.083000175436946
 10
-7.59749666423579
 20
6.082820507121348
 10
-7.597765962075571
 20
6.082730877597165
 10
-7.598125298706768
 20
6.082640838805749
 10
-7.598395005813782
 20
6.082550800014333
 10
-7.598664303653563
 20
6.082461170490151
 10
-7.598934010760577
 20
6.082371131698734
 10
-7.599293347391774
 20
6.082281502174552
 10
-7.599563054498788
 20
6.082191463383136
 10
-7.599832352338569
 20
6.082101833858954
 10
-7.600102059445584
 20
6.082011795067537
 10
-7.600371357285364
 20
6.082011795067537
 10
-7.600641064392378
 20
6.081922165543355
 10
-7.600910771499393
 20
6.081922165543355
 10
-7.601180069339174
 20
6.081922165543355
 10
-7.601629444761787
 20
6.081922165543355
 10
-7.601988781392984
 20
6.081562828912159
 10
-7.602168449708582
 20
6.081293121805144
 10
-7.602258079232765
 20
6.080933785173948
 10
-7.60234811802418
 20
6.080574448542749
 10
-7.60234811802418
 20
6.080215111911553
 10
-7.602258079232765
 20
6.079765736488941
 10
-7.602168449708582
 20
6.079406399857743
 10
-7.602078410917166
 20
6.078957024435131
 10
-7.601898742601568
 20
6.078508058279751
 10
-7.601719074285969
 20
6.078059092124372
 10
-7.601629444761787
 20
6.077609307434526
 10
-7.601449776446188
 20
6.077160341279147
 10
-7.60127010813059
 20
6.076711375123767
 10
-7.601090439814991
 20
6.076261999701155
 10
-7.600910771499393
 20
6.075453287647345
 10
-7.600910771499393
 20
6.075093951016148
 10
-7.600820732707977
 20
6.074824243909134
 10
-7.600731103183795
 20
6.07455453680212
 10
-7.600641064392378
 20
6.074285238962338
 10
-7.600551025600963
 20
6.074015941122557
 10
-7.600461396076781
 20
6.07365660449136
 10
-7.600461396076781
 20
6.073386897384346
 10
-7.600371357285364
 20
6.07302756075315
 10
-7.600281727761182
 20
6.072757853646135
 10
-7.600191688969766
 20
6.072488555806354
 10
-7.600102059445584
 20
6.072129219175157
 10
-7.600102059445584
 20
6.071859512068143
 10
-7.600012020654167
 20
6.071500175436946
 10
-7.599922391129985
 20
6.071230877597165
 10
-7.599652684022971
 20
6.070691463383136
 10
-7.606660566865776
 20
6.070511795067538
 10
-7.610164712920796
 20
6.080933785173948
 10
-7.615824878762996
 20
6.070691463383136
 10
-7.624090439814991
 20
6.070511795067538
 10
-7.62373069391656
 20
6.071859512068143
 10
-7.623191688969765
 20
6.073207229068747
 10
-7.62265268402297
 20
6.074644575593535
 10
-7.622113679076175
 20
6.075992292594141
 10
-7.621395005813782
 20
6.077430048386161
 10
-7.620765962075569
 20
6.078777356119532
 10
-7.620047288813176
 20
6.080215111911553
 10
-7.619328615550783
 20
6.081652458436341
 10
-7.618519903496973
 20
6.083000175436946
 10
-7.617801230234579
 20
6.084437521961733
 10
-7.61699251818077
 20
6.085875277753754
 10
-7.616273844918376
 20
6.087312624278541
 10
-7.615555171655982
 20
6.088660341279147
 10
-7.614836498393589
 20
6.090098097071168
 10
-7.613398742601567
 20
6.092972790120742
 10
-7.613129444761787
 20
6.093511795067537
 10
-7.61277010813059
 20
6.094050800014333
 10
-7.612500401023575
 20
6.094589804961128
 10
-7.612231103183795
 20
6.095218848699339
 10
-7.61196139607678
 20
6.095757853646134
 10
-7.611691688969766
 20
6.096296858592929
 10
-7.611422391129985
 20
6.096836272806958
 10
-7.611152684022971
 20
6.097464907277936
 10
-7.61088338618319
 20
6.098003912224732
 10
-7.610613679076175
 20
6.098543326438761
 10
-7.610343971969161
 20
6.099082331385556
 10
-7.610074674129379
 20
6.099531297540935
 10
-7.609715337498183
 20
6.100070711754964
 10
-7.609356000866986
 20
6.100519677910343
 10
-7.608547288813176
 20
6.101508058279751
 10
-7.608457659288994
 20
6.101508058279751
  0
LWPOLYLINE
  5
42AE
330
4220
100
AcDbEntity
  8
IMAGE
  6
0
100
AcDbPolyline
 90
      126
 70
     0
 43
0.0
 10
-7.511875503340386
 20
6.084976526908529
 10
-7.511875503340386
 20
6.085066565699944
 10
-7.511875503340386
 20
6.08515660449136
 10
-7.511695835024787
 20
6.085336272806959
 10
-7.509719074285971
 20
6.084886897384346
 10
-7.509629444761789
 20
6.084886897384346
 10
-7.509539405970373
 20
6.084886897384346
 10
-7.50944977644619
 20
6.084886897384346
 10
-7.50944977644619
 20
6.084976526908529
 10
-7.509359737654774
 20
6.084976526908529
 10
-7.509270108130592
 20
6.085066565699944
 10
-7.509180069339176
 20
6.08515660449136
 10
-7.509719074285971
 20
6.085695609438156
 10
-7.510168449708584
 20
6.086324653176367
 10
-7.510617825131197
 20
6.086863658123162
 10
-7.511066791286576
 20
6.08749229259414
 10
-7.511516166709188
 20
6.088121336332351
 10
-7.512055171655984
 20
6.088750380070562
 10
-7.512504547078597
 20
6.08937901454154
 10
-7.513043552025393
 20
6.09000805827975
 10
-7.513582556972187
 20
6.090637102017963
 10
-7.514211600710399
 20
6.091176106964757
 10
-7.514750605657194
 20
6.09180515070297
 10
-7.515379240128172
 20
6.092344155649764
 10
-7.516008283866383
 20
6.09288316059656
 10
-7.516637327604594
 20
6.093332126751939
 10
-7.518074674129382
 20
6.094320507121347
 10
-7.531910771499394
 20
6.100699346225941
 10
-7.525172186496369
 20
6.099710965856534
 10
-7.525531523127567
 20
6.100699346225941
 10
-7.522836498393591
 20
6.100070711754964
 10
-7.522746459602174
 20
6.100070711754964
 10
-7.522656830077992
 20
6.100160341279146
 10
-7.522656830077992
 20
6.100250380070562
 10
-7.522566791286576
 20
6.100340009594744
 10
-7.522566791286576
 20
6.100430048386161
 10
-7.522566791286576
 20
6.100519677910343
 10
-7.522566791286576
 20
6.100609716701759
 10
-7.522566791286576
 20
6.100699346225941
 10
-7.522477161762394
 20
6.10087901454154
 10
-7.521309113077387
 20
6.100968644065722
 10
-7.521219074285971
 20
6.101058682857138
 10
-7.521219074285971
 20
6.101148721648554
 10
-7.521219074285971
 20
6.101238351172736
 10
-7.521219074285971
 20
6.101328389964153
 10
-7.521219074285971
 20
6.101418428755569
 10
-7.521219074285971
 20
6.101508058279751
 10
-7.521129444761789
 20
6.101508058279751
 10
-7.521129444761789
 20
6.101597687803933
 10
-7.52094977644619
 20
6.10168772659535
 10
-7.520859737654774
 20
6.10168772659535
 10
-7.520770108130592
 20
6.10168772659535
 10
-7.520680069339176
 20
6.10168772659535
 10
-7.520590439814993
 20
6.10168772659535
 10
-7.520590439814993
 20
6.101777356119532
 10
-7.520500401023577
 20
6.101777356119532
 10
-7.520410362232161
 20
6.101867394910948
 10
-7.520320732707979
 20
6.101957433702364
 10
-7.520320732707979
 20
6.102047063226546
 10
-7.520320732707979
 20
6.102137102017962
 10
-7.520320732707979
 20
6.102226731542145
 10
-7.520320732707979
 20
6.102316361066328
 10
-7.520410362232161
 20
6.102316361066328
 10
-7.520410362232161
 20
6.102406399857743
 10
-7.520500401023577
 20
6.102496438649159
 10
-7.520500401023577
 20
6.102586068173342
 10
-7.520590439814993
 20
6.102676106964758
 10
-7.520590439814993
 20
6.102765736488939
 10
-7.520680069339176
 20
6.102855775280357
 10
-7.520680069339176
 20
6.102945404804538
 10
-7.520680069339176
 20
6.103215111911553
 10
-7.520680069339176
 20
6.103304741435735
 10
-7.520590439814993
 20
6.103394780227151
 10
-7.520500401023577
 20
6.103394780227151
 10
-7.520410362232161
 20
6.103484409751334
 10
-7.520320732707979
 20
6.103484409751334
 10
-7.520231103183796
 20
6.103484409751334
 10
-7.520051434868198
 20
6.103574448542749
 10
-7.520051434868198
 20
6.103664078066932
 10
-7.520051434868198
 20
6.103754116858349
 10
-7.519961396076782
 20
6.103754116858349
 10
-7.519961396076782
 20
6.103844155649764
 10
-7.519961396076782
 20
6.103933785173946
 10
-7.519871357285365
 20
6.103933785173946
 10
-7.519781727761183
 20
6.104113453489545
 10
-7.521398742601569
 20
6.107976936175761
 10
-7.52094977644619
 20
6.107437931228966
 10
-7.520410362232161
 20
6.106898517014938
 10
-7.519871357285365
 20
6.10626988254396
 10
-7.519332352338571
 20
6.105640838805748
 10
-7.518793347391775
 20
6.104922165543356
 10
-7.51825434244498
 20
6.104293121805143
 10
-7.517804967022367
 20
6.103574448542749
 10
-7.517265962075572
 20
6.102855775280357
 10
-7.516726957128777
 20
6.102047063226546
 10
-7.516277990973398
 20
6.101328389964153
 10
-7.515738576759368
 20
6.100609716701759
 10
-7.515289610603989
 20
6.099801004647949
 10
-7.514750605657194
 20
6.099082331385556
 10
-7.514301230234581
 20
6.098363658123162
 10
-7.513312849865173
 20
6.097015941122557
 10
-7.504957659288996
 20
6.09207444854275
 10
-7.504957659288996
 20
6.092164078066932
 10
-7.504957659288996
 20
6.092254116858348
 10
-7.50486762049758
 20
6.092254116858348
 10
-7.50486762049758
 20
6.092344155649764
 10
-7.50486762049758
 20
6.092433785173946
 10
-7.504777581706164
 20
6.092433785173946
 10
-7.504687952181982
 20
6.092613453489545
 10
-7.505316995920193
 20
6.093691463383136
 10
-7.505316995920193
 20
6.093781502174552
 10
-7.505226957128777
 20
6.093781502174552
 10
-7.505226957128777
 20
6.093871131698734
 10
-7.505137327604595
 20
6.093871131698734
 10
-7.505047288813178
 20
6.093961170490151
 10
-7.504957659288996
 20
6.093961170490151
 10
-7.50486762049758
 20
6.093961170490151
 10
-7.504777581706164
 20
6.093961170490151
 10
-7.504687952181982
 20
6.093961170490151
 10
-7.504598322657799
 20
6.093961170490151
 10
-7.504508283866384
 20
6.093961170490151
 10
-7.504418654342201
 20
6.093961170490151
 10
-7.504328615550785
 20
6.094050800014333
 10
-7.504148947235186
 20
6.094140838805748
 10
-7.504148947235186
 20
6.094230468329931
 10
-7.504148947235186
 20
6.094320507121347
  0
LWPOLYLINE
  5
42AF
330
4220
100
AcDbEntity
  8
IMAGE
  6
0
100
AcDbPolyline
 90
      126
 70
     0
 43
0.0
 10
-7.504508283866384
 20
6.111660341279145
 10
-7.503879240128172
 20
6.110582331385555
 10
-7.503160566865778
 20
6.109683989807563
 10
-7.502262225287786
 20
6.108785238962337
 10
-7.501363883709794
 20
6.107886897384346
 10
-7.500465132864568
 20
6.107078185330536
 10
-7.499566791286576
 20
6.10626988254396
 10
-7.498578410917168
 20
6.10546117049015
 10
-7.497680069339176
 20
6.104652458436341
 10
-7.496781727761184
 20
6.103844155649764
 10
-7.495883386183192
 20
6.102945404804538
 10
-7.495074674129382
 20
6.102047063226546
 10
-7.494356000866988
 20
6.101148721648554
 10
-7.493726957128777
 20
6.100070711754964
 10
-7.493187952181981
 20
6.098992292594139
 10
-7.492469278919588
 20
6.096566565699943
 10
-7.492738576759369
 20
6.096117599544565
 10
-7.492918245074967
 20
6.095668224121952
 10
-7.493097913390566
 20
6.095308887490755
 10
-7.493277990973398
 20
6.094949141592325
 10
-7.493547288813179
 20
6.094589804961128
 10
-7.493726957128777
 20
6.094230468329931
 10
-7.493996664235791
 20
6.093961170490151
 10
-7.49417633255139
 20
6.093601833858953
 10
-7.494445630391171
 20
6.093332126751939
 10
-7.494715337498186
 20
6.092972790120742
 10
-7.4949850446052
 20
6.092703083013728
 10
-7.495164712920798
 20
6.092344155649764
 10
-7.495434010760579
 20
6.091984409751334
 10
-7.49570330860036
 20
6.091625073120138
 10
-7.496152684022972
 20
6.090906399857743
 10
-7.496242722814389
 20
6.090816361066328
 10
-7.496332352338571
 20
6.090726731542146
 10
-7.496422391129987
 20
6.090637102017963
 10
-7.496512020654169
 20
6.090547063226547
 10
-7.496602059445586
 20
6.090457433702365
 10
-7.498578410917168
 20
6.086144575593535
 10
-7.498488781392986
 20
6.085875277753754
 10
-7.498399151868803
 20
6.085605570646739
 10
-7.498219074285971
 20
6.085336272806959
 10
-7.498039405970373
 20
6.08515660449136
 10
-7.497859737654774
 20
6.084976526908529
 10
-7.497680069339176
 20
6.084707229068747
 10
-7.497500401023578
 20
6.084617190277331
 10
-7.497230693916563
 20
6.084437521961733
 10
-7.497051025600964
 20
6.084257853646135
 10
-7.496781727761184
 20
6.084168224121953
 10
-7.496512020654169
 20
6.083988555806354
 10
-7.496242722814389
 20
6.083898517014938
 10
-7.495973015707374
 20
6.083808887490755
 10
-7.49570330860036
 20
6.083808887490755
 10
-7.495074674129382
 20
6.08371884869934
 10
-7.4949850446052
 20
6.083628809907923
 10
-7.494895005813783
 20
6.083628809907923
 10
-7.494715337498186
 20
6.083628809907923
 10
-7.494625298706769
 20
6.083628809907923
 10
-7.494535669182587
 20
6.083628809907923
 10
-7.494356000866988
 20
6.083628809907923
 10
-7.494265962075572
 20
6.083539180383741
 10
-7.49417633255139
 20
6.083539180383741
 10
-7.494086293759974
 20
6.083539180383741
 10
-7.493996664235791
 20
6.083449550859558
 10
-7.493906625444376
 20
6.083449550859558
 10
-7.493816995920193
 20
6.083449550859558
 10
-7.493726957128777
 20
6.083359512068142
 10
-7.493637327604594
 20
6.083359512068142
 10
-7.493457659288996
 20
6.08326988254396
 10
-7.493097913390566
 20
6.083000175436946
 10
-7.492738576759369
 20
6.082730877597165
 10
-7.492469278919588
 20
6.082371131698734
 10
-7.49228961060399
 20
6.082011795067537
 10
-7.492109942288391
 20
6.081652458436341
 10
-7.491930273972793
 20
6.081203083013727
 10
-7.491840235181377
 20
6.080754116858348
 10
-7.491660566865778
 20
6.080304741435735
 10
-7.491570937341596
 20
6.079855775280356
 10
-7.491391269025998
 20
6.079406399857743
 10
-7.491301230234582
 20
6.079047063226546
 10
-7.491031523127567
 20
6.078597687803934
 10
-7.490852264079203
 20
6.078238351172737
 10
-7.490582556972188
 20
6.07787901454154
 10
-7.489683806126962
 20
6.077430048386161
 10
-7.489773844918379
 20
6.077340009594745
 10
-7.489863883709794
 20
6.077250380070563
 10
-7.489953513233976
 20
6.077160341279147
 10
-7.490043552025393
 20
6.077160341279147
 10
-7.490223220340991
 20
6.077160341279147
 10
-7.490312849865174
 20
6.077160341279147
 10
-7.49040288865659
 20
6.077160341279147
 10
-7.490582556972188
 20
6.077160341279147
 10
-7.490672186496371
 20
6.077160341279147
 10
-7.490852264079203
 20
6.077160341279147
 10
-7.490941893603385
 20
6.077160341279147
 10
-7.491121561918983
 20
6.077160341279147
 10
-7.491211191443166
 20
6.077160341279147
 10
-7.491391269025998
 20
6.077160341279147
 10
-7.491570937341596
 20
6.077250380070563
 10
-7.491750605657195
 20
6.077160341279147
 10
-7.491840235181377
 20
6.077160341279147
 10
-7.491930273972793
 20
6.07707030248773
 10
-7.492019903496975
 20
6.076980672963548
 10
-7.492019903496975
 20
6.076890634172132
 10
-7.492109942288391
 20
6.07680100464795
 10
-7.492109942288391
 20
6.076711375123767
 10
-7.492109942288391
 20
6.076621336332351
 10
-7.492109942288391
 20
6.076441668016753
 10
-7.492109942288391
 20
6.076351629225337
 10
-7.492109942288391
 20
6.076261999701155
 10
-7.492109942288391
 20
6.076171960909738
 10
-7.492109942288391
 20
6.075992292594141
 10
-7.492648947235187
 20
6.076441668016753
 10
-7.493097913390566
 20
6.076890634172132
 10
-7.493547288813179
 20
6.077340009594745
 10
-7.493996664235791
 20
6.077789385017358
 10
-7.494535669182587
 20
6.078148721648555
 10
-7.4949850446052
 20
6.078597687803934
 10
-7.495524049551995
 20
6.078957024435131
 10
-7.49606305449879
 20
6.079226731542145
 10
-7.496602059445586
 20
6.079496029381926
 10
-7.497141064392381
 20
6.079765736488941
 10
-7.497770108130592
 20
6.080035443595955
 10
-7.498399151868803
 20
6.080215111911553
 10
-7.499027786339781
 20
6.080304741435735
 10
-7.499656830077992
 20
6.080394780227152
 10
-7.50109417660278
 20
6.080484409751334
 10
-7.501273844918378
 20
6.080394780227152
  0
LWPOLYLINE
  5
42B0
330
4220
100
AcDbEntity
  8
IMAGE
  6
0
100
AcDbPolyline
 90
       91
 70
     0
 43
0.0
 10
-7.501273844918378
 20
6.080394780227152
 10
-7.501363883709794
 20
6.080304741435735
 10
-7.501543552025393
 20
6.080304741435735
 10
-7.501633181549575
 20
6.080304741435735
 10
-7.50172322034099
 20
6.080215111911553
 10
-7.50190288865659
 20
6.080215111911553
 10
-7.501992518180772
 20
6.080215111911553
 10
-7.502082556972188
 20
6.080215111911553
 10
-7.50217218649637
 20
6.080215111911553
 10
-7.502262225287786
 20
6.080125073120138
 10
-7.502351854811968
 20
6.080125073120138
 10
-7.502531523127567
 20
6.080125073120138
 10
-7.502621561918982
 20
6.080035443595955
 10
-7.502711600710399
 20
6.079945404804539
 10
-7.502801230234581
 20
6.079855775280356
 10
-7.503609942288392
 20
6.079316770333561
 10
-7.504238576759369
 20
6.078777356119532
 10
-7.50486762049758
 20
6.078059092124372
 10
-7.505406625444375
 20
6.077340009594745
 10
-7.50594563039117
 20
6.076531297540936
 10
-7.5064850446052
 20
6.075722994754359
 10
-7.507024049551995
 20
6.074914282700549
 10
-7.50756305449879
 20
6.074105570646739
 10
-7.508191688969768
 20
6.073386897384346
 10
-7.508820732707979
 20
6.072668224121952
 10
-7.50944977644619
 20
6.072129219175157
 10
-7.510168449708584
 20
6.071589804961128
 10
-7.510977161762394
 20
6.071230877597165
 10
-7.511875503340386
 20
6.071050800014333
 10
-7.513851854811968
 20
6.071140838805749
 10
-7.515109942288391
 20
6.071679843752544
 10
-7.516187952181981
 20
6.072218848699339
 10
-7.517265962075572
 20
6.07284789243755
 10
-7.518343971969162
 20
6.073476526908528
 10
-7.519422391129987
 20
6.074105570646739
 10
-7.520410362232161
 20
6.074824243909134
 10
-7.521398742601569
 20
6.075453287647345
 10
-7.522387122970977
 20
6.076082331385556
 10
-7.523375503340385
 20
6.07680100464795
 10
-7.524363883709794
 20
6.077430048386161
 10
-7.525351854811968
 20
6.078148721648555
 10
-7.526340235181376
 20
6.078777356119532
 10
-7.527328615550785
 20
6.079406399857743
 10
-7.528316995920192
 20
6.080125073120138
 10
-7.530293347391775
 20
6.081383160596559
 10
-7.529934010760578
 20
6.081472790120742
 10
-7.529484635337965
 20
6.081652458436341
 10
-7.52894563039117
 20
6.081652458436341
 10
-7.528496664235791
 20
6.081652458436341
 10
-7.528047288813178
 20
6.081562828912159
 10
-7.527598322657799
 20
6.081472790120742
 10
-7.52705890844377
 20
6.081383160596559
 10
-7.52660994228839
 20
6.081293121805144
 10
-7.526160566865778
 20
6.081113453489545
 10
-7.525621561918983
 20
6.080933785173948
 10
-7.525172186496369
 20
6.080754116858348
 10
-7.52472322034099
 20
6.080574448542749
 10
-7.524273844918377
 20
6.080394780227152
 10
-7.523734839971583
 20
6.080304741435735
 10
-7.522836498393591
 20
6.080125073120138
 10
-7.524453513233976
 20
6.082281502174552
 10
-7.524184215394195
 20
6.082371131698734
 10
-7.523914508287181
 20
6.082461170490151
 10
-7.523555171655984
 20
6.082461170490151
 10
-7.523195835024787
 20
6.082461170490151
 10
-7.522836498393591
 20
6.082371131698734
 10
-7.522566791286576
 20
6.082281502174552
 10
-7.522207454655379
 20
6.082101833858954
 10
-7.521848118024182
 20
6.082011795067537
 10
-7.521488781392985
 20
6.081832126751939
 10
-7.521129444761789
 20
6.081652458436341
 10
-7.520770108130592
 20
6.081472790120742
 10
-7.520410362232161
 20
6.081293121805144
 10
-7.52014106439238
 20
6.081203083013727
 10
-7.519781727761183
 20
6.081113453489545
 10
-7.51906305449879
 20
6.081023823965363
 10
-7.519152684022972
 20
6.081203083013727
 10
-7.519152684022972
 20
6.081383160596559
 10
-7.519242722814388
 20
6.081562828912159
 10
-7.519332352338571
 20
6.081652458436341
 10
-7.519422391129987
 20
6.081832126751939
 10
-7.519512020654169
 20
6.082011795067537
 10
-7.519602059445586
 20
6.082101833858954
 10
-7.519781727761183
 20
6.082281502174552
 10
-7.519871357285365
 20
6.082371131698734
 10
-7.519961396076782
 20
6.082550800014333
 10
-7.52014106439238
 20
6.082730877597165
 10
-7.520231103183796
 20
6.08291013664553
 10
-7.520320732707979
 20
6.083089804961128
 10
-7.520410362232161
 20
6.08326988254396
 10
-7.520410362232161
 20
6.083628809907923
  0
LWPOLYLINE
  5
42B1
330
4220
100
AcDbEntity
  8
IMAGE
  6
0
100
AcDbPolyline
 90
       17
 70
     1
 43
0.0
 10
-7.577910771499394
 20
6.084886897384346
 10
-7.578898742601568
 20
6.079945404804539
 10
-7.579078410917166
 20
6.079765736488941
 10
-7.579258079232765
 20
6.079676106964758
 10
-7.579348118024181
 20
6.079676106964758
 10
-7.579527786339779
 20
6.079586068173342
 10
-7.579707454655378
 20
6.079586068173342
 10
-7.579887122970976
 20
6.079586068173342
 10
-7.580066791286575
 20
6.079586068173342
 10
-7.580246459602173
 20
6.079586068173342
 10
-7.580426127917771
 20
6.079586068173342
 10
-7.58060579623337
 20
6.079586068173342
 10
-7.580785464548968
 20
6.079586068173342
 10
-7.581055171655983
 20
6.079586068173342
 10
-7.581234839971581
 20
6.079586068173342
 10
-7.581414508287179
 20
6.079586068173342
 10
-7.581773844918377
 20
6.079586068173342
  0
LWPOLYLINE
  5
42B2
330
4220
100
AcDbEntity
  8
IMAGE
  6
0
100
AcDbPolyline
 90
       32
 70
     1
 43
0.0
 10
-7.474949776446191
 20
6.082461170490151
 10
-7.470906625444376
 20
6.082371131698734
 10
-7.470726957128777
 20
6.082101833858954
 10
-7.470547288813179
 20
6.081922165543355
 10
-7.470457659288997
 20
6.081742497227756
 10
-7.470277990973398
 20
6.081472790120742
 10
-7.470187952181983
 20
6.081293121805144
 10
-7.470187952181983
 20
6.081023823965363
 10
-7.470097913390566
 20
6.080754116858348
 10
-7.470097913390566
 20
6.080574448542749
 10
-7.470097913390566
 20
6.080304741435735
 10
-7.470187952181983
 20
6.080035443595955
 10
-7.470187952181983
 20
6.079765736488941
 10
-7.470277990973398
 20
6.079496029381926
 10
-7.470367620497581
 20
6.079226731542145
 10
-7.470457659288997
 20
6.078957024435131
 10
-7.470726957128777
 20
6.078508058279751
 10
-7.471086293759975
 20
6.077969053332957
 10
-7.471445630391172
 20
6.077609307434526
 10
-7.471804967022368
 20
6.077250380070563
 10
-7.472164712920799
 20
6.076890634172132
 10
-7.472613679076178
 20
6.076711375123767
 10
-7.473063054498791
 20
6.076441668016753
 10
-7.473602059445586
 20
6.076261999701155
 10
-7.474051434868199
 20
6.076171960909738
 10
-7.474590439814994
 20
6.075992292594141
 10
-7.475129444761789
 20
6.075902663069958
 10
-7.475578820184402
 20
6.075902663069958
 10
-7.476117825131197
 20
6.075902663069958
 10
-7.476656830077993
 20
6.075812624278541
 10
-7.477195835024788
 20
6.075902663069958
 10
-7.478184215394196
 20
6.075992292594141
  0
CIRCLE
  5
42B3
330
4220
100
AcDbEntity
  8
IMAGE
100
AcDbCircle
 10
-7.396791042356015
 20
6.071076153690398
 30
0.0
 40
0.0043325966679298
  0
TEXT
  5
42B4
330
4220
100
AcDbEntity
  8
IMAGE
100
AcDbText
 10
-7.399002328002593
 20
6.068819673982895
 30
0.0
 40
0.0047432150479587
  1
R
  7
ROMANS
100
AcDbText
  0
LWPOLYLINE
  5
42B5
330
4220
100
AcDbEntity
  8
IMAGE
  6
0
100
AcDbPolyline
 90
       35
 70
     1
 43
0.0
 10
-7.468121561918984
 20
6.094589804961128
 10
-7.46470745465538
 20
6.094410545912762
 10
-7.464617825131198
 20
6.094050800014333
 10
-7.464527786339782
 20
6.093781502174552
 10
-7.464438156815599
 20
6.093511795067537
 10
-7.464438156815599
 20
6.09315245843634
 10
-7.464438156815599
 20
6.09288316059656
 10
-7.464527786339782
 20
6.092613453489545
 10
-7.464617825131198
 20
6.092344155649764
 10
-7.46470745465538
 20
6.091984409751334
 10
-7.464797084179562
 20
6.091715111911553
 10
-7.464977161762394
 20
6.091445404804538
 10
-7.465156830077993
 20
6.091176106964757
 10
-7.465246459602176
 20
6.090906399857743
 10
-7.465426127917774
 20
6.090637102017963
 10
-7.465605796233372
 20
6.090367394910948
 10
-7.465785464548971
 20
6.089918019488336
 10
-7.466145210447401
 20
6.089648312381321
 10
-7.466414508287182
 20
6.089469053332956
 10
-7.466773844918379
 20
6.089289385017358
 10
-7.467133181549575
 20
6.089109307434525
 10
-7.467492518180772
 20
6.088929639118926
 10
-7.46785185481197
 20
6.088840009594744
 10
-7.468301230234582
 20
6.088750380070562
 10
-7.468660566865779
 20
6.088660341279147
 10
-7.469109942288392
 20
6.08857030248773
 10
-7.469559317711005
 20
6.088480672963548
 10
-7.469918245074968
 20
6.088480672963548
 10
-7.470367620497581
 20
6.088480672963548
 10
-7.470816995920194
 20
6.088391043439366
 10
-7.47117633255139
 20
6.088391043439366
 10
-7.4719850446052
 20
6.088480672963548
 10
-7.468301230234582
 20
6.094589804961128
 10
-7.4682116007104
 20
6.094589804961128
 10
-7.468121561918984
 20
6.094589804961128
  0
LWPOLYLINE
  5
42B6
330
4220
100
AcDbEntity
  8
IMAGE
  6
0
100
AcDbPolyline
 90
       58
 70
     1
 43
0.0
 10
-7.602527786339779
 20
6.094949141592325
 10
-7.602258079232765
 20
6.094949141592325
 10
-7.601988781392984
 20
6.094949141592325
 10
-7.601719074285969
 20
6.094949141592325
 10
-7.601449776446188
 20
6.094949141592325
 10
-7.601090439814991
 20
6.094949141592325
 10
-7.600820732707977
 20
6.094859512068143
 10
-7.600551025600963
 20
6.094859512068143
 10
-7.600191688969766
 20
6.094859512068143
 10
-7.599922391129985
 20
6.09476988254396
 10
-7.599652684022971
 20
6.094679843752544
 10
-7.599383386183189
 20
6.094589804961128
 10
-7.599113679076175
 20
6.094500175436945
 10
-7.598843971969161
 20
6.094320507121347
 10
-7.598664303653563
 20
6.094140838805748
 10
-7.598215337498183
 20
6.093781502174552
 10
-7.598304967022365
 20
6.091086068173342
 10
-7.598664303653563
 20
6.090637102017963
 10
-7.599024049551993
 20
6.090277356119532
 10
-7.599383386183189
 20
6.089918019488336
 10
-7.599742722814387
 20
6.089558682857139
 10
-7.600102059445584
 20
6.089289385017358
 10
-7.600551025600963
 20
6.089019677910344
 10
-7.601000401023576
 20
6.088750380070562
 10
-7.60153940597037
 20
6.08857030248773
 10
-7.601988781392984
 20
6.088391043439366
 10
-7.602527786339779
 20
6.088301004647949
 10
-7.603066791286575
 20
6.088121336332351
 10
-7.603605796233369
 20
6.088031297540935
 10
-7.604145210447398
 20
6.088031297540935
 10
-7.604684215394194
 20
6.088031297540935
 10
-7.605762225287784
 20
6.088121336332351
 10
-7.605941893603382
 20
6.088391043439366
 10
-7.605941893603382
 20
6.088750380070562
 10
-7.605941893603382
 20
6.089019677910344
 10
-7.605851854811967
 20
6.08937901454154
 10
-7.605762225287784
 20
6.089828389964154
 10
-7.605582556972185
 20
6.09018772659535
 10
-7.605402888656588
 20
6.090547063226547
 10
-7.605133181549573
 20
6.090996438649159
 10
-7.604953513233975
 20
6.091355775280357
 10
-7.604684215394194
 20
6.091715111911553
 10
-7.604414508287179
 20
6.092164078066932
 10
-7.604234839971581
 20
6.092523414698129
 10
-7.603965132864566
 20
6.092972790120742
 10
-7.603785464548968
 20
6.093332126751939
 10
-7.603336498393589
 20
6.094140838805748
 10
-7.603246459602172
 20
6.094230468329931
 10
-7.603246459602172
 20
6.094320507121347
 10
-7.60315683007799
 20
6.094410545912762
 10
-7.60315683007799
 20
6.094500175436945
 10
-7.603066791286575
 20
6.094589804961128
 10
-7.603066791286575
 20
6.094679843752544
 10
-7.602977161762392
 20
6.09476988254396
 10
-7.602977161762392
 20
6.094859512068143
 10
-7.602887122970976
 20
6.094859512068143
 10
-7.60279708417956
 20
6.094859512068143
 10
-7.602527786339779
 20
6.094949141592325
  0
LWPOLYLINE
  5
42B7
330
4220
100
AcDbEntity
  8
IMAGE
  6
0
100
AcDbPolyline
 90
        3
 70
     0
 43
0.0
 10
-7.608457659288994
 20
6.101508058279751
 10
-7.608367620497578
 20
6.101508058279751
 10
-7.608367620497578
 20
6.101508058279751
  0
LWPOLYLINE
  5
42B8
330
4220
100
AcDbEntity
  8
IMAGE
  6
0
100
AcDbPolyline
 90
       39
 70
     0
 43
0.0
 10
-7.503450041326428
 20
6.097265471608703
 10
-7.503430273972793
 20
6.097285238962338
 10
-7.503070937341596
 20
6.097644575593535
 10
-7.504687952181982
 20
6.101957433702364
 10
-7.504598322657799
 20
6.101957433702364
 10
-7.504508283866384
 20
6.101957433702364
 10
-7.504418654342201
 20
6.102047063226546
 10
-7.504328615550785
 20
6.101957433702364
 10
-7.504238576759369
 20
6.101957433702364
 10
-7.504148947235186
 20
6.101957433702364
 10
-7.50405890844377
 20
6.101867394910948
 10
-7.503969278919588
 20
6.101867394910948
 10
-7.503879240128172
 20
6.101777356119532
 10
-7.503789610603989
 20
6.101777356119532
 10
-7.503699571812574
 20
6.10168772659535
 10
-7.503609942288392
 20
6.10168772659535
 10
-7.503519903496975
 20
6.101597687803933
 10
-7.503430273972793
 20
6.101597687803933
 10
-7.503160566865778
 20
6.10168772659535
 10
-7.504598322657799
 20
6.105820507121347
 10
-7.504508283866384
 20
6.105820507121347
 10
-7.504328615550785
 20
6.105820507121347
 10
-7.504238576759369
 20
6.105730468329931
 10
-7.504148947235186
 20
6.105730468329931
 10
-7.503969278919588
 20
6.105640838805748
 10
-7.503879240128172
 20
6.105551209281566
 10
-7.503789610603989
 20
6.10546117049015
 10
-7.503609942288392
 20
6.10546117049015
 10
-7.503519903496975
 20
6.105371131698734
 10
-7.503430273972793
 20
6.105281502174552
 10
-7.503250196389961
 20
6.105191463383135
 10
-7.503160566865778
 20
6.105191463383135
 10
-7.503070937341596
 20
6.105191463383135
 10
-7.502891269025997
 20
6.105191463383135
 10
-7.502531523127567
 20
6.105371131698734
 10
-7.504687952181982
 20
6.111660341279145
 10
-7.504598322657799
 20
6.111660341279145
 10
-7.504508283866384
 20
6.111660341279145
 10
-7.504508283866384
 20
6.111660341279145
  0
LWPOLYLINE
  5
42B9
330
4220
100
AcDbEntity
  8
IMAGE
  6
0
100
AcDbPolyline
 90
       10
 70
     0
 43
0.0
 10
-7.504148947235186
 20
6.094320507121347
 10
-7.50405890844377
 20
6.094320507121347
 10
-7.50405890844377
 20
6.094410545912762
 10
-7.503969278919588
 20
6.094589804961128
 10
-7.505586293759974
 20
6.09818358054033
 10
-7.505496664235791
 20
6.098273619331746
 10
-7.505496664235791
 20
6.098363658123162
 10
-7.505406625444375
 20
6.098363658123162
 10
-7.505316995920193
 20
6.098453287647345
 10
-7.503450041326428
 20
6.097265471608703
  0
VIEWPORT
  5
D4
330
421C
100
AcDbEntity
 67
     1
  8
0
100
AcDbViewport
 10
6.172388059701492
 20
4.5
 30
0.0
 40
12.34477611940298
 41
9.0
 68
     1
 69
     1
 12
6.172388059701492
 22
4.5
 13
0.0
 23
0.0
 14
0.14
 24
0.14
 15
0.14
 25
0.14
 16
0.0
 26
0.0
 36
1.0
 17
0.0
 27
0.0
 37
0.0
 42
50.0
 43
0.0
 44
0.0
 45
9.0
 50
0.0
 51
0.0
 72
   100
 90
    32800
  1

281
     0
 71
     0
 74
     0
110
0.0
120
0.0
130
0.0
111
0.0
121
0.0
131
0.0
112
0.0
122
0.0
132
0.0
 79
     0
146
0.0
  0
ENDSEC
  0
SECTION
  2
OBJECTS
  0
DICTIONARY
  5
420E
330
0
100
AcDbDictionary
281
     1
  3
ACAD_GROUP
350
420F
  3
ACAD_LAYOUT
350
421B
  3
ACAD_MLINESTYLE
350
4218
  3
ACAD_PLOTSETTINGS
350
421A
  3
ACAD_PLOTSTYLENAME
350
4210
  3
AcadDim
350
4298
  3
AcDbVariableDictionary
350
4243
  0
DICTIONARY
  5
420F
102
{ACAD_REACTORS
330
420E
102
}
330
420E
100
AcDbDictionary
281
     1
  0
DICTIONARY
  5
421B
102
{ACAD_REACTORS
330
420E
102
}
330
420E
100
AcDbDictionary
281
     1
  3
Layout1
350
421F
  3
Model
350
4223
  0
DICTIONARY
  5
4218
102
{ACAD_REACTORS
330
420E
102
}
330
420E
100
AcDbDictionary
281
     1
  3
Standard
350
4219
  0
DICTIONARY
  5
421A
102
{ACAD_REACTORS
330
420E
102
}
330
420E
100
AcDbDictionary
281
     1
  0
ACDBDICTIONARYWDFLT
  5
4210
102
{ACAD_REACTORS
330
420E
102
}
330
420E
100
AcDbDictionary
281
     1
  3
Normal
350
4211
100
AcDbDictionaryWithDefault
340
4211
  0
XRECORD
  5
4298
102
{ACAD_REACTORS
330
420E
102
}
330
420E
100
AcDbXrecord
280
     1
 90
   990106
  3

 60
     4
 61
     0
 62
     1
 63
     3
 64
     0
 65
     0
 66
     0
 67
     2
 68
     1
 69
     0
 70
     0
 71
     1
 72
     0
 40
0.0
170
     1
  0
DICTIONARY
  5
4243
102
{ACAD_REACTORS
330
420E
102
}
330
420E
100
AcDbDictionary
281
     1
  3
DIMASSOC
350
4246
  3
HIDETEXT
350
4245
  3
SORTENTS
350
4244
  0
LAYOUT
  5
421F
102
{ACAD_REACTORS
330
421B
102
}
330
421B
100
AcDbPlotSettings
  1

  2
S:\AutoCAD 2002\Plotters\1055B&WDraftShaded.pc3
  4

  6

 40
0.0
 41
0.0
 42
0.0
 43
0.0
 44
0.0
 45
0.0
 46
0.0
 47
0.0
 48
0.0
 49
0.0
140
0.0
141
0.0
142
1.0
143
1.0
 70
   688
 72
     0
 73
     0
 74
     5
  7
TRexLJ5Shaded2.ctb
 75
    16
147
1.0
148
0.0
149
0.0
100
AcDbLayout
  1
Layout1
 70
     1
 71
     1
 10
0.0
 20
0.0
 11
12.0
 21
9.0
 12
0.0
 22
0.0
 32
0.0
 14
1.000000000000000E+20
 24
1.000000000000000E+20
 34
1.000000000000000E+20
 15
-1.000000000000000E+20
 25
-1.000000000000000E+20
 35
-1.000000000000000E+20
146
0.0
 13
0.0
 23
0.0
 33
0.0
 16
1.0
 26
0.0
 36
0.0
 17
0.0
 27
1.0
 37
0.0
 76
     0
330
421C
331
D4
  0
LAYOUT
  5
4223
102
{ACAD_REACTORS
330
421B
102
}
330
421B
100
AcDbPlotSettings
  1

  2
OKI DOKI Color Laser.pc3
  4
Tabloid
  6

 40
3.174999952316284
 41
3.174999952316284
 42
3.17498779296875
 43
3.17498779296875
 44
279.3999938964843
 45
431.8000183105469
 46
0.0
 47
7.112
 48
0.0
 49
0.0
140
0.0
141
0.0
142
1.0
143
1.023930492159643
 70
 28340
 72
     0
 73
     1
 74
     0
  7
OKIColorShaded.ctb
 75
     0
147
0.9766287923419783
148
311.8131561386761
149
-9.169127809565292
100
AcDbLayout
  1
Model
 70
     1
 71
     0
 10
0.0
 20
0.0
 11
12.0
 21
9.0
 12
0.0
 22
0.0
 32
0.0
 14
0.0
 24
0.0
 34
0.0
 15
0.0
 25
0.0
 35
0.0
146
0.0
 13
0.0
 23
0.0
 33
0.0
 16
1.0
 26
0.0
 36
0.0
 17
0.0
 27
1.0
 37
0.0
 76
     0
330
4220
  0
MLINESTYLE
  5
4219
102
{ACAD_REACTORS
330
4218
102
}
330
4218
100
AcDbMlineStyle
  2
STANDARD
 70
     0
  3

 62
   256
 51
90.0
 52
90.0
 71
     2
 49
0.5
 62
   256
  6
BYLAYER
 49
-0.5
 62
   256
  6
BYLAYER
  0
ACDBPLACEHOLDER
  5
4211
102
{ACAD_REACTORS
330
4210
102
}
330
4210
  0
DICTIONARYVAR
  5
4246
102
{ACAD_REACTORS
330
4243
102
}
330
4243
100
DictionaryVariables
280
     0
  1
1
  0
DICTIONARYVAR
  5
4245
102
{ACAD_REACTORS
330
4243
102
}
330
4243
100
DictionaryVariables
280
     0
  1
1
  0
DICTIONARYVAR
  5
4244
102
{ACAD_REACTORS
330
4243
102
}
330
4243
100
DictionaryVariables
280
     0
  1
1
  0
ENDSEC
  0
EOF
