  0
SECTION
  2
HEADER
  9
$ACADVER
  1
AC1015
  9
$ACADMAINTVER
 70
    13
  9
$DWGCODEPAGE
  3
ANSI_1252
  9
$INSBASE
 10
0.0
 20
0.0
 30
0.0
  9
$EXTMIN
 10
-12.0269963835739
 20
0.6100721111733
 30
-0.0000018309708663
  9
$EXTMAX
 10
4.465030139308747
 20
11.05110679445975
 30
0.0300018312502716
  9
$LIMMIN
 10
0.0
 20
0.0
  9
$LIMMAX
 10
12.0
 20
9.0
  9
$ORTHOMODE
 70
     1
  9
$REGENMODE
 70
     1
  9
$FILLMODE
 70
     1
  9
$QTEXTMODE
 70
     0
  9
$MIRRTEXT
 70
     0
  9
$LTSCALE
 40
1.0
  9
$ATTMODE
 70
     1
  9
$TEXTSIZE
 40
0.1103
  9
$TRACEWID
 40
0.05
  9
$TEXTSTYLE
  7
ROMANS
  9
$CLAYER
  8
IMAGE
  9
$CELTYPE
  6
ByLayer
  9
$CECOLOR
 62
   256
  9
$CELTSCALE
 40
1.0
  9
$DISPSILH
 70
     0
  9
$DIMSCALE
 40
1.0
  9
$DIMASZ
 40
0.18
  9
$DIMEXO
 40
0.0625
  9
$DIMDLI
 40
0.38
  9
$DIMRND
 40
0.0
  9
$DIMDLE
 40
0.0
  9
$DIMEXE
 40
0.18
  9
$DIMTP
 40
0.0
  9
$DIMTM
 40
0.0
  9
$DIMTXT
 40
0.18
  9
$DIMCEN
 40
0.09
  9
$DIMTSZ
 40
0.0
  9
$DIMTOL
 70
     0
  9
$DIMLIM
 70
     0
  9
$DIMTIH
 70
     1
  9
$DIMTOH
 70
     1
  9
$DIMSE1
 70
     0
  9
$DIMSE2
 70
     0
  9
$DIMTAD
 70
     0
  9
$DIMZIN
 70
     0
  9
$DIMBLK
  1

  9
$DIMASO
 70
     1
  9
$DIMSHO
 70
     1
  9
$DIMPOST
  1

  9
$DIMAPOST
  1

  9
$DIMALT
 70
     0
  9
$DIMALTD
 70
     2
  9
$DIMALTF
 40
25.4
  9
$DIMLFAC
 40
1.0
  9
$DIMTOFL
 70
     0
  9
$DIMTVP
 40
0.0
  9
$DIMTIX
 70
     0
  9
$DIMSOXD
 70
     0
  9
$DIMSAH
 70
     0
  9
$DIMBLK1
  1

  9
$DIMBLK2
  1

  9
$DIMSTYLE
  2
STANDARD
  9
$DIMCLRD
 70
     0
  9
$DIMCLRE
 70
     0
  9
$DIMCLRT
 70
     0
  9
$DIMTFAC
 40
1.0
  9
$DIMGAP
 40
0.09
  9
$DIMJUST
 70
     0
  9
$DIMSD1
 70
     0
  9
$DIMSD2
 70
     0
  9
$DIMTOLJ
 70
     1
  9
$DIMTZIN
 70
     0
  9
$DIMALTZ
 70
     0
  9
$DIMALTTZ
 70
     0
  9
$DIMUPT
 70
     0
  9
$DIMDEC
 70
     4
  9
$DIMTDEC
 70
     4
  9
$DIMALTU
 70
     2
  9
$DIMALTTD
 70
     2
  9
$DIMTXSTY
  7
STANDARD
  9
$DIMAUNIT
 70
     0
  9
$DIMADEC
 70
     0
  9
$DIMALTRND
 40
0.0
  9
$DIMAZIN
 70
     0
  9
$DIMDSEP
 70
    46
  9
$DIMATFIT
 70
     3
  9
$DIMFRAC
 70
     0
  9
$DIMLDRBLK
  1

  9
$DIMLUNIT
 70
     2
  9
$DIMLWD
 70
    -2
  9
$DIMLWE
 70
    -2
  9
$DIMTMOVE
 70
     2
  9
$LUNITS
 70
     2
  9
$LUPREC
 70
     4
  9
$SKETCHINC
 40
0.1
  9
$FILLETRAD
 40
0.0
  9
$AUNITS
 70
     0
  9
$AUPREC
 70
     0
  9
$MENU
  1
c:\acad13nt\win\SUPPORT\ACAD
  9
$ELEVATION
 40
0.0
  9
$PELEVATION
 40
0.0
  9
$THICKNESS
 40
0.0
  9
$LIMCHECK
 70
     0
  9
$CHAMFERA
 40
0.0
  9
$CHAMFERB
 40
0.0
  9
$CHAMFERC
 40
0.0
  9
$CHAMFERD
 40
0.0
  9
$SKPOLY
 70
     0
  9
$TDCREATE
 40
2452284.382894641
  9
$TDUCREATE
 40
2452284.674561307
  9
$TDUPDATE
 40
2453013.687897129
  9
$TDUUPDATE
 40
2453013.979563796
  9
$TDINDWG
 40
0.0628601042
  9
$TDUSRTIMER
 40
0.0628601042
  9
$USRTIMER
 70
     1
  9
$ANGBASE
 50
0.0
  9
$ANGDIR
 70
     0
  9
$PDMODE
 70
     0
  9
$PDSIZE
 40
0.0
  9
$PLINEWID
 40
0.0
  9
$SPLFRAME
 70
     0
  9
$SPLINETYPE
 70
     6
  9
$SPLINESEGS
 70
     8
  9
$HANDSEED
  5
43DF
  9
$SURFTAB1
 70
     6
  9
$SURFTAB2
 70
     6
  9
$SURFTYPE
 70
     6
  9
$SURFU
 70
     6
  9
$SURFV
 70
     6
  9
$UCSBASE
  2

  9
$UCSNAME
  2

  9
$UCSORG
 10
0.0
 20
0.0
 30
0.0
  9
$UCSXDIR
 10
1.0
 20
0.0
 30
0.0
  9
$UCSYDIR
 10
0.0
 20
1.0
 30
0.0
  9
$UCSORTHOREF
  2

  9
$UCSORTHOVIEW
 70
     0
  9
$UCSORGTOP
 10
0.0
 20
0.0
 30
0.0
  9
$UCSORGBOTTOM
 10
0.0
 20
0.0
 30
0.0
  9
$UCSORGLEFT
 10
0.0
 20
0.0
 30
0.0
  9
$UCSORGRIGHT
 10
0.0
 20
0.0
 30
0.0
  9
$UCSORGFRONT
 10
0.0
 20
0.0
 30
0.0
  9
$UCSORGBACK
 10
0.0
 20
0.0
 30
0.0
  9
$PUCSBASE
  2

  9
$PUCSNAME
  2

  9
$PUCSORG
 10
0.0
 20
0.0
 30
0.0
  9
$PUCSXDIR
 10
1.0
 20
0.0
 30
0.0
  9
$PUCSYDIR
 10
0.0
 20
1.0
 30
0.0
  9
$PUCSORTHOREF
  2

  9
$PUCSORTHOVIEW
 70
     0
  9
$PUCSORGTOP
 10
0.0
 20
0.0
 30
0.0
  9
$PUCSORGBOTTOM
 10
0.0
 20
0.0
 30
0.0
  9
$PUCSORGLEFT
 10
0.0
 20
0.0
 30
0.0
  9
$PUCSORGRIGHT
 10
0.0
 20
0.0
 30
0.0
  9
$PUCSORGFRONT
 10
0.0
 20
0.0
 30
0.0
  9
$PUCSORGBACK
 10
0.0
 20
0.0
 30
0.0
  9
$USERI1
 70
     0
  9
$USERI2
 70
     0
  9
$USERI3
 70
     0
  9
$USERI4
 70
     0
  9
$USERI5
 70
     0
  9
$USERR1
 40
0.0
  9
$USERR2
 40
0.0
  9
$USERR3
 40
0.0
  9
$USERR4
 40
0.0
  9
$USERR5
 40
0.0
  9
$WORLDVIEW
 70
     1
  9
$SHADEDGE
 70
     3
  9
$SHADEDIF
 70
    70
  9
$TILEMODE
 70
     1
  9
$MAXACTVP
 70
    16
  9
$PINSBASE
 10
0.0
 20
0.0
 30
0.0
  9
$PLIMCHECK
 70
     0
  9
$PEXTMIN
 10
1.000000000000000E+20
 20
1.000000000000000E+20
 30
1.000000000000000E+20
  9
$PEXTMAX
 10
-1.000000000000000E+20
 20
-1.000000000000000E+20
 30
-1.000000000000000E+20
  9
$PLIMMIN
 10
0.0
 20
0.0
  9
$PLIMMAX
 10
12.0
 20
9.0
  9
$UNITMODE
 70
     0
  9
$VISRETAIN
 70
     0
  9
$PLINEGEN
 70
     1
  9
$PSLTSCALE
 70
     1
  9
$TREEDEPTH
 70
  3020
  9
$CMLSTYLE
  2
Standard
  9
$CMLJUST
 70
     0
  9
$CMLSCALE
 40
1.0
  9
$PROXYGRAPHICS
 70
     1
  9
$MEASUREMENT
 70
     0
  9
$CELWEIGHT
370
    -1
  9
$ENDCAPS
280
     0
  9
$JOINSTYLE
280
     0
  9
$LWDISPLAY
290
     0
  9
$INSUNITS
 70
     0
  9
$HYPERLINKBASE
  1

  9
$STYLESHEET
  1
OKIColorShaded.ctb
  9
$XEDIT
290
     1
  9
$CEPSNTYPE
380
     0
  9
$PSTYLEMODE
290
     1
  9
$FINGERPRINTGUID
  2
{F6561696-EEE7-44F2-8BDF-12C3D595E432}
  9
$VERSIONGUID
  2
{6F17BF17-A59D-4925-9A2A-4893535DDBB8}
  9
$EXTNAMES
290
     1
  9
$PSVPSCALE
 40
0.0
  9
$OLESTARTUP
290
     0
  0
ENDSEC
  0
SECTION
  2
CLASSES
  0
CLASS
  1
ACDBDICTIONARYWDFLT
  2
AcDbDictionaryWithDefault
  3
AutoCAD 2000
 90
        0
280
     0
281
     0
  0
CLASS
  1
ACDBPLACEHOLDER
  2
AcDbPlaceHolder
  3
AutoCAD 2000
 90
        0
280
     0
281
     0
  0
CLASS
  1
LAYOUT
  2
AcDbLayout
  3
AutoCAD 2000
 90
        0
280
     0
281
     0
  0
CLASS
  1
DICTIONARYVAR
  2
AcDbDictionaryVar
  3
AutoCAD 2000
 90
        0
280
     0
281
     0
  0
ENDSEC
  0
SECTION
  2
TABLES
  0
TABLE
  2
VPORT
  5
4301
330
0
100
AcDbSymbolTable
 70
     2
  0
VPORT
  5
43DE
330
4301
100
AcDbSymbolTableRecord
100
AcDbViewportTableRecord
  2
*Active
 70
     0
 10
0.0
 20
0.0
 11
1.0
 21
1.0
 12
-3.780501576184165
 22
5.830411509202603
 13
0.0
 23
0.0
 14
0.14
 24
0.14
 15
0.14
 25
0.14
 16
0.0
 26
0.0
 36
1.0
 17
0.0
 27
0.0
 37
0.0
 40
11.00759002067065
 41
1.505548705302096
 42
50.0
 43
0.0
 44
0.0
 50
0.0
 51
0.0
 71
     0
 72
 20000
 73
     1
 74
     1
 75
     0
 76
     0
 77
     0
 78
     0
281
     0
 65
     1
110
0.0
120
0.0
130
0.0
111
1.0
121
0.0
131
0.0
112
0.0
122
1.0
132
0.0
 79
     0
146
0.0
  0
ENDTAB
  0
TABLE
  2
LTYPE
  5
42FE
330
0
100
AcDbSymbolTable
 70
     2
  0
LTYPE
  5
430C
330
42FE
100
AcDbSymbolTableRecord
100
AcDbLinetypeTableRecord
  2
ByBlock
 70
     0
  3

 72
    65
 73
     0
 40
0.0
  0
LTYPE
  5
430D
330
42FE
100
AcDbSymbolTableRecord
100
AcDbLinetypeTableRecord
  2
ByLayer
 70
     0
  3

 72
    65
 73
     0
 40
0.0
  0
LTYPE
  5
430E
330
42FE
100
AcDbSymbolTableRecord
100
AcDbLinetypeTableRecord
  2
CONTINUOUS
 70
     0
  3
Solid line
 72
    65
 73
     0
 40
0.0
  0
LTYPE
  5
4321
330
42FE
100
AcDbSymbolTableRecord
100
AcDbLinetypeTableRecord
  2
0
 70
     0
  3
Solid Line
 72
    65
 73
     0
 40
0.0
  0
ENDTAB
  0
TABLE
  2
LAYER
  5
42FB
330
0
100
AcDbSymbolTable
 70
     7
  0
LAYER
  5
4309
330
42FB
100
AcDbSymbolTableRecord
100
AcDbLayerTableRecord
  2
0
 70
     0
 62
     7
  6
CONTINUOUS
370
    -3
390
4308
  0
LAYER
  5
4328
330
42FB
100
AcDbSymbolTableRecord
100
AcDbLayerTableRecord
  2
TEXT_BUBBLES
 70
     0
 62
     6
  6
CONTINUOUS
370
    -3
390
4308
  0
LAYER
  5
4329
330
42FB
100
AcDbSymbolTableRecord
100
AcDbLayerTableRecord
  2
IMAGE
 70
     0
 62
     7
  6
CONTINUOUS
370
    -3
390
4308
  0
LAYER
  5
432C
330
42FB
100
AcDbSymbolTableRecord
100
AcDbLayerTableRecord
  2
TEXT_LEADERS
 70
     0
 62
    -5
  6
CONTINUOUS
370
    -3
390
4308
  0
LAYER
  5
432E
330
42FB
100
AcDbSymbolTableRecord
100
AcDbLayerTableRecord
  2
INSTRUCT-CALLOUT
 70
     0
 62
     4
  6
CONTINUOUS
370
    -3
390
4308
  0
LAYER
  5
4330
330
42FB
100
AcDbSymbolTableRecord
100
AcDbLayerTableRecord
  2
DEFPOINTS
 70
     0
 62
     7
  6
CONTINUOUS
290
     0
370
    -3
390
4308
  0
LAYER
  5
4354
330
42FB
100
AcDbSymbolTableRecord
100
AcDbLayerTableRecord
  2
TITLE
 70
     0
 62
     4
  6
CONTINUOUS
370
    -3
390
4308
  0
ENDTAB
  0
TABLE
  2
STYLE
  5
42FC
330
0
100
AcDbSymbolTable
 70
     6
  0
STYLE
  5
430A
330
42FC
100
AcDbSymbolTableRecord
100
AcDbTextStyleTableRecord
  2
STANDARD
 70
     0
 40
0.0
 41
1.0
 50
0.0
 71
     0
 42
0.2
  3
txt
  4

  0
STYLE
  5
431F
330
42FC
100
AcDbSymbolTableRecord
100
AcDbTextStyleTableRecord
  2
ROMANS
 70
     0
 40
0.0
 41
1.0
 50
0.0
 71
     0
 42
0.1103
  3
romans.shx
  4

  0
STYLE
  5
4320
330
42FC
100
AcDbSymbolTableRecord
100
AcDbTextStyleTableRecord
  2
SIMPLEX
 70
     0
 40
0.0
 41
1.0
 50
0.0
 71
     0
 42
0.2
  3
SIMPLEX
  4

  0
STYLE
  5
4355
330
42FC
100
AcDbSymbolTableRecord
100
AcDbTextStyleTableRecord
  2
L100
 70
     0
 40
0.1
 41
1.0
 50
0.0
 71
     0
 42
0.1
  3
romans.shx
  4

  0
STYLE
  5
4356
330
42FC
100
AcDbSymbolTableRecord
100
AcDbTextStyleTableRecord
  2
L200
 70
     0
 40
0.2
 41
1.0
 50
0.0
 71
     0
 42
0.081
  3
ARIAL.TTF
  4

1001
ACAD
1000
Arial
1071
       34
  0
STYLE
  5
4357
330
42FC
100
AcDbSymbolTableRecord
100
AcDbTextStyleTableRecord
  2
L80
 70
     0
 40
0.08
 41
1.0
 50
0.0
 71
     0
 42
0.08
  3
ROMANS
  4

  0
ENDTAB
  0
TABLE
  2
VIEW
  5
42FF
330
0
100
AcDbSymbolTable
 70
     0
  0
ENDTAB
  0
TABLE
  2
UCS
  5
4300
330
0
100
AcDbSymbolTable
 70
     0
  0
ENDTAB
  0
TABLE
  2
APPID
  5
4302
330
0
100
AcDbSymbolTable
 70
     3
  0
APPID
  5
430B
330
4302
100
AcDbSymbolTableRecord
100
AcDbRegAppTableRecord
  2
ACAD
 70
     0
  0
APPID
  5
4323
330
4302
100
AcDbSymbolTableRecord
100
AcDbRegAppTableRecord
  2
RAK
 70
     0
  0
APPID
  5
4324
330
4302
100
AcDbSymbolTableRecord
100
AcDbRegAppTableRecord
  2
ABNSLEADERTOOLS
 70
     0
  0
ENDTAB
  0
TABLE
  2
DIMSTYLE
  5
4303
330
0
100
AcDbSymbolTable
 70
     1
100
AcDbDimStyleTable
 71
     0
  0
DIMSTYLE
105
4325
102
{ACAD_REACTORS
330
3ABF
102
}
330
4303
100
AcDbSymbolTableRecord
100
AcDbDimStyleTableRecord
  2
STANDARD
 70
     0
279
     2
340
430A
  0
ENDTAB
  0
TABLE
  2
BLOCK_RECORD
  5
42FA
330
0
100
AcDbSymbolTable
 70
     3
  0
BLOCK_RECORD
  5
4317
330
42FA
100
AcDbSymbolTableRecord
100
AcDbBlockTableRecord
  2
*Model_Space
340
431A
  0
BLOCK_RECORD
  5
4313
330
42FA
100
AcDbSymbolTableRecord
100
AcDbBlockTableRecord
  2
*Paper_Space
340
4316
  0
BLOCK_RECORD
  5
431D
330
42FA
100
AcDbSymbolTableRecord
100
AcDbBlockTableRecord
  2
*X0
340
0
102
{BLKREFS
331
3B27
102
}
  0
BLOCK_RECORD
  5
4347
330
42FA
100
AcDbSymbolTableRecord
100
AcDbBlockTableRecord
  2
TITLBLK
340
0
102
{BLKREFS
331
4358
102
}
  0
BLOCK_RECORD
  5
438F
330
42FA
100
AcDbSymbolTableRecord
100
AcDbBlockTableRecord
  2
*D2
340
0
  0
ENDTAB
  0
ENDSEC
  0
SECTION
  2
BLOCKS
  0
BLOCK
  5
4334
330
4317
100
AcDbEntity
  8
0
100
AcDbBlockBegin
  2
*Model_Space
 70
     0
 10
0.0
 20
0.0
 30
0.0
  3
*Model_Space
  1

  0
ENDBLK
  5
4335
330
4317
100
AcDbEntity
  8
0
100
AcDbBlockEnd
  0
BLOCK
  5
4332
330
4313
100
AcDbEntity
 67
     1
  8
0
100
AcDbBlockBegin
  2
*Paper_Space
 70
     0
 10
0.0
 20
0.0
 30
0.0
  3
*Paper_Space
  1

  0
ENDBLK
  5
4333
330
4313
100
AcDbEntity
 67
     1
  8
0
100
AcDbBlockEnd
  0
BLOCK
  5
3C55
330
431D
100
AcDbEntity
  8
0
100
AcDbBlockBegin
  2
*X0
 70
     1
 10
0.0
 20
0.0
 30
0.0
  3
*X0
  1

  0
LINE
  5
3C22
330
431D
100
AcDbEntity
  8
0
 62
     0
100
AcDbLine
 10
-9.546913004213752
 20
2.927783509929652
 30
0.0
 11
-9.546913004213752
 21
2.927783509929652
 31
0.0
  0
LINE
  5
3C23
330
431D
100
AcDbEntity
  8
0
 62
     0
100
AcDbLine
 10
-10.0441328401585
 20
3.383401545945653
 30
0.0
 11
-10.0441328401585
 21
3.383401545945653
 31
0.0
  0
LINE
  5
3C24
330
431D
100
AcDbEntity
  8
0
 62
     0
100
AcDbLine
 10
-9.385891797113957
 20
3.287832077831435
 30
0.0
 11
-9.385891797113957
 21
3.287832077831435
 31
0.0
  0
LINE
  5
3C25
330
431D
100
AcDbEntity
  8
0
 62
     0
100
AcDbLine
 10
-10.01110297872894
 20
3.860732573889516
 30
0.0
 11
-10.01110297872894
 21
3.860732573889516
 31
0.0
  0
LINE
  5
3C26
330
431D
100
AcDbEntity
  8
0
 62
     0
100
AcDbLine
 10
-9.111034969210681
 20
3.543569517677362
 30
0.0
 11
-9.111034969210681
 21
3.543569517677362
 31
0.0
  0
LINE
  5
3C27
330
431D
100
AcDbEntity
  8
0
 62
     0
100
AcDbLine
 10
-9.078005107781125
 20
4.020900545621223
 30
0.0
 11
-9.078005107781125
 21
4.020900545621223
 31
0.0
  0
LINE
  5
3C28
330
431D
100
AcDbEntity
  8
0
 62
     0
100
AcDbLine
 10
-9.74132305247914
 20
2.789967603335047
 30
0.0
 11
-9.74132305247914
 21
2.789967603335047
 31
0.0
  0
LINE
  5
3C29
330
431D
100
AcDbEntity
  8
0
 62
     0
100
AcDbLine
 10
-9.910001341641716
 20
2.897427525004411
 30
0.0
 11
-9.910001341641716
 21
2.897427525004411
 31
0.0
  0
LINE
  5
3C2A
330
431D
100
AcDbEntity
  8
0
 62
     0
100
AcDbLine
 10
-9.482943392703788
 20
2.879383627616906
 30
0.0
 11
-9.482943392703788
 21
2.879383627616906
 31
0.0
  0
LINE
  5
3C2B
330
431D
100
AcDbEntity
  8
0
 62
     0
100
AcDbLine
 10
-9.75421356089893
 20
3.306223805940573
 30
0.0
 11
-9.75421356089893
 21
3.306223805940573
 31
0.0
  0
LINE
  5
3C2C
330
431D
100
AcDbEntity
  8
0
 62
     0
100
AcDbLine
 10
-9.327155611961003
 20
3.28817990855307
 30
0.0
 11
-9.327155611961003
 21
3.28817990855307
 31
0.0
  0
LINE
  5
3C2D
330
431D
100
AcDbEntity
  8
0
 62
     0
100
AcDbLine
 10
-9.853431874148245
 20
3.623454864161489
 30
0.0
 11
-9.853431874148245
 21
3.623454864161489
 31
0.0
  0
LINE
  5
3C2E
330
431D
100
AcDbEntity
  8
0
 62
     0
100
AcDbLine
 10
-10.02211016331082
 20
3.730914785830854
 30
0.0
 11
-10.02211016331082
 21
3.730914785830854
 31
0.0
  0
LINE
  5
3C2F
330
431D
100
AcDbEntity
  8
0
 62
     0
100
AcDbLine
 10
-9.426373925210317
 20
3.605410966773984
 30
0.0
 11
-9.426373925210317
 21
3.605410966773984
 31
0.0
  0
LINE
  5
3C30
330
431D
100
AcDbEntity
  8
0
 62
     0
100
AcDbLine
 10
-9.167994265434966
 20
3.694826991055845
 30
0.0
 11
-9.167994265434966
 21
3.694826991055845
 31
0.0
  0
LINE
  5
3C31
330
431D
100
AcDbEntity
  8
0
 62
     0
100
AcDbLine
 10
-9.650650269921101
 20
3.046803191489695
 30
0.0
 11
-9.650650269921101
 21
3.046803191489695
 31
0.0
  0
LINE
  5
3C32
330
431D
100
AcDbEntity
  8
0
 62
     0
100
AcDbLine
 10
-9.953635819556938
 20
3.006914387147248
 30
0.0
 11
-9.953635819556938
 21
3.006914387147248
 31
0.0
  0
LINE
  5
3C33
330
431D
100
AcDbEntity
  8
0
 62
     0
100
AcDbLine
 10
-9.440194639967382
 20
3.362332560995584
 30
0.0
 11
-9.440194639967382
 21
3.362332560995584
 31
0.0
  0
LINE
  5
3C34
330
431D
100
AcDbEntity
  8
0
 62
     0
100
AcDbLine
 10
-9.743180189603219
 20
3.322443756653136
 30
0.0
 11
-9.743180189603219
 21
3.322443756653136
 31
0.0
  0
LINE
  5
3C35
330
431D
100
AcDbEntity
  8
0
 62
     0
100
AcDbLine
 10
-9.943452051600729
 20
3.296077465824686
 30
0.0
 11
-9.943452051600729
 21
3.296077465824686
 31
0.0
  0
LINE
  5
3C36
330
431D
100
AcDbEntity
  8
0
 62
     0
100
AcDbLine
 10
-9.229739010013664
 20
3.677861930501473
 30
0.0
 11
-9.229739010013664
 21
3.677861930501473
 31
0.0
  0
LINE
  5
3C37
330
431D
100
AcDbEntity
  8
0
 62
     0
100
AcDbLine
 10
-9.73299642164701
 20
3.611606835330575
 30
0.0
 11
-9.73299642164701
 21
3.611606835330575
 31
0.0
  0
LINE
  5
3C38
330
431D
100
AcDbEntity
  8
0
 62
     0
100
AcDbLine
 10
-9.322268929695782
 20
3.953502495664912
 30
0.0
 11
-9.322268929695782
 21
3.953502495664912
 31
0.0
  0
LINE
  5
3C39
330
431D
100
AcDbEntity
  8
0
 62
     0
100
AcDbLine
 10
-10.02778109304938
 20
3.860620057281124
 30
0.0
 11
-10.02778109304938
 21
3.860620057281124
 31
0.0
  0
LINE
  5
3C3A
330
431D
100
AcDbEntity
  8
0
 62
     0
100
AcDbLine
 10
-9.283021516175542
 20
2.972061043353908
 30
0.0
 11
-9.283021516175542
 21
2.972061043353908
 31
0.0
  0
LINE
  5
3C3B
330
431D
100
AcDbEntity
  8
0
 62
     0
100
AcDbLine
 10
-9.27329363192171
 20
3.238376126418957
 30
0.0
 11
-9.27329363192171
 21
3.238376126418957
 31
0.0
  0
LINE
  5
3C3C
330
431D
100
AcDbEntity
  8
0
 62
     0
100
AcDbLine
 10
-9.687106734217618
 20
2.920846165048009
 30
0.0
 11
-9.687106734217618
 21
2.920846165048009
 31
0.0
  0
LINE
  5
3C3D
330
431D
100
AcDbEntity
  8
0
 62
     0
100
AcDbLine
 10
-9.263565747667875
 20
3.504691209484008
 30
0.0
 11
-9.263565747667875
 21
3.504691209484008
 31
0.0
  0
LINE
  5
3C3E
330
431D
100
AcDbEntity
  8
0
 62
     0
100
AcDbLine
 10
-9.253837863414045
 20
3.771006292549055
 30
0.0
 11
-9.253837863414045
 21
3.771006292549055
 31
0.0
  0
LINE
  5
3C3F
330
431D
100
AcDbEntity
  8
0
 62
     0
100
AcDbLine
 10
-9.244109979160212
 20
4.037321375614105
 30
0.0
 11
-9.244109979160212
 21
4.037321375614105
 31
0.0
  0
LINE
  5
3C40
330
431D
100
AcDbEntity
  8
0
 62
     0
100
AcDbLine
 10
-10.07840035181047
 20
3.397147856868535
 30
0.0
 11
-10.07840035181047
 21
3.397147856868535
 31
0.0
  0
LINE
  5
3C41
330
431D
100
AcDbEntity
  8
0
 62
     0
100
AcDbLine
 10
-10.06867246755664
 20
3.663462939933584
 30
0.0
 11
-10.06867246755664
 21
3.663462939933584
 31
0.0
  0
LINE
  5
3C42
330
431D
100
AcDbEntity
  8
0
 62
     0
100
AcDbLine
 10
-10.0589445833028
 20
3.929778022998633
 30
0.0
 11
-10.0589445833028
 21
3.929778022998633
 31
0.0
  0
LINE
  5
3C43
330
431D
100
AcDbEntity
  8
0
 62
     0
100
AcDbLine
 10
-9.254274014774749
 20
3.570397921584334
 30
0.0
 11
-9.238052955417506
 21
3.618741243759377
 31
0.0
  0
LINE
  5
3C44
330
431D
100
AcDbEntity
  8
0
 62
     0
100
AcDbLine
 10
-9.448926732660371
 20
2.990278038798074
 30
0.0
 11
-9.432705673303129
 21
3.038621360973116
 31
0.0
  0
LINE
  5
3C45
330
431D
100
AcDbEntity
  8
0
 62
     0
100
AcDbLine
 10
-9.731799399754319
 20
3.892493407002631
 30
0.0
 11
-9.715578340397076
 21
3.940836729177673
 31
0.0
  0
LINE
  5
3C46
330
431D
100
AcDbEntity
  8
0
 62
     0
100
AcDbLine
 10
-9.926452117639941
 20
3.31237352421637
 30
0.0
 11
-9.910231058282699
 21
3.360716846391412
 31
0.0
  0
LINE
  5
3C47
330
431D
100
AcDbEntity
  8
0
 62
     0
100
AcDbLine
 10
-9.488722879937002
 20
3.017111842997289
 30
0.0
 11
-9.44892907645436
 21
2.990270583630693
 31
0.0
  0
LINE
  5
3C48
330
431D
100
AcDbEntity
  8
0
 62
     0
100
AcDbLine
 10
-9.966248521728706
 20
3.33920695539644
 30
0.0
 11
-9.926454718246064
 21
3.312365696029844
 31
0.0
  0
LINE
  5
3C49
330
431D
100
AcDbEntity
  8
0
 62
     0
100
AcDbLine
 10
-9.294070614399736
 20
3.597231879034771
 30
0.0
 11
-9.254276810917094
 21
3.570390619668175
 31
0.0
  0
LINE
  5
3C4A
330
431D
100
AcDbEntity
  8
0
 62
     0
100
AcDbLine
 10
-9.771596256191442
 20
3.919326991433922
 30
0.0
 11
-9.7318024527088
 21
3.892485732067326
 31
0.0
  0
LINE
  5
3C4B
330
431D
100
AcDbEntity
  8
0
 62
     0
100
AcDbLine
 10
-9.488722877421928
 20
3.017111844556443
 30
0.0
 11
-9.432708051832095
 21
3.038613921529161
 31
0.0
  0
LINE
  5
3C4C
330
431D
100
AcDbEntity
  8
0
 62
     0
100
AcDbLine
 10
-9.294070612038712
 20
3.59723188076133
 30
0.0
 11
-9.23805578644888
 21
3.618733957734048
 31
0.0
  0
LINE
  5
3C4D
330
431D
100
AcDbEntity
  8
0
 62
     0
100
AcDbLine
 10
-9.966248519116696
 20
3.339206957088714
 30
0.0
 11
-9.910233693526864
 21
3.360709034061432
 31
0.0
  0
LINE
  5
3C4E
330
431D
100
AcDbEntity
  8
0
 62
     0
100
AcDbLine
 10
-9.771596253733482
 20
3.919326993293601
 30
0.0
 11
-9.71558142814365
 21
3.940829070266318
 31
0.0
  0
LINE
  5
3C4F
330
431D
100
AcDbEntity
  8
0
 62
     0
100
AcDbLine
 10
-9.114307175767189
 20
3.757617867794668
 30
0.0
 11
-9.123557225247795
 21
3.807764015704527
 31
0.0
  0
LINE
  5
3C50
330
431D
100
AcDbEntity
  8
0
 62
     0
100
AcDbLine
 10
-9.688115278098354
 20
3.80782002637221
 30
0.0
 11
-9.69736532757896
 21
3.857966174282069
 31
0.0
  0
LINE
  5
3C51
330
431D
100
AcDbEntity
  8
0
 62
     0
100
AcDbLine
 10
-9.162127525964683
 20
3.761794152139815
 30
0.0
 11
-9.114310180456278
 21
3.757610676487928
 31
0.0
  0
LINE
  5
3C52
330
431D
100
AcDbEntity
  8
0
 62
     0
100
AcDbLine
 10
-9.735935672065526
 20
3.811995859962466
 30
0.0
 11
-9.688118326557122
 21
3.807812384310579
 31
0.0
  0
LINE
  5
3C53
330
431D
100
AcDbEntity
  8
0
 62
     0
100
AcDbLine
 10
-9.162127526740516
 20
3.761794154949842
 30
0.0
 11
-9.123560270159323
 21
3.807756821536981
 31
0.0
  0
LINE
  5
3C54
330
431D
100
AcDbEntity
  8
0
 62
     0
100
AcDbLine
 10
-9.735935672821119
 20
3.811995862935918
 30
0.0
 11
-9.697368416239926
 21
3.857958529523057
 31
0.0
  0
ENDBLK
  5
3C56
330
431D
100
AcDbEntity
  8
0
100
AcDbBlockEnd
  0
BLOCK
  5
4352
330
4347
100
AcDbEntity
  8
0
100
AcDbBlockBegin
  2
TITLBLK
 70
     2
 10
0.0
 20
0.0
 30
0.0
  3
TITLBLK
  1

  0
LWPOLYLINE
  5
4348
330
4347
100
AcDbEntity
  8
TITLE
 62
     3
100
AcDbPolyline
 90
        2
 70
     0
 43
0.04
 39
0.03
 10
0.3424999999999994
 20
-0.0000000000000003
 10
7.654581983261419
 20
-0.0000000000000003
  0
ATTDEF
  5
4349
330
4347
100
AcDbEntity
  8
TITLE
100
AcDbText
 10
0.625
 20
0.0999999999999998
 30
0.0
 40
0.2
  1
TITLE
  7
L200
100
AcDbAttributeDefinition
  3
DETAIL TITLE TOP 2ND LINE
  2
TITLE2
 70
     0
  0
LWPOLYLINE
  5
434A
330
4347
100
AcDbEntity
  8
TITLE
 62
     3
100
AcDbPolyline
 90
        2
 70
     1
 43
0.03
 10
0.0
 20
-0.3425000000000002
 42
0.9999999999999998
 10
0.0
 20
0.3425000000000002
 42
0.9999999999999998
  0
ATTDEF
  5
434B
330
4347
100
AcDbEntity
  8
TITLE
100
AcDbText
 10
-0.0776944065484311
 20
-0.1000000000000003
 30
0.0
 40
0.2
  1
#
  7
L200
 72
     4
 11
0.0
 21
-0.0000000000000003
 31
0.0
100
AcDbAttributeDefinition
  3
#
  2
#
 70
     0
  0
ATTDEF
  5
434C
330
4347
100
AcDbEntity
  8
TITLE
 62
     7
100
AcDbText
 10
0.625
 20
-0.1836633170828782
 30
0.0
 40
0.1
  1
N.T.S.
  7
L100
100
AcDbAttributeDefinition
  3
SCALE
  2
SCALE
 70
     0
  0
ATTDEF
  5
434D
330
4347
100
AcDbEntity
  8
TITLE
100
AcDbText
 10
2.107203380653828
 20
-0.2914343300200487
 30
0.0
 40
0.2
  1
TITLE2
  7
L200
100
AcDbAttributeDefinition
  3
DETAIL TITLE BOTTOM 1
  2
TITLE3
 70
     0
  0
ATTDEF
  5
434E
330
4347
100
AcDbEntity
  8
TITLE
 62
     7
100
AcDbText
 10
7.570772459451895
 20
-0.1618486459795794
 30
0.0
 40
0.08
  1
-
  7
L80
 72
     2
 11
7.654581983261419
 21
-0.1618486459795794
 31
0.0
100
AcDbAttributeDefinition
  3
DWG-NAME
  2
DWG-NAME
 70
     0
  0
ATTDEF
  5
434F
330
4347
100
AcDbEntity
  8
TITLE
 62
     7
100
AcDbText
 10
7.570772459451895
 20
0.0853756950662722
 30
0.0
 40
0.08
  1
-
  7
L80
 72
     2
 11
7.654581983261419
 21
0.0853756950662722
 31
0.0
100
AcDbAttributeDefinition
  3
REVISION DATE
  2
REVISED
 70
     0
  0
ATTDEF
  5
4350
330
4347
100
AcDbEntity
  8
TITLE
100
AcDbText
 10
0.625
 20
0.459485206268383
 30
0.0
 40
0.2
  1
TITLE
  7
L200
100
AcDbAttributeDefinition
  3
DETAIL TITLE TOP LINE
  2
TITLE1
 70
     0
  0
ATTDEF
  5
4351
330
4347
100
AcDbEntity
  8
TITLE
100
AcDbText
 10
2.107203380653828
 20
-0.6149710156615936
 30
0.0
 40
0.2
  1
TITLE2
  7
L200
100
AcDbAttributeDefinition
  3
DETAIL TITLE BOTTOM 2
  2
TITLE4
 70
     0
  0
ENDBLK
  5
4353
330
4347
100
AcDbEntity
  8
0
100
AcDbBlockEnd
  0
BLOCK
  5
439A
330
438F
100
AcDbEntity
  8
0
100
AcDbBlockBegin
  2
*D2
 70
     1
 10
0.0
 20
0.0
 30
0.0
  3
*D2
  1

  0
LINE
  5
43A7
330
438F
100
AcDbEntity
  8
IMAGE
 62
     0
370
    -2
100
AcDbLine
 10
-9.745027360875356
 20
8.263521235353399
 30
0.0
 11
-10.52885058590052
 21
8.263521235353399
 31
0.0
  0
LINE
  5
43A8
330
438F
100
AcDbEntity
  8
IMAGE
 62
     0
370
    -2
100
AcDbLine
 10
-9.73159870876295
 20
4.111545898134062
 30
0.0
 11
-10.52885058590052
 21
4.111545898134062
 31
0.0
  0
LINE
  5
43A9
330
438F
100
AcDbEntity
  8
IMAGE
 62
     0
370
    -2
100
AcDbLine
 10
-10.34885058590052
 20
8.0835212353534
 30
0.0
 11
-10.34885058590052
 21
6.340033566743731
 31
0.0
  0
LINE
  5
43AA
330
438F
100
AcDbEntity
  8
IMAGE
 62
     0
370
    -2
100
AcDbLine
 10
-10.34885058590052
 20
4.291545898134062
 30
0.0
 11
-10.34885058590052
 21
6.035033566743731
 31
0.0
  0
SOLID
  5
43AB
330
438F
100
AcDbEntity
  8
IMAGE
 62
     0
100
AcDbTrace
 10
-10.37885058590052
 20
8.0835212353534
 30
0.0
 11
-10.31885058590052
 21
8.0835212353534
 31
0.0
 12
-10.34885058590052
 22
8.263521235353399
 32
0.0
 13
-10.34885058590052
 23
8.263521235353399
 33
0.0
  0
SOLID
  5
43AC
330
438F
100
AcDbEntity
  8
IMAGE
 62
     0
100
AcDbTrace
 10
-10.37885058590052
 20
4.291545898134062
 30
0.0
 11
-10.31885058590052
 21
4.291545898134062
 31
0.0
 12
-10.34885058590052
 22
4.111545898134062
 32
0.0
 13
-10.34885058590052
 23
4.111545898134062
 33
0.0
  0
MTEXT
  5
43AD
330
438F
100
AcDbEntity
  8
IMAGE
 62
     0
100
AcDbMText
 10
-10.34885058590052
 20
6.18753356674373
 30
0.0
 40
0.125
 41
0.0
 71
     5
 72
     1
  1
\A1;8' MIN.
 73
     1
 44
1.0
  0
POINT
  5
43AE
330
438F
100
AcDbEntity
  8
DEFPOINTS
 62
     0
100
AcDbPoint
 10
-9.682527360875356
 20
8.263521235353399
 30
0.0
  0
POINT
  5
43AF
330
438F
100
AcDbEntity
  8
DEFPOINTS
 62
     0
100
AcDbPoint
 10
-9.66909870876295
 20
4.111545898134062
 30
0.0
  0
POINT
  5
43B0
330
438F
100
AcDbEntity
  8
DEFPOINTS
 62
     0
100
AcDbPoint
 10
-10.34885058590052
 20
4.111545898134062
 30
0.0
  0
ENDBLK
  5
439B
330
438F
100
AcDbEntity
  8
0
100
AcDbBlockEnd
  0
ENDSEC
  0
SECTION
  2
ENTITIES
  0
TEXT
  5
C2
330
4317
100
AcDbEntity
  8
TEXT_BUBBLES
100
AcDbText
 10
5.73545314889218
 20
7.411373466191943
 30
0.0
 40
0.1250000018625
  1

  7
ROMANS
100
AcDbText
  0
TEXT
  5
C3
330
4317
100
AcDbEntity
  8
TEXT_BUBBLES
100
AcDbText
 10
5.73545314889218
 20
4.693796247183193
 30
0.0
 40
0.1250000018625
  1

  7
ROMANS
100
AcDbText
  0
TEXT
  5
C4
330
4317
100
AcDbEntity
  8
TEXT_BUBBLES
100
AcDbText
 10
5.73545314889218
 20
7.023148149190693
 30
0.0
 40
0.1250000018625
  1

  7
ROMANS
100
AcDbText
  0
TEXT
  5
C5
330
4317
100
AcDbEntity
  8
TEXT_BUBBLES
100
AcDbText
 10
21.12887382507374
 20
1.79238915443375
 30
0.0
 40
0.1250000018625
  1

  7
ROMANS
100
AcDbText
  0
TEXT
  5
C6
330
4317
100
AcDbEntity
  8
TEXT_BUBBLES
100
AcDbText
 10
21.12887382507374
 20
1.210015416145
 30
0.0
 40
0.1250000018625
  1

  7
ROMANS
100
AcDbText
  0
TEXT
  5
C7
330
4317
100
AcDbEntity
  8
TEXT_BUBBLES
100
AcDbText
 10
21.12887382507374
 20
1.404139995575
 30
0.0
 40
0.1250000018625
  1

  7
ROMANS
100
AcDbText
  0
TEXT
  5
C8
330
4317
100
AcDbEntity
  8
TEXT_BUBBLES
100
AcDbText
 10
21.12887382507374
 20
2.18063831329375
 30
0.0
 40
0.1250000018625
  1

  7
ROMANS
100
AcDbText
  0
TEXT
  5
C9
330
4317
100
AcDbEntity
  8
TEXT_BUBBLES
100
AcDbText
 10
21.12887382507374
 20
3.15126121044125
 30
0.0
 40
0.1250000018625
  1

  7
ROMANS
100
AcDbText
  0
TEXT
  5
CA
330
4317
100
AcDbEntity
  8
TEXT_BUBBLES
100
AcDbText
 10
21.12887382507374
 20
3.73363494873
 30
0.0
 40
0.1250000018625
  1

  7
ROMANS
100
AcDbText
  0
TEXT
  5
CB
330
4317
100
AcDbEntity
  8
TEXT_BUBBLES
100
AcDbText
 10
21.12887382507374
 20
3.539510369301249
 30
0.0
 40
0.1250000018625
  1

  7
ROMANS
100
AcDbText
  0
TEXT
  5
CC
330
4317
100
AcDbEntity
  8
TEXT_BUBBLES
100
AcDbText
 10
5.73545314889218
 20
3.917345613179443
 30
0.0
 40
0.1250000018625
  1

  7
ROMANS
100
AcDbText
  0
TEXT
  5
CD
330
4317
100
AcDbEntity
  8
TEXT_BUBBLES
100
AcDbText
 10
21.12887382507374
 20
2.7630120515825
 30
0.0
 40
0.1250000018625
  1

  7
ROMANS
100
AcDbText
  0
TEXT
  5
CE
330
4317
100
AcDbEntity
  8
TEXT_BUBBLES
100
AcDbText
 10
21.12887382507374
 20
2.5688874721525
 30
0.0
 40
0.1250000018625
  1

  7
ROMANS
100
AcDbText
  0
TEXT
  5
CF
330
4317
100
AcDbEntity
  8
TEXT_BUBBLES
100
AcDbText
 10
5.73545314889218
 20
6.052584856686943
 30
0.0
 40
0.1250000018625
  1

  7
ROMANS
100
AcDbText
  0
TEXT
  5
D0
330
4317
100
AcDbEntity
  8
TEXT_BUBBLES
100
AcDbText
 10
5.73545314889218
 20
7.993711441694443
 30
0.0
 40
0.1250000018625
  1

  7
ROMANS
100
AcDbText
  0
TEXT
  5
D1
330
4317
100
AcDbEntity
  8
TEXT_BUBBLES
100
AcDbText
 10
5.73545314889218
 20
6.440810173688193
 30
0.0
 40
0.1250000018625
  1

  7
ROMANS
100
AcDbText
  0
TEXT
  5
D2
330
4317
100
AcDbEntity
  8
TEXT_BUBBLES
100
AcDbText
 10
5.73545314889218
 20
5.082021564184443
 30
0.0
 40
0.1250000018625
  1

  7
ROMANS
100
AcDbText
  0
TEXT
  5
D3
330
4317
100
AcDbEntity
  8
TEXT_BUBBLES
100
AcDbText
 10
5.73545314889218
 20
4.305570930181944
 30
0.0
 40
0.1250000018625
  1

  7
ROMANS
100
AcDbText
  0
CIRCLE
  5
10DB
330
4317
100
AcDbEntity
  8
TEXT_BUBBLES
100
AcDbCircle
 10
-7.048461654073456
 20
8.60821347868716
 30
0.0
 40
0.1562887347020049
  0
TEXT
  5
10DC
330
4317
100
AcDbEntity
  8
TEXT_BUBBLES
100
AcDbText
 10
-7.099069434834105
 20
8.545697984806357
 30
0.0
 40
0.1250309877616039
  1
1
  7
ROMANS
 72
     4
 11
-7.048461654073456
 21
8.60821347868716
 31
0.0
100
AcDbText
  0
TEXT
  5
110B
330
4317
100
AcDbEntity
  8
TEXT_BUBBLES
100
AcDbText
 10
5.73545314889218
 20
7.411373466191943
 30
0.0
 40
0.1250000018625
  1

  7
ROMANS
100
AcDbText
  0
TEXT
  5
110C
330
4317
100
AcDbEntity
  8
TEXT_BUBBLES
100
AcDbText
 10
5.73545314889218
 20
4.693796247183193
 30
0.0
 40
0.1250000018625
  1

  7
ROMANS
100
AcDbText
  0
TEXT
  5
110D
330
4317
100
AcDbEntity
  8
TEXT_BUBBLES
100
AcDbText
 10
5.73545314889218
 20
7.023148149190693
 30
0.0
 40
0.1250000018625
  1

  7
ROMANS
100
AcDbText
  0
TEXT
  5
110E
330
4317
100
AcDbEntity
  8
TEXT_BUBBLES
100
AcDbText
 10
21.12887382507374
 20
1.79238915443375
 30
0.0
 40
0.1250000018625
  1

  7
ROMANS
100
AcDbText
  0
TEXT
  5
110F
330
4317
100
AcDbEntity
  8
TEXT_BUBBLES
100
AcDbText
 10
21.12887382507374
 20
1.210015416145
 30
0.0
 40
0.1250000018625
  1

  7
ROMANS
100
AcDbText
  0
TEXT
  5
1110
330
4317
100
AcDbEntity
  8
TEXT_BUBBLES
100
AcDbText
 10
21.12887382507374
 20
1.404139995575
 30
0.0
 40
0.1250000018625
  1

  7
ROMANS
100
AcDbText
  0
TEXT
  5
1111
330
4317
100
AcDbEntity
  8
TEXT_BUBBLES
100
AcDbText
 10
21.12887382507374
 20
2.18063831329375
 30
0.0
 40
0.1250000018625
  1

  7
ROMANS
100
AcDbText
  0
TEXT
  5
1112
330
4317
100
AcDbEntity
  8
TEXT_BUBBLES
100
AcDbText
 10
21.12887382507374
 20
3.15126121044125
 30
0.0
 40
0.1250000018625
  1

  7
ROMANS
100
AcDbText
  0
TEXT
  5
1113
330
4317
100
AcDbEntity
  8
TEXT_BUBBLES
100
AcDbText
 10
21.12887382507374
 20
3.73363494873
 30
0.0
 40
0.1250000018625
  1

  7
ROMANS
100
AcDbText
  0
TEXT
  5
1114
330
4317
100
AcDbEntity
  8
TEXT_BUBBLES
100
AcDbText
 10
21.12887382507374
 20
3.539510369301249
 30
0.0
 40
0.1250000018625
  1

  7
ROMANS
100
AcDbText
  0
TEXT
  5
1115
330
4317
100
AcDbEntity
  8
TEXT_BUBBLES
100
AcDbText
 10
5.73545314889218
 20
3.917345613179443
 30
0.0
 40
0.1250000018625
  1

  7
ROMANS
100
AcDbText
  0
TEXT
  5
1116
330
4317
100
AcDbEntity
  8
TEXT_BUBBLES
100
AcDbText
 10
21.12887382507374
 20
2.7630120515825
 30
0.0
 40
0.1250000018625
  1

  7
ROMANS
100
AcDbText
  0
TEXT
  5
1117
330
4317
100
AcDbEntity
  8
TEXT_BUBBLES
100
AcDbText
 10
21.12887382507374
 20
2.5688874721525
 30
0.0
 40
0.1250000018625
  1

  7
ROMANS
100
AcDbText
  0
TEXT
  5
1118
330
4317
100
AcDbEntity
  8
TEXT_BUBBLES
100
AcDbText
 10
5.73545314889218
 20
6.052584856686943
 30
0.0
 40
0.1250000018625
  1

  7
ROMANS
100
AcDbText
  0
TEXT
  5
1119
330
4317
100
AcDbEntity
  8
TEXT_BUBBLES
100
AcDbText
 10
5.73545314889218
 20
7.993711441694443
 30
0.0
 40
0.1250000018625
  1

  7
ROMANS
100
AcDbText
  0
TEXT
  5
111A
330
4317
100
AcDbEntity
  8
TEXT_BUBBLES
100
AcDbText
 10
5.73545314889218
 20
6.440810173688193
 30
0.0
 40
0.1250000018625
  1

  7
ROMANS
100
AcDbText
  0
TEXT
  5
111B
330
4317
100
AcDbEntity
  8
TEXT_BUBBLES
100
AcDbText
 10
5.73545314889218
 20
5.082021564184443
 30
0.0
 40
0.1250000018625
  1

  7
ROMANS
100
AcDbText
  0
TEXT
  5
111C
330
4317
100
AcDbEntity
  8
TEXT_BUBBLES
100
AcDbText
 10
5.73545314889218
 20
4.305570930181944
 30
0.0
 40
0.1250000018625
  1

  7
ROMANS
100
AcDbText
  0
TEXT
  5
111D
330
4317
100
AcDbEntity
  8
TEXT_LEADERS
100
AcDbText
 10
6.05239987373375
 20
5.673787593841249
 30
0.0
 40
0.1250000018625
  1

  7
SIMPLEX
100
AcDbText
  0
TEXT
  5
111E
330
4317
100
AcDbEntity
  8
TEXT_BUBBLES
100
AcDbText
 10
10.30274987220749
 20
0.13391179964
 30
0.0
 40
0.1250000018625
  1

  7
SIMPLEX
100
AcDbText
  0
TEXT
  5
111F
330
4317
100
AcDbEntity
  8
TEXT_BUBBLES
100
AcDbText
 10
10.30274987220749
 20
1.175578609108749
 30
0.0
 40
0.1250000018625
  1

  7
SIMPLEX
100
AcDbText
  0
TEXT
  5
1120
330
4317
100
AcDbEntity
  8
TEXT_BUBBLES
100
AcDbText
 10
10.30274987220749
 20
0.7589118927712501
 30
0.0
 40
0.1250000018625
  1

  7
SIMPLEX
100
AcDbText
  0
TEXT
  5
1121
330
4317
100
AcDbEntity
  8
TEXT_BUBBLES
100
AcDbText
 10
10.30274987220749
 20
-1.949422061443749
 30
0.0
 40
0.1250000018625
  1

  7
SIMPLEX
100
AcDbText
  0
TEXT
  5
1122
330
4317
100
AcDbEntity
  8
TEXT_BUBBLES
100
AcDbText
 10
10.30274987220749
 20
-1.532755196095
 30
0.0
 40
0.1250000018625
  1

  7
SIMPLEX
100
AcDbText
  0
TEXT
  5
1123
330
4317
100
AcDbEntity
  8
TEXT_BUBBLES
100
AcDbText
 10
10.30274987220749
 20
1.800578832626249
 30
0.0
 40
0.1250000018625
  1

  7
SIMPLEX
100
AcDbText
  0
LWPOLYLINE
  5
1126
330
4317
100
AcDbEntity
  8
INSTRUCT-CALLOUT
100
AcDbPolyline
 90
        4
 70
     1
 43
0.0
 10
-1.450089646839664
 20
10.7304135008327
 10
-1.450089646839664
 20
9.014325714901321
 10
4.214152160100544
 20
9.014325714901321
 10
4.214152160100544
 20
10.7304135008327
  0
TEXT
  5
112C
330
4317
100
AcDbEntity
  8
INSTRUCT-CALLOUT
100
AcDbText
 10
-0.6222368003170687
 20
10.78192574656168
 30
0.0
 40
0.1250000018625
  1
CHOOSING EQUIPMENT CALLOUT METHOD
  7
ROMANS
100
AcDbText
  0
TEXT
  5
112D
330
4317
100
AcDbEntity
  8
INSTRUCT-CALLOUT
100
AcDbText
 10
-0.91317401162547
 20
10.53894446901142
 30
0.0
 40
0.1250000018625
  1
CHOOSE EITHER LEADERS OR BUBBLE CALLOUTS
  7
ROMANS
100
AcDbText
  0
TEXT
  5
112E
330
4317
100
AcDbEntity
  8
INSTRUCT-CALLOUT
100
AcDbText
 10
-0.91317401162547
 20
10.33656941465267
 30
0.0
 40
0.1250000018625
  1
BY TURNING ON THE APPROPRIATE LAYER:
  7
ROMANS
100
AcDbText
  0
TEXT
  5
112F
330
4317
100
AcDbEntity
  8
INSTRUCT-CALLOUT
100
AcDbText
 10
-0.3677443462969405
 20
9.915297796558702
 30
0.0
 40
0.1250000018625
  1
TEXT_LEADERS         TEXT_BUBBLES
  7
ROMANS
100
AcDbText
  0
LINE
  5
1130
330
4317
100
AcDbEntity
  8
INSTRUCT-CALLOUT
100
AcDbLine
 10
-0.1355411544726046
 20
9.486307876808293
 30
0.0
 11
0.0773784484314935
 21
9.486307876808293
 31
0.0
  0
LINE
  5
1131
330
4317
100
AcDbEntity
  8
INSTRUCT-CALLOUT
100
AcDbLine
 10
-0.58518242709499
 20
9.299195842735979
 30
0.0
 11
-0.1355411544726046
 21
9.486307876808293
 31
0.0
  0
SOLID
  5
1132
330
4317
100
AcDbEntity
  8
INSTRUCT-CALLOUT
100
AcDbTrace
 10
-0.4517668059382248
 20
9.303943226895176
 30
0.0
 11
-0.4877853760815594
 21
9.390497978959
 31
0.0
 12
-0.7294403472013596
 22
9.239164892497091
 32
0.0
 13
-0.7294403472013596
 23
9.239164892497091
 33
0.0
  0
TEXT
  5
1133
330
4317
100
AcDbEntity
  8
INSTRUCT-CALLOUT
100
AcDbText
 10
0.1179639750207606
 20
9.385135049630324
 30
0.0
 40
0.156250002328125
  1
ITEM 1
  7
ROMANS
100
AcDbText
  0
SOLID
  5
1134
330
4317
100
AcDbEntity
  8
INSTRUCT-CALLOUT
100
AcDbTrace
 10
2.895841519138997
 20
9.324921405881736
 30
0.0
 11
2.920532602973902
 21
9.234481299297005
 31
0.0
 12
2.636866741302251
 22
9.205628101084661
 32
0.0
 13
2.636866741302251
 23
9.205628101084661
 33
0.0
  0
LINE
  5
1135
330
4317
100
AcDbEntity
  8
INSTRUCT-CALLOUT
100
AcDbLine
 10
2.787600252276805
 20
9.246779907476165
 30
0.0
 11
3.187414966221879
 21
9.355933456639633
 31
0.0
  0
TEXT
  5
1136
330
4317
100
AcDbEntity
  8
INSTRUCT-CALLOUT
100
AcDbText
 10
3.312587807321023
 20
9.329248214629018
 30
0.0
 40
0.15625
  1
1
  7
ROMANS
 72
     4
 11
3.37583185494007
 21
9.407373214629018
 31
0.0
100
AcDbText
  0
CIRCLE
  5
1137
330
4317
100
AcDbEntity
  8
INSTRUCT-CALLOUT
100
AcDbCircle
 10
3.37583185494007
 20
9.407373214629018
 30
0.0
 40
0.1953125
  0
TEXT
  5
1138
330
4317
100
AcDbEntity
  8
INSTRUCT-CALLOUT
100
AcDbText
 10
-0.9866931412232311
 20
8.514232717377549
 30
0.0
 40
0.1250000018625
  1
LAYER "INSTRUCT-CALLOUT".
  7
ROMANS
100
AcDbText
  0
TEXT
  5
1139
330
4317
100
AcDbEntity
  8
INSTRUCT-CALLOUT
100
AcDbText
 10
-0.9866931412232311
 20
8.71660777173755
 30
0.0
 40
0.1250000018625
  1
TO TURN OFF THIS INSTRUCTION BOX, TURN OFF
  7
ROMANS
100
AcDbText
  0
TEXT
  5
11AC
330
4317
100
AcDbEntity
  8
TEXT_BUBBLES
100
AcDbText
 10
0.374157011509
 20
0.8800902366639999
 30
0.0
 40
0.125
  1

  7
ROMANS
100
AcDbText
  0
TEXT
  5
11AD
330
4317
100
AcDbEntity
  8
TEXT_BUBBLES
100
AcDbText
 10
0.374157011509
 20
1.284850120543999
 30
0.0
 40
0.125
  1

  7
ROMANS
100
AcDbText
  0
TEXT
  5
11AE
330
4317
100
AcDbEntity
  8
TEXT_BUBBLES
100
AcDbText
 10
0.374157011509
 20
1.082470178604
 30
0.0
 40
0.125
  1

  7
ROMANS
100
AcDbText
  0
TEXT
  5
11AF
330
4317
100
AcDbEntity
  8
TEXT_BUBBLES
100
AcDbText
 10
0.144923001528
 20
1.415030121802999
 30
0.0
 40
0.125
  1

  7
ROMANS
100
AcDbText
  0
TEXT
  5
11B8
330
4317
100
AcDbEntity
  8
TEXT_BUBBLES
100
AcDbText
 10
0.144923001528
 20
1.123830199241999
 30
0.0
 40
0.125
  1

  7
ROMANS
100
AcDbText
  0
TEXT
  5
11B9
330
4317
100
AcDbEntity
  8
TEXT_BUBBLES
100
AcDbText
 10
0.144923001528
 20
0.9782302379609999
 30
0.0
 40
0.125
  1

  7
ROMANS
100
AcDbText
  0
TEXT
  5
11BA
330
4317
100
AcDbEntity
  8
TEXT_BUBBLES
100
AcDbText
 10
0.144923001528
 20
0.8326302766799999
 30
0.0
 40
0.125
  1

  7
ROMANS
100
AcDbText
  0
TEXT
  5
11CA
330
4317
100
AcDbEntity
  8
TEXT_BUBBLES
100
AcDbText
 10
0.144923001528
 20
1.706230044365
 30
0.0
 40
0.125
  1

  7
ROMANS
100
AcDbText
  0
TEXT
  5
11CE
330
4317
100
AcDbEntity
  8
TEXT_BUBBLES
100
AcDbText
 10
0.144923001528
 20
0.687030315399
 30
0.0
 40
0.125
  1

  7
ROMANS
100
AcDbText
  0
TEXT
  5
11CF
330
4317
100
AcDbEntity
  8
TEXT_BUBBLES
100
AcDbText
 10
0.144923001528
 20
0.395830392838
 30
0.0
 40
0.125
  1

  7
ROMANS
100
AcDbText
  0
CIRCLE
  5
30C3
330
4317
100
AcDbEntity
  8
TEXT_BUBBLES
100
AcDbCircle
 10
-7.048461654073456
 20
8.244012306785121
 30
0.0
 40
0.1562887347020049
  0
TEXT
  5
30C5
330
4317
100
AcDbEntity
  8
TEXT_BUBBLES
100
AcDbText
 10
-7.108000219674219
 20
8.181496812904319
 30
0.0
 40
0.1250309877616039
  1
2
  7
ROMANS
 72
     4
 11
-7.048461654073456
 21
8.244012306785121
 31
0.0
100
AcDbText
  0
TEXT
  5
30D7
330
4317
100
AcDbEntity
  8
TEXT_BUBBLES
100
AcDbText
 10
-7.108000219674219
 20
7.81729564100228
 30
0.0
 40
0.1250309877616039
  1
3
  7
ROMANS
 72
     4
 11
-7.048461654073456
 21
7.879811134883082
 31
0.0
100
AcDbText
  0
CIRCLE
  5
30D8
330
4317
100
AcDbEntity
  8
TEXT_BUBBLES
100
AcDbCircle
 10
-7.048461654073456
 20
7.879811134883082
 30
0.0
 40
0.1562887347020049
  0
CIRCLE
  5
30DB
330
4317
100
AcDbEntity
  8
TEXT_BUBBLES
100
AcDbCircle
 10
-7.048461654073456
 20
7.151408791079004
 30
0.0
 40
0.1562887347020049
  0
TEXT
  5
30DC
330
4317
100
AcDbEntity
  8
TEXT_BUBBLES
100
AcDbText
 10
-7.108000219674219
 20
7.088893297198202
 30
0.0
 40
0.1250309877616039
  1
5
  7
ROMANS
 72
     4
 11
-7.048461654073456
 21
7.151408791079004
 31
0.0
100
AcDbText
  0
TEXT
  5
30EB
330
4317
100
AcDbEntity
  8
TEXT_BUBBLES
100
AcDbText
 10
-8.789183126802463
 20
7.547561174909976
 30
0.0
 40
0.1250309877616039
  1
2
  7
ROMANS
 72
     4
 11
-8.729644561201698
 21
7.610076668790778
 31
0.0
100
AcDbText
  0
CIRCLE
  5
30EC
330
4317
100
AcDbEntity
  8
TEXT_BUBBLES
100
AcDbCircle
 10
-8.729644561201698
 20
7.610076668790778
 30
0.0
 40
0.1562887347020049
  0
CIRCLE
  5
3118
330
4317
100
AcDbEntity
  8
TEXT_BUBBLES
100
AcDbCircle
 10
-7.048461654073456
 20
7.515609962981043
 30
0.0
 40
0.1562887347020049
  0
TEXT
  5
3119
330
4317
100
AcDbEntity
  8
TEXT_BUBBLES
100
AcDbText
 10
-7.110977147954258
 20
7.453094469100241
 30
0.0
 40
0.1250309877616039
  1
4
  7
ROMANS
 72
     4
 11
-7.048461654073456
 21
7.515609962981043
 31
0.0
100
AcDbText
  0
LWPOLYLINE
  5
3498
330
4317
100
AcDbEntity
  8
IMAGE
100
AcDbPolyline
 90
       10
 70
     0
 43
0.0
 10
-8.871558112984967
 20
8.3488617457442
 10
-8.871558112984967
 20
8.351908149494496
 42
-0.2539389008046782
 10
-8.851923596504411
 20
8.368246741818586
 10
-8.366192629465521
 20
8.368246741818586
 42
-0.2539389008046782
 10
-8.346558112984967
 20
8.351908149494496
 10
-8.346558112984967
 20
8.159585334142674
 42
-0.2539389008046782
 10
-8.366192629465521
 20
8.143246741818586
 10
-8.851923596504411
 20
8.143246741818586
 42
-0.2539389008046782
 10
-8.871558112984967
 20
8.159585334142668
 10
-8.871558112984967
 20
8.174429805767893
  0
CIRCLE
  5
3499
330
4317
100
AcDbEntity
  8
IMAGE
100
AcDbCircle
 10
-8.682970312718031
 20
8.30969709132799
 30
0.0
 40
0.05625
  0
CIRCLE
  5
349A
330
4317
100
AcDbEntity
  8
IMAGE
100
AcDbCircle
 10
-8.682970312718031
 20
8.30969709132799
 30
0.0
 40
0.034375
  0
CIRCLE
  5
349B
330
4317
100
AcDbEntity
  8
IMAGE
100
AcDbCircle
 10
-8.682970312718031
 20
8.30969709132799
 30
0.0
 40
0.0285092706372003
  0
LWPOLYLINE
  5
349C
330
4317
100
AcDbEntity
  8
IMAGE
100
AcDbPolyline
 90
       14
 70
     1
 43
0.0
 10
-8.697003553775868
 20
8.296680629697441
 10
-8.701062567018736
 20
8.303449654870892
 10
-8.688379750841672
 20
8.31105484431848
 10
-8.688379750841672
 20
8.31105484431848
 10
-8.695967754953665
 20
8.323747949782129
 10
-8.689193238220696
 20
8.327797790932015
 10
-8.68161071945912
 20
8.315113861284606
 10
-8.668937071660193
 20
8.322713552958537
 10
-8.664878058417325
 20
8.315944527785088
 10
-8.677560874594391
 20
8.3083393383375
 10
-8.677560874594391
 20
8.3083393383375
 10
-8.669972870482398
 20
8.295646232873849
 10
-8.676747387215366
 20
8.291596391723963
 10
-8.684329905976941
 20
8.304280321371372
  0
LWPOLYLINE
  5
349D
330
4317
100
AcDbEntity
  8
IMAGE
100
AcDbPolyline
 90
        2
 70
     0
 43
0.0
 10
-8.664683112984967
 20
8.476996741818584
 10
-8.317183112984967
 20
8.476996741818584
  0
LWPOLYLINE
  5
349E
330
4317
100
AcDbEntity
  8
IMAGE
100
AcDbPolyline
 90
        2
 70
     0
 43
0.0
 10
-8.664683112984967
 20
8.455746741818586
 10
-8.317183112984967
 20
8.455746741818586
  0
LWPOLYLINE
  5
349F
330
4317
100
AcDbEntity
  8
IMAGE
100
AcDbPolyline
 90
        8
 70
     1
 43
0.0
 10
-8.664683112984967
 20
8.455746741818586
 10
-8.639683112984966
 20
8.428246741818586
 10
-8.342183112984967
 20
8.428246741818586
 10
-8.317183112984967
 20
8.455746741818586
 10
-8.317183112984967
 20
8.476996741818584
 10
-8.342183112984967
 20
8.504496741818584
 10
-8.639683112984966
 20
8.504496741818584
 10
-8.664683112984967
 20
8.476996741818584
  0
LWPOLYLINE
  5
34A0
330
4317
100
AcDbEntity
  8
IMAGE
100
AcDbPolyline
 90
        4
 70
     1
 43
0.0
 10
-8.640933112984967
 20
8.373246741818585
 10
-8.340933112984966
 20
8.373246741818585
 10
-8.340933112984966
 20
8.423246741818585
 10
-8.640933112984967
 20
8.423246741818585
  0
LWPOLYLINE
  5
34A1
330
4317
100
AcDbEntity
  8
IMAGE
100
AcDbPolyline
 90
        2
 70
     0
 43
0.0
 10
-8.605308112984966
 20
8.368246741818586
 10
-8.605308112984966
 20
8.373246741818585
  0
LWPOLYLINE
  5
34A2
330
4317
100
AcDbEntity
  8
IMAGE
100
AcDbPolyline
 90
        2
 70
     0
 43
0.0
 10
-8.376558112984968
 20
8.368246741818586
 10
-8.376558112984968
 20
8.373246741818585
  0
LWPOLYLINE
  5
34A3
330
4317
100
AcDbEntity
  8
IMAGE
100
AcDbPolyline
 90
        2
 70
     0
 43
0.0
 10
-8.376558112984968
 20
8.423246741818585
 10
-8.376558112984968
 20
8.428246741818586
  0
LWPOLYLINE
  5
34A4
330
4317
100
AcDbEntity
  8
IMAGE
100
AcDbPolyline
 90
        2
 70
     0
 43
0.0
 10
-8.605308112984966
 20
8.423246741818585
 10
-8.605308112984966
 20
8.428246741818586
  0
LWPOLYLINE
  5
34A5
330
4317
100
AcDbEntity
  8
IMAGE
100
AcDbPolyline
 90
        4
 70
     0
 43
0.0
 10
-8.415183112984967
 20
8.773246741818585
 10
-8.415183112984967
 20
8.828246741818585
 10
-8.566683112984966
 20
8.828246741818585
 10
-8.566683112984966
 20
8.773246741818585
  0
LWPOLYLINE
  5
34A6
330
4317
100
AcDbEntity
  8
IMAGE
100
AcDbPolyline
 90
        2
 70
     0
 43
0.0
 10
-8.636695948223774
 20
8.756964687111885
 10
-8.638433112984968
 20
8.504496741818584
  0
LWPOLYLINE
  5
34A7
330
4317
100
AcDbEntity
  8
IMAGE
100
AcDbPolyline
 90
        2
 70
     0
 43
0.0
 10
-8.345170277746159
 20
8.756964687111885
 10
-8.343433112984966
 20
8.504496741818584
  0
LWPOLYLINE
  5
34A8
330
4317
100
AcDbEntity
  8
IMAGE
100
AcDbPolyline
 90
        2
 70
     0
 43
0.0
 10
-8.566683112984966
 20
8.773246741818585
 10
-8.415183112984967
 20
8.773246741818585
  0
LWPOLYLINE
  5
34A9
330
4317
100
AcDbEntity
  8
IMAGE
100
AcDbPolyline
 90
        2
 70
     0
 43
0.0
 10
-8.636695948223774
 20
8.756964687111885
 10
-8.345170277746159
 20
8.756964687111885
  0
LWPOLYLINE
  5
34AA
330
4317
100
AcDbEntity
  8
IMAGE
100
AcDbPolyline
 90
        2
 70
     0
 43
0.0
 10
-8.636695948223774
 20
8.756964687111885
 42
-0.0859347361966609
 10
-8.566683112984966
 20
8.773246741818585
 42
-0.0285319259738663
  0
LWPOLYLINE
  5
34AB
330
4317
100
AcDbEntity
  8
IMAGE
100
AcDbPolyline
 90
        2
 70
     0
 43
0.0
 10
-8.345170277746159
 20
8.756964687111885
 42
0.0859347361966609
 10
-8.415183112984967
 20
8.773246741818585
 42
0.0285319259738663
  0
LWPOLYLINE
  5
34AC
330
4317
100
AcDbEntity
  8
IMAGE
100
AcDbPolyline
 90
        2
 70
     0
 43
0.0
 10
-8.483433112984966
 20
8.504496741818584
 10
-8.483433112984966
 20
8.756964687111885
  0
LWPOLYLINE
  5
34AD
330
4317
100
AcDbEntity
  8
IMAGE
100
AcDbPolyline
 90
        2
 70
     0
 43
0.0
 10
-8.498433112984967
 20
8.504496741818584
 10
-8.498433112984967
 20
8.756964687111885
  0
LWPOLYLINE
  5
34AE
330
4317
100
AcDbEntity
  8
IMAGE
100
AcDbPolyline
 90
        2
 70
     0
 43
0.0
 10
-8.543433112984967
 20
8.504496741818584
 10
-8.543433112984967
 20
8.756964687111885
  0
LWPOLYLINE
  5
34AF
330
4317
100
AcDbEntity
  8
IMAGE
100
AcDbPolyline
 90
        2
 70
     0
 43
0.0
 10
-8.438433112984967
 20
8.504496741818584
 10
-8.438433112984967
 20
8.756964687111885
  0
LWPOLYLINE
  5
34B0
330
4317
100
AcDbEntity
  8
IMAGE
100
AcDbPolyline
 90
        2
 70
     0
 43
0.0
 10
-8.423433112984968
 20
8.504496741818584
 10
-8.423433112984968
 20
8.756964687111885
  0
LWPOLYLINE
  5
34B1
330
4317
100
AcDbEntity
  8
IMAGE
100
AcDbPolyline
 90
        2
 70
     0
 43
0.0
 10
-8.558433112984966
 20
8.504496741818584
 10
-8.558433112984966
 20
8.756964687111885
  0
LWPOLYLINE
  5
34B2
330
4317
100
AcDbEntity
  8
IMAGE
100
AcDbPolyline
 90
        2
 70
     0
 43
0.0
 10
-8.595684280377655
 20
8.504496741818584
 10
-8.595684280377655
 20
8.756964687111885
  0
LWPOLYLINE
  5
34B3
330
4317
100
AcDbEntity
  8
IMAGE
100
AcDbPolyline
 90
        2
 70
     0
 43
0.0
 10
-8.604997072225826
 20
8.504496741818584
 10
-8.604997072225826
 20
8.756964687111885
  0
LWPOLYLINE
  5
34B4
330
4317
100
AcDbEntity
  8
IMAGE
100
AcDbPolyline
 90
        2
 70
     0
 43
0.0
 10
-8.386181945592278
 20
8.504496741818584
 10
-8.386181945592278
 20
8.756964687111885
  0
LWPOLYLINE
  5
34B5
330
4317
100
AcDbEntity
  8
IMAGE
100
AcDbPolyline
 90
        2
 70
     0
 43
0.0
 10
-8.376869153744108
 20
8.504496741818584
 10
-8.376869153744108
 20
8.756964687111885
  0
LWPOLYLINE
  5
34B6
330
4317
100
AcDbEntity
  8
IMAGE
100
AcDbPolyline
 90
        2
 70
     0
 43
0.0
 10
-8.485933112984968
 20
8.373246741818585
 10
-8.485933112984968
 20
8.423246741818585
  0
LWPOLYLINE
  5
34B7
330
4317
100
AcDbEntity
  8
IMAGE
100
AcDbPolyline
 90
        2
 70
     0
 43
0.0
 10
-8.495933112984966
 20
8.373246741818585
 10
-8.495933112984966
 20
8.423246741818585
  0
LWPOLYLINE
  5
34B8
330
4317
100
AcDbEntity
  8
IMAGE
100
AcDbPolyline
 90
        2
 70
     0
 43
0.0
 10
-8.510933112984966
 20
8.373246741818585
 10
-8.510933112984966
 20
8.423246741818585
  0
LWPOLYLINE
  5
34B9
330
4317
100
AcDbEntity
  8
IMAGE
100
AcDbPolyline
 90
        2
 70
     0
 43
0.0
 10
-8.470933112984967
 20
8.373246741818585
 10
-8.470933112984967
 20
8.423246741818585
  0
LWPOLYLINE
  5
34BA
330
4317
100
AcDbEntity
  8
IMAGE
100
AcDbPolyline
 90
        2
 70
     0
 43
0.0
 10
-8.460933112984967
 20
8.373246741818585
 10
-8.460933112984967
 20
8.423246741818585
  0
LWPOLYLINE
  5
34BB
330
4317
100
AcDbEntity
  8
IMAGE
100
AcDbPolyline
 90
        2
 70
     0
 43
0.0
 10
-8.520933112984966
 20
8.373246741818585
 10
-8.520933112984966
 20
8.423246741818585
  0
LWPOLYLINE
  5
34BC
330
4317
100
AcDbEntity
  8
IMAGE
100
AcDbPolyline
 90
        2
 70
     0
 43
0.0
 10
-8.535933112984967
 20
8.373246741818585
 10
-8.535933112984967
 20
8.423246741818585
  0
LWPOLYLINE
  5
34BD
330
4317
100
AcDbEntity
  8
IMAGE
100
AcDbPolyline
 90
        2
 70
     0
 43
0.0
 10
-8.545933112984966
 20
8.373246741818585
 10
-8.545933112984966
 20
8.423246741818585
  0
LWPOLYLINE
  5
34BE
330
4317
100
AcDbEntity
  8
IMAGE
100
AcDbPolyline
 90
        2
 70
     0
 43
0.0
 10
-8.560933112984967
 20
8.373246741818585
 10
-8.560933112984967
 20
8.423246741818585
  0
LWPOLYLINE
  5
34BF
330
4317
100
AcDbEntity
  8
IMAGE
100
AcDbPolyline
 90
        2
 70
     0
 43
0.0
 10
-8.570933112984965
 20
8.373246741818585
 10
-8.570933112984965
 20
8.423246741818585
  0
LWPOLYLINE
  5
34C0
330
4317
100
AcDbEntity
  8
IMAGE
100
AcDbPolyline
 90
        2
 70
     0
 43
0.0
 10
-8.583433112984966
 20
8.373246741818585
 10
-8.583433112984966
 20
8.423246741818585
  0
LWPOLYLINE
  5
34C1
330
4317
100
AcDbEntity
  8
IMAGE
100
AcDbPolyline
 90
        2
 70
     0
 43
0.0
 10
-8.605933112984965
 20
8.373246741818585
 10
-8.605933112984965
 20
8.423246741818585
  0
LWPOLYLINE
  5
34C2
330
4317
100
AcDbEntity
  8
IMAGE
100
AcDbPolyline
 90
        2
 70
     0
 43
0.0
 10
-8.410933112984968
 20
8.373246741818585
 10
-8.410933112984968
 20
8.423246741818585
  0
LWPOLYLINE
  5
34C3
330
4317
100
AcDbEntity
  8
IMAGE
100
AcDbPolyline
 90
        2
 70
     0
 43
0.0
 10
-8.420933112984966
 20
8.373246741818585
 10
-8.420933112984966
 20
8.423246741818585
  0
LWPOLYLINE
  5
34C4
330
4317
100
AcDbEntity
  8
IMAGE
100
AcDbPolyline
 90
        2
 70
     0
 43
0.0
 10
-8.435933112984967
 20
8.373246741818585
 10
-8.435933112984967
 20
8.423246741818585
  0
LWPOLYLINE
  5
34C5
330
4317
100
AcDbEntity
  8
IMAGE
100
AcDbPolyline
 90
        2
 70
     0
 43
0.0
 10
-8.445933112984967
 20
8.373246741818585
 10
-8.445933112984967
 20
8.423246741818585
  0
LWPOLYLINE
  5
34C6
330
4317
100
AcDbEntity
  8
IMAGE
100
AcDbPolyline
 90
        2
 70
     0
 43
0.0
 10
-8.590933112984965
 20
8.373246741818585
 10
-8.590933112984965
 20
8.423246741818585
  0
LWPOLYLINE
  5
34C7
330
4317
100
AcDbEntity
  8
IMAGE
100
AcDbPolyline
 90
        2
 70
     0
 43
0.0
 10
-8.613433112984965
 20
8.373246741818585
 10
-8.613433112984965
 20
8.423246741818585
  0
LWPOLYLINE
  5
34C8
330
4317
100
AcDbEntity
  8
IMAGE
100
AcDbPolyline
 90
        2
 70
     0
 43
0.0
 10
-8.625933112984965
 20
8.373246741818585
 10
-8.625933112984965
 20
8.423246741818585
  0
LWPOLYLINE
  5
34C9
330
4317
100
AcDbEntity
  8
IMAGE
100
AcDbPolyline
 90
        2
 70
     0
 43
0.0
 10
-8.633433112984965
 20
8.373246741818585
 10
-8.633433112984965
 20
8.423246741818585
  0
LWPOLYLINE
  5
34CA
330
4317
100
AcDbEntity
  8
IMAGE
100
AcDbPolyline
 90
        2
 70
     0
 43
0.0
 10
-8.398433112984967
 20
8.373246741818585
 10
-8.398433112984967
 20
8.423246741818585
  0
LWPOLYLINE
  5
34CB
330
4317
100
AcDbEntity
  8
IMAGE
100
AcDbPolyline
 90
        2
 70
     0
 43
0.0
 10
-8.375933112984968
 20
8.373246741818585
 10
-8.375933112984968
 20
8.423246741818585
  0
LWPOLYLINE
  5
34CC
330
4317
100
AcDbEntity
  8
IMAGE
100
AcDbPolyline
 90
        2
 70
     0
 43
0.0
 10
-8.390933112984969
 20
8.373246741818585
 10
-8.390933112984969
 20
8.423246741818585
  0
LWPOLYLINE
  5
34CD
330
4317
100
AcDbEntity
  8
IMAGE
100
AcDbPolyline
 90
        2
 70
     0
 43
0.0
 10
-8.368433112984968
 20
8.373246741818585
 10
-8.368433112984968
 20
8.423246741818585
  0
LWPOLYLINE
  5
34CE
330
4317
100
AcDbEntity
  8
IMAGE
100
AcDbPolyline
 90
        2
 70
     0
 43
0.0
 10
-8.355933112984969
 20
8.373246741818585
 10
-8.355933112984969
 20
8.423246741818585
  0
LWPOLYLINE
  5
34CF
330
4317
100
AcDbEntity
  8
IMAGE
100
AcDbPolyline
 90
        2
 70
     0
 43
0.0
 10
-8.348433112984968
 20
8.373246741818585
 10
-8.348433112984968
 20
8.423246741818585
  0
LWPOLYLINE
  5
34D0
330
4317
100
AcDbEntity
  8
IMAGE
100
AcDbPolyline
 90
        2
 70
     0
 43
0.0
 10
-8.871558112984967
 20
8.348861745744182
 42
-0.419279349704197
 10
-8.871558112984967
 20
8.174429805767875
 42
14.27302418867091
  0
LWPOLYLINE
  5
34D4
330
4317
100
AcDbEntity
  8
IMAGE
100
AcDbPolyline
 90
        2
 70
     0
 43
0.0
 10
-8.877904976829809
 20
8.178848595896965
 10
-8.882534641109661
 20
8.179253955000085
  0
LWPOLYLINE
  5
34E8
330
4317
100
AcDbEntity
  8
IMAGE
100
AcDbPolyline
 90
        3
 70
     0
 43
0.0
 10
-8.878232297943288
 20
8.364806692733154
 10
-8.87390667757238
 20
8.256650329757398
 10
-8.871558112984967
 20
8.19792760741757
  0
LWPOLYLINE
  5
34E9
330
4317
100
AcDbEntity
  8
IMAGE
100
AcDbPolyline
 90
        2
 70
     0
 43
0.0
 10
-8.880924782706964
 20
8.256650329757398
 10
-8.883733077993879
 20
8.32867388456016
  0
LWPOLYLINE
  5
34F4
330
4317
100
AcDbEntity
  8
IMAGE
100
AcDbPolyline
 90
        3
 70
     0
 43
0.0
 10
-8.883733077993879
 20
8.210022736491097
 10
-8.882534641109661
 20
8.179253955000085
 10
-8.883733077993879
 20
8.175578943206996
  0
LWPOLYLINE
  5
34FC
330
4317
100
AcDbEntity
  8
IMAGE
100
AcDbPolyline
 90
        3
 70
     0
 43
0.0
 10
-8.871558112984967
 20
8.166150772053038
 10
-8.877904976829809
 20
8.178848595896965
 10
-8.880938571090913
 20
8.256650329757398
  0
LWPOLYLINE
  5
34FD
330
4317
100
AcDbEntity
  8
IMAGE
100
AcDbPolyline
 90
        2
 70
     0
 43
0.0
 10
-8.871558112984967
 20
8.348861745744182
 10
-8.871558112984967
 20
8.174429805767875
  0
LWPOLYLINE
  5
354D
330
4317
100
AcDbEntity
  8
IMAGE
100
AcDbPolyline
 90
        2
 70
     0
 43
0.0
 10
-8.346558112984967
 20
8.351908149494496
 10
-8.645791164416008
 20
8.351908149494496
  0
LWPOLYLINE
  5
354E
330
4317
100
AcDbEntity
  8
IMAGE
100
AcDbPolyline
 90
        2
 70
     0
 43
0.0
 10
-8.720149461020053
 20
8.351908149494496
 10
-8.871558112984967
 20
8.351908149494496
  0
LWPOLYLINE
  5
354F
330
4317
100
AcDbEntity
  8
IMAGE
100
AcDbPolyline
 90
        2
 70
     0
 43
0.0
 10
-8.871558112984967
 20
8.159585334142668
 10
-8.346558112984967
 20
8.159585334142674
  0
LWPOLYLINE
  5
367D
330
4317
100
AcDbEntity
  8
IMAGE
100
AcDbPolyline
 90
        4
 70
     1
 43
0.0
 10
-8.883733077993879
 20
8.377542433005658
 10
-9.024985689592591
 20
8.377542433005658
 10
-9.024985689592591
 20
8.149500037701141
 10
-8.883733077993879
 20
8.149500037701141
  0
LWPOLYLINE
  5
367F
330
4317
100
AcDbEntity
  8
IMAGE
100
AcDbPolyline
 90
        4
 70
     1
 43
0.0
 10
-9.052619951038968
 20
8.392404913975664
 10
-9.024985689592591
 20
8.392404913975664
 10
-9.024985689592591
 20
8.134637556731135
 10
-9.052619951038968
 20
8.134637556731135
  0
LWPOLYLINE
  5
3680
330
4317
100
AcDbEntity
  8
IMAGE
100
AcDbPolyline
 90
        4
 70
     1
 43
0.0
 10
-9.193872562637681
 20
8.377542433005658
 10
-9.052619951038968
 20
8.377542433005658
 10
-9.052619951038968
 20
8.149500037701141
 10
-9.193872562637681
 20
8.149500037701141
  0
LWPOLYLINE
  5
3681
330
4317
100
AcDbEntity
  8
IMAGE
100
AcDbPolyline
 90
        2
 70
     0
 43
0.0
 10
-9.052619951038968
 20
8.365541785526735
 10
-9.024985689592591
 20
8.365541785526735
  0
LWPOLYLINE
  5
3682
330
4317
100
AcDbEntity
  8
IMAGE
100
AcDbPolyline
 90
        2
 70
     0
 43
0.0
 10
-9.052619951038968
 20
8.294566243927759
 10
-9.024985689592591
 20
8.294566243927759
  0
LWPOLYLINE
  5
3683
330
4317
100
AcDbEntity
  8
IMAGE
100
AcDbPolyline
 90
        2
 70
     0
 43
0.0
 10
-9.052619951038968
 20
8.208064806774659
 10
-9.024985689592591
 20
8.208064806774659
  0
LWPOLYLINE
  5
3684
330
4317
100
AcDbEntity
  8
IMAGE
100
AcDbPolyline
 90
        2
 70
     0
 43
0.0
 10
-9.052619951038968
 20
8.143743239479002
 10
-9.024985689592591
 20
8.143743239479002
  0
LWPOLYLINE
  5
36A4
330
4317
100
AcDbEntity
  8
IMAGE
100
AcDbPolyline
 90
        3
 70
     0
 43
0.0
 10
-8.883733077993879
 20
8.351201812423674
 10
-8.878232297943288
 20
8.364806692733154
 10
-8.871558112984967
 20
8.348861745744182
  0
TEXT
  5
37EC
330
4317
100
AcDbEntity
  8
TEXT_BUBBLES
100
AcDbText
 10
-6.73884465803254
 20
9.880666297194856
 30
0.0
 40
0.1250000018625
  1

  7
ROMANS
100
AcDbText
  0
TEXT
  5
37ED
330
4317
100
AcDbEntity
  8
TEXT_BUBBLES
100
AcDbText
 10
-6.73884465803254
 20
7.163089078186105
 30
0.0
 40
0.1250000018625
  1

  7
ROMANS
100
AcDbText
  0
TEXT
  5
37EE
330
4317
100
AcDbEntity
  8
TEXT_BUBBLES
100
AcDbText
 10
-6.73884465803254
 20
9.492440980193606
 30
0.0
 40
0.1250000018625
  1

  7
ROMANS
100
AcDbText
  0
TEXT
  5
37EF
330
4317
100
AcDbEntity
  8
TEXT_BUBBLES
100
AcDbText
 10
8.654576018149025
 20
4.261681985436662
 30
0.0
 40
0.1250000018625
  1

  7
ROMANS
100
AcDbText
  0
TEXT
  5
37F0
330
4317
100
AcDbEntity
  8
TEXT_BUBBLES
100
AcDbText
 10
8.654576018149025
 20
3.679308247147912
 30
0.0
 40
0.1250000018625
  1

  7
ROMANS
100
AcDbText
  0
TEXT
  5
37F1
330
4317
100
AcDbEntity
  8
TEXT_BUBBLES
100
AcDbText
 10
8.654576018149025
 20
3.873432826577912
 30
0.0
 40
0.1250000018625
  1

  7
ROMANS
100
AcDbText
  0
TEXT
  5
37F2
330
4317
100
AcDbEntity
  8
TEXT_BUBBLES
100
AcDbText
 10
8.654576018149025
 20
4.649931144296662
 30
0.0
 40
0.1250000018625
  1

  7
ROMANS
100
AcDbText
  0
TEXT
  5
37F3
330
4317
100
AcDbEntity
  8
TEXT_BUBBLES
100
AcDbText
 10
8.654576018149025
 20
5.620554041444162
 30
0.0
 40
0.1250000018625
  1

  7
ROMANS
100
AcDbText
  0
TEXT
  5
37F4
330
4317
100
AcDbEntity
  8
TEXT_BUBBLES
100
AcDbText
 10
8.654576018149025
 20
6.202927779732911
 30
0.0
 40
0.1250000018625
  1

  7
ROMANS
100
AcDbText
  0
TEXT
  5
37F5
330
4317
100
AcDbEntity
  8
TEXT_BUBBLES
100
AcDbText
 10
8.654576018149025
 20
6.008803200304162
 30
0.0
 40
0.1250000018625
  1

  7
ROMANS
100
AcDbText
  0
TEXT
  5
37F6
330
4317
100
AcDbEntity
  8
TEXT_BUBBLES
100
AcDbText
 10
-6.73884465803254
 20
6.386638444182356
 30
0.0
 40
0.1250000018625
  1

  7
ROMANS
100
AcDbText
  0
TEXT
  5
37F7
330
4317
100
AcDbEntity
  8
TEXT_BUBBLES
100
AcDbText
 10
8.654576018149025
 20
5.232304882585411
 30
0.0
 40
0.1250000018625
  1

  7
ROMANS
100
AcDbText
  0
TEXT
  5
37F8
330
4317
100
AcDbEntity
  8
TEXT_BUBBLES
100
AcDbText
 10
8.654576018149025
 20
5.038180303155412
 30
0.0
 40
0.1250000018625
  1

  7
ROMANS
100
AcDbText
  0
TEXT
  5
37F9
330
4317
100
AcDbEntity
  8
TEXT_BUBBLES
100
AcDbText
 10
-6.73884465803254
 20
8.521877687689855
 30
0.0
 40
0.1250000018625
  1

  7
ROMANS
100
AcDbText
  0
TEXT
  5
37FA
330
4317
100
AcDbEntity
  8
TEXT_BUBBLES
100
AcDbText
 10
-6.73884465803254
 20
10.46300427269735
 30
0.0
 40
0.1250000018625
  1

  7
ROMANS
100
AcDbText
  0
TEXT
  5
37FB
330
4317
100
AcDbEntity
  8
TEXT_BUBBLES
100
AcDbText
 10
-6.73884465803254
 20
8.910103004691105
 30
0.0
 40
0.1250000018625
  1

  7
ROMANS
100
AcDbText
  0
TEXT
  5
37FC
330
4317
100
AcDbEntity
  8
TEXT_BUBBLES
100
AcDbText
 10
-6.73884465803254
 20
7.551314395187355
 30
0.0
 40
0.1250000018625
  1

  7
ROMANS
100
AcDbText
  0
TEXT
  5
37FD
330
4317
100
AcDbEntity
  8
TEXT_BUBBLES
100
AcDbText
 10
-6.73884465803254
 20
6.774863761184856
 30
0.0
 40
0.1250000018625
  1

  7
ROMANS
100
AcDbText
  0
TEXT
  5
3800
330
4317
100
AcDbEntity
  8
TEXT_BUBBLES
100
AcDbText
 10
-6.73884465803254
 20
9.880666297194856
 30
0.0
 40
0.1250000018625
  1

  7
ROMANS
100
AcDbText
  0
TEXT
  5
3801
330
4317
100
AcDbEntity
  8
TEXT_BUBBLES
100
AcDbText
 10
-6.73884465803254
 20
7.163089078186105
 30
0.0
 40
0.1250000018625
  1

  7
ROMANS
100
AcDbText
  0
TEXT
  5
3802
330
4317
100
AcDbEntity
  8
TEXT_BUBBLES
100
AcDbText
 10
-6.73884465803254
 20
9.492440980193606
 30
0.0
 40
0.1250000018625
  1

  7
ROMANS
100
AcDbText
  0
TEXT
  5
3803
330
4317
100
AcDbEntity
  8
TEXT_BUBBLES
100
AcDbText
 10
8.654576018149025
 20
4.261681985436662
 30
0.0
 40
0.1250000018625
  1

  7
ROMANS
100
AcDbText
  0
TEXT
  5
3804
330
4317
100
AcDbEntity
  8
TEXT_BUBBLES
100
AcDbText
 10
8.654576018149025
 20
3.679308247147912
 30
0.0
 40
0.1250000018625
  1

  7
ROMANS
100
AcDbText
  0
TEXT
  5
3805
330
4317
100
AcDbEntity
  8
TEXT_BUBBLES
100
AcDbText
 10
8.654576018149025
 20
3.873432826577912
 30
0.0
 40
0.1250000018625
  1

  7
ROMANS
100
AcDbText
  0
TEXT
  5
3806
330
4317
100
AcDbEntity
  8
TEXT_BUBBLES
100
AcDbText
 10
8.654576018149025
 20
4.649931144296662
 30
0.0
 40
0.1250000018625
  1

  7
ROMANS
100
AcDbText
  0
TEXT
  5
3807
330
4317
100
AcDbEntity
  8
TEXT_BUBBLES
100
AcDbText
 10
8.654576018149025
 20
5.620554041444162
 30
0.0
 40
0.1250000018625
  1

  7
ROMANS
100
AcDbText
  0
TEXT
  5
3808
330
4317
100
AcDbEntity
  8
TEXT_BUBBLES
100
AcDbText
 10
8.654576018149025
 20
6.202927779732911
 30
0.0
 40
0.1250000018625
  1

  7
ROMANS
100
AcDbText
  0
TEXT
  5
3809
330
4317
100
AcDbEntity
  8
TEXT_BUBBLES
100
AcDbText
 10
8.654576018149025
 20
6.008803200304162
 30
0.0
 40
0.1250000018625
  1

  7
ROMANS
100
AcDbText
  0
TEXT
  5
380A
330
4317
100
AcDbEntity
  8
TEXT_BUBBLES
100
AcDbText
 10
-6.73884465803254
 20
6.386638444182356
 30
0.0
 40
0.1250000018625
  1

  7
ROMANS
100
AcDbText
  0
TEXT
  5
380B
330
4317
100
AcDbEntity
  8
TEXT_BUBBLES
100
AcDbText
 10
8.654576018149025
 20
5.232304882585411
 30
0.0
 40
0.1250000018625
  1

  7
ROMANS
100
AcDbText
  0
TEXT
  5
380C
330
4317
100
AcDbEntity
  8
TEXT_BUBBLES
100
AcDbText
 10
8.654576018149025
 20
5.038180303155412
 30
0.0
 40
0.1250000018625
  1

  7
ROMANS
100
AcDbText
  0
TEXT
  5
380D
330
4317
100
AcDbEntity
  8
TEXT_BUBBLES
100
AcDbText
 10
-6.73884465803254
 20
8.521877687689855
 30
0.0
 40
0.1250000018625
  1

  7
ROMANS
100
AcDbText
  0
TEXT
  5
380E
330
4317
100
AcDbEntity
  8
TEXT_BUBBLES
100
AcDbText
 10
-6.73884465803254
 20
10.46300427269735
 30
0.0
 40
0.1250000018625
  1

  7
ROMANS
100
AcDbText
  0
TEXT
  5
380F
330
4317
100
AcDbEntity
  8
TEXT_BUBBLES
100
AcDbText
 10
-6.73884465803254
 20
8.910103004691105
 30
0.0
 40
0.1250000018625
  1

  7
ROMANS
100
AcDbText
  0
TEXT
  5
3810
330
4317
100
AcDbEntity
  8
TEXT_BUBBLES
100
AcDbText
 10
-6.73884465803254
 20
7.551314395187355
 30
0.0
 40
0.1250000018625
  1

  7
ROMANS
100
AcDbText
  0
TEXT
  5
3811
330
4317
100
AcDbEntity
  8
TEXT_BUBBLES
100
AcDbText
 10
-6.73884465803254
 20
6.774863761184856
 30
0.0
 40
0.1250000018625
  1

  7
ROMANS
100
AcDbText
  0
TEXT
  5
3812
330
4317
100
AcDbEntity
  8
TEXT_LEADERS
100
AcDbText
 10
-6.42189793319097
 20
8.143080424844161
 30
0.0
 40
0.1250000018625
  1

  7
SIMPLEX
100
AcDbText
  0
TEXT
  5
3813
330
4317
100
AcDbEntity
  8
TEXT_BUBBLES
100
AcDbText
 10
-2.171547934717221
 20
2.603204630642911
 30
0.0
 40
0.1250000018625
  1

  7
SIMPLEX
100
AcDbText
  0
TEXT
  5
3814
330
4317
100
AcDbEntity
  8
TEXT_BUBBLES
100
AcDbText
 10
-2.171547934717221
 20
3.644871440111661
 30
0.0
 40
0.1250000018625
  1

  7
SIMPLEX
100
AcDbText
  0
TEXT
  5
3815
330
4317
100
AcDbEntity
  8
TEXT_BUBBLES
100
AcDbText
 10
-2.171547934717221
 20
3.228204723774162
 30
0.0
 40
0.1250000018625
  1

  7
SIMPLEX
100
AcDbText
  0
TEXT
  5
3816
330
4317
100
AcDbEntity
  8
TEXT_BUBBLES
100
AcDbText
 10
-2.171547934717221
 20
0.5198707695591623
 30
0.0
 40
0.1250000018625
  1

  7
SIMPLEX
100
AcDbText
  0
TEXT
  5
3817
330
4317
100
AcDbEntity
  8
TEXT_BUBBLES
100
AcDbText
 10
-2.171547934717221
 20
0.936537634907912
 30
0.0
 40
0.1250000018625
  1

  7
SIMPLEX
100
AcDbText
  0
TEXT
  5
3818
330
4317
100
AcDbEntity
  8
TEXT_BUBBLES
100
AcDbText
 10
-2.171547934717221
 20
4.269871663629162
 30
0.0
 40
0.1250000018625
  1

  7
SIMPLEX
100
AcDbText
  0
TEXT
  5
382D
330
4317
100
AcDbEntity
  8
TEXT_BUBBLES
100
AcDbText
 10
-12.10014079541572
 20
3.349383067666912
 30
0.0
 40
0.125
  1

  7
ROMANS
100
AcDbText
  0
TEXT
  5
382E
330
4317
100
AcDbEntity
  8
TEXT_BUBBLES
100
AcDbText
 10
-12.10014079541572
 20
3.754142951546912
 30
0.0
 40
0.125
  1

  7
ROMANS
100
AcDbText
  0
TEXT
  5
382F
330
4317
100
AcDbEntity
  8
TEXT_BUBBLES
100
AcDbText
 10
-12.10014079541572
 20
3.551763009606911
 30
0.0
 40
0.125
  1

  7
ROMANS
100
AcDbText
  0
TEXT
  5
3830
330
4317
100
AcDbEntity
  8
TEXT_BUBBLES
100
AcDbText
 10
-12.32937480539672
 20
3.884322952805911
 30
0.0
 40
0.125
  1

  7
ROMANS
100
AcDbText
  0
TEXT
  5
3831
330
4317
100
AcDbEntity
  8
TEXT_BUBBLES
100
AcDbText
 10
-12.32937480539672
 20
3.593123030244911
 30
0.0
 40
0.125
  1

  7
ROMANS
100
AcDbText
  0
TEXT
  5
3832
330
4317
100
AcDbEntity
  8
TEXT_BUBBLES
100
AcDbText
 10
-12.32937480539672
 20
3.447523068963912
 30
0.0
 40
0.125
  1

  7
ROMANS
100
AcDbText
  0
TEXT
  5
3833
330
4317
100
AcDbEntity
  8
TEXT_BUBBLES
100
AcDbText
 10
-12.32937480539672
 20
3.301923107682911
 30
0.0
 40
0.125
  1

  7
ROMANS
100
AcDbText
  0
TEXT
  5
3834
330
4317
100
AcDbEntity
  8
TEXT_BUBBLES
100
AcDbText
 10
-12.32937480539672
 20
4.175522875367912
 30
0.0
 40
0.125
  1

  7
ROMANS
100
AcDbText
  0
TEXT
  5
3835
330
4317
100
AcDbEntity
  8
TEXT_BUBBLES
100
AcDbText
 10
-12.32937480539672
 20
3.156323146401911
 30
0.0
 40
0.125
  1

  7
ROMANS
100
AcDbText
  0
TEXT
  5
3836
330
4317
100
AcDbEntity
  8
TEXT_BUBBLES
100
AcDbText
 10
-12.32937480539672
 20
2.865123223840912
 30
0.0
 40
0.125
  1

  7
ROMANS
100
AcDbText
  0
CIRCLE
  5
3932
330
4317
100
AcDbEntity
  8
TEXT_BUBBLES
100
AcDbCircle
 10
-9.010688548842008
 20
6.622604771654504
 30
0.0
 40
0.1562887347020049
  0
TEXT
  5
3934
330
4317
100
AcDbEntity
  8
TEXT_BUBBLES
100
AcDbText
 10
-9.07320404272281
 20
6.560089277773702
 30
0.0
 40
0.1250309877616039
  1
4
  7
ROMANS
 72
     4
 11
-9.010688548842008
 21
6.622604771654504
 31
0.0
100
AcDbText
  0
LWPOLYLINE
  5
394A
330
4317
100
AcDbEntity
  8
IMAGE
100
AcDbPolyline
 90
        4
 70
     0
 43
0.0
 10
-10.84583525383754
 20
3.203567235477416
 42
0.0291374776558967
 10
-10.7003139416422
 20
3.184475248666766
 42
0.0861727378812992
 10
-10.61853957172382
 20
3.192657515195522
 42
-0.0598140808451038
 10
-10.54653708738015
 20
3.203698910727116
 42
-0.0598140808451038
  0
LWPOLYLINE
  5
394B
330
4317
100
AcDbEntity
  8
IMAGE
100
AcDbPolyline
 90
        4
 70
     0
 43
0.0
 10
-10.84583525383754
 20
3.216295485345874
 42
0.0296162607954267
 10
-10.69941230480246
 20
3.196942688300032
 42
0.0861727378812996
 10
-10.62189356256814
 20
3.204699140725995
 42
-0.060136404660153
 10
-10.54653708738015
 20
3.216205324479735
 42
-0.060136404660153
  0
LWPOLYLINE
  5
394C
330
4317
100
AcDbEntity
  8
IMAGE
100
AcDbPolyline
 90
        4
 70
     0
 43
0.0
 10
-10.84583525383754
 20
3.229028484324794
 42
0.0301049294621438
 10
-10.69851066796271
 20
3.209410127933297
 42
0.0861727378812989
 10
-10.62524755341246
 20
3.216740766256469
 42
-0.0604343501283955
 10
-10.54653708738015
 20
3.228711252804952
 42
-0.0604343501283955
  0
LWPOLYLINE
  5
394D
330
4317
100
AcDbEntity
  8
IMAGE
100
AcDbPolyline
 90
        6
 70
     0
 43
0.0
 10
-10.54653708738015
 20
3.335376746962316
 10
-10.54653708738015
 20
3.199999402599127
 10
-10.57202702215435
 20
3.187545120608891
 10
-10.52050106001413
 20
3.180679055354968
 10
-10.54653708738015
 20
3.169330977798267
 10
-10.54653708738015
 20
3.027870710075504
  0
TEXT
  5
39E4
330
4317
100
AcDbEntity
  8
TEXT_LEADERS
100
AcDbText
 10
-6.840405482163992
 20
2.570783309471954
 30
0.0
 40
0.1250000018625
  1
WIRE TO IRRIGATION CONTROLLER
  7
ROMANS
100
AcDbText
  0
TEXT
  5
39E5
330
4317
100
AcDbEntity
  8
TEXT_LEADERS
100
AcDbText
 10
-6.833455437540899
 20
8.561400544206311
 30
0.0
 40
0.1250000018625
  1
RAIN SENSOR: 
  7
ROMANS
100
AcDbText
  0
TEXT
  5
39E7
330
4317
100
AcDbEntity
  8
TEXT_LEADERS
100
AcDbText
 10
-6.840405482163992
 20
7.514961407264582
 30
0.0
 40
0.1250000018625
  1
FEMALE ADAPTER (SLIP X FIPT)
  7
ROMANS
100
AcDbText
  0
LWPOLYLINE
  5
3A74
330
4317
100
AcDbEntity
  8
IMAGE
100
AcDbPolyline
 90
        2
 70
     0
 43
0.0
 10
-9.66909870876295
 20
3.447277258240212
 10
-9.66909870876295
 20
5.719200485386753
  0
LWPOLYLINE
  5
3A75
330
4317
100
AcDbEntity
  8
IMAGE
100
AcDbPolyline
 90
        2
 70
     0
 43
0.0
 10
-9.467579845734373
 20
8.008247426102428
 10
-9.467579845734373
 20
5.98872768584507
  0
LWPOLYLINE
  5
3A76
330
4317
100
AcDbEntity
  8
IMAGE
100
AcDbPolyline
 90
        9
 70
     1
 43
0.0
 10
-9.682527360875356
 20
8.263521235353376
 42
-0.4142135623730974
 10
-9.568506163223121
 20
8.377542433005658
 10
-9.45448496557084
 20
8.377542433005658
 10
-9.313232353972127
 20
8.377542433005658
 10
-9.313232353972127
 20
8.149500037701141
 10
-9.45448496557084
 20
8.149500037701141
 10
-9.45448496557084
 20
8.008247426102428
 10
-9.682527360875356
 20
8.008247426102428
 10
-9.682527360875356
 20
8.149500037701141
  0
LWPOLYLINE
  5
3A77
330
4317
100
AcDbEntity
  8
IMAGE
100
AcDbPolyline
 90
        2
 70
     0
 43
0.0
 10
-9.31323725134213
 20
8.162465879227028
 10
-9.193872562637681
 20
8.162510964850259
  0
LWPOLYLINE
  5
3A78
330
4317
100
AcDbEntity
  8
IMAGE
100
AcDbPolyline
 90
        2
 70
     0
 43
0.0
 10
-9.313232353972127
 20
8.364576590554872
 10
-9.193872562637681
 20
8.364576590554872
  0
LWPOLYLINE
  5
3A79
330
4317
100
AcDbEntity
  8
IMAGE
100
AcDbPolyline
 90
        9
 70
     1
 43
0.0
 10
-9.45448496557084
 20
3.192003448989265
 42
-0.4142135623730974
 10
-9.568506163223075
 20
3.077982251336983
 10
-9.682527360875356
 20
3.077982251336983
 10
-9.823779972474069
 20
3.077982251336983
 10
-9.823779972474069
 20
3.3060246466415
 10
-9.682527360875356
 20
3.3060246466415
 10
-9.682527360875356
 20
3.447277258240212
 10
-9.45448496557084
 20
3.447277258240212
 10
-9.45448496557084
 20
3.3060246466415
  0
LWPOLYLINE
  5
3A88
330
4317
100
AcDbEntity
  8
IMAGE
100
AcDbPolyline
 90
        2
 70
     0
 43
0.0
 10
-10.54653708738015
 20
3.293058804190714
 10
-9.823779972474069
 20
3.293058804190714
  0
LWPOLYLINE
  5
3A89
330
4317
100
AcDbEntity
  8
IMAGE
100
AcDbPolyline
 90
        2
 70
     0
 43
0.0
 10
-10.54653708738015
 20
3.090947097599689
 10
-9.823779972474069
 20
3.090993178486101
  0
TEXT
  5
3AA6
330
4317
100
AcDbEntity
  8
TEXT_LEADERS
100
AcDbText
 10
-6.840405482163992
 20
6.93976865045349
 30
0.0
 40
0.1250000018625
  1
GALVANIZED 90%%D EL (1 OF 2)
  7
ROMANS
100
AcDbText
  0
TEXT
  5
3AAD
330
4317
100
AcDbEntity
  8
TEXT_LEADERS
100
AcDbText
 10
-6.840405482163992
 20
6.211810789868422
 30
0.0
 40
0.1250000018625
  1
3/4-INCH GALVAVIZED PIPE
  7
ROMANS
100
AcDbText
  0
LWPOLYLINE
  5
3AAE
330
4317
100
AcDbEntity
  8
IMAGE
100
AcDbPolyline
 90
        6
 70
     0
 43
0.0
 10
-9.415328320125457
 20
5.98872768584507
 10
-9.550705664488646
 20
5.98872768584507
 10
-9.563159946478881
 20
6.014217620619266
 10
-9.570026011732805
 20
5.962691658479046
 10
-9.581374089289505
 20
5.98872768584507
 10
-9.722834357012269
 20
5.98872768584507
  0
LWPOLYLINE
  5
3AAF
330
4317
100
AcDbEntity
  8
IMAGE
100
AcDbPolyline
 90
        6
 70
     0
 43
0.0
 10
-9.415328320125457
 20
5.719200485386753
 10
-9.550705664488646
 20
5.719200485386753
 10
-9.563159946478881
 20
5.744690420160949
 10
-9.570026011732805
 20
5.69316445802073
 10
-9.581374089289505
 20
5.719200485386753
 10
-9.722834357012269
 20
5.719200485386753
  0
LWPOLYLINE
  5
3AB0
330
4317
100
AcDbEntity
  8
IMAGE
100
AcDbPolyline
 90
        2
 70
     0
 43
0.0
 10
-9.467579845734373
 20
5.719200485386753
 10
-9.467579845734373
 20
3.447277258240212
  0
LWPOLYLINE
  5
3AB1
330
4317
100
AcDbEntity
  8
IMAGE
100
AcDbPolyline
 90
        2
 70
     0
 43
0.0
 10
-9.66909870876295
 20
5.98872768584507
 10
-9.66909870876295
 20
8.008247426102428
  0
DIMENSION
  5
3ABF
330
4317
100
AcDbEntity
  8
IMAGE
100
AcDbDimension
  2
*D2
 10
-10.34885058590052
 20
4.111545898134062
 30
0.0
 11
-10.34885058590052
 21
6.18753356674373
 31
0.0
 70
    32
  1
8' MIN.
 71
     5
 42
4.151975337219337
  3
STANDARD
100
AcDbAlignedDimension
 13
-9.682527360875356
 23
8.263521235353399
 33
0.0
 14
-9.66909870876295
 24
4.111545898134062
 34
0.0
 50
90.0
100
AcDbRotatedDimension
1001
ACAD
1000
DSTYLE
1002
{
1070
   140
1040
0.125
1070
   340
1005
1F
1002
}
  0
LWPOLYLINE
  5
3AD8
330
4317
100
AcDbEntity
  8
IMAGE
100
AcDbPolyline
 90
        2
 70
     0
 43
0.0
 10
-9.66909870876295
 20
4.111545898134062
 10
-11.43238021154994
 20
4.111545898134062
  0
LWPOLYLINE
  5
3AD9
330
4317
100
AcDbEntity
  8
IMAGE
100
AcDbPolyline
 90
        2
 70
     0
 43
0.0
 10
-9.467913617683246
 20
4.111545898134062
 10
-7.815865999831959
 20
4.111545898134062
  0
TEXT
  5
3AF4
330
4317
100
AcDbEntity
  8
TEXT_LEADERS
100
AcDbText
 10
-6.840405482163992
 20
4.059232656071911
 30
0.0
 40
0.1250000018625
  1
FINISHED GRADE
  7
ROMANS
100
AcDbText
  0
LWPOLYLINE
  5
3AF6
330
4317
100
AcDbEntity
  8
IMAGE
100
AcDbPolyline
 90
        2
 70
     0
 43
0.0
 10
-10.16035691653102
 20
4.111545898134062
 10
-10.08665283675168
 20
3.293058804190714
  0
LWPOLYLINE
  5
3AF7
330
4317
100
AcDbEntity
  8
IMAGE
100
AcDbPolyline
 90
        6
 70
     0
 43
0.0
 10
-10.06845559103209
 20
3.090977578682026
 10
-10.04959280563007
 20
2.881505505309752
 10
-9.717300378205841
 20
2.75235709877838
 10
-9.255783149468197
 20
2.826156199118569
 10
-9.200401078230825
 20
2.863055730224703
 10
-9.034254864518707
 20
4.111545898134062
  0
INSERT
  5
3B27
330
4317
100
AcDbEntity
  8
IMAGE
  6
Continuous
100
AcDbBlockReference
  2
*X0
 10
0.0
 20
0.0
 30
0.0
1001
ACAD
1000
HATCH
1002
{
1070
    19
1000
AR-CONC
1040
0.08
1040
0.0
1000
R14_HATCH_DATA
1000
3B27
1011
1.0
1021
0.0
1031
0.0
1011
0.0
1021
1.0
1031
0.0
1011
0.0
1021
0.0
1031
1.0
1040
0.0
1010
0.0
1020
0.0
1030
1.0
1000
AR-CONC
1070
     0
1070
     1
1071
        2
1071
        7
1070
     1
1070
     1
1071
       15
1040
-9.034254864518706
1040
4.111545898134062
1040
0.0
1040
-9.467579845734373
1040
4.111545898134061
1040
0.0
1040
-9.467579845734373
1040
3.447277258240213
1040
0.0
1040
-9.45448496557084
1040
3.447277258240212
1040
0.0
1040
-9.45448496557084
1040
3.3060246466415
1040
0.0
1040
-9.45448496557084
1040
3.192003448989241
1040
-0.4142135623730962
1040
-9.568506163223098
1040
3.077982251336983
1040
0.0
1040
-9.682527360875356
1040
3.077982251336983
1040
0.0
1040
-9.823779972474069
1040
3.077982251336983
1040
0.0
1040
-9.823779972474071
1040
3.090993178486101
1040
0.0
1040
-10.06845559103209
1040
3.090977578682026
1040
0.0
1040
-10.04959280563007
1040
2.881505505309751
1040
0.0
1040
-9.717300378205843
1040
2.75235709877838
1040
0.0
1040
-9.255783149468198
1040
2.826156199118569
1040
0.0
1040
-9.200401078230823
1040
2.863055730224701
1040
0.0
1071
        5
1005
3AD9
1005
3AB0
1005
3A79
1005
3A89
1005
3AF7
1071
        7
1070
     0
1070
     1
1071
        8
1040
-9.66909870876295
1040
4.111545898134062
1040
-10.16035691653102
1040
4.111545898134062
1040
-10.08665283675168
1040
3.293058804190714
1040
-9.823779972474071
1040
3.293058804190714
1040
-9.823779972474069
1040
3.3060246466415
1040
-9.682527360875356
1040
3.3060246466415
1040
-9.682527360875354
1040
3.447277258240212
1040
-9.66909870876295
1040
3.447277258240212
1071
        5
1005
3AD8
1005
3AF6
1005
3A88
1005
3A79
1005
3A74
1070
     0
1070
     1
1040
0.0
1040
0.08
1070
     0
1070
    13
1040
0.8726646259971648
1040
0.0
1040
0.0
1040
0.5738081460806029
1040
-0.0502017079860761
1070
     2
1040
0.06
1040
-0.6600000000000001
1040
6.195918844579869
1040
0.0
1040
0.0
1040
-0.1110010668904
1040
0.6017537069600096
1070
     2
1040
0.048
1040
-0.5280000000000001
1040
1.753207668237831
1040
0.047817344
1040
-0.004183472
1040
0.4628075053712174
1040
0.5515516336487629
1070
     2
1040
0.050992152
1040
-0.5609136896
1040
0.8060663523995652
1040
0.0
1040
0.16
1040
0.8537928389005156
1040
-0.1324152114632145
1070
     2
1040
0.09
1040
-0.99
1040
1.686609394640232
1040
0.071149396
1040
0.1489653544
1040
0.7477301644389627
1040
0.7792942967203535
1070
     2
1040
0.0764882304
1040
-0.8413703999999999
1040
6.12932057098227
1040
0.0
1040
0.16
1040
0.7477295561069017
1040
0.7792948807402597
1070
     2
1040
0.072
1040
-0.792
1040
0.3665191429188092
1040
0.08
1040
0.12
1040
0.4775256416947694
1040
-0.3220951125322711
1070
     2
1040
0.06
1040
-0.6600000000000001
1040
5.689773361501514
1040
0.08
1040
0.12
1040
0.1946522655372654
1040
0.5801200360374824
1070
     2
1040
0.048
1040
-0.5280000000000001
1040
1.247062185159476
1040
0.1197937864
1040
0.0931587152
1040
0.672178102865192
1040
0.2580243973679619
1070
     2
1040
0.050992152
1040
-0.5609136896
1040
0.6544984694978737
1040
0.0
1040
0.0
1040
0.0097278842538325
1040
0.2663150830650492
1070
     6
1040
0.0
1040
-0.5216
1040
0.0
1040
-0.5360000000000001
1040
0.0
1040
-0.5300000000000001
1040
0.1308996938995747
1040
0.0
1040
0.0
1040
0.2104556299537189
1040
0.3155293695058882
1070
     6
1040
0.0
1040
-0.3056
1040
0.0
1040
-0.5096
1040
0.0
1040
-0.202
1040
5.715953300281428
1040
-0.1784
1040
0.0
1040
0.4270579489379273
1040
-0.0180438973875039
1070
     6
1040
0.0
1040
-0.2
1040
0.0
1040
-0.6240000000000001
1040
0.0
1040
-0.8279999999999999
1040
5.541420375081996
1040
-0.2584
1040
0.0
1040
0.466548935473909
1040
0.0800839858658541
1070
     6
1040
0.0
1040
-0.26
1040
0.0
1040
-0.4144000000000001
1040
0.0
1040
-0.588
1040
0.0092248862621084
1071
        2
1040
-9.237322459055739
1040
3.508797781945519
1040
0.0
1040
-10.01267142480515
1040
3.748644819923212
1040
0.0
1002
}
  0
TEXT
  5
3B4D
330
4317
100
AcDbEntity
  8
TEXT_LEADERS
100
AcDbText
 10
-6.840405482163992
 20
3.314130184535393
 30
0.0
 40
0.1250000018625
  1
CONCRETE BASE
  7
ROMANS
100
AcDbText
  0
TEXT
  5
3B74
330
4317
100
AcDbEntity
  8
TEXT_BUBBLES
100
AcDbText
 10
-6.840405482163992
 20
6.353804542666924
 30
0.0
 40
0.1250000018625
  1
WIRE TO IRRIGATION CONTROLLER
  7
ROMANS
100
AcDbText
  0
TEXT
  5
3B75
330
4317
100
AcDbEntity
  8
TEXT_BUBBLES
100
AcDbText
 10
-6.840405482163992
 20
6.718005714568963
 30
0.0
 40
0.1250000018625
  1
CONCRETE BASE
  7
ROMANS
100
AcDbText
  0
TEXT
  5
3B76
330
4317
100
AcDbEntity
  8
TEXT_BUBBLES
100
AcDbText
 10
-6.840405482163992
 20
7.082206886471002
 30
0.0
 40
0.1250000018625
  1
FINISHED GRADE
  7
ROMANS
100
AcDbText
  0
TEXT
  5
3B77
330
4317
100
AcDbEntity
  8
TEXT_BUBBLES
100
AcDbText
 10
-6.840405482163992
 20
7.81060923027508
 30
0.0
 40
0.1250000018625
  1
GALVANIZED 90%%D EL (1 OF 2)
  7
ROMANS
100
AcDbText
  0
TEXT
  5
3B78
330
4317
100
AcDbEntity
  8
TEXT_BUBBLES
100
AcDbText
 10
-6.840405482163992
 20
7.446408058373041
 30
0.0
 40
0.1250000018625
  1
3/4-INCH GALVAVIZED PIPE
  7
ROMANS
100
AcDbText
  0
TEXT
  5
3B79
330
4317
100
AcDbEntity
  8
TEXT_BUBBLES
100
AcDbText
 10
-6.840405482163992
 20
8.539011574079157
 30
0.0
 40
0.1250000018625
  1
RAIN SENSOR:  RAIN BIRD RSD-CEx
  7
ROMANS
100
AcDbText
  0
TEXT
  5
3B7A
330
4317
100
AcDbEntity
  8
TEXT_BUBBLES
100
AcDbText
 10
-6.840405482163992
 20
8.174810402177119
 30
0.0
 40
0.1250000018625
  1
FEMALE ADAPTER (SLIP X FIPT)
  7
ROMANS
100
AcDbText
  0
CIRCLE
  5
3B7B
330
4317
100
AcDbEntity
  8
TEXT_BUBBLES
100
AcDbCircle
 10
-7.048461654073456
 20
6.787207619176966
 30
0.0
 40
0.1562887347020049
  0
TEXT
  5
3B7C
330
4317
100
AcDbEntity
  8
TEXT_BUBBLES
100
AcDbText
 10
-7.110977147954258
 20
6.724692125296163
 30
0.0
 40
0.1250309877616039
  1
6
  7
ROMANS
 72
     4
 11
-7.048461654073456
 21
6.787207619176966
 31
0.0
100
AcDbText
  0
CIRCLE
  5
3B7D
330
4317
100
AcDbEntity
  8
TEXT_BUBBLES
100
AcDbCircle
 10
-7.048461654073456
 20
6.423006447274928
 30
0.0
 40
0.1562887347020049
  0
TEXT
  5
3B7E
330
4317
100
AcDbEntity
  8
TEXT_BUBBLES
100
AcDbText
 10
-7.108000219674219
 20
6.360490953394125
 30
0.0
 40
0.1250309877616039
  1
7
  7
ROMANS
 72
     4
 11
-7.048461654073456
 21
6.423006447274928
 31
0.0
100
AcDbText
  0
CIRCLE
  5
3B7F
330
4317
100
AcDbEntity
  8
TEXT_BUBBLES
100
AcDbCircle
 10
-7.733319921403392
 20
8.555543759987401
 30
0.0
 40
0.1562887347020049
  0
TEXT
  5
3B80
330
4317
100
AcDbEntity
  8
TEXT_BUBBLES
100
AcDbText
 10
-7.783927702164041
 20
8.493028266106598
 30
0.0
 40
0.1250309877616039
  1
1
  7
ROMANS
 72
     4
 11
-7.733319921403392
 21
8.555543759987401
 31
0.0
100
AcDbText
  0
CIRCLE
  5
3B88
330
4317
100
AcDbEntity
  8
TEXT_BUBBLES
100
AcDbCircle
 10
-9.250147452169549
 20
7.610076668790778
 30
0.0
 40
0.1562887347020049
  0
TEXT
  5
3B89
330
4317
100
AcDbEntity
  8
TEXT_BUBBLES
100
AcDbText
 10
-9.309686017770314
 20
7.547561174909976
 30
0.0
 40
0.1250309877616039
  1
3
  7
ROMANS
 72
     4
 11
-9.250147452169549
 21
7.610076668790778
 31
0.0
100
AcDbText
  0
CIRCLE
  5
3B8D
330
4317
100
AcDbEntity
  8
TEXT_BUBBLES
100
AcDbCircle
 10
-9.096161759115924
 20
4.614231735883715
 30
0.0
 40
0.1562887347020049
  0
TEXT
  5
3B8E
330
4317
100
AcDbEntity
  8
TEXT_BUBBLES
100
AcDbText
 10
-9.155700324716688
 20
4.551716242002913
 30
0.0
 40
0.1250309877616039
  1
5
  7
ROMANS
 72
     4
 11
-9.096161759115924
 21
4.614231735883715
 31
0.0
100
AcDbText
  0
CIRCLE
  5
3B90
330
4317
100
AcDbEntity
  8
TEXT_BUBBLES
100
AcDbCircle
 10
-8.639547363885217
 20
3.425492583642093
 30
0.0
 40
0.1562887347020049
  0
TEXT
  5
3B91
330
4317
100
AcDbEntity
  8
TEXT_BUBBLES
100
AcDbText
 10
-8.702062857766019
 20
3.362977089761291
 30
0.0
 40
0.1250309877616039
  1
6
  7
ROMANS
 72
     4
 11
-8.639547363885217
 21
3.425492583642093
 31
0.0
100
AcDbText
  0
CIRCLE
  5
3B93
330
4317
100
AcDbEntity
  8
TEXT_BUBBLES
100
AcDbCircle
 10
-11.0786966686897
 20
3.746250214998667
 30
0.0
 40
0.1562887347020049
  0
TEXT
  5
3B94
330
4317
100
AcDbEntity
  8
TEXT_BUBBLES
100
AcDbText
 10
-11.13823523429046
 20
3.683734721117865
 30
0.0
 40
0.1250309877616039
  1
7
  7
ROMANS
 72
     4
 11
-11.0786966686897
 21
3.746250214998667
 31
0.0
100
AcDbText
  0
TEXT
  5
4345
330
4317
100
AcDbEntity
  8
TEXT_LEADERS
100
AcDbText
 10
-6.833455437540899
 20
8.367276012079569
 30
0.0
 40
0.1250000018625
  1
  RAIN BIRD RSD-CEx
  7
ROMANS
100
AcDbText
  0
INSERT
  5
4358
330
4317
100
AcDbEntity
  8
TITLE
 62
    42
100
AcDbBlockReference
 66
     1
  2
TITLBLK
 10
-11.41908770058132
 20
1.494659364326571
 30
0.0
  0
ATTRIB
  5
4359
330
4358
100
AcDbEntity
  8
TITLE
100
AcDbText
 10
-10.79408770058132
 20
1.594659364326571
 30
0.0
 40
0.2
  1
RAIN SENSOR
  7
L200
100
AcDbAttribute
  2
TITLE2
 70
     0
  0
ATTRIB
  5
435A
330
4358
100
AcDbEntity
  8
TITLE
100
AcDbText
 10
-11.51997446729346
 20
1.394659364326571
 30
0.0
 40
0.2
  1
D
  7
L200
 72
     4
 11
-11.41908770058132
 21
1.494659364326571
 31
0.0
100
AcDbAttribute
  2
#
 70
     0
  0
ATTRIB
  5
435B
330
4358
100
AcDbEntity
  8
TITLE
 62
     7
100
AcDbText
 10
-10.79408770058132
 20
1.310996047243693
 30
0.0
 40
0.1
  1
N.T.S.
  7
L100
100
AcDbAttribute
  2
SCALE
 70
     0
  0
ATTRIB
  5
435C
330
4358
100
AcDbEntity
  8
TITLE
100
AcDbText
 10
-9.311884319927491
 20
1.203225034306522
 30
0.0
 40
0.2
  1
RSD-CEx POLE MOUNT
  7
L200
100
AcDbAttribute
  2
TITLE3
 70
     0
  0
ATTRIB
  5
435D
330
4358
100
AcDbEntity
  8
TITLE
 62
     7
100
AcDbText
 10
-11.77677696515601
 20
0.6951439158689253
 30
0.0
 40
0.08
  1
C-RSD-CEx POLE MOUNT.DWG
  7
L80
 72
     2
 11
-9.902491250870301
 21
0.6951439158689253
 31
0.0
100
AcDbAttribute
  2
DWG-NAME
 70
     0
  0
ATTRIB
  5
435E
330
4358
100
AcDbEntity
  8
TITLE
 62
     7
100
AcDbText
 10
-4.335934288748472
 20
1.580035059392843
 30
0.0
 40
0.08
  1
1-07-04
  7
L80
 72
     2
 11
-3.764505717319901
 21
1.580035059392843
 31
0.0
100
AcDbAttribute
  2
REVISED
 70
     0
  0
ATTRIB
  5
435F
330
4358
100
AcDbEntity
  8
TITLE
100
AcDbText
 10
-10.79408770058132
 20
1.954144570594954
 30
0.0
 40
0.2
  1

  7
L200
100
AcDbAttribute
  2
TITLE1
 70
     0
  0
ATTRIB
  5
4360
330
4358
100
AcDbEntity
  8
TITLE
100
AcDbText
 10
-9.311884319927491
 20
0.8796883486649779
 30
0.0
 40
0.2
  1

  7
L200
100
AcDbAttribute
  2
TITLE4
 70
     0
  0
SEQEND
  5
4361
330
4358
100
AcDbEntity
  8
TEXT_BUBBLES
 62
    40
  0
LWPOLYLINE
  5
4362
330
4317
100
AcDbEntity
  8
IMAGE
100
AcDbPolyline
 90
        4
 70
     1
 43
0.0
 10
-12.0255300710958
 20
0.610432267848204
 10
4.464469928904192
 20
0.6104322678482042
 10
4.464469928904192
 20
11.0504322678482
 10
-12.0255300710958
 20
11.0504322678482
  0
LEADER
  5
437E
330
4317
100
AcDbEntity
  8
TEXT_BUBBLES
100
AcDbLeader
  3
STANDARD
 76
     2
 10
-8.331034051074627
 20
8.492232773717212
 30
0.0
 10
-7.889608656105397
 20
8.555543759987401
 30
0.0
1001
ACAD
1000
DSTYLE
1002
{
1070
   147
1040
0.09
1070
    77
1070
     0
1002
}
  0
LEADER
  5
437F
330
4317
100
AcDbEntity
  8
TEXT_BUBBLES
100
AcDbLeader
  3
STANDARD
 76
     2
 10
-8.961109001383738
 20
8.149500037701141
 30
0.0
 10
-8.729644561201698
 20
7.766365403492783
 30
0.0
1001
ACAD
1000
DSTYLE
1002
{
1070
   147
1040
0.09
1070
    77
1070
     0
1002
}
  0
LEADER
  5
4380
330
4317
100
AcDbEntity
  8
TEXT_BUBBLES
100
AcDbLeader
  3
STANDARD
 76
     2
 10
-9.377790944874064
 20
8.149500037701141
 30
0.0
 10
-9.250147452169549
 20
7.766365403492783
 30
0.0
1001
ACAD
1000
DSTYLE
1002
{
1070
   147
1040
0.09
1070
    77
1070
     0
1002
}
  0
LEADER
  5
4381
330
4317
100
AcDbEntity
  8
TEXT_BUBBLES
100
AcDbLeader
  3
STANDARD
 76
     2
 10
-9.467579845734373
 20
7.005417424910167
 30
0.0
 10
-9.166977283544012
 20
6.622604771654504
 30
0.0
1001
ACAD
1000
DSTYLE
1002
{
1070
   147
1040
0.09
1070
    77
1070
     0
1002
}
  0
LEADER
  5
4382
330
4317
100
AcDbEntity
  8
TEXT_BUBBLES
100
AcDbLeader
  3
STANDARD
 76
     2
 10
-8.776162139266672
 20
4.111545898134062
 30
0.0
 10
-8.93987302441392
 20
4.614231735883715
 30
0.0
1001
ACAD
1000
DSTYLE
1002
{
1070
   147
1040
0.09
1070
    77
1070
     0
1002
}
  0
LEADER
  5
4383
330
4317
100
AcDbEntity
  8
TEXT_BUBBLES
100
AcDbLeader
  3
STANDARD
 76
     2
 10
-9.067220289499312
 20
3.863830298424092
 30
0.0
 10
-8.795836098587221
 20
3.425492583642093
 30
0.0
1001
ACAD
1000
DSTYLE
1002
{
1070
   147
1040
0.09
1070
    77
1070
     0
1002
}
  0
LEADER
  5
4385
330
4317
100
AcDbEntity
  8
TEXT_BUBBLES
100
AcDbLeader
  3
STANDARD
 76
     2
 10
-10.69851066796271
 20
3.209410127933297
 30
0.0
 10
-10.92240793398769
 20
3.746250214998667
 30
0.0
1001
ACAD
1000
DSTYLE
1002
{
1070
   147
1040
0.09
1070
    77
1070
     0
1002
}
  0
LEADER
  5
4388
330
4317
100
AcDbEntity
  8
TEXT_LEADERS
100
AcDbLeader
  3
STANDARD
 76
     3
 10
-8.344307382106563
 20
8.631557187490626
 30
0.0
 10
-7.232018026687894
 20
8.631557187490626
 30
0.0
 10
-6.856715771369723
 20
8.631557187490626
 30
0.0
1001
ACAD
1000
DSTYLE
1002
{
1070
   147
1040
0.09
1070
    77
1070
     0
1002
}
  0
LEADER
  5
4389
330
4317
100
AcDbEntity
  8
TEXT_LEADERS
100
AcDbLeader
  3
STANDARD
 76
     3
 10
-8.976478339693365
 20
8.149500037701141
 30
0.0
 10
-8.364874721518875
 20
7.575733192480348
 30
0.0
 10
-6.856715771369723
 20
7.575733192480348
 30
0.0
1001
ACAD
1000
DSTYLE
1002
{
1070
   147
1040
0.09
1070
    77
1070
     0
1002
}
  0
LEADER
  5
438A
330
4317
100
AcDbEntity
  8
TEXT_LEADERS
100
AcDbLeader
  3
STANDARD
 76
     3
 10
-9.45448496557084
 20
8.149500037701141
 30
0.0
 10
-8.364874721518875
 20
7.006065497905128
 30
0.0
 10
-6.849765726746631
 20
7.006065497905128
 30
0.0
1001
ACAD
1000
DSTYLE
1002
{
1070
   147
1040
0.09
1070
    77
1070
     0
1002
}
  0
LEADER
  5
438B
330
4317
100
AcDbEntity
  8
TEXT_LEADERS
100
AcDbLeader
  3
STANDARD
 76
     3
 10
-9.467579845734373
 20
6.276612944979942
 30
0.0
 10
-7.238968032728779
 20
6.276612944979942
 30
0.0
 10
-6.849765726746631
 20
6.276612944979942
 30
0.0
1001
ACAD
1000
DSTYLE
1002
{
1070
   147
1040
0.09
1070
    77
1070
     0
1002
}
  0
LEADER
  5
438C
330
4317
100
AcDbEntity
  8
TEXT_LEADERS
100
AcDbLeader
  3
STANDARD
 76
     3
 10
-7.815865999831959
 20
4.111545898134062
 30
0.0
 10
-7.170372725097897
 20
4.111545898134062
 30
0.0
 10
-6.843720782141375
 20
4.111545898134062
 30
0.0
1001
ACAD
1000
DSTYLE
1002
{
1070
   147
1040
0.09
1070
    77
1070
     0
1002
}
  0
LEADER
  5
438D
330
4317
100
AcDbEntity
  8
TEXT_LEADERS
100
AcDbLeader
  3
STANDARD
 76
     3
 10
-9.131779849811596
 20
3.378703526687368
 30
0.0
 10
-7.615175349482579
 20
3.378703526687368
 30
0.0
 10
-6.836770737518283
 20
3.378703526687368
 30
0.0
1001
ACAD
1000
DSTYLE
1002
{
1070
   147
1040
0.09
1070
    77
1070
     0
1002
}
  0
LEADER
  5
438E
330
4317
100
AcDbEntity
  8
TEXT_LEADERS
100
AcDbLeader
  3
STANDARD
 76
     3
 10
-10.7003139416422
 20
3.184475248666766
 30
0.0
 10
-10.4299419942934
 20
2.640254997043247
 30
0.0
 10
-6.850670826764468
 20
2.640254997043247
 30
0.0
1001
ACAD
1000
DSTYLE
1002
{
1070
   147
1040
0.09
1070
    77
1070
     0
1002
}
  0
LWPOLYLINE
  5
43B1
330
4317
100
AcDbEntity
  8
IMAGE
  6
0
100
AcDbPolyline
 90
       25
 70
     0
 43
0.0
 10
-8.620929371207594
 20
8.185599194832276
 10
-8.620570443843631
 20
8.185958940730708
 10
-8.615628951263824
 20
8.184431555414503
 10
-8.615538912472407
 20
8.184431555414503
 10
-8.615538912472407
 20
8.184521184938686
 10
-8.615449282948224
 20
8.184521184938686
 10
-8.615359244156808
 20
8.184611223730103
 10
-8.615269614632627
 20
8.184611223730103
 10
-8.615269614632627
 20
8.184701262521517
 10
-8.61517957584121
 20
8.184701262521517
 10
-8.61517957584121
 20
8.1847908920457
 10
-8.615089946317029
 20
8.184880521569883
 10
-8.615089946317029
 20
8.185060189885481
 10
-8.616347624526216
 20
8.186677613993101
 10
-8.612574180631417
 20
8.186138609046306
 10
-8.612484551107234
 20
8.186138609046306
 10
-8.612484551107234
 20
8.186228238570487
 10
-8.612394512315818
 20
8.186228238570487
 10
-8.612394512315818
 20
8.186318277361904
 10
-8.612394512315818
 20
8.186407906886087
 10
-8.612394512315818
 20
8.186497945677501
 10
-8.612394512315818
 20
8.186587575201684
 10
-8.612394512315818
 20
8.186677613993101
 10
-8.612394512315818
 20
8.186767243517284
 10
-8.612394512315818
 20
8.186946911832881
  0
LWPOLYLINE
  5
43B2
330
4317
100
AcDbEntity
  8
IMAGE
  6
0
100
AcDbPolyline
 90
       52
 70
     1
 43
0.0
 10
-8.510691195471805
 20
8.189192970411479
 10
-8.507906131946413
 20
8.188834043047515
 10
-8.507726463630813
 20
8.188564335940501
 10
-8.507636834106632
 20
8.188384667624903
 10
-8.507457165791032
 20
8.188114960517889
 10
-8.507367126999616
 20
8.187845662678109
 10
-8.507367126999616
 20
8.187575955571093
 10
-8.507277088208201
 20
8.187306657731312
 10
-8.507277088208201
 20
8.187036950624298
 10
-8.507277088208201
 20
8.186677613993101
 10
-8.507277088208201
 20
8.186407906886087
 10
-8.507277088208201
 20
8.186048979522123
 10
-8.507277088208201
 20
8.185779272415109
 10
-8.507277088208201
 20
8.185509565308095
 10
-8.507367126999616
 20
8.185150228676898
 10
-8.507367126999616
 20
8.184880521569883
 10
-8.507367126999616
 20
8.184341516623087
 10
-8.507546795315215
 20
8.184072218783306
 10
-8.507636834106632
 20
8.183802511676292
 10
-8.507726463630813
 20
8.183533213836511
 10
-8.50781650242223
 20
8.183353545520914
 10
-8.507906131946413
 20
8.183083838413899
 10
-8.507996170737827
 20
8.1829041700983
 10
-8.50808580026201
 20
8.182634462991286
 10
-8.508175839053427
 20
8.182454794675688
 10
-8.50826546857761
 20
8.182275126360089
 10
-8.508355507369024
 20
8.182095458044491
 10
-8.508445136893207
 20
8.18182616020471
 10
-8.508535175684624
 20
8.181646491889111
 10
-8.508624805208805
 20
8.18146641430628
 10
-8.508714844000222
 20
8.181287155257914
 10
-8.508894512315821
 20
8.1810174481509
 10
-8.509253848947016
 20
8.180568072728288
 10
-8.50952355605403
 20
8.180119106572908
 10
-8.509882892685228
 20
8.179759769941711
 10
-8.510242229316425
 20
8.179400433310515
 10
-8.510601565947622
 20
8.179130726203499
 10
-8.511050941370235
 20
8.178771389572302
 10
-8.511410278001431
 20
8.178501682465288
 10
-8.511859244156811
 20
8.17832201414969
 10
-8.512308619579423
 20
8.17805271630991
 10
-8.512847624526219
 20
8.17787304799431
 10
-8.513296590681598
 20
8.177783009202896
 10
-8.513836004895628
 20
8.177693379678713
 10
-8.514375009842423
 20
8.177603340887296
 10
-8.514914014789217
 20
8.177603340887296
 10
-8.515992024682809
 20
8.177783009202896
 10
-8.511050941370235
 20
8.189103340887296
 10
-8.510960902578819
 20
8.189103340887296
 10
-8.510870863787403
 20
8.189103340887296
 10
-8.51078123426322
 20
8.189103340887296
 10
-8.510691195471805
 20
8.189192970411479
  0
LWPOLYLINE
  5
43B3
330
4317
100
AcDbEntity
  8
IMAGE
  6
0
100
AcDbPolyline
 90
       76
 70
     1
 43
0.0
 10
-8.532882892685227
 20
8.18982201414969
 10
-8.532792853893811
 20
8.189732384625507
 10
-8.53270322436963
 20
8.189732384625507
 10
-8.532613185578213
 20
8.189732384625507
 10
-8.53252355605403
 20
8.189732384625507
 10
-8.532433517262616
 20
8.189732384625507
 10
-8.532253848947016
 20
8.189732384625507
 10
-8.5321638101556
 20
8.189732384625507
 10
-8.532074180631418
 20
8.189642345834091
 10
-8.531984141840002
 20
8.189642345834091
 10
-8.531894512315819
 20
8.189642345834091
 10
-8.531714844000221
 20
8.189552716309909
 10
-8.531624805208805
 20
8.189552716309909
 10
-8.531535175684624
 20
8.189462677518493
 10
-8.531445136893207
 20
8.189373047994312
 10
-8.531175839053426
 20
8.189283009202895
 10
-8.531175839053426
 20
8.188923672571698
 10
-8.531175839053426
 20
8.188653965464684
 10
-8.531175839053426
 20
8.188474297149085
 10
-8.531265468577608
 20
8.188204999309304
 10
-8.531265468577608
 20
8.18793529220229
 10
-8.531355507369024
 20
8.187756033153926
 10
-8.531535175684624
 20
8.187486326046911
 10
-8.531624805208805
 20
8.187306657731312
 10
-8.531804473524404
 20
8.187036950624298
 10
-8.531894512315819
 20
8.186857282308698
 10
-8.532074180631418
 20
8.186677613993101
 10
-8.532253848947016
 20
8.186497945677501
 10
-8.532433517262616
 20
8.186318277361904
 10
-8.532613185578213
 20
8.186138609046306
 10
-8.532882892685227
 20
8.185779272415109
 10
-8.533152190525008
 20
8.185599194832276
 10
-8.533331858840607
 20
8.185419935783912
 10
-8.533511527156205
 20
8.185329896992495
 10
-8.533781234263219
 20
8.185240267468314
 10
-8.533960902578819
 20
8.185150228676898
 10
-8.534230609685833
 20
8.185060189885481
 10
-8.534409868734197
 20
8.1849705603613
 10
-8.53458994631703
 20
8.1849705603613
 10
-8.534859244156811
 20
8.184880521569883
 10
-8.535038912472408
 20
8.184880521569883
 10
-8.535308619579424
 20
8.184880521569883
 10
-8.535488287895022
 20
8.184880521569883
 10
-8.535757995002036
 20
8.184880521569883
 10
-8.5359372540504
 20
8.184880521569883
 10
-8.536296999948831
 20
8.184880521569883
 10
-8.536566297788612
 20
8.184880521569883
 10
-8.536656336580028
 20
8.1849705603613
 10
-8.536745966104211
 20
8.185060189885481
 10
-8.536836004895627
 20
8.185150228676898
 10
-8.536925634419809
 20
8.185329896992495
 10
-8.536925634419809
 20
8.185419935783912
 10
-8.536836004895627
 20
8.185599194832276
 10
-8.536836004895627
 20
8.185779272415109
 10
-8.536745966104211
 20
8.185958940730708
 10
-8.536745966104211
 20
8.186138609046306
 10
-8.536656336580028
 20
8.186318277361904
 10
-8.536566297788612
 20
8.186497945677501
 10
-8.536476258997197
 20
8.186677613993101
 10
-8.536386629473014
 20
8.186857282308698
 10
-8.536206961157414
 20
8.187126989415713
 10
-8.536117331633233
 20
8.187306657731312
 10
-8.536027292841817
 20
8.187486326046911
 10
-8.5359372540504
 20
8.187665994362509
 10
-8.535847624526219
 20
8.187845662678109
 10
-8.535757995002036
 20
8.18793529220229
 10
-8.53566795621062
 20
8.188114960517889
 10
-8.53566795621062
 20
8.18829503810072
 10
-8.535577917419203
 20
8.188474297149085
 10
-8.535488287895022
 20
8.188564335940501
 10
-8.535398249103606
 20
8.188744004256099
 10
-8.535308619579424
 20
8.188834043047515
 10
-8.535218580788008
 20
8.189013711363115
 10
-8.535038912472408
 20
8.189103340887296
 10
-8.534949282948227
 20
8.189192970411479
 10
-8.53458994631703
 20
8.189462677518493
  0
LWPOLYLINE
  5
43B4
330
4317
100
AcDbEntity
  8
IMAGE
  6
0
100
AcDbPolyline
 90
       84
 70
     1
 43
0.0
 10
-8.515722726843028
 20
8.194853545520913
 10
-8.514823975997801
 20
8.194763506729497
 10
-8.513745966104211
 20
8.194763506729497
 10
-8.512757995002036
 20
8.194763506729497
 10
-8.511679575841212
 20
8.194853545520913
 10
-8.510601565947622
 20
8.194853545520913
 10
-8.509433517262616
 20
8.194853545520913
 10
-8.508355507369024
 20
8.194763506729497
 10
-8.507277088208201
 20
8.194673467938081
 10
-8.50619907831461
 20
8.194583838413899
 10
-8.505211107212435
 20
8.1944041700983
 10
-8.504222726843027
 20
8.194134462991286
 10
-8.503324385265035
 20
8.193775535627322
 10
-8.502425634419809
 20
8.19332616020471
 10
-8.501617331633234
 20
8.19278674599068
 10
-8.500269614632628
 20
8.19143943825731
 10
-8.500269614632628
 20
8.191349399465893
 10
-8.500179575841213
 20
8.19125976994171
 10
-8.500179575841213
 20
8.191169731150296
 10
-8.500179575841213
 20
8.191079692358879
 10
-8.50008994631703
 20
8.191079692358879
 10
-8.50008994631703
 20
8.190990062834696
 10
-8.499999907525614
 20
8.19090002404328
 10
-8.499999907525614
 20
8.190810394519099
 10
-8.499910278001431
 20
8.190810394519099
 10
-8.4997302004186
 20
8.190361428363718
 10
-8.499550532103
 20
8.190001682465288
 10
-8.499460902578819
 20
8.189552716309909
 10
-8.499281234263222
 20
8.189103340887296
 10
-8.499191195471805
 20
8.188653965464684
 10
-8.499101565947622
 20
8.188204999309304
 10
-8.499101565947622
 20
8.187756033153926
 10
-8.499011527156206
 20
8.187306657731312
 10
-8.499011527156206
 20
8.186857282308698
 10
-8.499011527156206
 20
8.186407906886087
 10
-8.499011527156206
 20
8.185958940730708
 10
-8.499101565947622
 20
8.185509565308095
 10
-8.499191195471805
 20
8.1849705603613
 10
-8.499281234263222
 20
8.184521184938686
 10
-8.499460902578819
 20
8.183622843360694
 10
-8.499640570894417
 20
8.183263506729497
 10
-8.4997302004186
 20
8.1829041700983
 10
-8.499820239210016
 20
8.182634462991286
 10
-8.499910278001431
 20
8.182275126360089
 10
-8.499999907525614
 20
8.181915789728892
 10
-8.500179575841213
 20
8.181556453097694
 10
-8.500269614632628
 20
8.181287155257914
 10
-8.500359244156811
 20
8.180927409359485
 10
-8.500538912472409
 20
8.180658111519704
 10
-8.500628951263825
 20
8.180298774888507
 10
-8.500718990055242
 20
8.180029477048725
 10
-8.500898249103606
 20
8.179669731150294
 10
-8.501077917419205
 20
8.179400433310515
 10
-8.501257585734803
 20
8.179130726203499
 10
-8.501527292841817
 20
8.178681760048121
 10
-8.501617331633234
 20
8.178591721256704
 10
-8.501617331633234
 20
8.178501682465288
 10
-8.501706961157417
 20
8.178412052941107
 10
-8.501706961157417
 20
8.17832201414969
 10
-8.501796999948833
 20
8.178232384625507
 10
-8.501796999948833
 20
8.178142345834091
 10
-8.501796999948833
 20
8.17805271630991
 10
-8.502784971051006
 20
8.176614960517889
 10
-8.503953019736012
 20
8.1753572823087
 10
-8.50512106842102
 20
8.174368901939292
 10
-8.506468785421624
 20
8.173560189885481
 10
-8.507906131946413
 20
8.173021184938686
 10
-8.509433517262616
 20
8.172482179991892
 10
-8.511050941370235
 20
8.172212882152111
 10
-8.51266795621062
 20
8.171943175045095
 10
-8.514375009842423
 20
8.17185313625368
 10
-8.516082063474224
 20
8.171763506729497
 10
-8.517878746630207
 20
8.171763506729497
 10
-8.51958580026201
 20
8.171763506729497
 10
-8.521382892685227
 20
8.171763506729497
 10
-8.52308994631703
 20
8.17185313625368
 10
-8.526414014789217
 20
8.17185313625368
 10
-8.524706961157416
 20
8.177153965464684
 10
-8.516171692998407
 20
8.194763506729497
 10
-8.516082063474224
 20
8.194763506729497
 10
-8.515992024682809
 20
8.194763506729497
 10
-8.515902395158626
 20
8.194763506729497
 10
-8.515812356367209
 20
8.194763506729497
 10
-8.515722726843028
 20
8.194853545520913
  0
LWPOLYLINE
  5
43B5
330
4317
100
AcDbEntity
  8
IMAGE
  6
0
100
AcDbPolyline
 90
      111
 70
     1
 43
0.0
 10
-8.574211107212434
 20
8.202849399465893
 10
-8.573312356367209
 20
8.20275976994171
 10
-8.5723239759978
 20
8.20275976994171
 10
-8.571425634419808
 20
8.20275976994171
 10
-8.5704372540504
 20
8.20275976994171
 10
-8.569449282948225
 20
8.20275976994171
 10
-8.568460902578816
 20
8.202849399465893
 10
-8.56747252220941
 20
8.202849399465893
 10
-8.566484551107235
 20
8.202849399465893
 10
-8.565496170737826
 20
8.202849399465893
 10
-8.564507790368418
 20
8.202849399465893
 10
-8.56351940999901
 20
8.20275976994171
 10
-8.562531438896836
 20
8.202580101626113
 10
-8.561632688051611
 20
8.202400433310513
 10
-8.560734346473619
 20
8.202130726203499
 10
-8.558937663317633
 20
8.201412052941106
 10
-8.558577917419203
 20
8.20087304799431
 10
-8.558218580788006
 20
8.200334043047515
 10
-8.557949282948225
 20
8.199704999309304
 10
-8.557769205365394
 20
8.199165994362509
 10
-8.55758994631703
 20
8.198447321100115
 10
-8.55741027800143
 20
8.197818277361903
 10
-8.55741027800143
 20
8.197099604099511
 10
-8.557320239210014
 20
8.196380930837117
 10
-8.55741027800143
 20
8.195661848307489
 10
-8.55741027800143
 20
8.194943175045096
 10
-8.55758994631703
 20
8.194314540574117
 10
-8.557679575841211
 20
8.193595458044491
 10
-8.557949282948225
 20
8.192876784782097
 10
-8.558218580788006
 20
8.192247741043885
 10
-8.558757995002036
 20
8.191079692358879
 10
-8.559117331633233
 20
8.190630726203499
 10
-8.559386629473014
 20
8.190271389572304
 10
-8.559656336580028
 20
8.189912052941107
 10
-8.560015673211225
 20
8.189642345834091
 10
-8.560284971051006
 20
8.189283009202895
 10
-8.560644307682203
 20
8.189013711363115
 10
-8.561004053580633
 20
8.188744004256099
 10
-8.561273351420414
 20
8.188474297149085
 10
-8.561632688051611
 20
8.188204999309304
 10
-8.561992024682806
 20
8.18793529220229
 10
-8.562351361314004
 20
8.187665994362509
 10
-8.562800736736617
 20
8.187486326046911
 10
-8.563160073367814
 20
8.187216618939897
 10
-8.56351940999901
 20
8.187036950624298
 10
-8.564238083261404
 20
8.186677613993101
 10
-8.564148453737221
 20
8.186228238570487
 10
-8.564058414945806
 20
8.185689233623692
 10
-8.563968785421623
 20
8.185240267468314
 10
-8.563878746630207
 20
8.184701262521517
 10
-8.563699078314609
 20
8.184161848307489
 10
-8.563609448790426
 20
8.183622843360694
 10
-8.56351940999901
 20
8.183083838413899
 10
-8.563429780474828
 20
8.182454794675688
 10
-8.563429780474828
 20
8.181915789728892
 10
-8.563429780474828
 20
8.181287155257914
 10
-8.563429780474828
 20
8.180658111519704
 10
-8.563429780474828
 20
8.180119106572908
 10
-8.56351940999901
 20
8.179490062834696
 10
-8.563699078314609
 20
8.178861019096485
 10
-8.564148453737221
 20
8.177783009202896
 10
-8.56432812205282
 20
8.177603340887296
 10
-8.564417751577002
 20
8.177423672571698
 10
-8.564507790368418
 20
8.177333633780282
 10
-8.564507790368418
 20
8.177153965464684
 10
-8.564597419892601
 20
8.177064335940501
 10
-8.564687458684018
 20
8.176884667624904
 10
-8.564777497475432
 20
8.176794628833487
 10
-8.564777497475432
 20
8.176704999309304
 10
-8.564867126999615
 20
8.176524921726473
 10
-8.564957165791032
 20
8.17643529220229
 10
-8.565046795315215
 20
8.176345662678107
 10
-8.565136834106629
 20
8.176165994362509
 10
-8.565136834106629
 20
8.176075955571093
 10
-8.565226463630812
 20
8.175896287255495
 10
-8.56540613194641
 20
8.175716618939896
 10
-8.566574180631418
 20
8.174638609046306
 10
-8.567831858840607
 20
8.173740267468314
 10
-8.569179575841211
 20
8.173111223730103
 10
-8.570616922365999
 20
8.172572218783308
 10
-8.57205467815802
 20
8.172302511676292
 10
-8.573582063474223
 20
8.172033213836511
 10
-8.575199078314609
 20
8.171943175045095
 10
-8.576816502422229
 20
8.171943175045095
 10
-8.578433517262613
 20
8.171943175045095
 10
-8.580140570894416
 20
8.172033213836511
 10
-8.581847624526217
 20
8.172122843360694
 10
-8.583464639366603
 20
8.172212882152111
 10
-8.585172102265639
 20
8.172302511676292
 10
-8.586789117106025
 20
8.172302511676292
 10
-8.589933517262613
 20
8.172212882152111
 10
-8.58921484400022
 20
8.174099604099511
 10
-8.588496170737826
 20
8.175986326046912
 10
-8.587597419892601
 20
8.17787304799431
 10
-8.586789117106025
 20
8.179759769941711
 10
-8.585800736736617
 20
8.181646491889111
 10
-8.584902395158625
 20
8.183622843360694
 10
-8.583914014789217
 20
8.185509565308095
 10
-8.582836004895625
 20
8.187486326046911
 10
-8.581847624526217
 20
8.189373047994312
 10
-8.58085924415681
 20
8.19125976994171
 10
-8.579781234263219
 20
8.193236121413294
 10
-8.578703224369629
 20
8.195122843360694
 10
-8.577714844000221
 20
8.197009565308094
 10
-8.576636834106629
 20
8.198896287255493
 10
-8.574660073367814
 20
8.20275976994171
 10
-8.574570443843631
 20
8.20275976994171
 10
-8.574480405052215
 20
8.20275976994171
 10
-8.574390366260798
 20
8.20275976994171
 10
-8.574300736736617
 20
8.20275976994171
 10
-8.574211107212434
 20
8.202849399465893
  0
LWPOLYLINE
  5
43B6
330
4317
100
AcDbEntity
  8
IMAGE
  6
0
100
AcDbPolyline
 90
      103
 70
     1
 43
0.0
 10
-8.53962106842102
 20
8.194853545520913
 10
-8.538722726843026
 20
8.194763506729497
 10
-8.537824385265034
 20
8.194763506729497
 10
-8.536836004895627
 20
8.194763506729497
 10
-8.535847624526219
 20
8.194763506729497
 10
-8.534769614632628
 20
8.194853545520913
 10
-8.533781234263219
 20
8.194943175045096
 10
-8.532792853893811
 20
8.194943175045096
 10
-8.531804473524404
 20
8.195033213836511
 10
-8.530816502422229
 20
8.194943175045096
 10
-8.529828122052821
 20
8.194853545520913
 10
-8.528839741683412
 20
8.194763506729497
 10
-8.527941400105421
 20
8.194493799622483
 10
-8.527043058527429
 20
8.194134462991286
 10
-8.52623434647362
 20
8.193775535627322
 10
-8.524706961157416
 20
8.192517448150899
 10
-8.5244372540504
 20
8.191978443204105
 10
-8.524257585734803
 20
8.191529067781493
 10
-8.524077917419205
 20
8.190990062834696
 10
-8.523898249103606
 20
8.190540687412083
 10
-8.523808619579423
 20
8.190001682465288
 10
-8.523808619579423
 20
8.189462677518493
 10
-8.523808619579423
 20
8.188923672571698
 10
-8.523808619579423
 20
8.188474297149085
 10
-8.523898249103606
 20
8.18793529220229
 10
-8.523988287895022
 20
8.187396287255493
 10
-8.524077917419205
 20
8.186857282308698
 10
-8.524257585734803
 20
8.186407906886087
 10
-8.524347624526219
 20
8.18586890193929
 10
-8.524617331633233
 20
8.185419935783912
 10
-8.524976668264431
 20
8.184521184938686
 10
-8.525066297788612
 20
8.184431555414503
 10
-8.525066297788612
 20
8.184341516623087
 10
-8.525156336580028
 20
8.184251887098906
 10
-8.525156336580028
 20
8.184161848307489
 10
-8.525245966104211
 20
8.184072218783306
 10
-8.525245966104211
 20
8.183982179991891
 10
-8.525336004895628
 20
8.183982179991891
 10
-8.525336004895628
 20
8.183892550467708
 10
-8.525336004895628
 20
8.183802511676292
 10
-8.525425634419809
 20
8.183802511676292
 10
-8.525425634419809
 20
8.183712882152111
 10
-8.525425634419809
 20
8.183622843360694
 10
-8.527402395158626
 20
8.181556453097694
 10
-8.532343887738432
 20
8.179669731150294
 10
-8.532433517262616
 20
8.179579692358879
 10
-8.53252355605403
 20
8.179579692358879
 10
-8.53252355605403
 20
8.179490062834696
 10
-8.53252355605403
 20
8.179400433310515
 10
-8.53252355605403
 20
8.179310394519099
 10
-8.530097829159835
 20
8.171943175045095
 10
-8.536386629473014
 20
8.17185313625368
 10
-8.539710697945201
 20
8.179579692358879
 10
-8.540160073367815
 20
8.179220764994916
 10
-8.54051940999901
 20
8.178861019096485
 10
-8.540789117106026
 20
8.178501682465288
 10
-8.541148453737223
 20
8.17805271630991
 10
-8.541417751577004
 20
8.177603340887296
 10
-8.541687458684018
 20
8.177153965464684
 10
-8.541956756523799
 20
8.176704999309304
 10
-8.542226463630813
 20
8.176165994362509
 10
-8.542406131946412
 20
8.175716618939896
 10
-8.542675839053426
 20
8.175177613993101
 10
-8.542945136893207
 20
8.174638609046306
 10
-8.543124805208805
 20
8.174099604099511
 10
-8.543394512315819
 20
8.173650228676898
 10
-8.543664219422835
 20
8.173111223730103
 10
-8.544203224369629
 20
8.172212882152111
 10
-8.551390775528034
 20
8.17185313625368
 10
-8.551031029629603
 20
8.172931555414503
 10
-8.550671692998406
 20
8.174009565308095
 10
-8.550222726843026
 20
8.175177613993101
 10
-8.549683721896231
 20
8.176255623886692
 10
-8.549234346473618
 20
8.177423672571698
 10
-8.548695341526823
 20
8.178501682465288
 10
-8.548066297788611
 20
8.179669731150294
 10
-8.547527292841817
 20
8.180747741043886
 10
-8.546898249103605
 20
8.181915789728892
 10
-8.546269614632628
 20
8.182994208889716
 10
-8.545730200418599
 20
8.184161848307489
 10
-8.545101565947621
 20
8.185240267468314
 10
-8.544562561000827
 20
8.186407906886087
 10
-8.543933517262615
 20
8.187486326046911
 10
-8.542855507369024
 20
8.18982201414969
 10
-8.542675839053426
 20
8.190091721256704
 10
-8.542496170737827
 20
8.190451057887901
 10
-8.542316502422229
 20
8.190720764994916
 10
-8.542136834106631
 20
8.191079692358879
 10
-8.541956756523799
 20
8.191349399465893
 10
-8.541777497475434
 20
8.191708736097091
 10
-8.541597419892601
 20
8.191978443204105
 10
-8.541417751577004
 20
8.192337779835302
 10
-8.541238083261404
 20
8.192607486942316
 10
-8.541058414945807
 20
8.192966823573513
 10
-8.540968785421624
 20
8.193236121413294
 10
-8.540789117106026
 20
8.193505828520308
 10
-8.540609448790426
 20
8.193865165151505
 10
-8.540429780474829
 20
8.194134462991286
 10
-8.539980405052215
 20
8.194763506729497
 10
-8.539890775528034
 20
8.194763506729497
 10
-8.539800736736617
 20
8.194763506729497
 10
-8.539710697945201
 20
8.194763506729497
 10
-8.53962106842102
 20
8.194853545520913
  0
LWPOLYLINE
  5
43B7
330
4317
100
AcDbEntity
  8
IMAGE
  6
0
100
AcDbPolyline
 90
       12
 70
     1
 43
0.0
 10
-8.552109448790426
 20
8.194853545520913
 10
-8.545011527156205
 20
8.194853545520913
 10
-8.556421897632022
 20
8.172212882152111
 10
-8.563339741683412
 20
8.172033213836511
 10
-8.563429780474828
 20
8.172033213836511
 10
-8.563429780474828
 20
8.172122843360694
 10
-8.56351940999901
 20
8.172212882152111
 10
-8.56351940999901
 20
8.172302511676292
 10
-8.56351940999901
 20
8.172392550467709
 10
-8.552289117106026
 20
8.194763506729497
 10
-8.552199078314609
 20
8.194763506729497
 10
-8.552109448790426
 20
8.194853545520913
  0
LWPOLYLINE
  5
43B8
330
4317
100
AcDbEntity
  8
IMAGE
  6
0
100
AcDbPolyline
 90
       60
 70
     1
 43
0.0
 10
-8.680316502422225
 20
8.195122843360694
 10
-8.670253848947014
 20
8.195122843360694
 10
-8.67438662947301
 20
8.172661848307489
 10
-8.680765468577606
 20
8.172482179991892
 10
-8.680945136893203
 20
8.172572218783308
 10
-8.681124805208803
 20
8.172661848307489
 10
-8.681214844000217
 20
8.172841516623089
 10
-8.681214844000217
 20
8.173021184938686
 10
-8.681214844000217
 20
8.173201262521518
 10
-8.681214844000217
 20
8.173380930837117
 10
-8.681214844000217
 20
8.173560189885481
 10
-8.681124805208803
 20
8.173829896992497
 10
-8.681124805208803
 20
8.174009565308095
 10
-8.68103517568462
 20
8.174189233623692
 10
-8.680945136893203
 20
8.174368901939292
 10
-8.680855507369022
 20
8.174638609046306
 10
-8.680765468577606
 20
8.174818277361904
 10
-8.680675429786189
 20
8.174997945677503
 10
-8.680496170737825
 20
8.175446911832882
 10
-8.680585800262006
 20
8.175446911832882
 10
-8.680585800262006
 20
8.175536950624298
 10
-8.680585800262006
 20
8.175626989415714
 10
-8.680675429786189
 20
8.175626989415714
 10
-8.680675429786189
 20
8.175716618939896
 10
-8.680765468577606
 20
8.175806657731312
 10
-8.680765468577606
 20
8.175896287255495
 10
-8.680765468577606
 20
8.175986326046912
 10
-8.681394512315817
 20
8.175896287255495
 10
-8.681933517262612
 20
8.175896287255495
 10
-8.682472522209407
 20
8.175986326046912
 10
-8.683011527156203
 20
8.175986326046912
 10
-8.683640570894414
 20
8.175986326046912
 10
-8.684179575841209
 20
8.176075955571093
 10
-8.684718580788004
 20
8.176075955571093
 10
-8.685257585734799
 20
8.176075955571093
 10
-8.685796590681595
 20
8.176075955571093
 10
-8.686336004895624
 20
8.175986326046912
 10
-8.686875009842419
 20
8.175896287255495
 10
-8.687414014789213
 20
8.175716618939896
 10
-8.687863390211827
 20
8.175536950624298
 10
-8.688312356367207
 20
8.175267652784517
 10
-8.689121068421016
 20
8.17454857025489
 10
-8.689300736736614
 20
8.174368901939292
 10
-8.68939077552803
 20
8.174189233623692
 10
-8.689480405052213
 20
8.174009565308095
 10
-8.689570034576394
 20
8.173919935783912
 10
-8.689660073367811
 20
8.173740267468314
 10
-8.689749702891994
 20
8.173650228676898
 10
-8.68983974168341
 20
8.1734705603613
 10
-8.689929780474825
 20
8.173380930837117
 10
-8.690109448790424
 20
8.173201262521518
 10
-8.690199078314606
 20
8.173111223730103
 10
-8.690289117106022
 20
8.172931555414503
 10
-8.690378746630205
 20
8.172841516623089
 10
-8.690558414945803
 20
8.172751887098906
 10
-8.690648453737219
 20
8.172661848307489
 10
-8.690917751577
 20
8.172482179991892
 10
-8.698644307682199
 20
8.172482179991892
 10
-8.680406131946408
 20
8.195122843360694
 10
-8.680316502422225
 20
8.195122843360694
  0
LWPOLYLINE
  5
43B9
330
4317
100
AcDbEntity
  8
IMAGE
  6
0
100
AcDbPolyline
 90
       71
 70
     1
 43
0.0
 10
-8.648960902578815
 20
8.195122843360694
 10
-8.641863390211828
 20
8.195122843360694
 10
-8.640605302735405
 20
8.1849705603613
 10
-8.640605302735405
 20
8.1847908920457
 10
-8.640515673211222
 20
8.184611223730103
 10
-8.640425634419807
 20
8.184611223730103
 10
-8.640336004895624
 20
8.184521184938686
 10
-8.640245966104208
 20
8.184521184938686
 10
-8.640156336580027
 20
8.184611223730103
 10
-8.64006629778861
 20
8.184701262521517
 10
-8.639976668264427
 20
8.1847908920457
 10
-8.639886629473013
 20
8.184880521569883
 10
-8.639796999948829
 20
8.185060189885481
 10
-8.639706961157413
 20
8.185150228676898
 10
-8.639616922365997
 20
8.185329896992495
 10
-8.639527292841815
 20
8.185419935783912
 10
-8.639437663317632
 20
8.185509565308095
 10
-8.639257585734799
 20
8.185779272415109
 10
-8.639257585734799
 20
8.185958940730708
 10
-8.639167956210618
 20
8.186228238570487
 10
-8.639077917419202
 20
8.186497945677501
 10
-8.638988287895019
 20
8.186677613993101
 10
-8.638898249103604
 20
8.186946911832881
 10
-8.638808619579421
 20
8.187126989415713
 10
-8.638718580788005
 20
8.187306657731312
 10
-8.638628951263823
 20
8.187486326046911
 10
-8.638538912472407
 20
8.187665994362509
 10
-8.638449282948224
 20
8.187845662678109
 10
-8.638359244156808
 20
8.188025330993706
 10
-8.63817957584121
 20
8.188204999309304
 10
-8.638089946317027
 20
8.188384667624903
 10
-8.637999907525612
 20
8.188564335940501
 10
-8.637730200418596
 20
8.189013711363115
 10
-8.637550532102999
 20
8.189373047994312
 10
-8.637281234263218
 20
8.18982201414969
 10
-8.637101565947618
 20
8.190181350780887
 10
-8.636831858840604
 20
8.190630726203499
 10
-8.636652190525007
 20
8.191079692358879
 10
-8.636472522209407
 20
8.19143943825731
 10
-8.636292853893809
 20
8.191798774888507
 10
-8.636113185578212
 20
8.192247741043885
 10
-8.635843887738431
 20
8.192607486942316
 10
-8.635664219422832
 20
8.192966823573513
 10
-8.635484141840001
 20
8.19332616020471
 10
-8.63521484400022
 20
8.193685496835906
 10
-8.63503517568462
 20
8.194044833467103
 10
-8.634765468577606
 20
8.1944041700983
 10
-8.634136834106628
 20
8.195122843360694
 10
-8.627398249103604
 20
8.195122843360694
 10
-8.633507790368417
 20
8.182814540574119
 10
-8.638988287895019
 20
8.172572218783308
 10
-8.645726463630811
 20
8.172482179991892
 10
-8.646894512315817
 20
8.183443175045097
 10
-8.646984551107234
 20
8.183443175045097
 10
-8.646984551107234
 20
8.183533213836511
 10
-8.647074180631415
 20
8.183533213836511
 10
-8.647074180631415
 20
8.183622843360694
 10
-8.647163810155598
 20
8.183622843360694
 10
-8.647163810155598
 20
8.183712882152111
 10
-8.647253848947014
 20
8.183712882152111
 10
-8.647253848947014
 20
8.183802511676292
 10
-8.647343478471196
 20
8.183802511676292
 10
-8.647433517262612
 20
8.183802511676292
 10
-8.647523556054029
 20
8.183892550467708
 10
-8.653273351420411
 20
8.172572218783308
 10
-8.66010156594762
 20
8.172482179991892
 10
-8.649320239210013
 20
8.195122843360694
 10
-8.64923060968583
 20
8.195122843360694
 10
-8.649140570894415
 20
8.195122843360694
 10
-8.649050532102998
 20
8.195122843360694
 10
-8.648960902578815
 20
8.195122843360694
  0
LWPOLYLINE
  5
43BA
330
4317
100
AcDbEntity
  8
IMAGE
  6
0
100
AcDbPolyline
 90
       38
 70
     1
 43
0.0
 10
-8.661089537049793
 20
8.195122843360694
 10
-8.654261731789819
 20
8.195122843360694
 10
-8.665402395158622
 20
8.172482179991892
 10
-8.672320239210012
 20
8.172482179991892
 10
-8.672320239210012
 20
8.173111223730103
 10
-8.672140570894415
 20
8.173740267468314
 10
-8.671960902578815
 20
8.174368901939292
 10
-8.671781234263217
 20
8.174997945677503
 10
-8.67142189763202
 20
8.175626989415714
 10
-8.671152190525006
 20
8.176165994362509
 10
-8.670792853893809
 20
8.176794628833487
 10
-8.670433517262612
 20
8.177423672571698
 10
-8.670074180631415
 20
8.17805271630991
 10
-8.669714844000218
 20
8.178591721256704
 10
-8.669355507369022
 20
8.179220764994916
 10
-8.669085800262006
 20
8.179849399465894
 10
-8.668726463630811
 20
8.180478443204105
 10
-8.668456756523795
 20
8.181197116466499
 10
-8.667917751577
 20
8.182544833467103
 10
-8.667558414945803
 20
8.183263506729497
 10
-8.667109448790425
 20
8.184072218783306
 10
-8.666750112159228
 20
8.184880521569883
 10
-8.666300736736614
 20
8.185689233623692
 10
-8.665941400105419
 20
8.186407906886087
 10
-8.665492024682805
 20
8.187216618939897
 10
-8.665132688051608
 20
8.188025330993706
 10
-8.66468372189623
 20
8.188834043047515
 10
-8.664323975997799
 20
8.189552716309909
 10
-8.663964639366602
 20
8.190361428363718
 10
-8.663515673211222
 20
8.191169731150296
 10
-8.663156336580026
 20
8.191888404412688
 10
-8.662706961157413
 20
8.192697116466499
 10
-8.662347624526216
 20
8.193505828520308
 10
-8.661449282948224
 20
8.195122843360694
 10
-8.661359244156807
 20
8.195122843360694
 10
-8.661269614632626
 20
8.195122843360694
 10
-8.66117957584121
 20
8.195122843360694
 10
-8.661089537049793
 20
8.195122843360694
  0
LWPOLYLINE
  5
43BB
330
4317
100
AcDbEntity
  8
IMAGE
  6
0
100
AcDbPolyline
 90
      126
 70
     0
 43
0.0
 10
-8.70888662947301
 20
8.203478443204105
 10
-8.707898249103601
 20
8.203388813679922
 10
-8.706909868734195
 20
8.203298774888507
 10
-8.705831858840603
 20
8.203388813679922
 10
-8.704753848947014
 20
8.203388813679922
 10
-8.703585800262006
 20
8.203478443204105
 10
-8.702507790368416
 20
8.203478443204105
 10
-8.701339741683408
 20
8.203568072728288
 10
-8.700261731789819
 20
8.203568072728288
 10
-8.699183312628994
 20
8.203568072728288
 10
-8.698105302735404
 20
8.203478443204105
 10
-8.697027292841815
 20
8.203388813679922
 10
-8.695949282948223
 20
8.20320873609709
 10
-8.694960902578815
 20
8.202849399465893
 10
-8.693972522209406
 20
8.202490062834696
 10
-8.692175839053422
 20
8.201412052941106
 10
-8.691906131946408
 20
8.200962677518493
 10
-8.691546795315211
 20
8.200423672571698
 10
-8.691277088208197
 20
8.199974297149084
 10
-8.691007790368416
 20
8.199525330993706
 10
-8.690828122052817
 20
8.19898632604691
 10
-8.690648453737219
 20
8.198447321100115
 10
-8.690558414945803
 20
8.197907906886086
 10
-8.690468785421622
 20
8.197369311206525
 10
-8.690378746630205
 20
8.196829896992495
 10
-8.690378746630205
 20
8.1962908920457
 10
-8.690378746630205
 20
8.195751887098905
 10
-8.690378746630205
 20
8.195212472884875
 10
-8.690468785421622
 20
8.194673467938081
 10
-8.690558414945803
 20
8.194134462991286
 10
-8.690738083261402
 20
8.193146491889111
 10
-8.690917751577
 20
8.192337779835302
 10
-8.691187458684014
 20
8.191618697305674
 10
-8.69145716579103
 20
8.19090002404328
 10
-8.691726463630811
 20
8.190271389572304
 10
-8.692085800262006
 20
8.189642345834091
 10
-8.692445136893203
 20
8.189013711363115
 10
-8.692894512315817
 20
8.188474297149085
 10
-8.693253848947014
 20
8.18793529220229
 10
-8.693792853893809
 20
8.187486326046911
 10
-8.694242229316422
 20
8.187036950624298
 10
-8.694781234263217
 20
8.186587575201684
 10
-8.695320239210012
 20
8.186228238570487
 10
-8.695859244156807
 20
8.18586890193929
 10
-8.696488287895018
 20
8.185509565308095
 10
-8.697656336580026
 20
8.1849705603613
 10
-8.698015673211221
 20
8.1847908920457
 10
-8.698284971051002
 20
8.184701262521517
 10
-8.698644307682199
 20
8.184611223730103
 10
-8.698914014789213
 20
8.184521184938686
 10
-8.699183312628994
 20
8.184431555414503
 10
-8.69945301973601
 20
8.184341516623087
 10
-8.699812356367205
 20
8.184251887098906
 10
-8.700082063474221
 20
8.184161848307489
 10
-8.700351361314002
 20
8.184072218783306
 10
-8.700621068421016
 20
8.183982179991891
 10
-8.700890366260797
 20
8.183982179991891
 10
-8.701160073367811
 20
8.183892550467708
 10
-8.701429780474825
 20
8.183892550467708
 10
-8.701699078314605
 20
8.183892550467708
 10
-8.702148453737219
 20
8.183892550467708
 10
-8.702507790368416
 20
8.183533213836511
 10
-8.702687458684014
 20
8.183263506729497
 10
-8.702777088208197
 20
8.1829041700983
 10
-8.702867126999613
 20
8.182544833467103
 10
-8.702867126999613
 20
8.182185496835906
 10
-8.702777088208197
 20
8.181736121413294
 10
-8.702687458684014
 20
8.181376784782097
 10
-8.702597419892597
 20
8.180927409359485
 10
-8.702417751577
 20
8.180478443204105
 10
-8.702238083261402
 20
8.180029477048725
 10
-8.702148453737219
 20
8.179579692358879
 10
-8.701968785421621
 20
8.179130726203499
 10
-8.701789117106022
 20
8.178681760048121
 10
-8.701609448790424
 20
8.178232384625507
 10
-8.701429780474825
 20
8.177423672571698
 10
-8.701429780474825
 20
8.177064335940501
 10
-8.701339741683408
 20
8.176794628833487
 10
-8.701250112159227
 20
8.176524921726473
 10
-8.701160073367811
 20
8.176255623886692
 10
-8.701070034576394
 20
8.175986326046912
 10
-8.700980405052213
 20
8.175626989415714
 10
-8.700980405052213
 20
8.1753572823087
 10
-8.700890366260797
 20
8.174997945677503
 10
-8.700800736736614
 20
8.174728238570489
 10
-8.700710697945199
 20
8.174458940730707
 10
-8.700621068421016
 20
8.174099604099511
 10
-8.700621068421016
 20
8.173829896992497
 10
-8.700531029629599
 20
8.1734705603613
 10
-8.700441400105418
 20
8.173201262521518
 10
-8.700171692998402
 20
8.172661848307489
 10
-8.707179575841209
 20
8.172482179991892
 10
-8.710683721896229
 20
8.1829041700983
 10
-8.716343887738428
 20
8.172661848307489
 10
-8.724609448790424
 20
8.172482179991892
 10
-8.724249702891993
 20
8.173829896992497
 10
-8.723710697945197
 20
8.175177613993101
 10
-8.723171692998402
 20
8.176614960517889
 10
-8.722632688051607
 20
8.177962677518493
 10
-8.721914014789213
 20
8.179400433310515
 10
-8.721284971051002
 20
8.180747741043886
 10
-8.720566297788609
 20
8.182185496835906
 10
-8.719847624526215
 20
8.183622843360694
 10
-8.719038912472406
 20
8.1849705603613
 10
-8.718320239210012
 20
8.186407906886087
 10
-8.717511527156201
 20
8.187845662678109
 10
-8.716792853893808
 20
8.189283009202895
 10
-8.716074180631414
 20
8.190630726203499
 10
-8.715355507369022
 20
8.192068481995521
 10
-8.713917751577
 20
8.194943175045096
 10
-8.713648453737219
 20
8.195482179991889
 10
-8.713289117106022
 20
8.196021184938686
 10
-8.713019409999008
 20
8.196560189885481
 10
-8.712750112159227
 20
8.197189233623692
 10
-8.712480405052213
 20
8.197728238570487
 10
-8.712210697945197
 20
8.198267243517284
 10
-8.711941400105416
 20
8.198806657731312
 10
-8.711671692998402
 20
8.19943529220229
 10
-8.711402395158621
 20
8.199974297149084
 10
-8.711132688051607
 20
8.200513711363115
 10
-8.710862980944593
 20
8.201052716309909
 10
-8.710593683104812
 20
8.201501682465288
 10
-8.710234346473615
 20
8.202041096679318
 10
-8.709875009842418
 20
8.202490062834696
 10
-8.709066297788609
 20
8.203478443204105
 10
-8.708976668264426
 20
8.203478443204105
  0
LWPOLYLINE
  5
43BC
330
4317
100
AcDbEntity
  8
IMAGE
  6
0
100
AcDbPolyline
 90
      126
 70
     0
 43
0.0
 10
-8.612394512315818
 20
8.186946911832881
 10
-8.612394512315818
 20
8.187036950624298
 10
-8.612394512315818
 20
8.187126989415713
 10
-8.61221484400022
 20
8.187306657731312
 10
-8.610238083261403
 20
8.186857282308698
 10
-8.61014845373722
 20
8.186857282308698
 10
-8.610058414945806
 20
8.186857282308698
 10
-8.609968785421623
 20
8.186857282308698
 10
-8.609968785421623
 20
8.186946911832881
 10
-8.609878746630206
 20
8.186946911832881
 10
-8.609789117106023
 20
8.187036950624298
 10
-8.609699078314609
 20
8.187126989415713
 10
-8.610238083261403
 20
8.187665994362509
 10
-8.610687458684017
 20
8.18829503810072
 10
-8.611136834106629
 20
8.188834043047515
 10
-8.611585800262009
 20
8.189462677518493
 10
-8.612035175684621
 20
8.190091721256704
 10
-8.612574180631417
 20
8.190720764994916
 10
-8.613023556054029
 20
8.191349399465893
 10
-8.613562561000824
 20
8.191978443204105
 10
-8.61410156594762
 20
8.192607486942316
 10
-8.614730609685832
 20
8.193146491889111
 10
-8.615269614632627
 20
8.193775535627322
 10
-8.615898249103604
 20
8.194314540574117
 10
-8.616527292841816
 20
8.194853545520913
 10
-8.617156336580027
 20
8.195302511676292
 10
-8.618593683104814
 20
8.1962908920457
 10
-8.632429780474828
 20
8.202669731150296
 10
-8.625691195471802
 20
8.201681350780887
 10
-8.626050532102999
 20
8.202669731150296
 10
-8.623355507369023
 20
8.202041096679318
 10
-8.623265468577606
 20
8.202041096679318
 10
-8.623175839053423
 20
8.202130726203499
 10
-8.623175839053423
 20
8.202220764994915
 10
-8.623085800262009
 20
8.202310394519098
 10
-8.623085800262009
 20
8.202400433310513
 10
-8.623085800262009
 20
8.202490062834696
 10
-8.623085800262009
 20
8.202580101626113
 10
-8.623085800262009
 20
8.202669731150296
 10
-8.622996170737826
 20
8.202849399465893
 10
-8.62182812205282
 20
8.202939028990076
 10
-8.621738083261403
 20
8.203029067781491
 10
-8.621738083261403
 20
8.203119106572907
 10
-8.621738083261403
 20
8.20320873609709
 10
-8.621738083261403
 20
8.203298774888507
 10
-8.621738083261403
 20
8.203388813679922
 10
-8.621738083261403
 20
8.203478443204105
 10
-8.62164845373722
 20
8.203478443204105
 10
-8.62164845373722
 20
8.203568072728288
 10
-8.621468785421622
 20
8.203658111519704
 10
-8.621378746630206
 20
8.203658111519704
 10
-8.621289117106025
 20
8.203658111519704
 10
-8.621199078314608
 20
8.203658111519704
 10
-8.621109448790425
 20
8.203658111519704
 10
-8.621109448790425
 20
8.203747741043885
 10
-8.621019409999009
 20
8.203747741043885
 10
-8.620929371207594
 20
8.203837779835302
 10
-8.620839741683411
 20
8.203927818626718
 10
-8.620839741683411
 20
8.204017448150899
 10
-8.620839741683411
 20
8.204107486942316
 10
-8.620839741683411
 20
8.204197116466499
 10
-8.620839741683411
 20
8.20428674599068
 10
-8.620929371207594
 20
8.20428674599068
 10
-8.620929371207594
 20
8.204376784782096
 10
-8.621019409999009
 20
8.204466823573513
 10
-8.621019409999009
 20
8.204556453097696
 10
-8.621109448790425
 20
8.204646491889111
 10
-8.621109448790425
 20
8.204736121413294
 10
-8.621199078314608
 20
8.20482616020471
 10
-8.621199078314608
 20
8.204915789728891
 10
-8.621199078314608
 20
8.205185496835907
 10
-8.621199078314608
 20
8.205275126360088
 10
-8.621109448790425
 20
8.205365165151505
 10
-8.621019409999009
 20
8.205365165151505
 10
-8.620929371207594
 20
8.205454794675688
 10
-8.620839741683411
 20
8.205454794675688
 10
-8.620750112159228
 20
8.205454794675688
 10
-8.620570443843631
 20
8.205544833467103
 10
-8.620570443843631
 20
8.205634462991286
 10
-8.620570443843631
 20
8.205724501782702
 10
-8.620480405052214
 20
8.205724501782702
 10
-8.620480405052214
 20
8.205814540574118
 10
-8.620480405052214
 20
8.2059041700983
 10
-8.620390366260798
 20
8.2059041700983
 10
-8.620300736736615
 20
8.206083838413897
 10
-8.621917751577001
 20
8.209947321100115
 10
-8.621468785421622
 20
8.20940831615332
 10
-8.620929371207594
 20
8.208868901939291
 10
-8.620390366260798
 20
8.208240267468314
 10
-8.619851361314003
 20
8.207611223730102
 10
-8.619312356367208
 20
8.206892550467708
 10
-8.618773351420413
 20
8.206263506729497
 10
-8.6183239759978
 20
8.205544833467103
 10
-8.617784971051005
 20
8.20482616020471
 10
-8.617245966104208
 20
8.204017448150899
 10
-8.61679699994883
 20
8.203298774888507
 10
-8.616257585734802
 20
8.202580101626113
 10
-8.615808619579421
 20
8.201771389572302
 10
-8.615269614632627
 20
8.201052716309909
 10
-8.614820239210013
 20
8.200334043047515
 10
-8.613831858840605
 20
8.19898632604691
 10
-8.605476668264428
 20
8.194044833467103
 10
-8.605476668264428
 20
8.194134462991286
 10
-8.605476668264428
 20
8.194224501782702
 10
-8.605386629473013
 20
8.194224501782702
 10
-8.605386629473013
 20
8.194314540574117
 10
-8.605386629473013
 20
8.1944041700983
 10
-8.605296590681597
 20
8.1944041700983
 10
-8.605206961157414
 20
8.194583838413899
 10
-8.605836004895625
 20
8.195661848307489
 10
-8.605836004895625
 20
8.195751887098905
 10
-8.605745966104208
 20
8.195751887098905
 10
-8.605745966104208
 20
8.195841516623088
 10
-8.605656336580027
 20
8.195841516623088
 10
-8.605566297788611
 20
8.195931555414503
 10
-8.605476668264428
 20
8.195931555414503
 10
-8.605386629473013
 20
8.195931555414503
 10
-8.605296590681597
 20
8.195931555414503
 10
-8.605206961157414
 20
8.195931555414503
 10
-8.605117331633232
 20
8.195931555414503
 10
-8.605027292841816
 20
8.195931555414503
 10
-8.604937663317633
 20
8.195931555414503
 10
-8.604847624526216
 20
8.196021184938686
 10
-8.604667956210619
 20
8.196111223730103
 10
-8.604667956210619
 20
8.196200853254286
 10
-8.604667956210619
 20
8.1962908920457
  0
LWPOLYLINE
  5
43BD
330
4317
100
AcDbEntity
  8
IMAGE
  6
0
100
AcDbPolyline
 90
      126
 70
     0
 43
0.0
 10
-8.605027292841816
 20
8.213630726203499
 10
-8.604398249103605
 20
8.212552716309909
 10
-8.60367957584121
 20
8.211654374731917
 10
-8.602781234263218
 20
8.21075562388669
 10
-8.601882892685226
 20
8.209857282308698
 10
-8.600984141840001
 20
8.209048570254889
 10
-8.600085800262009
 20
8.208240267468314
 10
-8.599097419892601
 20
8.207431555414503
 10
-8.598199078314609
 20
8.206622843360694
 10
-8.597300736736617
 20
8.205814540574118
 10
-8.596402395158625
 20
8.204915789728891
 10
-8.595593683104814
 20
8.204017448150899
 10
-8.59487500984242
 20
8.203119106572907
 10
-8.594245966104208
 20
8.202041096679318
 10
-8.593706961157414
 20
8.200962677518493
 10
-8.592988287895021
 20
8.198536950624298
 10
-8.593257585734802
 20
8.198087984468918
 10
-8.5934372540504
 20
8.197638609046306
 10
-8.593616922365997
 20
8.197279272415109
 10
-8.59379699994883
 20
8.196919526516678
 10
-8.594066297788611
 20
8.196560189885481
 10
-8.594245966104208
 20
8.196200853254286
 10
-8.594515673211224
 20
8.195931555414503
 10
-8.594695341526822
 20
8.195572218783308
 10
-8.594964639366603
 20
8.195302511676292
 10
-8.595234346473617
 20
8.194943175045096
 10
-8.595504053580633
 20
8.194673467938081
 10
-8.59568372189623
 20
8.194314540574117
 10
-8.595953019736011
 20
8.193954794675688
 10
-8.596222317575792
 20
8.193595458044491
 10
-8.596671692998405
 20
8.192876784782097
 10
-8.59676173178982
 20
8.19278674599068
 10
-8.596851361314003
 20
8.192697116466499
 10
-8.59694140010542
 20
8.192607486942316
 10
-8.597031029629603
 20
8.192517448150899
 10
-8.597121068421017
 20
8.192427818626718
 10
-8.599097419892601
 20
8.188114960517889
 10
-8.599007790368418
 20
8.187845662678109
 10
-8.598918160844236
 20
8.187575955571093
 10
-8.598738083261403
 20
8.187306657731312
 10
-8.598558414945806
 20
8.187126989415713
 10
-8.598378746630206
 20
8.186946911832881
 10
-8.598199078314609
 20
8.186677613993101
 10
-8.598019409999009
 20
8.186587575201684
 10
-8.597749702891995
 20
8.186407906886087
 10
-8.597570034576397
 20
8.186228238570487
 10
-8.597300736736617
 20
8.186138609046306
 10
-8.597031029629603
 20
8.185958940730708
 10
-8.59676173178982
 20
8.18586890193929
 10
-8.596492024682806
 20
8.185779272415109
 10
-8.596222317575792
 20
8.185779272415109
 10
-8.595593683104814
 20
8.185689233623692
 10
-8.595504053580633
 20
8.185599194832276
 10
-8.595414014789216
 20
8.185599194832276
 10
-8.595234346473617
 20
8.185599194832276
 10
-8.595144307682202
 20
8.185599194832276
 10
-8.595054678158019
 20
8.185599194832276
 10
-8.59487500984242
 20
8.185599194832276
 10
-8.594784971051005
 20
8.185509565308095
 10
-8.594695341526822
 20
8.185509565308095
 10
-8.594605302735406
 20
8.185509565308095
 10
-8.594515673211224
 20
8.185419935783912
 10
-8.594425634419808
 20
8.185419935783912
 10
-8.594336004895625
 20
8.185419935783912
 10
-8.594245966104208
 20
8.185329896992495
 10
-8.594156336580027
 20
8.185329896992495
 10
-8.593976668264428
 20
8.185240267468314
 10
-8.593616922365997
 20
8.1849705603613
 10
-8.593257585734802
 20
8.184701262521517
 10
-8.592988287895021
 20
8.184341516623087
 10
-8.592808619579422
 20
8.183982179991891
 10
-8.592628951263824
 20
8.183622843360694
 10
-8.592449282948225
 20
8.183173467938081
 10
-8.59235924415681
 20
8.182724501782702
 10
-8.59217957584121
 20
8.182275126360089
 10
-8.592089946317029
 20
8.18182616020471
 10
-8.59191027800143
 20
8.181376784782097
 10
-8.591820239210013
 20
8.1810174481509
 10
-8.591550532102999
 20
8.180568072728288
 10
-8.591371273054635
 20
8.180208736097091
 10
-8.591101565947621
 20
8.179849399465894
 10
-8.590202815102395
 20
8.179400433310515
 10
-8.59029285389381
 20
8.179310394519099
 10
-8.590382892685227
 20
8.179220764994916
 10
-8.59047252220941
 20
8.179130726203499
 10
-8.590562561000824
 20
8.179130726203499
 10
-8.590742229316424
 20
8.179130726203499
 10
-8.590831858840605
 20
8.179130726203499
 10
-8.590921897632021
 20
8.179130726203499
 10
-8.591101565947621
 20
8.179130726203499
 10
-8.591191195471802
 20
8.179130726203499
 10
-8.591371273054635
 20
8.179130726203499
 10
-8.591460902578816
 20
8.179130726203499
 10
-8.591640570894416
 20
8.179130726203499
 10
-8.591730200418599
 20
8.179130726203499
 10
-8.59191027800143
 20
8.179130726203499
 10
-8.592089946317029
 20
8.179220764994916
 10
-8.592269614632627
 20
8.179130726203499
 10
-8.59235924415681
 20
8.179130726203499
 10
-8.592449282948225
 20
8.179040687412085
 10
-8.592538912472408
 20
8.178951057887902
 10
-8.592538912472408
 20
8.178861019096485
 10
-8.592628951263824
 20
8.178771389572302
 10
-8.592628951263824
 20
8.178681760048121
 10
-8.592628951263824
 20
8.178591721256704
 10
-8.592628951263824
 20
8.178412052941107
 10
-8.592628951263824
 20
8.17832201414969
 10
-8.592628951263824
 20
8.178232384625507
 10
-8.592628951263824
 20
8.178142345834091
 10
-8.592628951263824
 20
8.177962677518493
 10
-8.593167956210619
 20
8.178412052941107
 10
-8.593616922365997
 20
8.178861019096485
 10
-8.594066297788611
 20
8.179310394519099
 10
-8.594515673211224
 20
8.179759769941711
 10
-8.595054678158019
 20
8.180119106572908
 10
-8.595504053580633
 20
8.180568072728288
 10
-8.596043058527428
 20
8.180927409359485
 10
-8.596582063474222
 20
8.181197116466499
 10
-8.597121068421017
 20
8.18146641430628
 10
-8.597660073367812
 20
8.181736121413294
 10
-8.598289117106023
 20
8.182005828520308
 10
-8.598918160844236
 20
8.182185496835906
 10
-8.599546795315214
 20
8.182275126360089
 10
-8.600175839053424
 20
8.182365165151505
 10
-8.601613185578212
 20
8.182454794675688
 10
-8.60179285389381
 20
8.182365165151505
  0
LWPOLYLINE
  5
43BE
330
4317
100
AcDbEntity
  8
IMAGE
  6
0
100
AcDbPolyline
 90
       91
 70
     0
 43
0.0
 10
-8.60179285389381
 20
8.182365165151505
 10
-8.601882892685226
 20
8.182275126360089
 10
-8.602062561000824
 20
8.182275126360089
 10
-8.602152190525007
 20
8.182275126360089
 10
-8.602242229316424
 20
8.182185496835906
 10
-8.602421897632021
 20
8.182185496835906
 10
-8.602511527156204
 20
8.182185496835906
 10
-8.602601565947621
 20
8.182185496835906
 10
-8.602691195471802
 20
8.182185496835906
 10
-8.602781234263218
 20
8.182095458044491
 10
-8.602870863787401
 20
8.182095458044491
 10
-8.603050532102999
 20
8.182095458044491
 10
-8.603140570894415
 20
8.182005828520308
 10
-8.603230609685832
 20
8.181915789728892
 10
-8.603320239210013
 20
8.18182616020471
 10
-8.604128951263824
 20
8.181287155257914
 10
-8.604757585734802
 20
8.180747741043886
 10
-8.605386629473013
 20
8.180029477048725
 10
-8.605925634419808
 20
8.179310394519099
 10
-8.606464639366603
 20
8.178501682465288
 10
-8.607004053580633
 20
8.177693379678713
 10
-8.607543058527427
 20
8.176884667624904
 10
-8.608082063474222
 20
8.176075955571093
 10
-8.6087106979452
 20
8.1753572823087
 10
-8.609339741683411
 20
8.174638609046306
 10
-8.609968785421623
 20
8.174099604099511
 10
-8.610687458684017
 20
8.173560189885481
 10
-8.611496170737826
 20
8.173201262521518
 10
-8.612394512315818
 20
8.173021184938686
 10
-8.614370863787401
 20
8.173111223730103
 10
-8.615628951263824
 20
8.173650228676898
 10
-8.616706961157413
 20
8.174189233623692
 10
-8.617784971051005
 20
8.174818277361904
 10
-8.618862980944594
 20
8.175446911832882
 10
-8.619941400105419
 20
8.176075955571093
 10
-8.620929371207594
 20
8.176794628833487
 10
-8.621917751577001
 20
8.177423672571698
 10
-8.622906131946409
 20
8.17805271630991
 10
-8.623894512315818
 20
8.178771389572302
 10
-8.624882892685226
 20
8.179400433310515
 10
-8.625870863787401
 20
8.180119106572908
 10
-8.626859244156808
 20
8.180747741043886
 10
-8.627847624526216
 20
8.181376784782097
 10
-8.628836004895624
 20
8.182095458044491
 10
-8.630812356367208
 20
8.183353545520914
 10
-8.630453019736011
 20
8.183443175045097
 10
-8.630003644313397
 20
8.183622843360694
 10
-8.629464639366602
 20
8.183622843360694
 10
-8.629015673211224
 20
8.183622843360694
 10
-8.62856629778861
 20
8.183533213836511
 10
-8.62811733163323
 20
8.183443175045097
 10
-8.627577917419202
 20
8.183353545520914
 10
-8.627128951263824
 20
8.183263506729497
 10
-8.62667957584121
 20
8.183083838413899
 10
-8.626140570894415
 20
8.1829041700983
 10
-8.625691195471802
 20
8.182724501782702
 10
-8.625242229316423
 20
8.182544833467103
 10
-8.62479285389381
 20
8.182365165151505
 10
-8.624253848947015
 20
8.182275126360089
 10
-8.623355507369023
 20
8.182095458044491
 10
-8.624972522209409
 20
8.184251887098906
 10
-8.624703224369628
 20
8.184341516623087
 10
-8.624433517262612
 20
8.184431555414503
 10
-8.624074180631415
 20
8.184431555414503
 10
-8.623714844000218
 20
8.184431555414503
 10
-8.623355507369023
 20
8.184341516623087
 10
-8.623085800262009
 20
8.184251887098906
 10
-8.622726463630812
 20
8.184072218783306
 10
-8.622367126999614
 20
8.183982179991891
 10
-8.622007790368417
 20
8.183802511676292
 10
-8.62164845373722
 20
8.183622843360694
 10
-8.621289117106025
 20
8.183443175045097
 10
-8.620929371207594
 20
8.183263506729497
 10
-8.620660073367812
 20
8.183173467938081
 10
-8.620300736736615
 20
8.183083838413899
 10
-8.619582063474222
 20
8.182994208889716
 10
-8.619671692998405
 20
8.183173467938081
 10
-8.619671692998405
 20
8.183353545520914
 10
-8.61976173178982
 20
8.183533213836511
 10
-8.619851361314003
 20
8.183622843360694
 10
-8.619941400105419
 20
8.183802511676292
 10
-8.6200310296296
 20
8.183982179991891
 10
-8.620121068421017
 20
8.184072218783306
 10
-8.620300736736615
 20
8.184251887098906
 10
-8.620390366260798
 20
8.184341516623087
 10
-8.620480405052214
 20
8.184521184938686
 10
-8.620660073367812
 20
8.184701262521517
 10
-8.620750112159228
 20
8.184880521569883
 10
-8.620839741683411
 20
8.185060189885481
 10
-8.620929371207594
 20
8.185240267468314
 10
-8.620929371207594
 20
8.185599194832276
  0
LWPOLYLINE
  5
43BF
330
4317
100
AcDbEntity
  8
IMAGE
  6
0
100
AcDbPolyline
 90
       17
 70
     1
 43
0.0
 10
-8.678429780474825
 20
8.186857282308698
 10
-8.679417751577
 20
8.181915789728892
 10
-8.6795974198926
 20
8.181736121413294
 10
-8.679777088208197
 20
8.181646491889111
 10
-8.679867126999614
 20
8.181646491889111
 10
-8.680046795315211
 20
8.181556453097694
 10
-8.680226463630811
 20
8.181556453097694
 10
-8.680406131946408
 20
8.181556453097694
 10
-8.680585800262006
 20
8.181556453097694
 10
-8.680765468577606
 20
8.181556453097694
 10
-8.680945136893203
 20
8.181556453097694
 10
-8.681124805208803
 20
8.181556453097694
 10
-8.6813044735244
 20
8.181556453097694
 10
-8.681574180631415
 20
8.181556453097694
 10
-8.681753848947014
 20
8.181556453097694
 10
-8.681933517262612
 20
8.181556453097694
 10
-8.682292853893809
 20
8.181556453097694
  0
LWPOLYLINE
  5
43C0
330
4317
100
AcDbEntity
  8
IMAGE
  6
0
100
AcDbPolyline
 90
       32
 70
     1
 43
0.0
 10
-8.575468785421623
 20
8.184431555414503
 10
-8.571425634419808
 20
8.184341516623087
 10
-8.571245966104211
 20
8.184072218783306
 10
-8.571066297788611
 20
8.183892550467708
 10
-8.57097666826443
 20
8.183712882152111
 10
-8.57079699994883
 20
8.183443175045097
 10
-8.570706961157414
 20
8.183263506729497
 10
-8.570706961157414
 20
8.182994208889716
 10
-8.570616922365999
 20
8.182724501782702
 10
-8.570616922365999
 20
8.182544833467103
 10
-8.570616922365999
 20
8.182275126360089
 10
-8.570706961157414
 20
8.182005828520308
 10
-8.570706961157414
 20
8.181736121413294
 10
-8.57079699994883
 20
8.18146641430628
 10
-8.570886629473013
 20
8.181197116466499
 10
-8.57097666826443
 20
8.180927409359485
 10
-8.571245966104211
 20
8.180478443204105
 10
-8.571605302735406
 20
8.17993943825731
 10
-8.571964639366603
 20
8.179579692358879
 10
-8.5723239759978
 20
8.179220764994916
 10
-8.572683721896231
 20
8.178861019096485
 10
-8.573132688051611
 20
8.178681760048121
 10
-8.573582063474223
 20
8.178412052941107
 10
-8.574121068421018
 20
8.178232384625507
 10
-8.574570443843631
 20
8.178142345834091
 10
-8.575109448790426
 20
8.177962677518493
 10
-8.575648453737223
 20
8.17787304799431
 10
-8.576097829159834
 20
8.17787304799431
 10
-8.576636834106629
 20
8.17787304799431
 10
-8.577175839053426
 20
8.177783009202896
 10
-8.577714844000221
 20
8.17787304799431
 10
-8.578703224369629
 20
8.177962677518493
  0
CIRCLE
  5
43C1
330
4317
100
AcDbEntity
  8
IMAGE
100
AcDbCircle
 10
-8.497310051331448
 20
8.173046538614752
 30
0.0
 40
0.0043325966679298
  0
TEXT
  5
43C2
330
4317
100
AcDbEntity
  8
IMAGE
100
AcDbText
 10
-8.499521336978025
 20
8.170790058907249
 30
0.0
 40
0.0047432150479587
  1
R
  7
ROMANS
100
AcDbText
  0
LWPOLYLINE
  5
43C3
330
4317
100
AcDbEntity
  8
IMAGE
  6
0
100
AcDbPolyline
 90
       35
 70
     1
 43
0.0
 10
-8.568640570894416
 20
8.196560189885481
 10
-8.565226463630812
 20
8.196380930837117
 10
-8.565136834106629
 20
8.196021184938686
 10
-8.565046795315215
 20
8.195751887098905
 10
-8.564957165791032
 20
8.195482179991889
 10
-8.564957165791032
 20
8.195122843360694
 10
-8.564957165791032
 20
8.194853545520913
 10
-8.565046795315215
 20
8.194583838413899
 10
-8.565136834106629
 20
8.194314540574117
 10
-8.565226463630812
 20
8.193954794675688
 10
-8.565316093154995
 20
8.193685496835906
 10
-8.565496170737826
 20
8.193415789728891
 10
-8.565675839053426
 20
8.193146491889111
 10
-8.565765468577607
 20
8.192876784782097
 10
-8.565945136893207
 20
8.192607486942316
 10
-8.566124805208804
 20
8.192337779835302
 10
-8.566304473524404
 20
8.191888404412688
 10
-8.566664219422833
 20
8.191618697305674
 10
-8.566933517262613
 20
8.19143943825731
 10
-8.56729285389381
 20
8.19125976994171
 10
-8.567652190525008
 20
8.191079692358879
 10
-8.568011527156205
 20
8.19090002404328
 10
-8.568370863787402
 20
8.190810394519099
 10
-8.568820239210014
 20
8.190720764994916
 10
-8.569179575841211
 20
8.190630726203499
 10
-8.569628951263824
 20
8.190540687412083
 10
-8.570078326686436
 20
8.190451057887901
 10
-8.5704372540504
 20
8.190451057887901
 10
-8.570886629473013
 20
8.190451057887901
 10
-8.571336004895625
 20
8.190361428363718
 10
-8.571695341526822
 20
8.190361428363718
 10
-8.572504053580633
 20
8.190451057887901
 10
-8.568820239210014
 20
8.196560189885481
 10
-8.568730609685832
 20
8.196560189885481
 10
-8.568640570894416
 20
8.196560189885481
  0
LWPOLYLINE
  5
43C4
330
4317
100
AcDbEntity
  8
IMAGE
  6
0
100
AcDbPolyline
 90
       58
 70
     1
 43
0.0
 10
-8.703046795315211
 20
8.196919526516678
 10
-8.702777088208197
 20
8.196919526516678
 10
-8.702507790368416
 20
8.196919526516678
 10
-8.702238083261402
 20
8.196919526516678
 10
-8.701968785421621
 20
8.196919526516678
 10
-8.701609448790424
 20
8.196919526516678
 10
-8.701339741683408
 20
8.196829896992495
 10
-8.701070034576394
 20
8.196829896992495
 10
-8.700710697945199
 20
8.196829896992495
 10
-8.700441400105418
 20
8.196740267468314
 10
-8.700171692998402
 20
8.196650228676897
 10
-8.699902395158622
 20
8.196560189885481
 10
-8.699632688051607
 20
8.1964705603613
 10
-8.699362980944593
 20
8.1962908920457
 10
-8.699183312628994
 20
8.196111223730103
 10
-8.698734346473615
 20
8.195751887098905
 10
-8.698823975997798
 20
8.193056453097696
 10
-8.699183312628994
 20
8.192607486942316
 10
-8.699543058527424
 20
8.192247741043885
 10
-8.699902395158622
 20
8.191888404412688
 10
-8.700261731789819
 20
8.191529067781493
 10
-8.700621068421016
 20
8.19125976994171
 10
-8.701070034576394
 20
8.190990062834696
 10
-8.701519409999008
 20
8.190720764994916
 10
-8.702058414945803
 20
8.190540687412083
 10
-8.702507790368416
 20
8.190361428363718
 10
-8.703046795315211
 20
8.190271389572304
 10
-8.703585800262006
 20
8.190091721256704
 10
-8.704124805208802
 20
8.190001682465288
 10
-8.704664219422831
 20
8.190001682465288
 10
-8.705203224369626
 20
8.190001682465288
 10
-8.706281234263217
 20
8.190091721256704
 10
-8.706460902578815
 20
8.190361428363718
 10
-8.706460902578815
 20
8.190720764994916
 10
-8.706460902578815
 20
8.190990062834696
 10
-8.706370863787398
 20
8.191349399465893
 10
-8.706281234263217
 20
8.191798774888507
 10
-8.706101565947617
 20
8.192158111519702
 10
-8.70592189763202
 20
8.192517448150899
 10
-8.705652190525006
 20
8.192966823573513
 10
-8.705472522209406
 20
8.19332616020471
 10
-8.705203224369626
 20
8.193685496835906
 10
-8.704933517262611
 20
8.194134462991286
 10
-8.704753848947014
 20
8.194493799622483
 10
-8.704484141839998
 20
8.194943175045096
 10
-8.7043044735244
 20
8.195302511676292
 10
-8.703855507369022
 20
8.196111223730103
 10
-8.703765468577605
 20
8.196200853254286
 10
-8.703765468577605
 20
8.1962908920457
 10
-8.703675839053422
 20
8.196380930837117
 10
-8.703675839053422
 20
8.1964705603613
 10
-8.703585800262006
 20
8.196560189885481
 10
-8.703585800262006
 20
8.196650228676897
 10
-8.703496170737825
 20
8.196740267468314
 10
-8.703496170737825
 20
8.196829896992495
 10
-8.703406131946408
 20
8.196829896992495
 10
-8.703316093154992
 20
8.196829896992495
 10
-8.703046795315211
 20
8.196919526516678
  0
LWPOLYLINE
  5
43C5
330
4317
100
AcDbEntity
  8
IMAGE
  6
0
100
AcDbPolyline
 90
        3
 70
     0
 43
0.0
 10
-8.708976668264426
 20
8.203478443204105
 10
-8.70888662947301
 20
8.203478443204105
 10
-8.70888662947301
 20
8.203478443204105
  0
LWPOLYLINE
  5
43C6
330
4317
100
AcDbEntity
  8
IMAGE
  6
0
100
AcDbPolyline
 90
       39
 70
     0
 43
0.0
 10
-8.603969050301861
 20
8.199235856533055
 10
-8.603949282948224
 20
8.199255623886692
 10
-8.603589946317027
 20
8.199614960517887
 10
-8.605206961157414
 20
8.203927818626718
 10
-8.605117331633232
 20
8.203927818626718
 10
-8.605027292841816
 20
8.203927818626718
 10
-8.604937663317633
 20
8.204017448150899
 10
-8.604847624526216
 20
8.203927818626718
 10
-8.604757585734802
 20
8.203927818626718
 10
-8.604667956210619
 20
8.203927818626718
 10
-8.604577917419202
 20
8.203837779835302
 10
-8.604488287895021
 20
8.203837779835302
 10
-8.604398249103605
 20
8.203747741043885
 10
-8.604308619579422
 20
8.203747741043885
 10
-8.604218580788005
 20
8.203658111519704
 10
-8.604128951263824
 20
8.203658111519704
 10
-8.604038912472407
 20
8.203568072728288
 10
-8.603949282948224
 20
8.203568072728288
 10
-8.60367957584121
 20
8.203658111519704
 10
-8.605117331633232
 20
8.2077908920457
 10
-8.605027292841816
 20
8.2077908920457
 10
-8.604847624526216
 20
8.2077908920457
 10
-8.604757585734802
 20
8.207700853254284
 10
-8.604667956210619
 20
8.207700853254284
 10
-8.604488287895021
 20
8.207611223730102
 10
-8.604398249103605
 20
8.207521594205919
 10
-8.604308619579422
 20
8.207431555414503
 10
-8.604128951263824
 20
8.207431555414503
 10
-8.604038912472407
 20
8.207341516623086
 10
-8.603949282948224
 20
8.207251887098905
 10
-8.603769205365393
 20
8.207161848307489
 10
-8.60367957584121
 20
8.207161848307489
 10
-8.603589946317027
 20
8.207161848307489
 10
-8.60341027800143
 20
8.207161848307489
 10
-8.603050532102999
 20
8.207341516623086
 10
-8.605206961157414
 20
8.213630726203499
 10
-8.605117331633232
 20
8.213630726203499
 10
-8.605027292841816
 20
8.213630726203499
 10
-8.605027292841816
 20
8.213630726203499
  0
LWPOLYLINE
  5
43C7
330
4317
100
AcDbEntity
  8
IMAGE
  6
0
100
AcDbPolyline
 90
       10
 70
     0
 43
0.0
 10
-8.604667956210619
 20
8.1962908920457
 10
-8.604577917419202
 20
8.1962908920457
 10
-8.604577917419202
 20
8.196380930837117
 10
-8.604488287895021
 20
8.196560189885481
 10
-8.606105302735405
 20
8.200153965464684
 10
-8.606015673211224
 20
8.200244004256099
 10
-8.606015673211224
 20
8.200334043047515
 10
-8.605925634419808
 20
8.200334043047515
 10
-8.605836004895625
 20
8.200423672571698
 10
-8.603969050301861
 20
8.199235856533055
  0
VIEWPORT
  5
D4
330
4313
100
AcDbEntity
 67
     1
  8
0
100
AcDbViewport
 10
6.172388059701492
 20
4.5
 30
0.0
 40
12.34477611940298
 41
9.0
 68
     1
 69
     1
 12
6.172388059701492
 22
4.5
 13
0.0
 23
0.0
 14
0.14
 24
0.14
 15
0.14
 25
0.14
 16
0.0
 26
0.0
 36
1.0
 17
0.0
 27
0.0
 37
0.0
 42
50.0
 43
0.0
 44
0.0
 45
9.0
 50
0.0
 51
0.0
 72
   100
 90
    32800
  1

281
     0
 71
     0
 74
     0
110
0.0
120
0.0
130
0.0
111
0.0
121
0.0
131
0.0
112
0.0
122
0.0
132
0.0
 79
     0
146
0.0
  0
ENDSEC
  0
SECTION
  2
OBJECTS
  0
DICTIONARY
  5
4305
330
0
100
AcDbDictionary
281
     1
  3
ACAD_GROUP
350
4306
  3
ACAD_LAYOUT
350
4312
  3
ACAD_MLINESTYLE
350
430F
  3
ACAD_PLOTSETTINGS
350
4311
  3
ACAD_PLOTSTYLENAME
350
4307
  3
AcadDim
350
4387
  3
AcDbVariableDictionary
350
433B
  0
DICTIONARY
  5
4306
102
{ACAD_REACTORS
330
4305
102
}
330
4305
100
AcDbDictionary
281
     1
  0
DICTIONARY
  5
4312
102
{ACAD_REACTORS
330
4305
102
}
330
4305
100
AcDbDictionary
281
     1
  3
Layout1
350
4316
  3
Model
350
431A
  0
DICTIONARY
  5
430F
102
{ACAD_REACTORS
330
4305
102
}
330
4305
100
AcDbDictionary
281
     1
  3
Standard
350
4310
  0
DICTIONARY
  5
4311
102
{ACAD_REACTORS
330
4305
102
}
330
4305
100
AcDbDictionary
281
     1
  0
ACDBDICTIONARYWDFLT
  5
4307
102
{ACAD_REACTORS
330
4305
102
}
330
4305
100
AcDbDictionary
281
     1
  3
Normal
350
4308
100
AcDbDictionaryWithDefault
340
4308
  0
XRECORD
  5
4387
102
{ACAD_REACTORS
330
4305
102
}
330
4305
100
AcDbXrecord
280
     1
 90
   990106
  3

 60
     4
 61
     0
 62
     1
 63
     3
 64
     0
 65
     0
 66
     0
 67
     3
 68
     1
 69
     0
 70
     0
 71
     1
 72
     0
 40
0.0
170
     1
  0
DICTIONARY
  5
433B
102
{ACAD_REACTORS
330
4305
102
}
330
4305
100
AcDbDictionary
281
     1
  3
DIMASSOC
350
433E
  3
HIDETEXT
350
433D
  3
SORTENTS
350
433C
  0
LAYOUT
  5
4316
102
{ACAD_REACTORS
330
4312
102
}
330
4312
100
AcDbPlotSettings
  1

  2
S:\AutoCAD 2002\Plotters\1055B&WDraftShaded.pc3
  4

  6

 40
0.0
 41
0.0
 42
0.0
 43
0.0
 44
0.0
 45
0.0
 46
0.0
 47
0.0
 48
0.0
 49
0.0
140
0.0
141
0.0
142
1.0
143
1.0
 70
   688
 72
     0
 73
     0
 74
     5
  7
TRexLJ5Shaded2.ctb
 75
    16
147
1.0
148
0.0
149
0.0
100
AcDbLayout
  1
Layout1
 70
     1
 71
     1
 10
0.0
 20
0.0
 11
12.0
 21
9.0
 12
0.0
 22
0.0
 32
0.0
 14
1.000000000000000E+20
 24
1.000000000000000E+20
 34
1.000000000000000E+20
 15
-1.000000000000000E+20
 25
-1.000000000000000E+20
 35
-1.000000000000000E+20
146
0.0
 13
0.0
 23
0.0
 33
0.0
 16
1.0
 26
0.0
 36
0.0
 17
0.0
 27
1.0
 37
0.0
 76
     0
330
4313
331
D4
  0
LAYOUT
  5
431A
102
{ACAD_REACTORS
330
4312
102
}
330
4312
100
AcDbPlotSettings
  1

  2
OKI DOKI Color Laser.pc3
  4
Tabloid
  6

 40
3.174999952316284
 41
3.174999952316284
 42
3.17498779296875
 43
3.17498779296875
 44
279.3999938964843
 45
431.8000183105469
 46
0.0
 47
7.112
 48
0.0
 49
0.0
140
0.0
141
0.0
142
1.0
143
1.023961839320421
 70
 28340
 72
     0
 73
     1
 74
     0
  7
OKIColorShaded.ctb
 75
     0
147
0.9765988942162877
148
306.4950189173633
149
-8.29605907122883
100
AcDbLayout
  1
Model
 70
     1
 71
     0
 10
0.0
 20
0.0
 11
12.0
 21
9.0
 12
0.0
 22
0.0
 32
0.0
 14
0.0
 24
0.0
 34
0.0
 15
0.0
 25
0.0
 35
0.0
146
0.0
 13
0.0
 23
0.0
 33
0.0
 16
1.0
 26
0.0
 36
0.0
 17
0.0
 27
1.0
 37
0.0
 76
     0
330
4317
  0
MLINESTYLE
  5
4310
102
{ACAD_REACTORS
330
430F
102
}
330
430F
100
AcDbMlineStyle
  2
STANDARD
 70
     0
  3

 62
   256
 51
90.0
 52
90.0
 71
     2
 49
0.5
 62
   256
  6
BYLAYER
 49
-0.5
 62
   256
  6
BYLAYER
  0
ACDBPLACEHOLDER
  5
4308
102
{ACAD_REACTORS
330
4307
102
}
330
4307
  0
DICTIONARYVAR
  5
433E
102
{ACAD_REACTORS
330
433B
102
}
330
433B
100
DictionaryVariables
280
     0
  1
1
  0
DICTIONARYVAR
  5
433D
102
{ACAD_REACTORS
330
433B
102
}
330
433B
100
DictionaryVariables
280
     0
  1
1
  0
DICTIONARYVAR
  5
433C
102
{ACAD_REACTORS
330
433B
102
}
330
433B
100
DictionaryVariables
280
     0
  1
1
  0
ENDSEC
  0
EOF
