  0
SECTION
  2
HEADER
  9
$ACADVER
  1
AC1015
  9
$ACADMAINTVER
 70
    20
  9
$DWGCODEPAGE
  3
ANSI_1252
  9
$INSBASE
 10
0.0
 20
0.0
 30
0.0
  9
$EXTMIN
 10
0.0
 20
0.0
 30
0.0
  9
$EXTMAX
 10
16.49
 20
10.44
 30
0.03
  9
$LIMMIN
 10
0.0
 20
0.0
  9
$LIMMAX
 10
100.0
 20
100.0
  9
$ORTHOMODE
 70
     1
  9
$REGENMODE
 70
     1
  9
$FILLMODE
 70
     1
  9
$QTEXTMODE
 70
     0
  9
$MIRRTEXT
 70
     0
  9
$LTSCALE
 40
24.0
  9
$ATTMODE
 70
     1
  9
$TEXTSIZE
 40
0.125
  9
$TRACEWID
 40
0.05
  9
$TEXTSTYLE
  7
ROMANS
  9
$CLAYER
  8
image
  9
$CELTYPE
  6
BYLAYER
  9
$CECOLOR
 62
   256
  9
$CELTSCALE
 40
1.0
  9
$DISPSILH
 70
     0
  9
$DIMSCALE
 40
1.0
  9
$DIMASZ
 40
0.125
  9
$DIMEXO
 40
0.0625
  9
$DIMDLI
 40
0.38
  9
$DIMRND
 40
0.0
  9
$DIMDLE
 40
0.0
  9
$DIMEXE
 40
0.125
  9
$DIMTP
 40
0.0
  9
$DIMTM
 40
0.0
  9
$DIMTXT
 40
0.125
  9
$DIMCEN
 40
0.09
  9
$DIMTSZ
 40
0.0
  9
$DIMTOL
 70
     0
  9
$DIMLIM
 70
     0
  9
$DIMTIH
 70
     0
  9
$DIMTOH
 70
     1
  9
$DIMSE1
 70
     0
  9
$DIMSE2
 70
     0
  9
$DIMTAD
 70
     1
  9
$DIMZIN
 70
     0
  9
$DIMBLK
  1

  9
$DIMASO
 70
     1
  9
$DIMSHO
 70
     1
  9
$DIMPOST
  1

  9
$DIMAPOST
  1

  9
$DIMALT
 70
     0
  9
$DIMALTD
 70
     2
  9
$DIMALTF
 40
25.4
  9
$DIMLFAC
 40
1.0
  9
$DIMTOFL
 70
     0
  9
$DIMTVP
 40
0.0
  9
$DIMTIX
 70
     1
  9
$DIMSOXD
 70
     0
  9
$DIMSAH
 70
     0
  9
$DIMBLK1
  1

  9
$DIMBLK2
  1

  9
$DIMSTYLE
  2
STANDARD
  9
$DIMCLRD
 70
   256
  9
$DIMCLRE
 70
   256
  9
$DIMCLRT
 70
   256
  9
$DIMTFAC
 40
1.0
  9
$DIMGAP
 40
0.09
  9
$DIMJUST
 70
     0
  9
$DIMSD1
 70
     0
  9
$DIMSD2
 70
     0
  9
$DIMTOLJ
 70
     1
  9
$DIMTZIN
 70
     0
  9
$DIMALTZ
 70
     0
  9
$DIMALTTZ
 70
     0
  9
$DIMUPT
 70
     0
  9
$DIMDEC
 70
     4
  9
$DIMTDEC
 70
     4
  9
$DIMALTU
 70
     2
  9
$DIMALTTD
 70
     2
  9
$DIMTXSTY
  7
ROMANS
  9
$DIMAUNIT
 70
     0
  9
$DIMADEC
 70
     0
  9
$DIMALTRND
 40
0.0
  9
$DIMAZIN
 70
     0
  9
$DIMDSEP
 70
    46
  9
$DIMATFIT
 70
     3
  9
$DIMFRAC
 70
     0
  9
$DIMLDRBLK
  1

  9
$DIMLUNIT
 70
     2
  9
$DIMLWD
 70
    -1
  9
$DIMLWE
 70
    -1
  9
$DIMTMOVE
 70
     2
  9
$LUNITS
 70
     2
  9
$LUPREC
 70
     3
  9
$SKETCHINC
 40
0.1
  9
$FILLETRAD
 40
0.0
  9
$AUNITS
 70
     0
  9
$AUPREC
 70
     0
  9
$MENU
  1
ACAD
  9
$ELEVATION
 40
0.0
  9
$PELEVATION
 40
0.0
  9
$THICKNESS
 40
0.0
  9
$LIMCHECK
 70
     0
  9
$CHAMFERA
 40
0.0
  9
$CHAMFERB
 40
0.0
  9
$CHAMFERC
 40
0.0
  9
$CHAMFERD
 40
0.0
  9
$SKPOLY
 70
     0
  9
$TDCREATE
 40
2450008.548685880
  9
$TDUCREATE
 40
2450008.798685880
  9
$TDUPDATE
 40
2456149.557072211
  9
$TDUUPDATE
 40
2456149.807072211
  9
$TDINDWG
 40
0.1984639815
  9
$TDUSRTIMER
 40
0.1984639815
  9
$USRTIMER
 70
     1
  9
$ANGBASE
 50
0.0
  9
$ANGDIR
 70
     0
  9
$PDMODE
 70
     0
  9
$PDSIZE
 40
0.0
  9
$PLINEWID
 40
0.0
  9
$SPLFRAME
 70
     0
  9
$SPLINETYPE
 70
     6
  9
$SPLINESEGS
 70
     8
  9
$HANDSEED
  5
337
  9
$SURFTAB1
 70
     6
  9
$SURFTAB2
 70
     6
  9
$SURFTYPE
 70
     6
  9
$SURFU
 70
     6
  9
$SURFV
 70
     6
  9
$UCSBASE
  2

  9
$UCSNAME
  2

  9
$UCSORG
 10
0.0
 20
0.0
 30
0.0
  9
$UCSXDIR
 10
1.0
 20
0.0
 30
0.0
  9
$UCSYDIR
 10
0.0
 20
1.0
 30
0.0
  9
$UCSORTHOREF
  2

  9
$UCSORTHOVIEW
 70
     0
  9
$UCSORGTOP
 10
0.0
 20
0.0
 30
0.0
  9
$UCSORGBOTTOM
 10
0.0
 20
0.0
 30
0.0
  9
$UCSORGLEFT
 10
0.0
 20
0.0
 30
0.0
  9
$UCSORGRIGHT
 10
0.0
 20
0.0
 30
0.0
  9
$UCSORGFRONT
 10
0.0
 20
0.0
 30
0.0
  9
$UCSORGBACK
 10
0.0
 20
0.0
 30
0.0
  9
$PUCSBASE
  2

  9
$PUCSNAME
  2

  9
$PUCSORG
 10
0.0
 20
0.0
 30
0.0
  9
$PUCSXDIR
 10
1.0
 20
0.0
 30
0.0
  9
$PUCSYDIR
 10
0.0
 20
1.0
 30
0.0
  9
$PUCSORTHOREF
  2

  9
$PUCSORTHOVIEW
 70
     0
  9
$PUCSORGTOP
 10
0.0
 20
0.0
 30
0.0
  9
$PUCSORGBOTTOM
 10
0.0
 20
0.0
 30
0.0
  9
$PUCSORGLEFT
 10
0.0
 20
0.0
 30
0.0
  9
$PUCSORGRIGHT
 10
0.0
 20
0.0
 30
0.0
  9
$PUCSORGFRONT
 10
0.0
 20
0.0
 30
0.0
  9
$PUCSORGBACK
 10
0.0
 20
0.0
 30
0.0
  9
$USERI1
 70
     0
  9
$USERI2
 70
     0
  9
$USERI3
 70
     0
  9
$USERI4
 70
     0
  9
$USERI5
 70
     0
  9
$USERR1
 40
0.0
  9
$USERR2
 40
0.0
  9
$USERR3
 40
0.0
  9
$USERR4
 40
0.0
  9
$USERR5
 40
0.0
  9
$WORLDVIEW
 70
     1
  9
$SHADEDGE
 70
     3
  9
$SHADEDIF
 70
    70
  9
$TILEMODE
 70
     1
  9
$MAXACTVP
 70
    16
  9
$PINSBASE
 10
-42.77995331085476
 20
50.00000000000001
 30
46.08892476046576
  9
$PLIMCHECK
 70
     0
  9
$PEXTMIN
 10
1.000000000000000E+20
 20
1.000000000000000E+20
 30
1.000000000000000E+20
  9
$PEXTMAX
 10
-1.000000000000000E+20
 20
-1.000000000000000E+20
 30
-1.000000000000000E+20
  9
$PLIMMIN
 10
0.0
 20
0.0
  9
$PLIMMAX
 10
12.0
 20
9.0
  9
$UNITMODE
 70
     0
  9
$VISRETAIN
 70
     0
  9
$PLINEGEN
 70
     1
  9
$PSLTSCALE
 70
     0
  9
$TREEDEPTH
 70
  3020
  9
$CMLSTYLE
  2
STANDARD
  9
$CMLJUST
 70
     0
  9
$CMLSCALE
 40
1.0
  9
$PROXYGRAPHICS
 70
     1
  9
$MEASUREMENT
 70
     0
  9
$CELWEIGHT
370
    -1
  9
$ENDCAPS
280
     0
  9
$JOINSTYLE
280
     0
  9
$LWDISPLAY
290
     0
  9
$INSUNITS
 70
     0
  9
$HYPERLINKBASE
  1

  9
$STYLESHEET
  1
laserjet5shaded.ctb
  9
$XEDIT
290
     1
  9
$CEPSNTYPE
380
     0
  9
$PSTYLEMODE
290
     1
  9
$FINGERPRINTGUID
  2
{8C55A906-9429-4DA2-94C9-6274A872873F}
  9
$VERSIONGUID
  2
{3426D4FA-5F48-4DF4-81A4-0C520CEE94F2}
  9
$EXTNAMES
290
     1
  9
$PSVPSCALE
 40
0.0
  9
$OLESTARTUP
290
     1
  0
ENDSEC
  0
SECTION
  2
CLASSES
  0
CLASS
  1
DICTIONARYVAR
  2
AcDbDictionaryVar
  3
ObjectDBX Classes
 90
        0
280
     0
281
     0
  0
CLASS
  1
ACDBDICTIONARYWDFLT
  2
AcDbDictionaryWithDefault
  3
ObjectDBX Classes
 90
        0
280
     0
281
     0
  0
CLASS
  1
ACDBPLACEHOLDER
  2
AcDbPlaceHolder
  3
ObjectDBX Classes
 90
        0
280
     0
281
     0
  0
CLASS
  1
LAYOUT
  2
AcDbLayout
  3
ObjectDBX Classes
 90
        0
280
     0
281
     0
  0
CLASS
  1
PLOTSETTINGS
  2
AcDbPlotSettings
  3
ObjectDBX Classes
 90
    32768
280
     0
281
     0
  0
CLASS
  1
MATERIAL
  2
AcDbMaterial
  3
ObjectDBX Classes
 90
     1153
280
     0
281
     0
  0
CLASS
  1
VISUALSTYLE
  2
AcDbVisualStyle
  3
ObjectDBX Classes
 90
     4095
280
     0
281
     0
  0
CLASS
  1
TABLESTYLE
  2
AcDbTableStyle
  3
ObjectDBX Classes
 90
     4095
280
     0
281
     0
  0
CLASS
  1
SCALE
  2
AcDbScale
  3
ObjectDBX Classes
 90
     1153
280
     0
281
     0
  0
CLASS
  1
MLEADERSTYLE
  2
AcDbMLeaderStyle
  3
ACDB_MLEADERSTYLE_CLASS
 90
     4095
280
     0
281
     0
  0
CLASS
  1
ACDBSECTIONVIEWSTYLE
  2
AcDbSectionViewStyle
  3
ObjectDBX Classes
 90
    33793
280
     0
281
     0
  0
CLASS
  1
ACDBDETAILVIEWSTYLE
  2
AcDbDetailViewStyle
  3
ObjectDBX Classes
 90
    33793
280
     0
281
     0
  0
CLASS
  1
CELLSTYLEMAP
  2
AcDbCellStyleMap
  3
ObjectDBX Classes
 90
     1152
280
     0
281
     0
  0
ENDSEC
  0
SECTION
  2
TABLES
  0
TABLE
  2
VPORT
  5
2B8
330
0
100
AcDbSymbolTable
 70
     1
  0
VPORT
  5
2B9
330
2B8
100
AcDbSymbolTableRecord
100
AcDbViewportTableRecord
  2
*Active
 70
     0
 10
0.0
 20
0.0
 11
1.0
 21
1.0
 12
8.195815549309084
 22
5.219999999999998
 13
0.0
 23
0.0
 14
4.906001566524613
 24
0.01
 15
1.0
 25
1.0
 16
0.0
 26
0.0
 36
1.0
 17
0.0
 27
0.0
 37
0.0
 40
10.51317756519791
 41
2.239766081871345
 42
50.0
 43
0.0
 44
0.0
 50
0.0
 51
0.0
 71
     0
 72
  1000
 73
     1
 74
     1
 75
     0
 76
     0
 77
     0
 78
     0
281
     0
 65
     1
110
0.0
120
0.0
130
0.0
111
1.0
121
0.0
131
0.0
112
0.0
122
1.0
132
0.0
 79
     0
146
0.0
1001
ACAD_NAV_VCDISPLAY
1070
     3
  0
ENDTAB
  0
TABLE
  2
LTYPE
  5
2B3
330
0
100
AcDbSymbolTable
 70
     1
  0
LTYPE
  5
2B4
330
2B3
100
AcDbSymbolTableRecord
100
AcDbLinetypeTableRecord
  2
BYBLOCK
 70
     0
  3

 72
    65
 73
     0
 40
0.0
  0
LTYPE
  5
2B5
330
2B3
100
AcDbSymbolTableRecord
100
AcDbLinetypeTableRecord
  2
BYLAYER
 70
     0
  3

 72
    65
 73
     0
 40
0.0
  0
LTYPE
  5
11
330
2B3
100
AcDbSymbolTableRecord
100
AcDbLinetypeTableRecord
  2
CONTINUOUS
 70
     0
  3
Solid line
 72
    65
 73
     0
 40
0.0
  0
ENDTAB
  0
TABLE
  2
LAYER
  5
2AD
102
{ACAD_XDICTIONARY
360
2AE
102
}
330
0
100
AcDbSymbolTable
 70
     5
  0
LAYER
  5
4
330
2AD
100
AcDbSymbolTableRecord
100
AcDbLayerTableRecord
  2
0
 70
     0
 62
     7
  6
CONTINUOUS
370
    -3
390
5
  0
LAYER
  5
3C
330
2AD
100
AcDbSymbolTableRecord
100
AcDbLayerTableRecord
  2
image
 70
     0
 62
     7
  6
CONTINUOUS
370
    -3
390
5
  0
LAYER
  5
13
330
2AD
100
AcDbSymbolTableRecord
100
AcDbLayerTableRecord
  2
text_bubbles
 70
     0
 62
     6
  6
CONTINUOUS
370
    -3
390
5
  0
LAYER
  5
3E
330
2AD
100
AcDbSymbolTableRecord
100
AcDbLayerTableRecord
  2
title
 70
     0
 62
     4
  6
CONTINUOUS
370
    -3
390
5
  0
LAYER
  5
281
330
2AD
100
AcDbSymbolTableRecord
100
AcDbLayerTableRecord
  2
defpoints
 70
     0
 62
     7
  6
CONTINUOUS
290
     0
370
    -3
390
5
  0
ENDTAB
  0
TABLE
  2
STYLE
  5
2B1
330
0
100
AcDbSymbolTable
 70
     5
  0
STYLE
  5
286
330
2B1
100
AcDbSymbolTableRecord
100
AcDbTextStyleTableRecord
  2
STANDARD
 70
     0
 40
0.0
 41
1.0
 50
0.0
 71
     0
 42
0.2
  3
txt
  4

  0
STYLE
  5
14
330
2B1
100
AcDbSymbolTableRecord
100
AcDbTextStyleTableRecord
  2
ROMANS
 70
     0
 40
0.0
 41
1.0
 50
0.0
 71
     0
 42
0.125
  3
romans
  4

  0
STYLE
  5
48
330
2B1
100
AcDbSymbolTableRecord
100
AcDbTextStyleTableRecord
  2
L100
 70
     0
 40
0.1
 41
1.0
 50
0.0
 71
     0
 42
0.1
  3
SIMPLEX
  4

  0
STYLE
  5
43
330
2B1
100
AcDbSymbolTableRecord
100
AcDbTextStyleTableRecord
  2
L200
 70
     0
 40
0.2
 41
1.0
 50
0.0
 71
     0
 42
0.081
  3
arial.ttf
  4

1001
ACAD
1000
Arial
1071
       34
  0
STYLE
  5
4B
330
2B1
100
AcDbSymbolTableRecord
100
AcDbTextStyleTableRecord
  2
L80
 70
     0
 40
0.08
 41
1.0
 50
0.0
 71
     0
 42
0.08
  3
ROMANS
  4

  0
ENDTAB
  0
TABLE
  2
VIEW
  5
2B6
330
0
100
AcDbSymbolTable
 70
     1
  0
VIEW
  5
2A4
330
2B6
100
AcDbSymbolTableRecord
100
AcDbViewTableRecord
  2
PS1
 70
     0
 40
10.44
 10
8.244999999999999
 20
5.219999999999999
 41
16.49
 11
0.0
 21
0.0
 31
1.0
 12
0.0
 22
0.0
 32
0.0
 42
50.0
 43
0.0
 44
0.0
 50
0.0
 71
     0
281
     0
 72
     1
110
0.0
120
0.0
130
0.0
111
1.0
121
0.0
131
0.0
112
0.0
122
1.0
132
0.0
 79
     0
146
0.0
  0
ENDTAB
  0
TABLE
  2
UCS
  5
2B7
330
0
100
AcDbSymbolTable
 70
     0
  0
ENDTAB
  0
TABLE
  2
APPID
  5
2BB
330
0
100
AcDbSymbolTable
 70
    11
  0
APPID
  5
44
330
2BB
100
AcDbSymbolTableRecord
100
AcDbRegAppTableRecord
  2
ACAD
 70
     0
  0
APPID
  5
2BA
330
2BB
100
AcDbSymbolTableRecord
100
AcDbRegAppTableRecord
  2
ACAD_NAV_VCDISPLAY
 70
     0
  0
APPID
  5
30B
330
2BB
100
AcDbSymbolTableRecord
100
AcDbRegAppTableRecord
  2
ACAD_MLEADERVER
 70
     0
  0
APPID
  5
321
330
2BB
100
AcDbSymbolTableRecord
100
AcDbRegAppTableRecord
  2
BBSI_PltSel
 70
     0
  0
APPID
  5
322
330
2BB
100
AcDbSymbolTableRecord
100
AcDbRegAppTableRecord
  2
BBSI_Plots
 70
     0
  0
APPID
  5
323
330
2BB
100
AcDbSymbolTableRecord
100
AcDbRegAppTableRecord
  2
BBSI_Bookmarks
 70
     0
  0
APPID
  5
324
330
2BB
100
AcDbSymbolTableRecord
100
AcDbRegAppTableRecord
  2
BBSI_BookmarksEx
 70
     0
  0
APPID
  5
325
330
2BB
100
AcDbSymbolTableRecord
100
AcDbRegAppTableRecord
  2
BBSI_StampsEx
 70
     0
  0
APPID
  5
326
330
2BB
100
AcDbSymbolTableRecord
100
AcDbRegAppTableRecord
  2
BBSI_Attachs
 70
     0
  0
APPID
  5
327
330
2BB
100
AcDbSymbolTableRecord
100
AcDbRegAppTableRecord
  2
BBSI_DigSigs
 70
     0
  0
APPID
  5
328
330
2BB
100
AcDbSymbolTableRecord
100
AcDbRegAppTableRecord
  2
ACAD_PSEXT
 70
     0
  0
ENDTAB
  0
TABLE
  2
DIMSTYLE
  5
2BC
330
0
100
AcDbSymbolTable
 70
     1
100
AcDbDimStyleTable
 71
     1
340
285
  0
DIMSTYLE
105
285
102
{ACAD_REACTORS
330
276
330
287
102
}
330
2BC
100
AcDbSymbolTableRecord
100
AcDbDimStyleTableRecord
  2
STANDARD
 70
     0
340
286
  0
ENDTAB
  0
TABLE
  2
BLOCK_RECORD
  5
1
330
0
100
AcDbSymbolTable
 70
     6
  0
BLOCK_RECORD
  5
2
330
1
100
AcDbSymbolTableRecord
100
AcDbBlockTableRecord
  2
*MODEL_SPACE
340
2A0
  0
BLOCK_RECORD
  5
2A9
330
1
100
AcDbSymbolTableRecord
100
AcDbBlockTableRecord
  2
*PAPER_SPACE
340
2AC
  0
BLOCK_RECORD
  5
3F
330
1
100
AcDbSymbolTableRecord
100
AcDbBlockTableRecord
  2
TITLBLK
340
0
102
{BLKREFS
331
3D
102
}
  0
BLOCK_RECORD
  5
16
330
1
100
AcDbSymbolTableRecord
100
AcDbBlockTableRecord
  2
bubble
340
0
310
2800000020000000200000000100080000000000000400000000000000000000000000000000000000000000000080000080000000808000800000008000800080800000C0C0C000C0DCC000F0CAA6000020400000206000002080000020A0000020C0000020E00000400000004020000040400000406000004080000040A0
310
000040C0000040E00000600000006020000060400000606000006080000060A0000060C0000060E00000800000008020000080400000806000008080000080A0000080C0000080E00000A0000000A0200000A0400000A0600000A0800000A0A00000A0C00000A0E00000C0000000C0200000C0400000C0600000C0800000C0
310
A00000C0C00000C0E00000E0000000E0200000E0400000E0600000E0800000E0A00000E0C00000E0E00040000000400020004000400040006000400080004000A0004000C0004000E00040200000402020004020400040206000402080004020A0004020C0004020E000404000004040200040404000404060004040800040
310
40A0004040C0004040E00040600000406020004060400040606000406080004060A0004060C0004060E00040800000408020004080400040806000408080004080A0004080C0004080E00040A0000040A0200040A0400040A0600040A0800040A0A00040A0C00040A0E00040C0000040C0200040C0400040C0600040C08000
310
40C0A00040C0C00040C0E00040E0000040E0200040E0400040E0600040E0800040E0A00040E0C00040E0E00080000000800020008000400080006000800080008000A0008000C0008000E00080200000802020008020400080206000802080008020A0008020C0008020E00080400000804020008040400080406000804080
310
008040A0008040C0008040E00080600000806020008060400080606000806080008060A0008060C0008060E00080800000808020008080400080806000808080008080A0008080C0008080E00080A0000080A0200080A0400080A0600080A0800080A0A00080A0C00080A0E00080C0000080C0200080C0400080C0600080C0
310
800080C0A00080C0C00080C0E00080E0000080E0200080E0400080E0600080E0800080E0A00080E0C00080E0E000C0000000C0002000C0004000C0006000C0008000C000A000C000C000C000E000C0200000C0202000C0204000C0206000C0208000C020A000C020C000C020E000C0400000C0402000C0404000C0406000C0
310
408000C040A000C040C000C040E000C0600000C0602000C0604000C0606000C0608000C060A000C060C000C060E000C0800000C0802000C0804000C0806000C0808000C080A000C080C000C080E000C0A00000C0A02000C0A04000C0A06000C0A08000C0A0A000C0A0C000C0A0E000C0C00000C0C02000C0C04000C0C06000
310
C0C08000C0C0A000F0FBFF00A4A0A000808080000000FF0000FF000000FFFF00FF000000FF00FF00FFFF0000FFFFFF0008080808080808080808080808080808080808080808080808080808080808080808080808080808080808080808080808080808080808080808080808080808080808080808080808080808FDFDFD
310
08080808080808080808080808080808080808080808080808080808FD080808FDFDFDFDFDFD0808080808080808080808080808080808080808FDFD08080808080808080808FDFDFDFD080808080808080808080808080808FD08080808080808080808080808080808FD08080808080808080808080808FD080808080808
310
0808080808080808080808FD0808080808080808080808FDFD08080808080808080808080808080808080808FD080808080808080808FD080808080808080808080808080808080808080808FD0808080808080808FD08FD0808080808080808FD0808FD0808080808080808FDFD08080808080808FD0808FD080808080808
310
FD08080808FD080808080808FD08FD08080808080808FD0808FD080808080808FD08080808FD080808080808FD0808FD080808080808FD080808FD08080808FD080808080808FD08080808FD080808FD080808080808FD08080808FD0808FD0808080808080808FD0808FD0808080808FD0808080808FD08080808FD0808FD
310
0808080808080808FD0808FD0808080808FD0808080808FD0808080808FDFD08080808080808080808FDFD08080808080808FD08080808FD0808080808FDFD08080808080808080808FDFD08080808080808FD08080808FD08080808FD0808FD0808080808080808FD0808FD0808080808FD0808080808FD08080808FD0808
310
FD0808080808080808FD0808FD0808080808FD0808080808FD080808FD08080808FD080808080808FD08080808FD080808FD080808080808FD0808FD080808080808FD08080808FD080808080808FD0808FD080808080808FD0808FD080808080808FD08080808FD080808080808FD08FD08080808080808FD08FD08080808
310
08080808FD0808FD0808080808080808FDFD0808080808080808FD080808080808080808080808080808080808080808FD08080808080808080808FDFD08080808080808080808080808080808080808FD080808080808080808080808FD0808080808080808080808080808080808FD0808080808080808080808080808FD
310
08080808080808080808080808080808FD080808080808080808080808080808FDFD0808080808080808080808FDFDFD080808080808080808080808080808080808FD08080808FDFDFDFDFDFD08080808080808080808080808080808080808080808FDFDFDFD080808080808080808080808080808080808080808080808
310
0808080808080808080808080808080808080808080808080808080808080808080808080808080808080808080808080808080808080808
102
{BLKREFS
331
15
331
1D
331
20
331
23
331
26
331
29
331
2C
331
2F
331
59
331
5C
331
5F
331
62
331
65
331
68
331
6B
331
6E
102
}
  0
BLOCK_RECORD
  5
36
330
1
100
AcDbSymbolTableRecord
100
AcDbBlockTableRecord
  2
PlotLayout2002
340
0
102
{BLKREFS
331
35
102
}
  0
BLOCK_RECORD
  5
33
330
1
100
AcDbSymbolTableRecord
100
AcDbBlockTableRecord
  2
wid
340
0
102
{BLKREFS
331
32
331
3A
102
}
  0
BLOCK_RECORD
  5
277
330
1
100
AcDbSymbolTableRecord
100
AcDbBlockTableRecord
  2
*D4
340
0
  0
BLOCK_RECORD
  5
288
330
1
100
AcDbSymbolTableRecord
100
AcDbBlockTableRecord
  2
*D5
340
0
  0
ENDTAB
  0
ENDSEC
  0
SECTION
  2
BLOCKS
  0
BLOCK
  5
3
330
2
100
AcDbEntity
  8
0
100
AcDbBlockBegin
  2
*MODEL_SPACE
 70
     0
 10
0.0
 20
0.0
 30
0.0
  3
*MODEL_SPACE
  1

  0
ENDBLK
  5
29F
330
2
100
AcDbEntity
  8
0
100
AcDbBlockEnd
  0
BLOCK
  5
2AA
330
2A9
100
AcDbEntity
 67
     1
  8
0
100
AcDbBlockBegin
  2
*PAPER_SPACE
 70
     0
 10
0.0
 20
0.0
 30
0.0
  3
*PAPER_SPACE
  1

  0
ENDBLK
  5
2AB
330
2A9
100
AcDbEntity
 67
     1
  8
0
100
AcDbBlockEnd
  0
BLOCK
  5
40
330
3F
100
AcDbEntity
  8
0
100
AcDbBlockBegin
  2
TITLBLK
 70
     2
 10
0.0
 20
0.0
 30
0.0
  3
TITLBLK
  1

  0
LWPOLYLINE
  5
41
330
3F
100
AcDbEntity
  8
title
 62
     3
100
AcDbPolyline
 90
        2
 70
     0
 43
0.04
 39
0.03
 10
0.3424999999999994
 20
-0.0000000000000003
 10
7.654581983261419
 20
-0.0000000000000003
  0
ATTDEF
  5
42
330
3F
100
AcDbEntity
  8
title
100
AcDbText
 10
0.625
 20
0.0999999999999998
 30
0.0
 40
0.2
  1
TITLE
  7
L200
100
AcDbAttributeDefinition
  3
DETAIL TITLE TOP 2ND LINE
  2
TITLE2
 70
     0
  0
LWPOLYLINE
  5
45
330
3F
100
AcDbEntity
  8
title
 62
     3
100
AcDbPolyline
 90
        2
 70
     1
 43
0.03
 10
0.0
 20
-0.3425000000000002
 42
0.9999999999999998
 10
0.0
 20
0.3425000000000002
 42
0.9999999999999998
  0
ATTDEF
  5
46
330
3F
100
AcDbEntity
  8
title
100
AcDbText
 10
-0.0776944065484311
 20
-0.1000000000000003
 30
0.0
 40
0.2
  1
#
  7
L200
 72
     4
 11
0.0
 21
-0.0000000000000003
 31
0.0
100
AcDbAttributeDefinition
  3
#
  2
#
 70
     0
  0
ATTDEF
  5
47
330
3F
100
AcDbEntity
  8
title
 62
     7
100
AcDbText
 10
0.625
 20
-0.1836633170828782
 30
0.0
 40
0.1
  1
N.T.S.
  7
L100
100
AcDbAttributeDefinition
  3
SCALE
  2
SCALE
 70
     0
  0
ATTDEF
  5
49
330
3F
100
AcDbEntity
  8
title
100
AcDbText
 10
2.107203380653828
 20
-0.2914343300200487
 30
0.0
 40
0.2
  1
TITLE2
  7
L200
100
AcDbAttributeDefinition
  3
DETAIL TITLE BOTTOM 1
  2
TITLE3
 70
     0
  0
ATTDEF
  5
4A
330
3F
100
AcDbEntity
  8
title
 62
     7
100
AcDbText
 10
7.570772459451895
 20
-0.1618486459795794
 30
0.0
 40
0.08
  1
-
  7
L80
 72
     2
 11
7.654581983261419
 21
-0.1618486459795794
 31
0.0
100
AcDbAttributeDefinition
  3
DWG-NAME
  2
DWG-NAME
 70
     0
  0
ATTDEF
  5
4C
330
3F
100
AcDbEntity
  8
title
 62
     7
100
AcDbText
 10
7.570772459451895
 20
0.0853756950662722
 30
0.0
 40
0.08
  1
-
  7
L80
 72
     2
 11
7.654581983261419
 21
0.0853756950662722
 31
0.0
100
AcDbAttributeDefinition
  3
REVISION DATE
  2
REVISED
 70
     0
  0
ATTDEF
  5
4D
330
3F
100
AcDbEntity
  8
title
100
AcDbText
 10
0.625
 20
0.459485206268383
 30
0.0
 40
0.2
  1
TITLE
  7
L200
100
AcDbAttributeDefinition
  3
DETAIL TITLE TOP LINE
  2
TITLE1
 70
     0
  0
ATTDEF
  5
4E
330
3F
100
AcDbEntity
  8
title
100
AcDbText
 10
2.107203380653828
 20
-0.6149710156615936
 30
0.0
 40
0.2
  1
TITLE2
  7
L200
100
AcDbAttributeDefinition
  3
DETAIL TITLE BOTTOM 2
  2
TITLE4
 70
     0
  0
ENDBLK
  5
4F
330
3F
100
AcDbEntity
  8
0
100
AcDbBlockEnd
  0
BLOCK
  5
17
330
16
100
AcDbEntity
  8
0
100
AcDbBlockBegin
  2
bubble
 70
     2
 10
0.0
 20
0.0
 30
0.0
  3
bubble
  1

  0
CIRCLE
  5
18
330
16
100
AcDbEntity
  8
text_bubbles
100
AcDbCircle
 10
0.0
 20
0.0
 30
0.0
 40
0.1398891854377198
  0
ATTDEF
  5
19
330
16
100
AcDbEntity
  8
text_bubbles
100
AcDbText
 10
0.0
 20
0.0
 30
0.0
 40
0.125
  1

  7
ROMANS
 72
     4
 11
0.0
 21
0.0
 31
0.0
100
AcDbAttributeDefinition
  3
Number
  2
XX
 70
     0
  0
ENDBLK
  5
1A
330
16
100
AcDbEntity
  8
0
100
AcDbBlockEnd
  0
BLOCK
  5
37
330
36
100
AcDbEntity
  8
0
100
AcDbBlockBegin
  2
PlotLayout2002
 70
     0
 10
0.0
 20
0.0
 30
0.0
  3
PlotLayout2002
  1

  0
ENDBLK
  5
38
330
36
100
AcDbEntity
  8
0
100
AcDbBlockEnd
  0
BLOCK
  5
34
330
33
100
AcDbEntity
  8
0
 62
    40
100
AcDbBlockBegin
  2
wid
 70
     0
 10
0.0
 20
0.0
 30
0.0
  3
wid
  1

  0
INSERT
  5
35
330
33
100
AcDbEntity
  8
0
100
AcDbBlockReference
  2
PlotLayout2002
 10
0.0
 20
0.0
 30
0.0
  0
ENDBLK
  5
39
330
33
100
AcDbEntity
  8
0
 62
    40
100
AcDbBlockEnd
  0
BLOCK
  5
278
330
277
100
AcDbEntity
  8
0
100
AcDbBlockBegin
  2
*D4
 70
     1
 10
0.0
 20
0.0
 30
0.0
  3
*D4
  1

  0
LINE
  5
279
330
277
100
AcDbEntity
  8
image
 62
     0
370
    -2
100
AcDbLine
 10
4.155174790771241
 20
8.561271003976116
 30
0.0
 11
4.155174790771241
 21
9.24057303786601
 31
0.0
  0
LINE
  5
27A
330
277
100
AcDbEntity
  8
image
 62
     0
370
    -2
100
AcDbLine
 10
9.336513383190093
 20
8.278561775155047
 30
0.0
 11
9.336513383190093
 21
9.24057303786601
 31
0.0
  0
LINE
  5
27B
330
277
100
AcDbEntity
  8
image
 62
     0
370
    -2
100
AcDbLine
 10
4.280174790771241
 20
9.06057303786601
 30
0.0
 11
6.3491609854211
 21
9.06057303786601
 31
0.0
  0
LINE
  5
27C
330
277
100
AcDbEntity
  8
image
 62
     0
370
    -2
100
AcDbLine
 10
9.211513383190093
 20
9.06057303786601
 30
0.0
 11
7.205351461611577
 21
9.06057303786601
 31
0.0
  0
MTEXT
  5
27D
330
277
100
AcDbEntity
  8
image
 62
     0
100
AcDbMText
 10
6.777256223516339
 20
9.06057303786601
 30
0.0
 40
0.1
 41
0.0
 71
     5
 72
     1
  1
\A1;10X PIPE\PDIAMETER
  7
ROMANS
 73
     1
 44
1.0
1001
ACAD
1000
MTEXTBEGIN
1070
    73
1070
     1
1070
    44
1040
1.0
1070
    74
1070
     0
1000
MTEXTEND
  0
SOLID
  5
27E
330
277
100
AcDbEntity
  8
image
 62
     0
100
AcDbTrace
 10
4.280174790771241
 20
9.081406371199344
 30
0.0
 11
4.280174790771241
 21
9.039739704532676
 31
0.0
 12
4.155174790771241
 22
9.06057303786601
 32
0.0
 13
4.155174790771241
 23
9.06057303786601
 33
0.0
  0
SOLID
  5
27F
330
277
100
AcDbEntity
  8
image
 62
     0
100
AcDbTrace
 10
9.211513383190093
 20
9.081406371199344
 30
0.0
 11
9.211513383190093
 21
9.039739704532676
 31
0.0
 12
9.336513383190093
 22
9.06057303786601
 32
0.0
 13
9.336513383190093
 23
9.06057303786601
 33
0.0
  0
POINT
  5
280
330
277
100
AcDbEntity
  8
defpoints
 62
     0
100
AcDbPoint
 10
4.155174790771241
 20
8.498771003976116
 30
0.0
  0
POINT
  5
282
330
277
100
AcDbEntity
  8
defpoints
 62
     0
100
AcDbPoint
 10
9.336513383190093
 20
8.216061775155047
 30
0.0
  0
POINT
  5
283
330
277
100
AcDbEntity
  8
defpoints
 62
     0
100
AcDbPoint
 10
9.336513383190093
 20
9.06057303786601
 30
0.0
  0
ENDBLK
  5
284
330
277
100
AcDbEntity
  8
0
100
AcDbBlockEnd
  0
BLOCK
  5
289
330
288
100
AcDbEntity
  8
0
100
AcDbBlockBegin
  2
*D5
 70
     1
 10
0.0
 20
0.0
 30
0.0
  3
*D5
  1

  0
LINE
  5
28A
330
288
100
AcDbEntity
  8
image
 62
     0
370
    -2
100
AcDbLine
 10
9.336513383190093
 20
8.278561775155047
 30
0.0
 11
9.336513383190093
 21
9.24057303786601
 31
0.0
  0
LINE
  5
28B
330
288
100
AcDbEntity
  8
image
 62
     0
370
    -2
100
AcDbLine
 10
11.33139518356199
 20
8.561271003976113
 30
0.0
 11
11.33139518356199
 21
9.24057303786601
 31
0.0
  0
LINE
  5
28C
330
288
100
AcDbEntity
  8
image
 62
     0
370
    -2
100
AcDbLine
 10
9.461513383190093
 20
9.06057303786601
 30
0.0
 11
9.91300190242366
 21
9.06057303786601
 31
0.0
  0
LINE
  5
28D
330
288
100
AcDbEntity
  8
image
 62
     0
370
    -2
100
AcDbLine
 10
11.20639518356199
 20
9.06057303786601
 30
0.0
 11
10.75490666432842
 21
9.06057303786601
 31
0.0
  0
MTEXT
  5
28E
330
288
100
AcDbEntity
  8
image
 62
     0
100
AcDbMText
 10
10.33395428337604
 20
9.06057303786601
 30
0.0
 40
0.1
 41
0.0
 71
     5
 72
     1
  1
\A1;5X PIPE\PDIAMETER
  7
ROMANS
 73
     1
 44
1.0
1001
ACAD
1000
MTEXTBEGIN
1070
    73
1070
     1
1070
    44
1040
1.0
1070
    74
1070
     0
1000
MTEXTEND
  0
SOLID
  5
28F
330
288
100
AcDbEntity
  8
image
 62
     0
100
AcDbTrace
 10
9.461513383190093
 20
9.081406371199344
 30
0.0
 11
9.461513383190093
 21
9.039739704532676
 31
0.0
 12
9.336513383190093
 22
9.06057303786601
 32
0.0
 13
9.336513383190093
 23
9.06057303786601
 33
0.0
  0
SOLID
  5
290
330
288
100
AcDbEntity
  8
image
 62
     0
100
AcDbTrace
 10
11.20639518356199
 20
9.081406371199344
 30
0.0
 11
11.20639518356199
 21
9.039739704532676
 31
0.0
 12
11.33139518356199
 22
9.06057303786601
 32
0.0
 13
11.33139518356199
 23
9.06057303786601
 33
0.0
  0
POINT
  5
291
330
288
100
AcDbEntity
  8
defpoints
 62
     0
100
AcDbPoint
 10
9.336513383190093
 20
8.216061775155047
 30
0.0
  0
POINT
  5
292
330
288
100
AcDbEntity
  8
defpoints
 62
     0
100
AcDbPoint
 10
11.33139518356199
 20
8.498771003976113
 30
0.0
  0
POINT
  5
293
330
288
100
AcDbEntity
  8
defpoints
 62
     0
100
AcDbPoint
 10
11.33139518356199
 20
9.06057303786601
 30
0.0
  0
ENDBLK
  5
294
330
288
100
AcDbEntity
  8
0
100
AcDbBlockEnd
  0
ENDSEC
  0
SECTION
  2
ENTITIES
  0
MTEXT
  5
12
330
2
100
AcDbEntity
  8
text_bubbles
100
AcDbMText
 10
2.445660112004441
 20
4.556224606638441
 30
0.0
 40
0.125
 41
5.460874329389
 71
     1
 72
     5
  3
RAIN BIRD FS100 SERIES 1-INCH FLOW SENSOR. WIRE TO RAIN BIRD PT3002 OR PT322 PULSE TRANSMITTER.\P\P1-INCH DIAMETER PIPE\P\P1-INCH PRESSURE REDUCING NORMALLY CLOSED MASTER VALVE. WIRE TO MASTER VALVE 2 CIRCUIT ON NEAREST SATELLITE\P\PELL (TYPICAL)\P\P
  1
\P\P\P\P\P\P 
  7
ROMANS
 73
     1
 44
1.0
1001
ACAD
1000
MTEXTBEGIN
1070
    73
1070
     1
1070
    44
1040
1.0
1070
    74
1070
     0
1000
MTEXTEND
  0
INSERT
  5
15
330
2
100
AcDbEntity
  8
text_bubbles
100
AcDbBlockReference
 66
     1
  2
bubble
 10
1.979164721616458
 20
3.869987271822964
 30
0.0
  0
ATTRIB
  5
1B
330
15
100
AcDbEntity
  8
text_bubbles
100
AcDbText
 10
1.919640912092648
 20
3.807487271822964
 30
0.0
 40
0.125
  1
2
  7
ROMANS
 72
     4
 11
1.979164721616458
 21
3.869987271822964
 31
0.0
100
AcDbAttribute
  2
XX
 70
     0
  0
SEQEND
  5
1C
330
15
100
AcDbEntity
  8
text_bubbles
  0
INSERT
  5
1D
330
2
100
AcDbEntity
  8
text_bubbles
100
AcDbBlockReference
 66
     1
  2
bubble
 10
9.237932047020953
 20
4.079739784335144
 30
0.0
  0
ATTRIB
  5
1E
330
1D
100
AcDbEntity
  8
text_bubbles
100
AcDbText
 10
9.175432047020953
 20
4.017239784335144
 30
0.0
 40
0.125
  1
6
  7
ROMANS
 72
     4
 11
9.237932047020953
 21
4.079739784335144
 31
0.0
100
AcDbAttribute
  2
XX
 70
     0
  0
SEQEND
  5
1F
330
1D
100
AcDbEntity
  8
text_bubbles
  0
INSERT
  5
20
330
2
100
AcDbEntity
  8
text_bubbles
100
AcDbBlockReference
 66
     1
  2
bubble
 10
9.230671491828202
 20
2.807236347566011
 30
0.0
  0
ATTRIB
  5
21
330
20
100
AcDbEntity
  8
text_bubbles
100
AcDbText
 10
9.171147682304392
 20
2.744736347566011
 30
0.0
 40
0.125
  1
8
  7
ROMANS
 72
     4
 11
9.230671491828202
 21
2.807236347566011
 31
0.0
100
AcDbAttribute
  2
XX
 70
     0
  0
SEQEND
  5
22
330
20
100
AcDbEntity
  8
text_bubbles
  0
INSERT
  5
23
330
2
100
AcDbEntity
  8
text_bubbles
100
AcDbBlockReference
 66
     1
  2
bubble
 10
9.237932047020953
 20
3.668160606600706
 30
0.0
  0
ATTRIB
  5
24
330
23
100
AcDbEntity
  8
text_bubbles
100
AcDbText
 10
9.178408237497142
 20
3.605660606600706
 30
0.0
 40
0.125
  1
7
  7
ROMANS
 72
     4
 11
9.237932047020953
 21
3.668160606600706
 31
0.0
100
AcDbAttribute
  2
XX
 70
     0
  0
SEQEND
  5
25
330
23
100
AcDbEntity
  8
text_bubbles
  0
INSERT
  5
26
330
2
100
AcDbEntity
  8
text_bubbles
100
AcDbBlockReference
 66
     1
  2
bubble
 10
1.979164721616458
 20
2.600485705461733
 30
0.0
  0
ATTRIB
  5
27
330
26
100
AcDbEntity
  8
text_bubbles
100
AcDbText
 10
1.916664721616458
 20
2.537985705461733
 30
0.0
 40
0.125
  1
4
  7
ROMANS
 72
     4
 11
1.979164721616458
 21
2.600485705461733
 31
0.0
100
AcDbAttribute
  2
XX
 70
     0
  0
SEQEND
  5
28
330
26
100
AcDbEntity
  8
text_bubbles
  0
INSERT
  5
29
330
2
100
AcDbEntity
  8
text_bubbles
100
AcDbBlockReference
 66
     1
  2
bubble
 10
9.237932047020953
 20
4.491319014628565
 30
0.0
  0
ATTRIB
  5
2A
330
29
100
AcDbEntity
  8
text_bubbles
100
AcDbText
 10
9.178408237497142
 20
4.428819014628565
 30
0.0
 40
0.125
  1
5
  7
ROMANS
 72
     4
 11
9.237932047020953
 21
4.491319014628565
 31
0.0
100
AcDbAttribute
  2
XX
 70
     0
  0
SEQEND
  5
2B
330
29
100
AcDbEntity
  8
text_bubbles
  0
INSERT
  5
2C
330
2
100
AcDbEntity
  8
text_bubbles
100
AcDbBlockReference
 66
     1
  2
bubble
 10
1.979164721616458
 20
3.45957992382129
 30
0.0
  0
ATTRIB
  5
2D
330
2C
100
AcDbEntity
  8
text_bubbles
100
AcDbText
 10
1.919640912092648
 20
3.39707992382129
 30
0.0
 40
0.125
  1
3
  7
ROMANS
 72
     4
 11
1.979164721616458
 21
3.45957992382129
 31
0.0
100
AcDbAttribute
  2
XX
 70
     0
  0
SEQEND
  5
2E
330
2C
100
AcDbEntity
  8
text_bubbles
  0
INSERT
  5
2F
330
2
100
AcDbEntity
  8
text_bubbles
100
AcDbBlockReference
 66
     1
  2
bubble
 10
1.979164721616458
 20
4.492459785439264
 30
0.0
  0
ATTRIB
  5
30
330
2F
100
AcDbEntity
  8
text_bubbles
100
AcDbText
 10
1.928569483521219
 20
4.429959785439264
 30
0.0
 40
0.125
  1
1
  7
ROMANS
 72
     4
 11
1.979164721616458
 21
4.492459785439264
 31
0.0
100
AcDbAttribute
  2
XX
 70
     0
  0
SEQEND
  5
31
330
2F
100
AcDbEntity
  8
text_bubbles
  0
INSERT
  5
32
330
2
100
AcDbEntity
  8
text_bubbles
 62
    42
100
AcDbBlockReference
  2
wid
 10
8.218187538796495
 20
-2.077951511134923
 30
0.0
  0
INSERT
  5
3A
330
2
100
AcDbEntity
  8
text_bubbles
 62
    42
100
AcDbBlockReference
  2
wid
 10
8.218187538796495
 20
-2.077951511134923
 30
0.0
  0
LWPOLYLINE
  5
3B
330
2
100
AcDbEntity
  8
image
100
AcDbPolyline
 90
        4
 70
     1
 43
0.0
 10
0.0
 20
0.0
 10
16.49
 20
0.0000000000000002
 10
16.49
 20
10.44
 10
0.0
 20
10.44
  0
INSERT
  5
3D
330
2
100
AcDbEntity
  8
title
100
AcDbBlockReference
 66
     1
  2
TITLBLK
 10
0.6064423705144844
 20
0.8842270964783676
 30
0.0
  0
ATTRIB
  5
50
330
3D
100
AcDbEntity
  8
title
100
AcDbText
 10
1.231442370514484
 20
0.9842270964783672
 30
0.0
 40
0.2
  1
MAXICOM DUAL FLOW SENSORS
  7
L200
100
AcDbAttribute
  2
TITLE2
 70
     0
  0
ATTRIB
  5
51
330
3D
100
AcDbEntity
  8
title
100
AcDbText
 10
0.373359150869191
 20
0.7855231401345745
 30
0.0
 40
0.2
  1
610
  7
L200
 72
     4
 11
0.6064423705144844
 21
0.8842270964783672
 31
0.0
100
AcDbAttribute
  2
#
 70
     0
  0
ATTRIB
  5
52
330
3D
100
AcDbEntity
  8
title
 62
     7
100
AcDbText
 10
1.231442370514484
 20
0.7005637793954893
 30
0.0
 40
0.1
  1
N.T.S.
  7
L100
100
AcDbAttribute
  2
SCALE
 70
     0
  0
ATTRIB
  5
53
330
3D
100
AcDbEntity
  8
title
100
AcDbText
 10
2.713645751168312
 20
0.5927927664583188
 30
0.0
 40
0.2
  1
NORMALLY CLOSED MASTER VALVES
  7
L200
100
AcDbAttribute
  2
TITLE3
 70
     0
  0
ATTRIB
  5
54
330
3D
100
AcDbEntity
  8
title
 62
     7
100
AcDbText
 10
0.2583475909662274
 20
0.0433889778650074
 30
0.0
 40
0.08
  1
610-BYPASS FS.DWG
  7
L80
 72
     2
 11
1.538347590966226
 21
0.0433889778650074
 31
0.0
100
AcDbAttribute
  2
DWG-NAME
 70
     0
  0
ATTRIB
  5
55
330
3D
100
AcDbEntity
  8
title
 62
     7
100
AcDbText
 10
7.464833877585428
 20
0.9696027915446396
 30
0.0
 40
0.08
  1
08-09-2012
  7
L80
 72
     2
 11
8.261024353775905
 21
0.9696027915446396
 31
0.0
100
AcDbAttribute
  2
REVISED
 70
     0
  0
ATTRIB
  5
56
330
3D
100
AcDbEntity
  8
title
100
AcDbText
 10
1.231442370514484
 20
1.34371230274675
 30
0.0
 40
0.2
  1

  7
L200
100
AcDbAttribute
  2
TITLE1
 70
     0
  0
ATTRIB
  5
57
330
3D
100
AcDbEntity
  8
title
100
AcDbText
 10
2.713645751168312
 20
0.2692560808167741
 30
0.0
 40
0.2
  1

  7
L200
100
AcDbAttribute
  2
TITLE4
 70
     0
  0
SEQEND
  5
58
330
3D
100
AcDbEntity
  8
text_bubbles
 62
    40
  0
INSERT
  5
59
330
2
100
AcDbEntity
  8
text_bubbles
100
AcDbBlockReference
 66
     1
  2
bubble
 10
1.835122111554047
 20
5.946209802315411
 30
0.0
  0
ATTRIB
  5
5A
330
59
100
AcDbEntity
  8
text_bubbles
100
AcDbText
 10
1.772622111554047
 20
5.883709802315411
 30
0.0
 40
0.125
  1
4
  7
ROMANS
 72
     4
 11
1.835122111554047
 21
5.946209802315411
 31
0.0
100
AcDbAttribute
  2
XX
 70
     0
  0
SEQEND
  5
5B
330
59
100
AcDbEntity
  8
text_bubbles
  0
INSERT
  5
5C
330
2
100
AcDbEntity
  8
text_bubbles
100
AcDbBlockReference
 66
     1
  2
bubble
 10
12.68049412483254
 20
8.92032809674526
 30
0.0
  0
ATTRIB
  5
5D
330
5C
100
AcDbEntity
  8
text_bubbles
100
AcDbText
 10
12.62097031530873
 20
8.85782809674526
 30
0.0
 40
0.125
  1
5
  7
ROMANS
 72
     4
 11
12.68049412483254
 21
8.92032809674526
 31
0.0
100
AcDbAttribute
  2
XX
 70
     0
  0
SEQEND
  5
5E
330
5C
100
AcDbEntity
  8
text_bubbles
  0
INSERT
  5
5F
330
2
100
AcDbEntity
  8
text_bubbles
100
AcDbBlockReference
 66
     1
  2
bubble
 10
11.4716757869582
 20
7.593895282633376
 30
0.0
  0
ATTRIB
  5
60
330
5F
100
AcDbEntity
  8
text_bubbles
100
AcDbText
 10
11.4091757869582
 20
7.531395282633376
 30
0.0
 40
0.125
  1
6
  7
ROMANS
 72
     4
 11
11.4716757869582
 21
7.593895282633376
 31
0.0
100
AcDbAttribute
  2
XX
 70
     0
  0
SEQEND
  5
61
330
5F
100
AcDbEntity
  8
text_bubbles
  0
INSERT
  5
62
330
2
100
AcDbEntity
  8
text_bubbles
100
AcDbBlockReference
 66
     1
  2
bubble
 10
3.380767244014576
 20
8.933795612236002
 30
0.0
  0
ATTRIB
  5
63
330
62
100
AcDbEntity
  8
text_bubbles
100
AcDbText
 10
3.321243434490767
 20
8.871295612236002
 30
0.0
 40
0.125
  1
7
  7
ROMANS
 72
     4
 11
3.380767244014576
 21
8.933795612236002
 31
0.0
100
AcDbAttribute
  2
XX
 70
     0
  0
SEQEND
  5
64
330
62
100
AcDbEntity
  8
text_bubbles
  0
INSERT
  5
65
330
2
100
AcDbEntity
  8
text_bubbles
100
AcDbBlockReference
 66
     1
  2
bubble
 10
8.961995909707997
 20
7.664227348968893
 30
0.0
  0
ATTRIB
  5
66
330
65
100
AcDbEntity
  8
text_bubbles
100
AcDbText
 10
8.902472100184187
 20
7.601727348968893
 30
0.0
 40
0.125
  1
8
  7
ROMANS
 72
     4
 11
8.961995909707997
 21
7.664227348968893
 31
0.0
100
AcDbAttribute
  2
XX
 70
     0
  0
SEQEND
  5
67
330
65
100
AcDbEntity
  8
text_bubbles
  0
INSERT
  5
68
330
2
100
AcDbEntity
  8
text_bubbles
100
AcDbBlockReference
 66
     1
  2
bubble
 10
4.011546033539805
 20
7.078893633678967
 30
0.0
  0
ATTRIB
  5
69
330
68
100
AcDbEntity
  8
text_bubbles
100
AcDbText
 10
3.952022224015996
 20
7.016393633678967
 30
0.0
 40
0.125
  1
3
  7
ROMANS
 72
     4
 11
4.011546033539805
 21
7.078893633678967
 31
0.0
100
AcDbAttribute
  2
XX
 70
     0
  0
SEQEND
  5
6A
330
68
100
AcDbEntity
  8
text_bubbles
  0
INSERT
  5
6B
330
2
100
AcDbEntity
  8
text_bubbles
100
AcDbBlockReference
 66
     1
  2
bubble
 10
9.620616200071562
 20
7.064319317795035
 30
0.0
  0
ATTRIB
  5
6C
330
6B
100
AcDbEntity
  8
text_bubbles
100
AcDbText
 10
9.570020961976325
 20
7.001819317795035
 30
0.0
 40
0.125
  1
1
  7
ROMANS
 72
     4
 11
9.620616200071562
 21
7.064319317795035
 31
0.0
100
AcDbAttribute
  2
XX
 70
     0
  0
SEQEND
  5
6D
330
6B
100
AcDbEntity
  8
text_bubbles
  0
INSERT
  5
6E
330
2
100
AcDbEntity
  8
text_bubbles
100
AcDbBlockReference
 66
     1
  2
bubble
 10
6.55419533964876
 20
7.035780238072565
 30
0.0
  0
ATTRIB
  5
6F
330
6E
100
AcDbEntity
  8
text_bubbles
100
AcDbText
 10
6.494671530124951
 20
6.973280238072565
 30
0.0
 40
0.125
  1
2
  7
ROMANS
 72
     4
 11
6.55419533964876
 21
7.035780238072565
 31
0.0
100
AcDbAttribute
  2
XX
 70
     0
  0
SEQEND
  5
70
330
6E
100
AcDbEntity
  8
text_bubbles
  0
LINE
  5
71
330
2
100
AcDbEntity
  8
image
100
AcDbLine
 10
11.33139518356199
 20
8.090413229012346
 30
0.0
 11
4.217999063842584
 21
8.090413229012348
 31
0.0
  0
LINE
  5
72
330
2
100
AcDbEntity
  8
image
100
AcDbLine
 10
11.33139518356199
 20
8.341710321297746
 30
0.0
 11
4.217999063842584
 21
8.34171032129775
 31
0.0
  0
LINE
  5
73
330
2
100
AcDbEntity
  8
image
100
AcDbLine
 10
9.1672347744682
 20
6.519806402228658
 30
0.0
 11
3.859061174472178
 21
6.519806402228658
 31
0.0
  0
LINE
  5
74
330
2
100
AcDbEntity
  8
image
100
AcDbLine
 10
9.1672347744682
 20
6.394157856085957
 30
0.0
 11
3.859061174472168
 21
6.394157856085957
 31
0.0
  0
LINE
  5
75
330
2
100
AcDbEntity
  8
image
100
AcDbLine
 10
0.5602644612210252
 20
8.404534594369089
 30
0.0
 11
1.767852414060015
 21
8.404534594369089
 31
0.0
  0
LINE
  5
76
330
2
100
AcDbEntity
  8
image
100
AcDbLine
 10
1.166424957320163
 20
8.247628536103938
 30
0.0
 11
0.8395245981700288
 21
8.247628536103938
 31
0.0
  0
LINE
  5
77
330
2
100
AcDbEntity
  8
image
100
AcDbLine
 10
2.396095144773493
 20
7.674516541280027
 30
0.0
 11
2.396095144773493
 21
6.631169804555018
 31
0.0
  0
LINE
  5
78
330
2
100
AcDbEntity
  8
image
100
AcDbLine
 10
2.270446598630806
 20
7.674516541280027
 30
0.0
 11
2.270446598630806
 21
6.631169804555018
 31
0.0
  0
LINE
  5
79
330
2
100
AcDbEntity
  8
image
100
AcDbLine
 10
2.810829693616154
 20
6.519806402228658
 30
0.0
 11
2.507539308528804
 21
6.519806402228658
 31
0.0
  0
LINE
  5
7A
330
2
100
AcDbEntity
  8
image
100
AcDbLine
 10
2.810829693616154
 20
6.394157856085957
 30
0.0
 11
2.507539308528804
 21
6.394157856085957
 31
0.0
  0
LINE
  5
7B
330
2
100
AcDbEntity
  8
image
100
AcDbLine
 10
2.45900017927383
 20
6.381835998459264
 30
0.0
 11
2.45900017927383
 21
6.532128291452172
 31
0.0
  0
LINE
  5
7C
330
2
100
AcDbEntity
  8
image
100
AcDbLine
 10
2.507539308528804
 20
6.532128291452172
 30
0.0
 11
2.45900017927383
 21
6.532128291452172
 31
0.0
  0
LINE
  5
7D
330
2
100
AcDbEntity
  8
image
100
AcDbLine
 10
2.507539308528804
 20
6.381835998459264
 30
0.0
 11
2.45900017927383
 21
6.381835998459264
 31
0.0
  0
LINE
  5
7E
330
2
100
AcDbEntity
  8
image
100
AcDbLine
 10
2.507539308528804
 20
6.381835998459264
 30
0.0
 11
2.507539308528804
 21
6.532128291452172
 31
0.0
  0
LINE
  5
7F
330
2
100
AcDbEntity
  8
image
100
AcDbLine
 10
2.45900017927383
 20
6.519806402228658
 30
0.0
 11
2.429533077930948
 21
6.519806402228658
 31
0.0
  0
LINE
  5
80
330
2
100
AcDbEntity
  8
image
100
AcDbLine
 10
2.396175906202486
 20
6.582630675300013
 30
0.0
 11
2.396175906202486
 21
6.553163573957117
 31
0.0
  0
LINE
  5
81
330
2
100
AcDbEntity
  8
image
100
AcDbLine
 10
2.270527360059802
 20
6.582630675300013
 30
0.0
 11
2.270527360059802
 21
6.519806402228658
 31
0.0
  0
LINE
  5
82
330
2
100
AcDbEntity
  8
image
100
AcDbLine
 10
2.258199081161672
 20
6.631169804555018
 30
0.0
 11
2.408504162064826
 21
6.631169804555018
 31
0.0
  0
LINE
  5
83
330
2
100
AcDbEntity
  8
image
100
AcDbLine
 10
2.258199081161672
 20
6.631169804555018
 30
0.0
 11
2.258199081161672
 21
6.582630675300013
 31
0.0
  0
LINE
  5
84
330
2
100
AcDbEntity
  8
image
100
AcDbLine
 10
2.408504162064826
 20
6.631169804555018
 30
0.0
 11
2.408504162064826
 21
6.582630675300013
 31
0.0
  0
LINE
  5
85
330
2
100
AcDbEntity
  8
image
100
AcDbLine
 10
2.258199081161672
 20
6.582630675300013
 30
0.0
 11
2.408504162064826
 21
6.582630675300013
 31
0.0
  0
ARC
  5
86
330
2
100
AcDbEntity
  8
image
100
AcDbCircle
 10
2.429533077930949
 20
6.553163573957114
 30
0.0
 40
0.0333571717284602
100
AcDbArc
 50
180.0
 51
270.0
  0
ARC
  5
87
330
2
100
AcDbEntity
  8
image
100
AcDbCircle
 10
2.396175906202484
 20
6.519806402228654
 30
0.0
 40
0.1256485461426954
100
AcDbArc
 50
180.0
 51
270.0
  0
LINE
  5
88
330
2
100
AcDbEntity
  8
image
100
AcDbLine
 10
2.396175906202486
 20
6.394157856085957
 30
0.0
 11
2.45900017927383
 21
6.394157856085957
 31
0.0
  0
LINE
  5
89
330
2
100
AcDbEntity
  8
image
100
AcDbLine
 10
2.429533077930948
 20
6.519806402228658
 30
0.0
 11
2.45900017927383
 21
6.519806402228658
 31
0.0
  0
LINE
  5
8A
330
2
100
AcDbEntity
  8
image
100
AcDbLine
 10
3.644481491661809
 20
6.394157856085957
 30
0.0
 11
2.967890376294509
 21
6.394157856085957
 31
0.0
  0
LWPOLYLINE
  5
8B
330
2
100
AcDbEntity
  8
image
100
AcDbPolyline
 90
        2
 70
     0
 43
0.0
 10
3.933322211104452
 20
6.519806402228658
 10
3.933322211104452
 20
6.394157856085957
  0
LWPOLYLINE
  5
8C
330
2
100
AcDbEntity
  8
image
100
AcDbPolyline
 90
        2
 70
     0
 43
0.0
 10
3.583620604584801
 20
6.519806402228658
 10
3.583620604584801
 20
6.394157856085957
  0
CIRCLE
  5
8D
330
2
100
AcDbEntity
  8
image
100
AcDbCircle
 10
3.751771333066988
 20
6.456982129157315
 30
0.0
 40
0.1081646901771577
  0
ARC
  5
8E
330
2
100
AcDbEntity
  8
image
100
AcDbCircle
 10
3.751771333066988
 20
6.456982129157315
 30
0.0
 40
0.0339935360998445
100
AcDbArc
 50
258.4535906577354
 51
281.5464093422646
  0
LINE
  5
8F
330
2
100
AcDbEntity
  8
image
100
AcDbLine
 10
3.644481491661799
 20
6.519806402228658
 30
0.0
 11
2.967890376294509
 21
6.519806402228658
 31
0.0
  0
LINE
  5
90
330
2
100
AcDbEntity
  8
image
100
AcDbLine
 10
3.785076938440921
 20
6.450177928451058
 30
0.0
 11
3.718465727693115
 21
6.450177928451058
 31
0.0
  0
LINE
  5
91
330
2
100
AcDbEntity
  8
image
100
AcDbLine
 10
3.785076938440921
 20
6.463786329863559
 30
0.0
 11
3.718465727693115
 21
6.463786329863559
 31
0.0
  0
LINE
  5
92
330
2
100
AcDbEntity
  8
image
100
AcDbLine
 10
3.758575533773245
 20
6.490287734531188
 30
0.0
 11
3.758575533773245
 21
6.423676523783422
 31
0.0
  0
LINE
  5
93
330
2
100
AcDbEntity
  8
image
100
AcDbLine
 10
3.744967132360791
 20
6.490287734531188
 30
0.0
 11
3.744967132360791
 21
6.423676523783422
 31
0.0
  0
ARC
  5
94
330
2
100
AcDbEntity
  8
image
100
AcDbCircle
 10
3.751771333066988
 20
6.456982129157315
 30
0.0
 40
0.0339935360998445
100
AcDbArc
 50
168.4535906577354
 51
191.5464093422646
  0
ARC
  5
95
330
2
100
AcDbEntity
  8
image
100
AcDbCircle
 10
3.751771333066988
 20
6.456982129157315
 30
0.0
 40
0.0339935360998445
100
AcDbArc
 50
78.45359065773542
 51
101.5464093422645
  0
ARC
  5
96
330
2
100
AcDbEntity
  8
image
100
AcDbCircle
 10
3.751771333066988
 20
6.456982129157315
 30
0.0
 40
0.0339935360998445
100
AcDbArc
 50
348.4535906577354
 51
11.5464093422646
  0
CIRCLE
  5
97
330
2
100
AcDbEntity
  8
image
100
AcDbCircle
 10
3.670025914945286
 20
6.456982129157315
 30
0.0
 40
0.0216316818800802
  0
LWPOLYLINE
  5
98
330
2
100
AcDbEntity
  8
image
100
AcDbPolyline
 90
        6
 70
     1
 43
0.0
 10
3.822110433280264
 20
6.446761394058349
 10
3.83096184952132
 20
6.451871761607831
 10
3.83096184952132
 20
6.462092496706791
 10
3.822110433280264
 20
6.467202864256259
 10
3.813259017039213
 20
6.462092496706791
 10
3.813259017039213
 20
6.451871761607831
  0
CIRCLE
  5
99
330
2
100
AcDbEntity
  8
image
100
AcDbCircle
 10
3.751771333066988
 20
6.456982129157315
 30
0.0
 40
0.1243302029102076
  0
LWPOLYLINE
  5
9A
330
2
100
AcDbEntity
  8
image
100
AcDbPolyline
 90
        6
 70
     1
 43
0.0
 10
3.851630529457717
 20
6.391596201457815
 10
3.856896227143931
 20
6.393792756598836
 10
3.857626803434096
 20
6.399451262134279
 10
3.853091682038045
 20
6.402913212528714
 10
3.847825984351828
 20
6.400716657387693
 10
3.847095408061606
 20
6.395058151852252
  0
LWPOLYLINE
  5
9B
330
2
100
AcDbEntity
  8
image
100
AcDbPolyline
 90
        6
 70
     1
 43
0.0
 10
3.85832680570013
 20
6.510769766183384
 10
3.859057381990293
 20
6.516428271718826
 10
3.854522260594241
 20
6.519890222113248
 10
3.849256562908028
 20
6.517693666972229
 10
3.848525986617802
 20
6.512035161436786
 10
3.853061108013854
 20
6.50857321104236
  0
LWPOLYLINE
  5
9C
330
2
100
AcDbEntity
  8
image
100
AcDbPolyline
 90
        6
 70
     1
 43
0.0
 10
3.758467609309461
 20
6.576155693882874
 10
3.75393248791341
 20
6.579617644277309
 10
3.748666790227137
 20
6.577421089136281
 10
3.747936213936971
 20
6.571762583600825
 10
3.752471335333022
 20
6.56830063320641
 10
3.757737033019239
 20
6.570497188347431
  0
LWPOLYLINE
  5
9D
330
2
100
AcDbEntity
  8
image
100
AcDbPolyline
 90
        6
 70
     1
 43
0.0
 10
3.651912136676322
 20
6.522368056856796
 10
3.646646438990106
 20
6.520171501715774
 10
3.645915862699941
 20
6.51451299618033
 10
3.650450984095995
 20
6.511051045785917
 10
3.655716681782209
 20
6.513247600926936
 10
3.656447258072378
 20
6.518906106462377
  0
LWPOLYLINE
  5
9E
330
2
100
AcDbEntity
  8
image
100
AcDbPolyline
 90
        6
 70
     1
 43
0.0
 10
3.645215860433911
 20
6.403194492131223
 10
3.644485284143748
 20
6.397535986595782
 10
3.649020405539796
 20
6.394074036201361
 10
3.654286103226013
 20
6.396270591342382
 10
3.655016679516238
 20
6.401929096877831
 10
3.650481558120123
 20
6.405391047272251
  0
LWPOLYLINE
  5
9F
330
2
100
AcDbEntity
  8
image
100
AcDbPolyline
 90
        6
 70
     1
 43
0.0
 10
3.745075056824575
 20
6.337808564431743
 10
3.749610178220626
 20
6.334346614037322
 10
3.754875875906903
 20
6.336543169178348
 10
3.755606452197069
 20
6.342201674713782
 10
3.751071330801014
 20
6.345663625108201
 10
3.745805633114741
 20
6.34346706996718
  0
LINE
  5
A0
330
2
100
AcDbEntity
  8
image
100
AcDbLine
 10
2.967890376294509
 20
6.52422073268292
 30
0.0
 11
2.967890376294509
 21
6.38861437205665
 31
0.0
  0
LINE
  5
A1
330
2
100
AcDbEntity
  8
image
100
AcDbLine
 10
2.905066103223168
 20
6.540917477902073
 30
0.0
 11
2.905066103223168
 21
6.373046780412558
 31
0.0
  0
LINE
  5
A2
330
2
100
AcDbEntity
  8
image
100
AcDbLine
 10
2.873653966687495
 20
6.540917477902073
 30
0.0
 11
2.873653966687495
 21
6.373046780412558
 31
0.0
  0
LINE
  5
A3
330
2
100
AcDbEntity
  8
image
100
AcDbLine
 10
2.810829693616154
 20
6.52422073268292
 30
0.0
 11
2.810829693616154
 21
6.38861437205665
 31
0.0
  0
LINE
  5
A4
330
2
100
AcDbEntity
  8
image
100
AcDbLine
 10
2.967890376294509
 20
6.52422073268292
 30
0.0
 11
2.905066103223168
 21
6.52422073268292
 31
0.0
  0
LINE
  5
A5
330
2
100
AcDbEntity
  8
image
100
AcDbLine
 10
2.967890376294509
 20
6.38861437205665
 30
0.0
 11
2.905066103223168
 21
6.38861437205665
 31
0.0
  0
LINE
  5
A6
330
2
100
AcDbEntity
  8
image
100
AcDbLine
 10
2.873653966687495
 20
6.38861437205665
 30
0.0
 11
2.810829693616154
 21
6.38861437205665
 31
0.0
  0
LINE
  5
A7
330
2
100
AcDbEntity
  8
image
100
AcDbLine
 10
2.873653966687495
 20
6.52422073268292
 30
0.0
 11
2.810829693616154
 21
6.52422073268292
 31
0.0
  0
LINE
  5
A8
330
2
100
AcDbEntity
  8
image
100
AcDbLine
 10
2.905066103223168
 20
6.373046780412558
 30
0.0
 11
2.873653966687495
 21
6.373046780412558
 31
0.0
  0
LINE
  5
A9
330
2
100
AcDbEntity
  8
image
100
AcDbLine
 10
2.905066103223168
 20
6.540917477902073
 30
0.0
 11
2.873653966687495
 21
6.540917477902073
 31
0.0
  0
LINE
  5
AA
330
2
100
AcDbEntity
  8
image
100
AcDbLine
 10
2.905066103223168
 20
6.49198654668887
 30
0.0
 11
2.873653966687495
 21
6.49198654668887
 31
0.0
  0
LINE
  5
AB
330
2
100
AcDbEntity
  8
image
100
AcDbLine
 10
2.905066103223168
 20
6.415955399258898
 30
0.0
 11
2.873653966687495
 21
6.415955399258898
 31
0.0
  0
LINE
  5
AC
330
2
100
AcDbEntity
  8
image
100
AcDbLine
 10
2.471051648275361
 20
8.027588955941009
 30
0.0
 11
2.773040783201597
 21
8.027588955941009
 31
0.0
  0
LINE
  5
AD
330
2
100
AcDbEntity
  8
image
100
AcDbLine
 10
1.893500960202698
 20
8.404534594369089
 30
0.0
 11
2.773040783201597
 21
8.404534594369089
 31
0.0
  0
LINE
  5
AE
330
2
100
AcDbEntity
  8
image
100
AcDbLine
 10
0.8681715273168874
 20
8.027588955941009
 30
0.0
 11
1.767852414060015
 21
8.027588955941009
 31
0.0
  0
LINE
  5
AF
330
2
100
AcDbEntity
  8
image
100
AcDbLine
 10
2.396095144773493
 20
7.952632452439155
 30
0.0
 11
2.396095144773493
 21
7.752418639888499
 31
0.0
  0
LINE
  5
B0
330
2
100
AcDbEntity
  8
image
100
AcDbLine
 10
2.270446598630806
 20
7.952632452439155
 30
0.0
 11
2.270446598630806
 21
7.752418639888499
 31
0.0
  0
LINE
  5
B1
330
2
100
AcDbEntity
  8
image
100
AcDbLine
 10
2.353286235763262
 20
7.642790283378996
 30
0.0
 11
2.314021065093672
 21
7.642790283378996
 31
0.0
  0
LINE
  5
B2
330
2
100
AcDbEntity
  8
image
100
AcDbLine
 10
2.353286235763262
 20
7.784144897789531
 30
0.0
 11
2.314021065093672
 21
7.784144897789531
 31
0.0
  0
LWPOLYLINE
  5
B3
330
2
100
AcDbEntity
  8
image
100
AcDbPolyline
 90
        2
 70
     0
 43
0.0
 10
2.353286235763262
 20
7.784144897789531
 10
2.353286235763262
 20
7.752418639888499
  0
LWPOLYLINE
  5
B4
330
2
100
AcDbEntity
  8
image
100
AcDbPolyline
 90
        2
 70
     0
 43
0.0
 10
2.353286235763262
 20
7.674516541280027
 10
2.353286235763262
 20
7.642790283378992
  0
LWPOLYLINE
  5
B5
330
2
100
AcDbEntity
  8
image
100
AcDbPolyline
 90
        2
 70
     0
 43
0.0
 10
2.314021065093672
 20
7.784144897789531
 10
2.314021065093672
 20
7.752418639888499
  0
LWPOLYLINE
  5
B6
330
2
100
AcDbEntity
  8
image
100
AcDbPolyline
 90
        2
 70
     0
 43
0.0
 10
2.314021065093672
 20
7.674516541280027
 10
2.314021065093672
 20
7.642790283378992
  0
LWPOLYLINE
  5
B7
330
2
100
AcDbEntity
  8
image
100
AcDbPolyline
 90
        2
 70
     0
 43
0.0
 10
2.482478520246589
 20
7.674516541280027
 10
2.482478520246589
 20
7.642790283378992
  0
LWPOLYLINE
  5
B8
330
2
100
AcDbEntity
  8
image
100
AcDbPolyline
 90
        2
 70
     0
 43
0.0
 10
2.482478520246589
 20
7.784144897789531
 10
2.482478520246589
 20
7.752418639888499
  0
LWPOLYLINE
  5
B9
330
2
100
AcDbEntity
  8
image
100
AcDbPolyline
 90
        2
 70
     0
 43
0.0
 10
2.443213349577
 20
7.674516541280027
 10
2.443213349577
 20
7.642790283378992
  0
LWPOLYLINE
  5
BA
330
2
100
AcDbEntity
  8
image
100
AcDbPolyline
 90
        2
 70
     0
 43
0.0
 10
2.443213349577
 20
7.784144897789531
 10
2.443213349577
 20
7.752418639888499
  0
LWPOLYLINE
  5
BB
330
2
100
AcDbEntity
  8
image
100
AcDbPolyline
 90
        2
 70
     0
 43
0.0
 10
2.184063223157709
 20
7.674516541280027
 10
2.184063223157709
 20
7.642790283378992
  0
LWPOLYLINE
  5
BC
330
2
100
AcDbEntity
  8
image
100
AcDbPolyline
 90
        2
 70
     0
 43
0.0
 10
2.184063223157709
 20
7.784144897789531
 10
2.184063223157709
 20
7.752418639888499
  0
LWPOLYLINE
  5
BD
330
2
100
AcDbEntity
  8
image
100
AcDbPolyline
 90
        2
 70
     0
 43
0.0
 10
2.223328393827299
 20
7.674516541280027
 10
2.223328393827299
 20
7.642790283378992
  0
LWPOLYLINE
  5
BE
330
2
100
AcDbEntity
  8
image
100
AcDbPolyline
 90
        2
 70
     0
 43
0.0
 10
2.223328393827299
 20
7.784144897789531
 10
2.223328393827299
 20
7.752418639888499
  0
LINE
  5
BF
330
2
100
AcDbEntity
  8
image
100
AcDbLine
 10
2.184063223157709
 20
7.674516541280027
 30
0.0
 11
2.144798052488122
 21
7.674516541280027
 31
0.0
  0
LINE
  5
C0
330
2
100
AcDbEntity
  8
image
100
AcDbLine
 10
2.184063223157709
 20
7.752418639888499
 30
0.0
 11
2.144798052488122
 21
7.752418639888499
 31
0.0
  0
LINE
  5
C1
330
2
100
AcDbEntity
  8
image
100
AcDbLine
 10
2.443213349577
 20
7.752418639888499
 30
0.0
 11
2.184063223157709
 21
7.752418639888499
 31
0.0
  0
LINE
  5
C2
330
2
100
AcDbEntity
  8
image
100
AcDbLine
 10
2.443213349577
 20
7.674516541280027
 30
0.0
 11
2.184063223157709
 21
7.674516541280027
 31
0.0
  0
LINE
  5
C3
330
2
100
AcDbEntity
  8
image
100
AcDbLine
 10
2.223328393827299
 20
7.784144897789531
 30
0.0
 11
2.184063223157709
 21
7.784144897789531
 31
0.0
  0
LINE
  5
C4
330
2
100
AcDbEntity
  8
image
100
AcDbLine
 10
2.223328393827299
 20
7.642790283378996
 30
0.0
 11
2.184063223157709
 21
7.642790283378996
 31
0.0
  0
LINE
  5
C5
330
2
100
AcDbEntity
  8
image
100
AcDbLine
 10
2.48247852024659
 20
7.784144897789531
 30
0.0
 11
2.443213349577
 21
7.784144897789531
 31
0.0
  0
LINE
  5
C6
330
2
100
AcDbEntity
  8
image
100
AcDbLine
 10
2.48247852024659
 20
7.642790283378996
 30
0.0
 11
2.443213349577
 21
7.642790283378996
 31
0.0
  0
LWPOLYLINE
  5
C7
330
2
100
AcDbEntity
  8
image
100
AcDbPolyline
 90
        2
 70
     0
 43
0.0
 10
2.144798052488122
 20
7.674516541280027
 10
2.144798052488122
 20
7.713467590584269
  0
LWPOLYLINE
  5
C8
330
2
100
AcDbEntity
  8
image
100
AcDbPolyline
 90
        2
 70
     0
 43
0.0
 10
2.521743690916177
 20
7.674516541280027
 10
2.521743690916177
 20
7.713467590584269
  0
LINE
  5
C9
330
2
100
AcDbEntity
  8
image
100
AcDbLine
 10
2.521743690916177
 20
7.674516541280027
 30
0.0
 11
2.443213349577
 21
7.674516541280027
 31
0.0
  0
LWPOLYLINE
  5
CA
330
2
100
AcDbEntity
  8
image
100
AcDbPolyline
 90
        2
 70
     0
 43
0.0
 10
2.144798052488122
 20
7.752418639888499
 10
2.144798052488122
 20
7.713467590584269
  0
LWPOLYLINE
  5
CB
330
2
100
AcDbEntity
  8
image
100
AcDbPolyline
 90
        2
 70
     0
 43
0.0
 10
2.521743690916177
 20
7.752418639888499
 10
2.521743690916177
 20
7.713467590584269
  0
LINE
  5
CC
330
2
100
AcDbEntity
  8
image
100
AcDbLine
 10
2.521743690916177
 20
7.752418639888499
 30
0.0
 11
2.443213349577
 21
7.752418639888499
 31
0.0
  0
LINE
  5
CD
330
2
100
AcDbEntity
  8
image
100
AcDbLine
 10
2.521743690916177
 20
7.713467590584269
 30
0.0
 11
2.144798052488122
 21
7.713467590584269
 31
0.0
  0
ARC
  5
CE
330
2
100
AcDbEntity
  8
image
100
AcDbCircle
 10
2.471051648275361
 20
7.95263245243915
 30
0.0
 40
0.074956503501859
100
AcDbArc
 50
89.99999999999998
 51
180.0
  0
ARC
  5
CF
330
2
100
AcDbEntity
  8
image
100
AcDbCircle
 10
2.195490095128937
 20
7.95263245243915
 30
0.0
 40
0.074956503501859
100
AcDbArc
 50
0.0
 51
89.99999999999998
  0
LINE
  5
D0
330
2
100
AcDbEntity
  8
image
100
AcDbLine
 10
2.195490095128938
 20
8.027588955941009
 30
0.0
 11
1.893500960202698
 21
8.027588955941009
 31
0.0
  0
LWPOLYLINE
  5
D1
330
2
100
AcDbEntity
  8
image
100
AcDbPolyline
 90
        2
 70
     0
 43
0.0
 10
1.830676687131355
 20
8.561595277047461
 10
1.830676687131355
 20
7.870528273262642
  0
LINE
  5
D2
330
2
100
AcDbEntity
  8
image
100
AcDbLine
 10
1.720734209256508
 20
7.964764682869656
 30
0.0
 11
1.720734209256508
 21
7.917646478066149
 31
0.0
  0
LINE
  5
D3
330
2
100
AcDbEntity
  8
image
100
AcDbLine
 10
1.940619165006208
 20
7.964764682869656
 30
0.0
 11
1.940619165006208
 21
7.917646478066149
 31
0.0
  0
LINE
  5
D4
330
2
100
AcDbEntity
  8
image
100
AcDbLine
 10
1.940619165006208
 20
7.964764682869656
 30
0.0
 11
1.893500960202698
 21
7.964764682869656
 31
0.0
  0
LINE
  5
D5
330
2
100
AcDbEntity
  8
image
100
AcDbLine
 10
1.940619165006208
 20
7.917646478066149
 30
0.0
 11
1.893500960202698
 21
7.917646478066149
 31
0.0
  0
LINE
  5
D6
330
2
100
AcDbEntity
  8
image
100
AcDbLine
 10
1.767852414060015
 20
7.964764682869656
 30
0.0
 11
1.720734209256508
 21
7.964764682869656
 31
0.0
  0
LINE
  5
D7
330
2
100
AcDbEntity
  8
image
100
AcDbLine
 10
1.767852414060015
 20
7.917646478066149
 30
0.0
 11
1.720734209256508
 21
7.917646478066149
 31
0.0
  0
LINE
  5
D8
330
2
100
AcDbEntity
  8
image
100
AcDbLine
 10
1.767852414060015
 20
8.514477072243952
 30
0.0
 11
1.720734209256508
 21
8.514477072243952
 31
0.0
  0
LINE
  5
D9
330
2
100
AcDbEntity
  8
image
100
AcDbLine
 10
1.767852414060015
 20
8.467358867440434
 30
0.0
 11
1.720734209256508
 21
8.467358867440434
 31
0.0
  0
LINE
  5
DA
330
2
100
AcDbEntity
  8
image
100
AcDbLine
 10
1.940619165006208
 20
8.514477072243952
 30
0.0
 11
1.893500960202698
 21
8.514477072243952
 31
0.0
  0
LINE
  5
DB
330
2
100
AcDbEntity
  8
image
100
AcDbLine
 10
1.940619165006208
 20
8.467358867440434
 30
0.0
 11
1.893500960202698
 21
8.467358867440434
 31
0.0
  0
LINE
  5
DC
330
2
100
AcDbEntity
  8
image
100
AcDbLine
 10
1.940619165006208
 20
8.467358867440434
 30
0.0
 11
1.940619165006208
 21
8.514477072243952
 31
0.0
  0
LINE
  5
DD
330
2
100
AcDbEntity
  8
image
100
AcDbLine
 10
1.720734209256508
 20
8.467358867440434
 30
0.0
 11
1.720734209256508
 21
8.514477072243952
 31
0.0
  0
LINE
  5
DE
330
2
100
AcDbEntity
  8
image
100
AcDbLine
 10
1.720734209256508
 20
8.29546931959859
 30
0.0
 11
1.720734209256508
 21
8.342587524402098
 31
0.0
  0
LINE
  5
DF
330
2
100
AcDbEntity
  8
image
100
AcDbLine
 10
1.940619165006208
 20
8.29546931959859
 30
0.0
 11
1.940619165006208
 21
8.342587524402098
 31
0.0
  0
LINE
  5
E0
330
2
100
AcDbEntity
  8
image
100
AcDbLine
 10
1.940619165006208
 20
8.29546931959859
 30
0.0
 11
1.893500960202698
 21
8.29546931959859
 31
0.0
  0
LINE
  5
E1
330
2
100
AcDbEntity
  8
image
100
AcDbLine
 10
1.940619165006208
 20
8.342587524402098
 30
0.0
 11
1.893500960202698
 21
8.342587524402098
 31
0.0
  0
LINE
  5
E2
330
2
100
AcDbEntity
  8
image
100
AcDbLine
 10
1.767852414060015
 20
8.29546931959859
 30
0.0
 11
1.720734209256508
 21
8.29546931959859
 31
0.0
  0
LINE
  5
E3
330
2
100
AcDbEntity
  8
image
100
AcDbLine
 10
1.767852414060015
 20
8.342587524402098
 30
0.0
 11
1.720734209256508
 21
8.342587524402098
 31
0.0
  0
LINE
  5
E4
330
2
100
AcDbEntity
  8
image
100
AcDbLine
 10
1.767852414060015
 20
8.113401460612967
 30
0.0
 11
1.720734209256508
 21
8.113401460612967
 31
0.0
  0
LINE
  5
E5
330
2
100
AcDbEntity
  8
image
100
AcDbLine
 10
1.767852414060015
 20
8.066283255809457
 30
0.0
 11
1.720734209256508
 21
8.066283255809457
 31
0.0
  0
LINE
  5
E6
330
2
100
AcDbEntity
  8
image
100
AcDbLine
 10
1.940619165006208
 20
8.113401460612967
 30
0.0
 11
1.893500960202698
 21
8.113401460612967
 31
0.0
  0
LINE
  5
E7
330
2
100
AcDbEntity
  8
image
100
AcDbLine
 10
1.940619165006208
 20
8.066283255809457
 30
0.0
 11
1.893500960202698
 21
8.066283255809457
 31
0.0
  0
LINE
  5
E8
330
2
100
AcDbEntity
  8
image
100
AcDbLine
 10
1.940619165006208
 20
8.066283255809457
 30
0.0
 11
1.940619165006208
 21
8.113401460612967
 31
0.0
  0
LINE
  5
E9
330
2
100
AcDbEntity
  8
image
100
AcDbLine
 10
1.720734209256508
 20
8.066283255809457
 30
0.0
 11
1.720734209256508
 21
8.113401460612967
 31
0.0
  0
LINE
  5
EA
330
2
100
AcDbEntity
  8
image
100
AcDbLine
 10
1.767852414060015
 20
8.561595277047461
 30
0.0
 11
1.830676687131355
 21
8.561595277047461
 31
0.0
  0
LINE
  5
EB
330
2
100
AcDbEntity
  8
image
100
AcDbLine
 10
1.767852414060015
 20
7.870528273262642
 30
0.0
 11
1.830676687131355
 21
7.870528273262642
 31
0.0
  0
LINE
  5
EC
330
2
100
AcDbEntity
  8
image
100
AcDbLine
 10
1.767852414060015
 20
8.561595277047461
 30
0.0
 11
1.767852414060015
 21
7.870528273262642
 31
0.0
  0
LINE
  5
ED
330
2
100
AcDbEntity
  8
image
100
AcDbLine
 10
1.893500960202698
 20
8.561595277047461
 30
0.0
 11
1.893500960202698
 21
7.870528273262642
 31
0.0
  0
LINE
  5
EE
330
2
100
AcDbEntity
  8
image
100
AcDbLine
 10
1.830676687131355
 20
8.561595277047461
 30
0.0
 11
1.830676687131355
 21
7.870528273262642
 31
0.0
  0
LINE
  5
EF
330
2
100
AcDbEntity
  8
image
100
AcDbLine
 10
1.893500960202698
 20
7.870528273262642
 30
0.0
 11
1.830676687131355
 21
7.870528273262642
 31
0.0
  0
LINE
  5
F0
330
2
100
AcDbEntity
  8
image
100
AcDbLine
 10
1.893500960202698
 20
8.561595277047461
 30
0.0
 11
1.830676687131355
 21
8.561595277047461
 31
0.0
  0
LINE
  5
F1
330
2
100
AcDbEntity
  8
image
100
AcDbLine
 10
1.893500960202698
 20
8.027588955941009
 30
0.0
 11
2.195490095128938
 21
8.027588955941009
 31
0.0
  0
SOLID
  5
F2
330
2
100
AcDbEntity
  8
image
100
AcDbTrace
 10
1.166424957320161
 20
8.323373817093493
 30
0.0
 11
1.166424957320161
 21
8.171883255114385
 31
0.0
 12
1.620896643257458
 22
8.247628536103938
 32
0.0
 13
1.620896643257458
 23
8.247628536103938
 33
0.0
  0
LINE
  5
F3
330
2
100
AcDbEntity
  8
image
100
AcDbLine
 10
4.249411200378253
 20
8.144732970265929
 30
0.0
 11
4.217999063842584
 21
8.144732970265929
 31
0.0
  0
LINE
  5
F4
330
2
100
AcDbEntity
  8
image
100
AcDbLine
 10
4.249411200378253
 20
8.105467799596338
 30
0.0
 11
4.217999063842584
 21
8.105467799596338
 31
0.0
  0
LWPOLYLINE
  5
F5
330
2
100
AcDbEntity
  8
image
100
AcDbPolyline
 90
        2
 70
     0
 43
0.0
 10
4.249411200378253
 20
8.144732970265929
 10
4.249411200378253
 20
8.105467799596338
  0
LWPOLYLINE
  5
F6
330
2
100
AcDbEntity
  8
image
100
AcDbPolyline
 90
        2
 70
     0
 43
0.0
 10
4.060938381164227
 20
8.144732970265929
 10
4.060938381164227
 20
8.105467799596338
  0
LINE
  5
F7
330
2
100
AcDbEntity
  8
image
100
AcDbLine
 10
4.092350517699896
 20
8.105467799596338
 30
0.0
 11
4.060938381164227
 21
8.105467799596338
 31
0.0
  0
LINE
  5
F8
330
2
100
AcDbEntity
  8
image
100
AcDbLine
 10
4.092350517699896
 20
8.144732970265929
 30
0.0
 11
4.060938381164227
 21
8.144732970265929
 31
0.0
  0
LINE
  5
F9
330
2
100
AcDbEntity
  8
image
100
AcDbLine
 10
4.249411200378253
 20
8.330555176339354
 30
0.0
 11
4.217999063842584
 21
8.330555176339354
 31
0.0
  0
LINE
  5
FA
330
2
100
AcDbEntity
  8
image
100
AcDbLine
 10
4.249411200378253
 20
8.291290005669763
 30
0.0
 11
4.217999063842584
 21
8.291290005669763
 31
0.0
  0
LWPOLYLINE
  5
FB
330
2
100
AcDbEntity
  8
image
100
AcDbPolyline
 90
        2
 70
     0
 43
0.0
 10
4.249411200378253
 20
8.330555176339354
 10
4.249411200378253
 20
8.291290005669763
  0
LWPOLYLINE
  5
FC
330
2
100
AcDbEntity
  8
image
100
AcDbPolyline
 90
        2
 70
     0
 43
0.0
 10
4.060938381164227
 20
8.330555176339354
 10
4.060938381164227
 20
8.291290005669763
  0
LINE
  5
FD
330
2
100
AcDbEntity
  8
image
100
AcDbLine
 10
4.092350517699896
 20
8.291290005669763
 30
0.0
 11
4.060938381164227
 21
8.291290005669763
 31
0.0
  0
LINE
  5
FE
330
2
100
AcDbEntity
  8
image
100
AcDbLine
 10
4.092350517699896
 20
8.330555176339354
 30
0.0
 11
4.060938381164227
 21
8.330555176339354
 31
0.0
  0
LINE
  5
FF
330
2
100
AcDbEntity
  8
image
100
AcDbLine
 10
4.092350517699896
 20
8.451652799172597
 30
0.0
 11
4.060938381164227
 21
8.451652799172597
 31
0.0
  0
LINE
  5
100
330
2
100
AcDbEntity
  8
image
100
AcDbLine
 10
4.092350517699896
 20
8.412387628503006
 30
0.0
 11
4.060938381164227
 21
8.412387628503006
 31
0.0
  0
LINE
  5
101
330
2
100
AcDbEntity
  8
image
100
AcDbLine
 10
4.092350517699896
 20
8.01973592180709
 30
0.0
 11
4.060938381164227
 21
8.01973592180709
 31
0.0
  0
LINE
  5
102
330
2
100
AcDbEntity
  8
image
100
AcDbLine
 10
4.092350517699896
 20
7.980470751137488
 30
0.0
 11
4.060938381164227
 21
7.980470751137488
 31
0.0
  0
LWPOLYLINE
  5
103
330
2
100
AcDbEntity
  8
image
100
AcDbPolyline
 90
        2
 70
     0
 43
0.0
 10
4.060938381164227
 20
8.019735921807088
 10
4.060938381164227
 20
7.980470751137488
  0
LWPOLYLINE
  5
104
330
2
100
AcDbEntity
  8
image
100
AcDbPolyline
 90
        2
 70
     0
 43
0.0
 10
4.060938381164227
 20
8.451652799172597
 10
4.060938381164227
 20
8.412387628503006
  0
LWPOLYLINE
  5
105
330
2
100
AcDbEntity
  8
image
100
AcDbPolyline
 90
        2
 70
     0
 43
0.0
 10
4.249411200378253
 20
8.451652799172597
 10
4.249411200378253
 20
8.412387628503006
  0
LWPOLYLINE
  5
106
330
2
100
AcDbEntity
  8
image
100
AcDbPolyline
 90
        2
 70
     0
 43
0.0
 10
4.249411200378253
 20
8.019735921807088
 10
4.249411200378253
 20
7.980470751137488
  0
LINE
  5
107
330
2
100
AcDbEntity
  8
image
100
AcDbLine
 10
4.249411200378253
 20
8.01973592180709
 30
0.0
 11
4.217999063842584
 21
8.01973592180709
 31
0.0
  0
LINE
  5
108
330
2
100
AcDbEntity
  8
image
100
AcDbLine
 10
4.249411200378253
 20
8.412387628503006
 30
0.0
 11
4.217999063842584
 21
8.412387628503006
 31
0.0
  0
LINE
  5
109
330
2
100
AcDbEntity
  8
image
100
AcDbLine
 10
4.249411200378253
 20
7.980470751137488
 30
0.0
 11
4.217999063842584
 21
7.980470751137488
 31
0.0
  0
LINE
  5
10A
330
2
100
AcDbEntity
  8
image
100
AcDbLine
 10
4.249411200378253
 20
8.451652799172597
 30
0.0
 11
4.217999063842584
 21
8.451652799172597
 31
0.0
  0
LWPOLYLINE
  5
10B
330
2
100
AcDbEntity
  8
image
100
AcDbPolyline
 90
        2
 70
     0
 43
0.0
 10
4.155174790771241
 20
8.498771003976115
 10
4.155174790771241
 20
7.933352546333981
  0
LINE
  5
10C
330
2
100
AcDbEntity
  8
image
100
AcDbLine
 10
4.217999063842584
 20
7.933352546333983
 30
0.0
 11
4.092350517699896
 21
7.933352546333983
 31
0.0
  0
LINE
  5
10D
330
2
100
AcDbEntity
  8
image
100
AcDbLine
 10
4.217999063842584
 20
8.498771003976116
 30
0.0
 11
4.092350517699896
 21
8.498771003976116
 31
0.0
  0
LINE
  5
10E
330
2
100
AcDbEntity
  8
image
100
AcDbLine
 10
4.092350517699896
 20
8.498771003976116
 30
0.0
 11
4.092350517699896
 21
7.933352546333983
 31
0.0
  0
LINE
  5
10F
330
2
100
AcDbEntity
  8
image
100
AcDbLine
 10
4.217999063842584
 20
8.498771003976116
 30
0.0
 11
4.217999063842584
 21
7.933352546333983
 31
0.0
  0
LINE
  5
110
330
2
100
AcDbEntity
  8
image
100
AcDbLine
 10
3.464107786986419
 20
8.498771003976116
 30
0.0
 11
3.464107786986419
 21
7.933352546333983
 31
0.0
  0
LINE
  5
111
330
2
100
AcDbEntity
  8
image
100
AcDbLine
 10
3.338459240843735
 20
8.498771003976116
 30
0.0
 11
3.338459240843735
 21
7.933352546333983
 31
0.0
  0
LINE
  5
112
330
2
100
AcDbEntity
  8
image
100
AcDbLine
 10
3.464107786986419
 20
8.498771003976116
 30
0.0
 11
3.338459240843735
 21
8.498771003976116
 31
0.0
  0
LINE
  5
113
330
2
100
AcDbEntity
  8
image
100
AcDbLine
 10
3.464107786986419
 20
7.933352546333983
 30
0.0
 11
3.338459240843735
 21
7.933352546333983
 31
0.0
  0
LWPOLYLINE
  5
114
330
2
100
AcDbEntity
  8
image
100
AcDbPolyline
 90
        2
 70
     0
 43
0.0
 10
3.401283513915079
 20
8.498771003976115
 10
3.401283513915079
 20
7.933352546333981
  0
LINE
  5
115
330
2
100
AcDbEntity
  8
image
100
AcDbLine
 10
3.495519923522093
 20
8.451652799172597
 30
0.0
 11
3.464107786986419
 21
8.451652799172597
 31
0.0
  0
LINE
  5
116
330
2
100
AcDbEntity
  8
image
100
AcDbLine
 10
3.495519923522093
 20
7.980470751137488
 30
0.0
 11
3.464107786986419
 21
7.980470751137488
 31
0.0
  0
LINE
  5
117
330
2
100
AcDbEntity
  8
image
100
AcDbLine
 10
3.495519923522093
 20
8.412387628503006
 30
0.0
 11
3.464107786986419
 21
8.412387628503006
 31
0.0
  0
LINE
  5
118
330
2
100
AcDbEntity
  8
image
100
AcDbLine
 10
3.495519923522093
 20
8.01973592180709
 30
0.0
 11
3.464107786986419
 21
8.01973592180709
 31
0.0
  0
LWPOLYLINE
  5
119
330
2
100
AcDbEntity
  8
image
100
AcDbPolyline
 90
        2
 70
     0
 43
0.0
 10
3.495519923522093
 20
8.019735921807088
 10
3.495519923522093
 20
7.980470751137488
  0
LWPOLYLINE
  5
11A
330
2
100
AcDbEntity
  8
image
100
AcDbPolyline
 90
        2
 70
     0
 43
0.0
 10
3.495519923522093
 20
8.451652799172597
 10
3.495519923522093
 20
8.412387628503006
  0
LWPOLYLINE
  5
11B
330
2
100
AcDbEntity
  8
image
100
AcDbPolyline
 90
        2
 70
     0
 43
0.0
 10
3.307047104308012
 20
8.451652799172597
 10
3.307047104308012
 20
8.412387628503006
  0
LWPOLYLINE
  5
11C
330
2
100
AcDbEntity
  8
image
100
AcDbPolyline
 90
        2
 70
     0
 43
0.0
 10
3.307047104308012
 20
8.019735921807088
 10
3.307047104308012
 20
7.980470751137488
  0
LINE
  5
11D
330
2
100
AcDbEntity
  8
image
100
AcDbLine
 10
3.338459240843735
 20
7.980470751137488
 30
0.0
 11
3.307047104308012
 21
7.980470751137488
 31
0.0
  0
LINE
  5
11E
330
2
100
AcDbEntity
  8
image
100
AcDbLine
 10
3.338459240843735
 20
8.01973592180709
 30
0.0
 11
3.307047104308012
 21
8.01973592180709
 31
0.0
  0
LINE
  5
11F
330
2
100
AcDbEntity
  8
image
100
AcDbLine
 10
3.338459240843735
 20
8.412387628503006
 30
0.0
 11
3.307047104308012
 21
8.412387628503006
 31
0.0
  0
LINE
  5
120
330
2
100
AcDbEntity
  8
image
100
AcDbLine
 10
3.338459240843735
 20
8.451652799172597
 30
0.0
 11
3.307047104308012
 21
8.451652799172597
 31
0.0
  0
LINE
  5
121
330
2
100
AcDbEntity
  8
image
100
AcDbLine
 10
3.338459240843735
 20
8.330555176339354
 30
0.0
 11
3.307047104308012
 21
8.330555176339354
 31
0.0
  0
LINE
  5
122
330
2
100
AcDbEntity
  8
image
100
AcDbLine
 10
3.338459240843735
 20
8.291290005669763
 30
0.0
 11
3.307047104308012
 21
8.291290005669763
 31
0.0
  0
LWPOLYLINE
  5
123
330
2
100
AcDbEntity
  8
image
100
AcDbPolyline
 90
        2
 70
     0
 43
0.0
 10
3.307047104308012
 20
8.330555176339354
 10
3.307047104308012
 20
8.291290005669763
  0
LWPOLYLINE
  5
124
330
2
100
AcDbEntity
  8
image
100
AcDbPolyline
 90
        2
 70
     0
 43
0.0
 10
3.495519923522093
 20
8.330555176339354
 10
3.495519923522093
 20
8.291290005669763
  0
LINE
  5
125
330
2
100
AcDbEntity
  8
image
100
AcDbLine
 10
3.495519923522093
 20
8.291290005669763
 30
0.0
 11
3.464107786986419
 21
8.291290005669763
 31
0.0
  0
LINE
  5
126
330
2
100
AcDbEntity
  8
image
100
AcDbLine
 10
3.495519923522093
 20
8.330555176339354
 30
0.0
 11
3.464107786986419
 21
8.330555176339354
 31
0.0
  0
LINE
  5
127
330
2
100
AcDbEntity
  8
image
100
AcDbLine
 10
3.338459240843735
 20
8.144732970265929
 30
0.0
 11
3.307047104308012
 21
8.144732970265929
 31
0.0
  0
LINE
  5
128
330
2
100
AcDbEntity
  8
image
100
AcDbLine
 10
3.338459240843735
 20
8.105467799596338
 30
0.0
 11
3.307047104308012
 21
8.105467799596338
 31
0.0
  0
LWPOLYLINE
  5
129
330
2
100
AcDbEntity
  8
image
100
AcDbPolyline
 90
        2
 70
     0
 43
0.0
 10
3.307047104308012
 20
8.144732970265929
 10
3.307047104308012
 20
8.105467799596338
  0
LWPOLYLINE
  5
12A
330
2
100
AcDbEntity
  8
image
100
AcDbPolyline
 90
        2
 70
     0
 43
0.0
 10
3.495519923522093
 20
8.144732970265929
 10
3.495519923522093
 20
8.105467799596338
  0
LINE
  5
12B
330
2
100
AcDbEntity
  8
image
100
AcDbLine
 10
3.495519923522093
 20
8.105467799596338
 30
0.0
 11
3.464107786986419
 21
8.105467799596338
 31
0.0
  0
LINE
  5
12C
330
2
100
AcDbEntity
  8
image
100
AcDbLine
 10
3.495519923522093
 20
8.144732970265929
 30
0.0
 11
3.464107786986419
 21
8.144732970265929
 31
0.0
  0
CIRCLE
  5
12D
330
2
100
AcDbEntity
  8
image
100
AcDbCircle
 10
3.785550453418238
 20
8.216061775155047
 30
0.0
 40
0.2705489032490765
  0
LINE
  5
12E
330
2
100
AcDbEntity
  8
image
100
AcDbLine
 10
3.545948383515839
 20
8.090413229012348
 30
0.0
 11
3.464107786986419
 21
8.090413229012348
 31
0.0
  0
LINE
  5
12F
330
2
100
AcDbEntity
  8
image
100
AcDbLine
 10
3.545948383515839
 20
8.34171032129775
 30
0.0
 11
3.464107786986419
 21
8.34171032129775
 31
0.0
  0
LWPOLYLINE
  5
130
330
2
100
AcDbEntity
  8
image
100
AcDbPolyline
 90
        6
 70
     1
 43
0.0
 10
3.770979012603087
 20
7.956733981279649
 10
3.78084766954312
 20
7.949200599523726
 10
3.792306097990132
 20
7.953980416257062
 10
3.793895869497162
 20
7.966293614746325
 10
3.78402721255713
 20
7.973826996502248
 10
3.772568784110116
 20
7.96904717976891
  0
LWPOLYLINE
  5
131
330
2
100
AcDbEntity
  8
image
100
AcDbPolyline
 90
        6
 70
     1
 43
0.0
 10
3.800121894233389
 20
8.475389569030447
 10
3.790253237293356
 20
8.482922950786358
 10
3.778794808846344
 20
8.47814313405302
 10
3.777205037339313
 20
8.465829935563762
 10
3.787073694279345
 20
8.458296553807851
 10
3.798532122726408
 20
8.463076370541184
  0
CIRCLE
  5
132
330
2
100
AcDbEntity
  8
image
100
AcDbCircle
 10
3.785550453418238
 20
8.216061775155047
 30
0.0
 40
0.2705489032490764
  0
ARC
  5
133
330
2
100
AcDbEntity
  8
image
100
AcDbCircle
 10
3.785550453418238
 20
8.216061775155047
 30
0.0
 40
0.0298554444226313
100
AcDbArc
 50
348.4535906577354
 51
11.5464093422646
  0
ARC
  5
134
330
2
100
AcDbEntity
  8
image
100
AcDbCircle
 10
3.785550453418238
 20
8.216061775155047
 30
0.0
 40
0.0298554444226313
100
AcDbArc
 50
78.45359065773542
 51
101.5464093422645
  0
ARC
  5
135
330
2
100
AcDbEntity
  8
image
100
AcDbCircle
 10
3.785550453418238
 20
8.216061775155047
 30
0.0
 40
0.0298554444226313
100
AcDbArc
 50
168.4535906577354
 51
191.5464093422646
  0
LINE
  5
136
330
2
100
AcDbEntity
  8
image
100
AcDbLine
 10
3.779574539778967
 20
8.24531303184341
 30
0.0
 11
3.779574539778967
 21
8.186810518466671
 31
0.0
  0
LINE
  5
137
330
2
100
AcDbEntity
  8
image
100
AcDbLine
 10
3.791526367057508
 20
8.24531303184341
 30
0.0
 11
3.791526367057508
 21
8.186810518466671
 31
0.0
  0
LINE
  5
138
330
2
100
AcDbEntity
  8
image
100
AcDbLine
 10
3.814801710106602
 20
8.222037688794305
 30
0.0
 11
3.75629919672987
 21
8.222037688794305
 31
0.0
  0
LINE
  5
139
330
2
100
AcDbEntity
  8
image
100
AcDbLine
 10
3.814801710106602
 20
8.21008586151578
 30
0.0
 11
3.75629919672987
 21
8.21008586151578
 31
0.0
  0
ARC
  5
13A
330
2
100
AcDbEntity
  8
image
100
AcDbCircle
 10
3.785550453418238
 20
8.216061775155047
 30
0.0
 40
0.0298554444226313
100
AcDbArc
 50
258.4535906577354
 51
281.5464093422646
  0
CIRCLE
  5
13B
330
2
100
AcDbEntity
  8
image
100
AcDbCircle
 10
3.785550453418238
 20
8.216061775155047
 30
0.0
 40
0.2353719177860651
  0
LWPOLYLINE
  5
13C
330
2
100
AcDbEntity
  8
image
100
AcDbPolyline
 90
        6
 70
     1
 43
0.0
 10
4.002849190414152
 20
8.073778640301679
 10
4.014307618861165
 20
8.078558457035018
 10
4.015897390368194
 20
8.090871655524274
 10
4.006028733428163
 20
8.098405037280185
 10
3.9945703049811
 20
8.093625220546853
 10
3.99298053347412
 20
8.08131202205759
  0
LWPOLYLINE
  5
13D
330
2
100
AcDbEntity
  8
image
100
AcDbPolyline
 90
        6
 70
     1
 43
0.0
 10
4.017420631229304
 20
8.333106434177075
 10
4.019010402736334
 20
8.345419632666326
 10
4.009141745796301
 20
8.352953014422249
 10
3.997683317349239
 20
8.348173197688911
 10
3.996093545842206
 20
8.33585999919965
 10
4.005962202782238
 20
8.328326617443737
  0
LWPOLYLINE
  5
13E
330
2
100
AcDbEntity
  8
image
100
AcDbPolyline
 90
        6
 70
     1
 43
0.0
 10
3.568251716422373
 20
8.358344910008421
 10
3.556793287975307
 20
8.353565093275083
 10
3.555203516468277
 20
8.34125189478582
 10
3.56507217340831
 20
8.333718513029896
 10
3.576530601855376
 20
8.338498329763234
 10
3.578120373362406
 20
8.350811528252497
  0
LWPOLYLINE
  5
13F
330
2
100
AcDbEntity
  8
image
100
AcDbPolyline
 90
        6
 70
     1
 43
0.0
 10
3.553680275607168
 20
8.099017116133023
 10
3.552090504100191
 20
8.08670391764376
 10
3.561959161040224
 20
8.079170535887849
 10
3.573417589487235
 20
8.083950352621188
 10
3.575007360994266
 20
8.096263551110434
 10
3.565138704054234
 20
8.103796932866357
  0
ARC
  5
140
330
2
100
AcDbEntity
  8
image
100
AcDbCircle
 10
3.785550453418238
 20
8.216061775155047
 30
0.0
 40
0.1628452275349874
100
AcDbArc
 50
105.3007955210696
 51
83.50975045203956
  0
LWPOLYLINE
  5
141
330
2
100
AcDbEntity
  8
image
100
AcDbPolyline
 90
        4
 70
     1
 43
0.0
 10
3.803957521803387
 20
8.326261840909511
 10
3.742577805678386
 20
8.326261840909511
 10
3.742577805678386
 20
8.407244593868195
 10
3.803957521803387
 20
8.407244593868195
  0
LINE
  5
142
330
2
100
AcDbEntity
  8
image
100
AcDbLine
 10
4.092350517699896
 20
8.34171032129775
 30
0.0
 11
4.025152523320634
 21
8.34171032129775
 31
0.0
  0
LINE
  5
143
330
2
100
AcDbEntity
  8
image
100
AcDbLine
 10
4.092350517699896
 20
8.090413229012348
 30
0.0
 11
4.025152523320634
 21
8.090413229012348
 31
0.0
  0
LINE
  5
144
330
2
100
AcDbEntity
  8
image
100
AcDbLine
 10
2.898689329344284
 20
8.027588955941009
 30
0.0
 11
3.338459240843735
 21
8.090413229012348
 31
0.0
  0
LINE
  5
145
330
2
100
AcDbEntity
  8
image
100
AcDbLine
 10
2.898689329344284
 20
8.404534594369089
 30
0.0
 11
3.338459240843735
 21
8.34171032129775
 31
0.0
  0
LWPOLYLINE
  5
146
330
2
100
AcDbEntity
  8
image
100
AcDbPolyline
 90
        2
 70
     0
 43
0.0
 10
2.835865056272944
 20
8.561595277047461
 10
2.835865056272944
 20
7.870528273262642
  0
LINE
  5
147
330
2
100
AcDbEntity
  8
image
100
AcDbLine
 10
2.945807534147791
 20
7.964764682869656
 30
0.0
 11
2.945807534147791
 21
7.917646478066149
 31
0.0
  0
LINE
  5
148
330
2
100
AcDbEntity
  8
image
100
AcDbLine
 10
2.72592257839809
 20
7.964764682869656
 30
0.0
 11
2.72592257839809
 21
7.917646478066149
 31
0.0
  0
LINE
  5
149
330
2
100
AcDbEntity
  8
image
100
AcDbLine
 10
2.72592257839809
 20
7.964764682869656
 30
0.0
 11
2.773040783201597
 21
7.964764682869656
 31
0.0
  0
LINE
  5
14A
330
2
100
AcDbEntity
  8
image
100
AcDbLine
 10
2.72592257839809
 20
7.917646478066149
 30
0.0
 11
2.773040783201597
 21
7.917646478066149
 31
0.0
  0
LINE
  5
14B
330
2
100
AcDbEntity
  8
image
100
AcDbLine
 10
2.898689329344284
 20
7.964764682869656
 30
0.0
 11
2.945807534147791
 21
7.964764682869656
 31
0.0
  0
LINE
  5
14C
330
2
100
AcDbEntity
  8
image
100
AcDbLine
 10
2.898689329344284
 20
7.917646478066149
 30
0.0
 11
2.945807534147791
 21
7.917646478066149
 31
0.0
  0
LINE
  5
14D
330
2
100
AcDbEntity
  8
image
100
AcDbLine
 10
2.898689329344284
 20
8.514477072243952
 30
0.0
 11
2.945807534147791
 21
8.514477072243952
 31
0.0
  0
LINE
  5
14E
330
2
100
AcDbEntity
  8
image
100
AcDbLine
 10
2.898689329344284
 20
8.467358867440434
 30
0.0
 11
2.945807534147791
 21
8.467358867440434
 31
0.0
  0
LINE
  5
14F
330
2
100
AcDbEntity
  8
image
100
AcDbLine
 10
2.72592257839809
 20
8.514477072243952
 30
0.0
 11
2.773040783201597
 21
8.514477072243952
 31
0.0
  0
LINE
  5
150
330
2
100
AcDbEntity
  8
image
100
AcDbLine
 10
2.72592257839809
 20
8.467358867440434
 30
0.0
 11
2.773040783201597
 21
8.467358867440434
 31
0.0
  0
LINE
  5
151
330
2
100
AcDbEntity
  8
image
100
AcDbLine
 10
2.72592257839809
 20
8.467358867440434
 30
0.0
 11
2.72592257839809
 21
8.514477072243952
 31
0.0
  0
LINE
  5
152
330
2
100
AcDbEntity
  8
image
100
AcDbLine
 10
2.945807534147791
 20
8.467358867440434
 30
0.0
 11
2.945807534147791
 21
8.514477072243952
 31
0.0
  0
LINE
  5
153
330
2
100
AcDbEntity
  8
image
100
AcDbLine
 10
2.945807534147791
 20
8.29546931959859
 30
0.0
 11
2.945807534147791
 21
8.342587524402098
 31
0.0
  0
LINE
  5
154
330
2
100
AcDbEntity
  8
image
100
AcDbLine
 10
2.72592257839809
 20
8.29546931959859
 30
0.0
 11
2.72592257839809
 21
8.342587524402098
 31
0.0
  0
LINE
  5
155
330
2
100
AcDbEntity
  8
image
100
AcDbLine
 10
2.72592257839809
 20
8.29546931959859
 30
0.0
 11
2.773040783201597
 21
8.29546931959859
 31
0.0
  0
LINE
  5
156
330
2
100
AcDbEntity
  8
image
100
AcDbLine
 10
2.72592257839809
 20
8.342587524402098
 30
0.0
 11
2.773040783201597
 21
8.342587524402098
 31
0.0
  0
LINE
  5
157
330
2
100
AcDbEntity
  8
image
100
AcDbLine
 10
2.898689329344284
 20
8.29546931959859
 30
0.0
 11
2.945807534147791
 21
8.29546931959859
 31
0.0
  0
LINE
  5
158
330
2
100
AcDbEntity
  8
image
100
AcDbLine
 10
2.898689329344284
 20
8.342587524402098
 30
0.0
 11
2.945807534147791
 21
8.342587524402098
 31
0.0
  0
LINE
  5
159
330
2
100
AcDbEntity
  8
image
100
AcDbLine
 10
2.898689329344284
 20
8.113401460612967
 30
0.0
 11
2.945807534147791
 21
8.113401460612967
 31
0.0
  0
LINE
  5
15A
330
2
100
AcDbEntity
  8
image
100
AcDbLine
 10
2.898689329344284
 20
8.066283255809457
 30
0.0
 11
2.945807534147791
 21
8.066283255809457
 31
0.0
  0
LINE
  5
15B
330
2
100
AcDbEntity
  8
image
100
AcDbLine
 10
2.72592257839809
 20
8.113401460612967
 30
0.0
 11
2.773040783201597
 21
8.113401460612967
 31
0.0
  0
LINE
  5
15C
330
2
100
AcDbEntity
  8
image
100
AcDbLine
 10
2.72592257839809
 20
8.066283255809457
 30
0.0
 11
2.773040783201597
 21
8.066283255809457
 31
0.0
  0
LINE
  5
15D
330
2
100
AcDbEntity
  8
image
100
AcDbLine
 10
2.72592257839809
 20
8.066283255809457
 30
0.0
 11
2.72592257839809
 21
8.113401460612967
 31
0.0
  0
LINE
  5
15E
330
2
100
AcDbEntity
  8
image
100
AcDbLine
 10
2.945807534147791
 20
8.066283255809457
 30
0.0
 11
2.945807534147791
 21
8.113401460612967
 31
0.0
  0
LINE
  5
15F
330
2
100
AcDbEntity
  8
image
100
AcDbLine
 10
2.898689329344284
 20
8.561595277047461
 30
0.0
 11
2.835865056272944
 21
8.561595277047461
 31
0.0
  0
LINE
  5
160
330
2
100
AcDbEntity
  8
image
100
AcDbLine
 10
2.898689329344284
 20
7.870528273262642
 30
0.0
 11
2.835865056272944
 21
7.870528273262642
 31
0.0
  0
LINE
  5
161
330
2
100
AcDbEntity
  8
image
100
AcDbLine
 10
2.898689329344284
 20
8.561595277047461
 30
0.0
 11
2.898689329344284
 21
7.870528273262642
 31
0.0
  0
LINE
  5
162
330
2
100
AcDbEntity
  8
image
100
AcDbLine
 10
2.773040783201597
 20
8.561595277047461
 30
0.0
 11
2.773040783201597
 21
7.870528273262642
 31
0.0
  0
LINE
  5
163
330
2
100
AcDbEntity
  8
image
100
AcDbLine
 10
2.835865056272944
 20
8.561595277047461
 30
0.0
 11
2.835865056272944
 21
7.870528273262642
 31
0.0
  0
LINE
  5
164
330
2
100
AcDbEntity
  8
image
100
AcDbLine
 10
2.773040783201597
 20
7.870528273262642
 30
0.0
 11
2.835865056272944
 21
7.870528273262642
 31
0.0
  0
LINE
  5
165
330
2
100
AcDbEntity
  8
image
100
AcDbLine
 10
2.773040783201597
 20
8.561595277047461
 30
0.0
 11
2.835865056272944
 21
8.561595277047461
 31
0.0
  0
LWPOLYLINE
  5
166
330
2
100
AcDbEntity
  8
image
100
AcDbPolyline
 90
        2
 70
     0
 43
0.0
 10
4.155174790771241
 20
8.498771003976102
 10
4.155174790771241
 20
7.933352546333981
  0
LINE
  5
167
330
2
100
AcDbEntity
  8
image
100
AcDbLine
 10
11.89681364120412
 20
8.066283255809453
 30
0.0
 11
11.84969543640062
 21
8.066283255809453
 31
0.0
  0
LINE
  5
168
330
2
100
AcDbEntity
  8
image
100
AcDbLine
 10
11.89681364120412
 20
8.113401460612964
 30
0.0
 11
11.84969543640062
 21
8.113401460612964
 31
0.0
  0
LINE
  5
169
330
2
100
AcDbEntity
  8
image
100
AcDbLine
 10
11.89681364120412
 20
8.342587524402096
 30
0.0
 11
11.84969543640062
 21
8.342587524402096
 31
0.0
  0
LINE
  5
16A
330
2
100
AcDbEntity
  8
image
100
AcDbLine
 10
11.89681364120412
 20
8.295469319598586
 30
0.0
 11
11.84969543640062
 21
8.295469319598586
 31
0.0
  0
LINE
  5
16B
330
2
100
AcDbEntity
  8
image
100
AcDbLine
 10
11.89681364120412
 20
8.467358867440431
 30
0.0
 11
11.84969543640062
 21
8.467358867440431
 31
0.0
  0
LINE
  5
16C
330
2
100
AcDbEntity
  8
image
100
AcDbLine
 10
11.89681364120412
 20
8.51447707224395
 30
0.0
 11
11.84969543640062
 21
8.51447707224395
 31
0.0
  0
LINE
  5
16D
330
2
100
AcDbEntity
  8
image
100
AcDbLine
 10
11.89681364120412
 20
7.917646478066146
 30
0.0
 11
11.84969543640062
 21
7.917646478066146
 31
0.0
  0
LINE
  5
16E
330
2
100
AcDbEntity
  8
image
100
AcDbLine
 10
11.89681364120412
 20
7.964764682869651
 30
0.0
 11
11.84969543640062
 21
7.964764682869651
 31
0.0
  0
LINE
  5
16F
330
2
100
AcDbEntity
  8
image
100
AcDbLine
 10
12.28804442344854
 20
6.519806402228654
 30
0.0
 11
9.471245709577896
 21
6.519806402228658
 31
0.0
  0
LINE
  5
170
330
2
100
AcDbEntity
  8
image
100
AcDbLine
 10
12.28804442344854
 20
6.394157856085955
 30
0.0
 11
9.471245709577896
 21
6.394157856085957
 31
0.0
  0
LINE
  5
171
330
2
100
AcDbEntity
  8
image
100
AcDbLine
 10
11.89681364120412
 20
8.404534594369087
 30
0.0
 11
11.45704372970468
 21
8.341710321297746
 31
0.0
  0
LINE
  5
172
330
2
100
AcDbEntity
  8
image
100
AcDbLine
 10
11.89681364120412
 20
8.027588955941006
 30
0.0
 11
11.45704372970468
 21
8.090413229012346
 31
0.0
  0
LINE
  5
173
330
2
100
AcDbEntity
  8
image
100
AcDbLine
 10
9.489667351534038
 20
6.519806402228658
 30
0.0
 11
9.489667351534038
 21
6.394157856085957
 31
0.0
  0
LINE
  5
174
330
2
100
AcDbEntity
  8
image
100
AcDbLine
 10
9.148813132512058
 20
6.519806402228658
 30
0.0
 11
9.148813132512058
 21
6.394157856085957
 31
0.0
  0
LINE
  5
175
330
2
100
AcDbEntity
  8
image
100
AcDbLine
 10
9.471245709577896
 20
6.548345481951132
 30
0.0
 11
9.471245709577896
 21
6.365618776363483
 31
0.0
  0
LINE
  5
176
330
2
100
AcDbEntity
  8
image
100
AcDbLine
 10
9.1672347744682
 20
6.548345481951132
 30
0.0
 11
9.1672347744682
 21
6.365618776363483
 31
0.0
  0
LINE
  5
177
330
2
100
AcDbEntity
  8
image
100
AcDbLine
 10
9.212560495598703
 20
6.548345481951132
 30
0.0
 11
9.212560495598703
 21
6.365618776363483
 31
0.0
  0
LINE
  5
178
330
2
100
AcDbEntity
  8
image
100
AcDbLine
 10
9.425919988447342
 20
6.548345481951132
 30
0.0
 11
9.425919988447342
 21
6.365618776363483
 31
0.0
  0
CIRCLE
  5
179
330
2
100
AcDbEntity
  8
image
100
AcDbCircle
 10
9.31514727320401
 20
6.45698212915731
 30
0.0
 40
0.0715405265723969
  0
CIRCLE
  5
17A
330
2
100
AcDbEntity
  8
image
100
AcDbCircle
 10
9.31514727320401
 20
6.45698212915731
 30
0.0
 40
0.023962433229376
  0
LINE
  5
17B
330
2
100
AcDbEntity
  8
image
100
AcDbLine
 10
9.471245709577896
 20
6.365618776363483
 30
0.0
 11
9.1672347744682
 21
6.365618776363483
 31
0.0
  0
LINE
  5
17C
330
2
100
AcDbEntity
  8
image
100
AcDbLine
 10
9.471245709577896
 20
6.548345481951132
 30
0.0
 11
9.1672347744682
 21
6.548345481951132
 31
0.0
  0
CIRCLE
  5
17D
330
2
100
AcDbEntity
  8
image
100
AcDbCircle
 10
9.336513383190093
 20
8.216061775155047
 30
0.0
 40
0.0210454449754618
  0
CIRCLE
  5
17E
330
2
100
AcDbEntity
  8
image
100
AcDbCircle
 10
9.336513383190093
 20
8.216061775155047
 30
0.0
 40
0.0628317750990826
  0
CIRCLE
  5
17F
330
2
100
AcDbEntity
  8
image
100
AcDbCircle
 10
9.336513383190093
 20
8.216061775155047
 30
0.0
 40
0.0732213863934873
  0
LINE
  5
180
330
2
100
AcDbEntity
  8
image
100
AcDbLine
 10
11.84969543640062
 20
8.066283255809453
 30
0.0
 11
11.84969543640062
 21
8.113401460612964
 31
0.0
  0
LINE
  5
181
330
2
100
AcDbEntity
  8
image
100
AcDbLine
 10
11.84969543640062
 20
8.295469319598586
 30
0.0
 11
11.84969543640062
 21
8.342587524402096
 31
0.0
  0
LINE
  5
182
330
2
100
AcDbEntity
  8
image
100
AcDbLine
 10
11.84969543640062
 20
8.467358867440431
 30
0.0
 11
11.84969543640062
 21
8.51447707224395
 31
0.0
  0
LINE
  5
183
330
2
100
AcDbEntity
  8
image
100
AcDbLine
 10
11.84969543640062
 20
7.964764682869651
 30
0.0
 11
11.84969543640062
 21
7.917646478066146
 31
0.0
  0
LINE
  5
184
330
2
100
AcDbEntity
  8
image
100
AcDbLine
 10
11.45704372970468
 20
8.498771003976113
 30
0.0
 11
11.45704372970468
 21
7.93335254633398
 31
0.0
  0
LINE
  5
185
330
2
100
AcDbEntity
  8
image
100
AcDbLine
 10
11.33139518356199
 20
8.498771003976113
 30
0.0
 11
11.33139518356199
 21
7.93335254633398
 31
0.0
  0
LINE
  5
186
330
2
100
AcDbEntity
  8
image
100
AcDbLine
 10
11.45704372970468
 20
8.498771003976113
 30
0.0
 11
11.33139518356199
 21
8.498771003976113
 31
0.0
  0
LINE
  5
187
330
2
100
AcDbEntity
  8
image
100
AcDbLine
 10
11.45704372970468
 20
7.93335254633398
 30
0.0
 11
11.33139518356199
 21
7.93335254633398
 31
0.0
  0
LWPOLYLINE
  5
188
330
2
100
AcDbEntity
  8
image
100
AcDbPolyline
 90
        2
 70
     0
 43
0.0
 10
11.39421945663333
 20
8.498771003976113
 10
11.39421945663333
 20
7.93335254633398
  0
LINE
  5
189
330
2
100
AcDbEntity
  8
image
100
AcDbLine
 10
11.48845586624035
 20
8.451652799172594
 30
0.0
 11
11.45704372970468
 21
8.451652799172594
 31
0.0
  0
LINE
  5
18A
330
2
100
AcDbEntity
  8
image
100
AcDbLine
 10
11.48845586624035
 20
7.980470751137485
 30
0.0
 11
11.45704372970468
 21
7.980470751137485
 31
0.0
  0
LINE
  5
18B
330
2
100
AcDbEntity
  8
image
100
AcDbLine
 10
11.48845586624035
 20
8.412387628503003
 30
0.0
 11
11.45704372970468
 21
8.412387628503003
 31
0.0
  0
LINE
  5
18C
330
2
100
AcDbEntity
  8
image
100
AcDbLine
 10
11.48845586624035
 20
8.019735921807086
 30
0.0
 11
11.45704372970468
 21
8.019735921807086
 31
0.0
  0
LWPOLYLINE
  5
18D
330
2
100
AcDbEntity
  8
image
100
AcDbPolyline
 90
        2
 70
     0
 43
0.0
 10
11.48845586624035
 20
8.019735921807086
 10
11.48845586624035
 20
7.980470751137485
  0
LWPOLYLINE
  5
18E
330
2
100
AcDbEntity
  8
image
100
AcDbPolyline
 90
        2
 70
     0
 43
0.0
 10
11.48845586624035
 20
8.451652799172594
 10
11.48845586624035
 20
8.412387628503006
  0
LWPOLYLINE
  5
18F
330
2
100
AcDbEntity
  8
image
100
AcDbPolyline
 90
        2
 70
     0
 43
0.0
 10
11.29998304702631
 20
8.451652799172594
 10
11.29998304702631
 20
8.412387628503006
  0
LWPOLYLINE
  5
190
330
2
100
AcDbEntity
  8
image
100
AcDbPolyline
 90
        2
 70
     0
 43
0.0
 10
11.29998304702631
 20
8.019735921807086
 10
11.29998304702631
 20
7.980470751137485
  0
LINE
  5
191
330
2
100
AcDbEntity
  8
image
100
AcDbLine
 10
11.33139518356199
 20
7.980470751137485
 30
0.0
 11
11.29998304702631
 21
7.980470751137485
 31
0.0
  0
LINE
  5
192
330
2
100
AcDbEntity
  8
image
100
AcDbLine
 10
11.33139518356199
 20
8.019735921807086
 30
0.0
 11
11.29998304702631
 21
8.019735921807086
 31
0.0
  0
LINE
  5
193
330
2
100
AcDbEntity
  8
image
100
AcDbLine
 10
11.33139518356199
 20
8.412387628503003
 30
0.0
 11
11.29998304702631
 21
8.412387628503003
 31
0.0
  0
LINE
  5
194
330
2
100
AcDbEntity
  8
image
100
AcDbLine
 10
11.33139518356199
 20
8.451652799172594
 30
0.0
 11
11.29998304702631
 21
8.451652799172594
 31
0.0
  0
LINE
  5
195
330
2
100
AcDbEntity
  8
image
100
AcDbLine
 10
11.33139518356199
 20
8.33055517633935
 30
0.0
 11
11.29998304702631
 21
8.33055517633935
 31
0.0
  0
LINE
  5
196
330
2
100
AcDbEntity
  8
image
100
AcDbLine
 10
11.33139518356199
 20
8.291290005669761
 30
0.0
 11
11.29998304702631
 21
8.291290005669761
 31
0.0
  0
LWPOLYLINE
  5
197
330
2
100
AcDbEntity
  8
image
100
AcDbPolyline
 90
        2
 70
     0
 43
0.0
 10
11.29998304702631
 20
8.330555176339348
 10
11.29998304702631
 20
8.291290005669763
  0
LWPOLYLINE
  5
198
330
2
100
AcDbEntity
  8
image
100
AcDbPolyline
 90
        2
 70
     0
 43
0.0
 10
11.48845586624035
 20
8.330555176339348
 10
11.48845586624035
 20
8.291290005669763
  0
LINE
  5
199
330
2
100
AcDbEntity
  8
image
100
AcDbLine
 10
11.48845586624035
 20
8.291290005669761
 30
0.0
 11
11.45704372970468
 21
8.291290005669761
 31
0.0
  0
LINE
  5
19A
330
2
100
AcDbEntity
  8
image
100
AcDbLine
 10
11.48845586624035
 20
8.33055517633935
 30
0.0
 11
11.45704372970468
 21
8.33055517633935
 31
0.0
  0
LINE
  5
19B
330
2
100
AcDbEntity
  8
image
100
AcDbLine
 10
11.33139518356199
 20
8.144732970265923
 30
0.0
 11
11.29998304702631
 21
8.144732970265923
 31
0.0
  0
LINE
  5
19C
330
2
100
AcDbEntity
  8
image
100
AcDbLine
 10
11.33139518356199
 20
8.105467799596333
 30
0.0
 11
11.29998304702631
 21
8.105467799596333
 31
0.0
  0
LWPOLYLINE
  5
19D
330
2
100
AcDbEntity
  8
image
100
AcDbPolyline
 90
        2
 70
     0
 43
0.0
 10
11.29998304702631
 20
8.144732970265923
 10
11.29998304702631
 20
8.105467799596338
  0
LWPOLYLINE
  5
19E
330
2
100
AcDbEntity
  8
image
100
AcDbPolyline
 90
        2
 70
     0
 43
0.0
 10
11.48845586624035
 20
8.144732970265923
 10
11.48845586624035
 20
8.105467799596338
  0
LINE
  5
19F
330
2
100
AcDbEntity
  8
image
100
AcDbLine
 10
11.48845586624035
 20
8.105467799596333
 30
0.0
 11
11.45704372970468
 21
8.105467799596333
 31
0.0
  0
LINE
  5
1A0
330
2
100
AcDbEntity
  8
image
100
AcDbLine
 10
11.48845586624035
 20
8.144732970265923
 30
0.0
 11
11.45704372970468
 21
8.144732970265923
 31
0.0
  0
LINE
  5
1A1
330
2
100
AcDbEntity
  8
image
100
AcDbLine
 10
15.73302346407695
 20
7.713467590584265
 30
0.0
 11
15.04195646029213
 21
7.713467590584265
 31
0.0
  0
LINE
  5
1A2
330
2
100
AcDbEntity
  8
image
100
AcDbLine
 10
15.73302346407695
 20
7.776291863655611
 30
0.0
 11
15.04195646029213
 21
7.776291863655611
 31
0.0
  0
LINE
  5
1A3
330
2
100
AcDbEntity
  8
image
100
AcDbLine
 10
15.73302346407695
 20
8.718655959725827
 30
0.0
 11
15.04195646029213
 21
8.718655959725827
 31
0.0
  0
LINE
  5
1A4
330
2
100
AcDbEntity
  8
image
100
AcDbLine
 10
15.73302346407695
 20
8.655831686654485
 30
0.0
 11
15.04195646029213
 21
8.655831686654485
 31
0.0
  0
LINE
  5
1A5
330
2
100
AcDbEntity
  8
image
100
AcDbLine
 10
15.73302346407695
 20
8.781480232797171
 30
0.0
 11
15.04195646029213
 21
8.781480232797171
 31
0.0
  0
LINE
  5
1A6
330
2
100
AcDbEntity
  8
image
100
AcDbLine
 10
15.73302346407695
 20
7.65064331751291
 30
0.0
 11
15.04195646029213
 21
7.65064331751291
 31
0.0
  0
LWPOLYLINE
  5
1A7
330
2
100
AcDbEntity
  8
image
100
AcDbPolyline
 90
        4
 70
     0
 43
0.0
 10
15.57596278139859
 20
6.821941725507119
 42
-0.6187795370173136
 10
15.38385947720116
 20
6.818842625714404
 42
0.5962611703144497
 10
15.19901714297049
 20
6.821941725507119
 42
0.6046800742237278
 10
15.37258398407904
 20
6.83615856549874
 42
0.2034189279954803
  0
LWPOLYLINE
  5
1A8
330
2
100
AcDbEntity
  8
image
100
AcDbPolyline
 90
        4
 70
     0
 43
0.0
 10
15.57596278139859
 20
9.610181824802975
 42
0.6187795370173136
 10
15.38385947720116
 20
9.61328092459569
 42
-0.5962611703144497
 10
15.19901714297049
 20
9.610181824802975
 42
-0.6046800742237278
 10
15.37258398407904
 20
9.595964984811354
 42
-0.2034189279954803
  0
LINE
  5
1A9
330
2
100
AcDbEntity
  8
image
100
AcDbLine
 10
15.19901714297049
 20
7.65064331751291
 30
0.0
 11
15.19901714297049
 21
6.821941725507119
 31
0.0
  0
LINE
  5
1AA
330
2
100
AcDbEntity
  8
image
100
AcDbLine
 10
12.39940782577492
 20
7.674516541280024
 30
0.0
 11
12.39940782577492
 21
6.631169804555012
 31
0.0
  0
LINE
  5
1AB
330
2
100
AcDbEntity
  8
image
100
AcDbLine
 10
12.5250563719176
 20
7.674516541280024
 30
0.0
 11
12.5250563719176
 21
6.631169804555012
 31
0.0
  0
LINE
  5
1AC
330
2
100
AcDbEntity
  8
image
100
AcDbLine
 10
12.36605065404646
 20
6.519806402228654
 30
0.0
 11
12.33658355270357
 21
6.519806402228654
 31
0.0
  0
LINE
  5
1AD
330
2
100
AcDbEntity
  8
image
100
AcDbLine
 10
12.39940782577492
 20
6.394157856085955
 30
0.0
 11
12.33658355270357
 21
6.394157856085955
 31
0.0
  0
ARC
  5
1AE
330
2
100
AcDbEntity
  8
image
100
AcDbCircle
 10
12.39940782577492
 20
6.519806402228654
 30
0.0
 40
0.1256485461426954
100
AcDbArc
 50
270.0
 51
360.0
  0
ARC
  5
1AF
330
2
100
AcDbEntity
  8
image
100
AcDbCircle
 10
12.36605065404646
 20
6.553163573957114
 30
0.0
 40
0.0333571717284602
100
AcDbArc
 50
270.0
 51
0.0
  0
LINE
  5
1B0
330
2
100
AcDbEntity
  8
image
100
AcDbLine
 10
12.53738465081573
 20
6.582630675300007
 30
0.0
 11
12.38707956991257
 21
6.582630675300007
 31
0.0
  0
LINE
  5
1B1
330
2
100
AcDbEntity
  8
image
100
AcDbLine
 10
12.38707956991257
 20
6.631169804555012
 30
0.0
 11
12.38707956991257
 21
6.582630675300007
 31
0.0
  0
LINE
  5
1B2
330
2
100
AcDbEntity
  8
image
100
AcDbLine
 10
12.53738465081573
 20
6.631169804555012
 30
0.0
 11
12.53738465081573
 21
6.582630675300007
 31
0.0
  0
LINE
  5
1B3
330
2
100
AcDbEntity
  8
image
100
AcDbLine
 10
12.53738465081573
 20
6.631169804555012
 30
0.0
 11
12.38707956991257
 21
6.631169804555012
 31
0.0
  0
LINE
  5
1B4
330
2
100
AcDbEntity
  8
image
100
AcDbLine
 10
12.5250563719176
 20
6.582630675300007
 30
0.0
 11
12.5250563719176
 21
6.519806402228654
 31
0.0
  0
LINE
  5
1B5
330
2
100
AcDbEntity
  8
image
100
AcDbLine
 10
12.39940782577492
 20
6.582630675300007
 30
0.0
 11
12.39940782577492
 21
6.553163573957114
 31
0.0
  0
LINE
  5
1B6
330
2
100
AcDbEntity
  8
image
100
AcDbLine
 10
12.33658355270357
 20
6.519806402228654
 30
0.0
 11
12.36605065404646
 21
6.519806402228654
 31
0.0
  0
LINE
  5
1B7
330
2
100
AcDbEntity
  8
image
100
AcDbLine
 10
12.28804442344854
 20
6.38183599845926
 30
0.0
 11
12.28804442344854
 21
6.532128291452167
 31
0.0
  0
LINE
  5
1B8
330
2
100
AcDbEntity
  8
image
100
AcDbLine
 10
12.28804442344854
 20
6.38183599845926
 30
0.0
 11
12.33658355270357
 21
6.38183599845926
 31
0.0
  0
LINE
  5
1B9
330
2
100
AcDbEntity
  8
image
100
AcDbLine
 10
12.28804442344854
 20
6.532128291452167
 30
0.0
 11
12.33658355270357
 21
6.532128291452167
 31
0.0
  0
LINE
  5
1BA
330
2
100
AcDbEntity
  8
image
100
AcDbLine
 10
12.33658355270357
 20
6.38183599845926
 30
0.0
 11
12.33658355270357
 21
6.532128291452167
 31
0.0
  0
LINE
  5
1BB
330
2
100
AcDbEntity
  8
image
100
AcDbLine
 10
14.82207150454241
 20
8.027588955941006
 30
0.0
 11
13.0276505564884
 21
8.027588955941006
 31
0.0
  0
LINE
  5
1BC
330
2
100
AcDbEntity
  8
image
100
AcDbLine
 10
14.82207150454241
 20
8.404534594369087
 30
0.0
 11
13.0276505564884
 21
8.404534594369087
 31
0.0
  0
LINE
  5
1BD
330
2
100
AcDbEntity
  8
image
100
AcDbLine
 10
12.65070491806029
 20
7.713467590584265
 30
0.0
 11
12.27375927963223
 21
7.713467590584265
 31
0.0
  0
LINE
  5
1BE
330
2
100
AcDbEntity
  8
image
100
AcDbLine
 10
12.65070491806029
 20
7.752418639888494
 30
0.0
 11
12.57217457672111
 21
7.752418639888494
 31
0.0
  0
LWPOLYLINE
  5
1BF
330
2
100
AcDbEntity
  8
image
100
AcDbPolyline
 90
        2
 70
     0
 43
0.0
 10
12.65070491806029
 20
7.752418639888494
 10
12.65070491806029
 20
7.713467590584265
  0
LWPOLYLINE
  5
1C0
330
2
100
AcDbEntity
  8
image
100
AcDbPolyline
 90
        2
 70
     0
 43
0.0
 10
12.27375927963223
 20
7.752418639888494
 10
12.27375927963223
 20
7.713467590584265
  0
LINE
  5
1C1
330
2
100
AcDbEntity
  8
image
100
AcDbLine
 10
12.65070491806029
 20
7.674516541280024
 30
0.0
 11
12.57217457672111
 21
7.674516541280024
 31
0.0
  0
LWPOLYLINE
  5
1C2
330
2
100
AcDbEntity
  8
image
100
AcDbPolyline
 90
        2
 70
     0
 43
0.0
 10
12.65070491806029
 20
7.674516541280027
 10
12.65070491806029
 20
7.713467590584265
  0
LWPOLYLINE
  5
1C3
330
2
100
AcDbEntity
  8
image
100
AcDbPolyline
 90
        2
 70
     0
 43
0.0
 10
12.27375927963223
 20
7.674516541280027
 10
12.27375927963223
 20
7.713467590584265
  0
LINE
  5
1C4
330
2
100
AcDbEntity
  8
image
100
AcDbLine
 10
12.6114397473907
 20
7.642790283378991
 30
0.0
 11
12.57217457672111
 21
7.642790283378991
 31
0.0
  0
LINE
  5
1C5
330
2
100
AcDbEntity
  8
image
100
AcDbLine
 10
12.6114397473907
 20
7.784144897789529
 30
0.0
 11
12.57217457672111
 21
7.784144897789529
 31
0.0
  0
LINE
  5
1C6
330
2
100
AcDbEntity
  8
image
100
AcDbLine
 10
12.35228962097141
 20
7.642790283378991
 30
0.0
 11
12.31302445030182
 21
7.642790283378991
 31
0.0
  0
LINE
  5
1C7
330
2
100
AcDbEntity
  8
image
100
AcDbLine
 10
12.35228962097141
 20
7.784144897789529
 30
0.0
 11
12.31302445030182
 21
7.784144897789529
 31
0.0
  0
LINE
  5
1C8
330
2
100
AcDbEntity
  8
image
100
AcDbLine
 10
12.57217457672111
 20
7.674516541280024
 30
0.0
 11
12.31302445030182
 21
7.674516541280024
 31
0.0
  0
LINE
  5
1C9
330
2
100
AcDbEntity
  8
image
100
AcDbLine
 10
12.57217457672111
 20
7.752418639888494
 30
0.0
 11
12.31302445030182
 21
7.752418639888494
 31
0.0
  0
LINE
  5
1CA
330
2
100
AcDbEntity
  8
image
100
AcDbLine
 10
12.31302445030182
 20
7.752418639888494
 30
0.0
 11
12.27375927963223
 21
7.752418639888494
 31
0.0
  0
LINE
  5
1CB
330
2
100
AcDbEntity
  8
image
100
AcDbLine
 10
12.31302445030182
 20
7.674516541280024
 30
0.0
 11
12.27375927963223
 21
7.674516541280024
 31
0.0
  0
LWPOLYLINE
  5
1CC
330
2
100
AcDbEntity
  8
image
100
AcDbPolyline
 90
        2
 70
     0
 43
0.0
 10
12.35228962097141
 20
7.784144897789531
 10
12.35228962097141
 20
7.752418639888494
  0
LWPOLYLINE
  5
1CD
330
2
100
AcDbEntity
  8
image
100
AcDbPolyline
 90
        2
 70
     0
 43
0.0
 10
12.35228962097141
 20
7.674516541280027
 10
12.35228962097141
 20
7.642790283378991
  0
LWPOLYLINE
  5
1CE
330
2
100
AcDbEntity
  8
image
100
AcDbPolyline
 90
        2
 70
     0
 43
0.0
 10
12.31302445030182
 20
7.784144897789531
 10
12.31302445030182
 20
7.752418639888494
  0
LWPOLYLINE
  5
1CF
330
2
100
AcDbEntity
  8
image
100
AcDbPolyline
 90
        2
 70
     0
 43
0.0
 10
12.31302445030182
 20
7.674516541280027
 10
12.31302445030182
 20
7.642790283378991
  0
LWPOLYLINE
  5
1D0
330
2
100
AcDbEntity
  8
image
100
AcDbPolyline
 90
        2
 70
     0
 43
0.0
 10
12.57217457672111
 20
7.784144897789531
 10
12.57217457672111
 20
7.752418639888494
  0
LWPOLYLINE
  5
1D1
330
2
100
AcDbEntity
  8
image
100
AcDbPolyline
 90
        2
 70
     0
 43
0.0
 10
12.57217457672111
 20
7.674516541280027
 10
12.57217457672111
 20
7.642790283378991
  0
LWPOLYLINE
  5
1D2
330
2
100
AcDbEntity
  8
image
100
AcDbPolyline
 90
        2
 70
     0
 43
0.0
 10
12.6114397473907
 20
7.784144897789531
 10
12.6114397473907
 20
7.752418639888494
  0
LWPOLYLINE
  5
1D3
330
2
100
AcDbEntity
  8
image
100
AcDbPolyline
 90
        2
 70
     0
 43
0.0
 10
12.6114397473907
 20
7.674516541280027
 10
12.6114397473907
 20
7.642790283378991
  0
LWPOLYLINE
  5
1D4
330
2
100
AcDbEntity
  8
image
100
AcDbPolyline
 90
        2
 70
     0
 43
0.0
 10
12.44298229223778
 20
7.674516541280027
 10
12.44298229223778
 20
7.642790283378991
  0
LWPOLYLINE
  5
1D5
330
2
100
AcDbEntity
  8
image
100
AcDbPolyline
 90
        2
 70
     0
 43
0.0
 10
12.44298229223778
 20
7.784144897789531
 10
12.44298229223778
 20
7.752418639888494
  0
LWPOLYLINE
  5
1D6
330
2
100
AcDbEntity
  8
image
100
AcDbPolyline
 90
        2
 70
     0
 43
0.0
 10
12.48224746290737
 20
7.674516541280027
 10
12.48224746290737
 20
7.642790283378991
  0
LWPOLYLINE
  5
1D7
330
2
100
AcDbEntity
  8
image
100
AcDbPolyline
 90
        2
 70
     0
 43
0.0
 10
12.48224746290737
 20
7.784144897789531
 10
12.48224746290737
 20
7.752418639888494
  0
LINE
  5
1D8
330
2
100
AcDbEntity
  8
image
100
AcDbLine
 10
12.48224746290737
 20
7.784144897789529
 30
0.0
 11
12.44298229223778
 21
7.784144897789529
 31
0.0
  0
LINE
  5
1D9
330
2
100
AcDbEntity
  8
image
100
AcDbLine
 10
12.48224746290737
 20
7.642790283378991
 30
0.0
 11
12.44298229223778
 21
7.642790283378991
 31
0.0
  0
LINE
  5
1DA
330
2
100
AcDbEntity
  8
image
100
AcDbLine
 10
12.85488380554215
 20
7.964764682869651
 30
0.0
 11
12.85488380554215
 21
7.917646478066146
 31
0.0
  0
LINE
  5
1DB
330
2
100
AcDbEntity
  8
image
100
AcDbLine
 10
13.0747687612919
 20
7.964764682869651
 30
0.0
 11
13.0747687612919
 21
7.917646478066146
 31
0.0
  0
LINE
  5
1DC
330
2
100
AcDbEntity
  8
image
100
AcDbLine
 10
13.0747687612919
 20
7.964764682869651
 30
0.0
 11
13.0276505564884
 21
7.964764682869651
 31
0.0
  0
LINE
  5
1DD
330
2
100
AcDbEntity
  8
image
100
AcDbLine
 10
13.0747687612919
 20
7.917646478066146
 30
0.0
 11
13.0276505564884
 21
7.917646478066146
 31
0.0
  0
LINE
  5
1DE
330
2
100
AcDbEntity
  8
image
100
AcDbLine
 10
12.90200201034571
 20
7.964764682869651
 30
0.0
 11
12.85488380554215
 21
7.964764682869651
 31
0.0
  0
LINE
  5
1DF
330
2
100
AcDbEntity
  8
image
100
AcDbLine
 10
12.90200201034571
 20
7.917646478066146
 30
0.0
 11
12.85488380554215
 21
7.917646478066146
 31
0.0
  0
LINE
  5
1E0
330
2
100
AcDbEntity
  8
image
100
AcDbLine
 10
12.90200201034571
 20
8.51447707224395
 30
0.0
 11
12.8548838055422
 21
8.51447707224395
 31
0.0
  0
LINE
  5
1E1
330
2
100
AcDbEntity
  8
image
100
AcDbLine
 10
12.90200201034571
 20
8.467358867440431
 30
0.0
 11
12.85488380554215
 21
8.467358867440431
 31
0.0
  0
LINE
  5
1E2
330
2
100
AcDbEntity
  8
image
100
AcDbLine
 10
13.0747687612919
 20
8.51447707224395
 30
0.0
 11
13.0276505564884
 21
8.51447707224395
 31
0.0
  0
LINE
  5
1E3
330
2
100
AcDbEntity
  8
image
100
AcDbLine
 10
13.0747687612919
 20
8.467358867440431
 30
0.0
 11
13.0276505564884
 21
8.467358867440431
 31
0.0
  0
LINE
  5
1E4
330
2
100
AcDbEntity
  8
image
100
AcDbLine
 10
13.0747687612919
 20
8.467358867440431
 30
0.0
 11
13.0747687612919
 21
8.51447707224395
 31
0.0
  0
LINE
  5
1E5
330
2
100
AcDbEntity
  8
image
100
AcDbLine
 10
12.8548838055422
 20
8.467358867440431
 30
0.0
 11
12.8548838055422
 21
8.51447707224395
 31
0.0
  0
LINE
  5
1E6
330
2
100
AcDbEntity
  8
image
100
AcDbLine
 10
12.8548838055422
 20
8.295469319598586
 30
0.0
 11
12.85488380554215
 21
8.342587524402096
 31
0.0
  0
LINE
  5
1E7
330
2
100
AcDbEntity
  8
image
100
AcDbLine
 10
13.0747687612919
 20
8.295469319598586
 30
0.0
 11
13.0747687612919
 21
8.342587524402096
 31
0.0
  0
LINE
  5
1E8
330
2
100
AcDbEntity
  8
image
100
AcDbLine
 10
13.0747687612919
 20
8.295469319598586
 30
0.0
 11
13.0276505564884
 21
8.295469319598586
 31
0.0
  0
LINE
  5
1E9
330
2
100
AcDbEntity
  8
image
100
AcDbLine
 10
13.0747687612919
 20
8.342587524402096
 30
0.0
 11
13.0276505564884
 21
8.342587524402096
 31
0.0
  0
LINE
  5
1EA
330
2
100
AcDbEntity
  8
image
100
AcDbLine
 10
12.90200201034571
 20
8.295469319598586
 30
0.0
 11
12.85488380554215
 21
8.295469319598586
 31
0.0
  0
LINE
  5
1EB
330
2
100
AcDbEntity
  8
image
100
AcDbLine
 10
12.90200201034571
 20
8.342587524402096
 30
0.0
 11
12.85488380554215
 21
8.342587524402096
 31
0.0
  0
LINE
  5
1EC
330
2
100
AcDbEntity
  8
image
100
AcDbLine
 10
12.90200201034571
 20
8.113401460612964
 30
0.0
 11
12.85488380554215
 21
8.113401460612964
 31
0.0
  0
LINE
  5
1ED
330
2
100
AcDbEntity
  8
image
100
AcDbLine
 10
12.90200201034571
 20
8.066283255809453
 30
0.0
 11
12.85488380554215
 21
8.066283255809453
 31
0.0
  0
LINE
  5
1EE
330
2
100
AcDbEntity
  8
image
100
AcDbLine
 10
13.0747687612919
 20
8.113401460612964
 30
0.0
 11
13.0276505564884
 21
8.113401460612964
 31
0.0
  0
LINE
  5
1EF
330
2
100
AcDbEntity
  8
image
100
AcDbLine
 10
13.0747687612919
 20
8.066283255809453
 30
0.0
 11
13.0276505564884
 21
8.066283255809453
 31
0.0
  0
LINE
  5
1F0
330
2
100
AcDbEntity
  8
image
100
AcDbLine
 10
13.0747687612919
 20
8.066283255809453
 30
0.0
 11
13.0747687612919
 21
8.113401460612964
 31
0.0
  0
LINE
  5
1F1
330
2
100
AcDbEntity
  8
image
100
AcDbLine
 10
12.8548838055422
 20
8.066283255809453
 30
0.0
 11
12.85488380554215
 21
8.113401460612964
 31
0.0
  0
LINE
  5
1F2
330
2
100
AcDbEntity
  8
image
100
AcDbLine
 10
12.90200201034571
 20
8.561595277047457
 30
0.0
 11
12.96482628341705
 21
8.561595277047457
 31
0.0
  0
LINE
  5
1F3
330
2
100
AcDbEntity
  8
image
100
AcDbLine
 10
12.90200201034571
 20
7.870528273262637
 30
0.0
 11
12.96482628341705
 21
7.870528273262637
 31
0.0
  0
LINE
  5
1F4
330
2
100
AcDbEntity
  8
image
100
AcDbLine
 10
12.90200201034571
 20
8.561595277047457
 30
0.0
 11
12.90200201034571
 21
7.870528273262637
 31
0.0
  0
LINE
  5
1F5
330
2
100
AcDbEntity
  8
image
100
AcDbLine
 10
13.0276505564884
 20
8.561595277047457
 30
0.0
 11
13.0276505564884
 21
7.870528273262637
 31
0.0
  0
LINE
  5
1F6
330
2
100
AcDbEntity
  8
image
100
AcDbLine
 10
12.96482628341705
 20
8.561595277047457
 30
0.0
 11
12.96482628341705
 21
7.870528273262637
 31
0.0
  0
LINE
  5
1F7
330
2
100
AcDbEntity
  8
image
100
AcDbLine
 10
13.0276505564884
 20
7.870528273262637
 30
0.0
 11
12.96482628341705
 21
7.870528273262637
 31
0.0
  0
LINE
  5
1F8
330
2
100
AcDbEntity
  8
image
100
AcDbLine
 10
13.0276505564884
 20
8.561595277047457
 30
0.0
 11
12.96482628341705
 21
8.561595277047457
 31
0.0
  0
LINE
  5
1F9
330
2
100
AcDbEntity
  8
image
100
AcDbLine
 10
12.02246218734681
 20
8.561595277047457
 30
0.0
 11
11.95963791427547
 21
8.561595277047457
 31
0.0
  0
LINE
  5
1FA
330
2
100
AcDbEntity
  8
image
100
AcDbLine
 10
12.02246218734681
 20
7.870528273262637
 30
0.0
 11
11.95963791427547
 21
7.870528273262637
 31
0.0
  0
LINE
  5
1FB
330
2
100
AcDbEntity
  8
image
100
AcDbLine
 10
11.95963791427547
 20
8.561595277047457
 30
0.0
 11
11.95963791427547
 21
7.870528273262637
 31
0.0
  0
LINE
  5
1FC
330
2
100
AcDbEntity
  8
image
100
AcDbLine
 10
12.02246218734681
 20
8.561595277047457
 30
0.0
 11
12.02246218734681
 21
7.870528273262637
 31
0.0
  0
LINE
  5
1FD
330
2
100
AcDbEntity
  8
image
100
AcDbLine
 10
11.89681364120412
 20
8.561595277047457
 30
0.0
 11
11.89681364120412
 21
7.870528273262637
 31
0.0
  0
LINE
  5
1FE
330
2
100
AcDbEntity
  8
image
100
AcDbLine
 10
11.89681364120412
 20
7.870528273262637
 30
0.0
 11
11.95963791427547
 21
7.870528273262637
 31
0.0
  0
LINE
  5
1FF
330
2
100
AcDbEntity
  8
image
100
AcDbLine
 10
11.89681364120412
 20
8.561595277047457
 30
0.0
 11
11.95963791427547
 21
8.561595277047457
 31
0.0
  0
LINE
  5
200
330
2
100
AcDbEntity
  8
image
100
AcDbLine
 10
12.06958039215032
 20
8.066283255809453
 30
0.0
 11
12.06958039215032
 21
8.113401460612964
 31
0.0
  0
LINE
  5
201
330
2
100
AcDbEntity
  8
image
100
AcDbLine
 10
12.06958039215032
 20
8.066283255809453
 30
0.0
 11
12.02246218734681
 21
8.066283255809453
 31
0.0
  0
LINE
  5
202
330
2
100
AcDbEntity
  8
image
100
AcDbLine
 10
12.06958039215032
 20
8.113401460612964
 30
0.0
 11
12.02246218734681
 21
8.113401460612964
 31
0.0
  0
LINE
  5
203
330
2
100
AcDbEntity
  8
image
100
AcDbLine
 10
12.06958039215032
 20
8.342587524402096
 30
0.0
 11
12.02246218734681
 21
8.342587524402096
 31
0.0
  0
LINE
  5
204
330
2
100
AcDbEntity
  8
image
100
AcDbLine
 10
12.06958039215032
 20
8.295469319598586
 30
0.0
 11
12.02246218734681
 21
8.295469319598586
 31
0.0
  0
LINE
  5
205
330
2
100
AcDbEntity
  8
image
100
AcDbLine
 10
12.06958039215032
 20
8.295469319598586
 30
0.0
 11
12.06958039215032
 21
8.342587524402096
 31
0.0
  0
LINE
  5
206
330
2
100
AcDbEntity
  8
image
100
AcDbLine
 10
12.06958039215032
 20
8.467358867440431
 30
0.0
 11
12.06958039215032
 21
8.51447707224395
 31
0.0
  0
LINE
  5
207
330
2
100
AcDbEntity
  8
image
100
AcDbLine
 10
12.06958039215032
 20
8.467358867440431
 30
0.0
 11
12.02246218734681
 21
8.467358867440431
 31
0.0
  0
LINE
  5
208
330
2
100
AcDbEntity
  8
image
100
AcDbLine
 10
12.06958039215032
 20
8.51447707224395
 30
0.0
 11
12.02246218734681
 21
8.51447707224395
 31
0.0
  0
LINE
  5
209
330
2
100
AcDbEntity
  8
image
100
AcDbLine
 10
12.06958039215032
 20
7.917646478066146
 30
0.0
 11
12.02246218734681
 21
7.917646478066146
 31
0.0
  0
LINE
  5
20A
330
2
100
AcDbEntity
  8
image
100
AcDbLine
 10
12.06958039215032
 20
7.964764682869651
 30
0.0
 11
12.02246218734681
 21
7.964764682869651
 31
0.0
  0
LINE
  5
20B
330
2
100
AcDbEntity
  8
image
100
AcDbLine
 10
12.06958039215032
 20
7.964764682869651
 30
0.0
 11
12.06958039215032
 21
7.917646478066146
 31
0.0
  0
LINE
  5
20C
330
2
100
AcDbEntity
  8
image
100
AcDbLine
 10
12.39940782577492
 20
7.95263245243915
 30
0.0
 11
12.39940782577492
 21
7.752418639888494
 31
0.0
  0
LINE
  5
20D
330
2
100
AcDbEntity
  8
image
100
AcDbLine
 10
12.5250563719176
 20
7.95263245243915
 30
0.0
 11
12.5250563719176
 21
7.752418639888494
 31
0.0
  0
LWPOLYLINE
  5
20E
330
2
100
AcDbEntity
  8
image
100
AcDbPolyline
 90
        2
 70
     0
 43
0.0
 10
12.96482628341705
 20
8.561595277047461
 10
12.96482628341705
 20
7.870528273262637
  0
LWPOLYLINE
  5
20F
330
2
100
AcDbEntity
  8
image
100
AcDbPolyline
 90
        2
 70
     0
 43
0.0
 10
11.95963791427547
 20
8.561595277047461
 10
11.95963791427547
 20
7.870528273262637
  0
LINE
  5
210
330
2
100
AcDbEntity
  8
image
100
AcDbLine
 10
12.32445132227305
 20
8.027588955941006
 30
0.0
 11
12.02246218734681
 21
8.027588955941006
 31
0.0
  0
ARC
  5
211
330
2
100
AcDbEntity
  8
image
100
AcDbCircle
 10
12.32445132227305
 20
7.952632452439146
 30
0.0
 40
0.074956503501859
100
AcDbArc
 50
0.0
 51
89.99999999999998
  0
ARC
  5
212
330
2
100
AcDbEntity
  8
image
100
AcDbCircle
 10
12.60001287541947
 20
7.952632452439146
 30
0.0
 40
0.074956503501859
100
AcDbArc
 50
89.99999999999998
 51
180.0
  0
LINE
  5
213
330
2
100
AcDbEntity
  8
image
100
AcDbLine
 10
12.90200201034571
 20
8.027588955941006
 30
0.0
 11
12.60001287541947
 21
8.027588955941006
 31
0.0
  0
LINE
  5
214
330
2
100
AcDbEntity
  8
image
100
AcDbLine
 10
12.90200201034571
 20
8.404534594369087
 30
0.0
 11
12.02246218734681
 21
8.404534594369087
 31
0.0
  0
LINE
  5
215
330
2
100
AcDbEntity
  8
image
100
AcDbLine
 10
15.12406063946865
 20
8.027588955941006
 30
0.0
 11
14.94772005068512
 21
8.027588955941006
 31
0.0
  0
LINE
  5
216
330
2
100
AcDbEntity
  8
image
100
AcDbLine
 10
15.12406063946865
 20
8.404534594369087
 30
0.0
 11
14.94772005068512
 21
8.404534594369087
 31
0.0
  0
LINE
  5
217
330
2
100
AcDbEntity
  8
image
100
AcDbLine
 10
14.94772005068512
 20
8.561595277047457
 30
0.0
 11
14.88489577761375
 21
8.561595277047457
 31
0.0
  0
LINE
  5
218
330
2
100
AcDbEntity
  8
image
100
AcDbLine
 10
14.94772005068512
 20
7.870528273262637
 30
0.0
 11
14.88489577761375
 21
7.870528273262637
 31
0.0
  0
LINE
  5
219
330
2
100
AcDbEntity
  8
image
100
AcDbLine
 10
14.88489577761375
 20
8.561595277047457
 30
0.0
 11
14.88489577761375
 21
7.870528273262637
 31
0.0
  0
LINE
  5
21A
330
2
100
AcDbEntity
  8
image
100
AcDbLine
 10
14.94772005068512
 20
8.561595277047457
 30
0.0
 11
14.94772005068512
 21
7.870528273262637
 31
0.0
  0
LINE
  5
21B
330
2
100
AcDbEntity
  8
image
100
AcDbLine
 10
15.04195646029213
 20
7.776291863655611
 30
0.0
 11
15.04195646029213
 21
7.713467590584265
 31
0.0
  0
LINE
  5
21C
330
2
100
AcDbEntity
  8
image
100
AcDbLine
 10
15.04195646029213
 20
8.655831686654485
 30
0.0
 11
15.04195646029213
 21
8.718655959725827
 31
0.0
  0
LINE
  5
21D
330
2
100
AcDbEntity
  8
image
100
AcDbLine
 10
15.19901714297049
 20
7.95263245243915
 30
0.0
 11
15.19901714297049
 21
7.776291863655611
 31
0.0
  0
ARC
  5
21E
330
2
100
AcDbEntity
  8
image
100
AcDbCircle
 10
15.12406063946865
 20
7.952632452439146
 30
0.0
 40
0.074956503501859
100
AcDbArc
 50
0.0
 51
89.99999999999998
  0
ARC
  5
21F
330
2
100
AcDbEntity
  8
image
100
AcDbCircle
 10
15.12406063946865
 20
8.479491097870946
 30
0.0
 40
0.074956503501859
100
AcDbArc
 50
270.0
 51
0.0
  0
LINE
  5
220
330
2
100
AcDbEntity
  8
image
100
AcDbLine
 10
15.19901714297049
 20
8.655831686654485
 30
0.0
 11
15.19901714297049
 21
8.479491097870946
 31
0.0
  0
LINE
  5
221
330
2
100
AcDbEntity
  8
image
100
AcDbLine
 10
15.04195646029213
 20
8.781480232797171
 30
0.0
 11
15.04195646029213
 21
8.718655959725827
 31
0.0
  0
LINE
  5
222
330
2
100
AcDbEntity
  8
image
100
AcDbLine
 10
15.04195646029213
 20
7.65064331751291
 30
0.0
 11
15.04195646029213
 21
7.713467590584265
 31
0.0
  0
LINE
  5
223
330
2
100
AcDbEntity
  8
image
100
AcDbLine
 10
14.82207150454241
 20
8.561595277047457
 30
0.0
 11
14.82207150454241
 21
7.870528273262637
 31
0.0
  0
LINE
  5
224
330
2
100
AcDbEntity
  8
image
100
AcDbLine
 10
14.82207150454241
 20
7.870528273262637
 30
0.0
 11
14.88489577761377
 21
7.870528273262637
 31
0.0
  0
LINE
  5
225
330
2
100
AcDbEntity
  8
image
100
AcDbLine
 10
14.82207150454241
 20
8.561595277047457
 30
0.0
 11
14.88489577761377
 21
8.561595277047457
 31
0.0
  0
LINE
  5
226
330
2
100
AcDbEntity
  8
image
100
AcDbLine
 10
15.08907466509564
 20
8.828598437600687
 30
0.0
 11
15.08907466509564
 21
8.781480232797171
 31
0.0
  0
LINE
  5
227
330
2
100
AcDbEntity
  8
image
100
AcDbLine
 10
15.13619286989914
 20
8.828598437600687
 30
0.0
 11
15.13619286989914
 21
8.781480232797171
 31
0.0
  0
LINE
  5
228
330
2
100
AcDbEntity
  8
image
100
AcDbLine
 10
15.13619286989914
 20
7.603525112709402
 30
0.0
 11
15.08907466509564
 21
7.603525112709402
 31
0.0
  0
LINE
  5
229
330
2
100
AcDbEntity
  8
image
100
AcDbLine
 10
15.13619286989914
 20
7.82341006845912
 30
0.0
 11
15.08907466509564
 21
7.82341006845912
 31
0.0
  0
LINE
  5
22A
330
2
100
AcDbEntity
  8
image
100
AcDbLine
 10
15.13619286989914
 20
8.608713481850964
 30
0.0
 11
15.08907466509564
 21
8.608713481850964
 31
0.0
  0
LINE
  5
22B
330
2
100
AcDbEntity
  8
image
100
AcDbLine
 10
15.13619286989914
 20
8.828598437600687
 30
0.0
 11
15.08907466509564
 21
8.828598437600687
 31
0.0
  0
LINE
  5
22C
330
2
100
AcDbEntity
  8
image
100
AcDbLine
 10
15.13619286989914
 20
7.82341006845912
 30
0.0
 11
15.13619286989914
 21
7.776291863655611
 31
0.0
  0
LINE
  5
22D
330
2
100
AcDbEntity
  8
image
100
AcDbLine
 10
15.08907466509564
 20
7.82341006845912
 30
0.0
 11
15.08907466509564
 21
7.776291863655611
 31
0.0
  0
LINE
  5
22E
330
2
100
AcDbEntity
  8
image
100
AcDbLine
 10
15.13619286989914
 20
8.655831686654485
 30
0.0
 11
15.13619286989914
 21
8.608713481850964
 31
0.0
  0
LINE
  5
22F
330
2
100
AcDbEntity
  8
image
100
AcDbLine
 10
15.08907466509564
 20
8.655831686654485
 30
0.0
 11
15.08907466509564
 21
8.608713481850964
 31
0.0
  0
LINE
  5
230
330
2
100
AcDbEntity
  8
image
100
AcDbLine
 10
15.13619286989914
 20
7.65064331751291
 30
0.0
 11
15.13619286989914
 21
7.603525112709402
 31
0.0
  0
LINE
  5
231
330
2
100
AcDbEntity
  8
image
100
AcDbLine
 10
15.08907466509564
 20
7.65064331751291
 30
0.0
 11
15.08907466509564
 21
7.603525112709402
 31
0.0
  0
LINE
  5
232
330
2
100
AcDbEntity
  8
image
100
AcDbLine
 10
15.51401571143159
 20
8.828598437600687
 30
0.0
 11
15.51401571143159
 21
8.781480232797171
 31
0.0
  0
LINE
  5
233
330
2
100
AcDbEntity
  8
image
100
AcDbLine
 10
15.46689750662809
 20
8.828598437600687
 30
0.0
 11
15.46689750662809
 21
8.781480232797171
 31
0.0
  0
LINE
  5
234
330
2
100
AcDbEntity
  8
image
100
AcDbLine
 10
15.46689750662809
 20
8.608713481850964
 30
0.0
 11
15.51401571143159
 21
8.608713481850964
 31
0.0
  0
LINE
  5
235
330
2
100
AcDbEntity
  8
image
100
AcDbLine
 10
15.46689750662809
 20
8.828598437600687
 30
0.0
 11
15.51401571143159
 21
8.828598437600687
 31
0.0
  0
LINE
  5
236
330
2
100
AcDbEntity
  8
image
100
AcDbLine
 10
15.46689750662809
 20
8.655831686654485
 30
0.0
 11
15.46689750662809
 21
8.608713481850964
 31
0.0
  0
LINE
  5
237
330
2
100
AcDbEntity
  8
image
100
AcDbLine
 10
15.51401571143159
 20
8.655831686654485
 30
0.0
 11
15.51401571143159
 21
8.608713481850964
 31
0.0
  0
LINE
  5
238
330
2
100
AcDbEntity
  8
image
100
AcDbLine
 10
15.28923705777025
 20
8.655831686654485
 30
0.0
 11
15.28923705777025
 21
8.608713481850964
 31
0.0
  0
LINE
  5
239
330
2
100
AcDbEntity
  8
image
100
AcDbLine
 10
15.24211885296674
 20
8.655831686654485
 30
0.0
 11
15.24211885296674
 21
8.608713481850964
 31
0.0
  0
LINE
  5
23A
330
2
100
AcDbEntity
  8
image
100
AcDbLine
 10
15.24211885296674
 20
8.828598437600687
 30
0.0
 11
15.28923705777025
 21
8.828598437600687
 31
0.0
  0
LINE
  5
23B
330
2
100
AcDbEntity
  8
image
100
AcDbLine
 10
15.24211885296674
 20
8.608713481850964
 30
0.0
 11
15.28923705777025
 21
8.608713481850964
 31
0.0
  0
LINE
  5
23C
330
2
100
AcDbEntity
  8
image
100
AcDbLine
 10
15.24211885296674
 20
8.828598437600687
 30
0.0
 11
15.24211885296674
 21
8.781480232797171
 31
0.0
  0
LINE
  5
23D
330
2
100
AcDbEntity
  8
image
100
AcDbLine
 10
15.28923705777025
 20
8.828598437600687
 30
0.0
 11
15.28923705777025
 21
8.781480232797171
 31
0.0
  0
LINE
  5
23E
330
2
100
AcDbEntity
  8
image
100
AcDbLine
 10
15.46689750662809
 20
7.603525112709402
 30
0.0
 11
15.51401571143159
 21
7.603525112709402
 31
0.0
  0
LINE
  5
23F
330
2
100
AcDbEntity
  8
image
100
AcDbLine
 10
15.46689750662809
 20
7.82341006845912
 30
0.0
 11
15.51401571143159
 21
7.82341006845912
 31
0.0
  0
LINE
  5
240
330
2
100
AcDbEntity
  8
image
100
AcDbLine
 10
15.46689750662809
 20
7.82341006845912
 30
0.0
 11
15.46689750662809
 21
7.776291863655611
 31
0.0
  0
LINE
  5
241
330
2
100
AcDbEntity
  8
image
100
AcDbLine
 10
15.51401571143159
 20
7.82341006845912
 30
0.0
 11
15.51401571143159
 21
7.776291863655611
 31
0.0
  0
LINE
  5
242
330
2
100
AcDbEntity
  8
image
100
AcDbLine
 10
15.46689750662809
 20
7.65064331751291
 30
0.0
 11
15.46689750662809
 21
7.603525112709402
 31
0.0
  0
LINE
  5
243
330
2
100
AcDbEntity
  8
image
100
AcDbLine
 10
15.51401571143159
 20
7.65064331751291
 30
0.0
 11
15.51401571143159
 21
7.603525112709402
 31
0.0
  0
LINE
  5
244
330
2
100
AcDbEntity
  8
image
100
AcDbLine
 10
15.28482964764247
 20
7.65064331751291
 30
0.0
 11
15.28482964764247
 21
7.603525112709402
 31
0.0
  0
LINE
  5
245
330
2
100
AcDbEntity
  8
image
100
AcDbLine
 10
15.23771144283893
 20
7.65064331751291
 30
0.0
 11
15.23771144283893
 21
7.603525112709402
 31
0.0
  0
LINE
  5
246
330
2
100
AcDbEntity
  8
image
100
AcDbLine
 10
15.28482964764247
 20
7.82341006845912
 30
0.0
 11
15.28482964764247
 21
7.776291863655611
 31
0.0
  0
LINE
  5
247
330
2
100
AcDbEntity
  8
image
100
AcDbLine
 10
15.23771144283893
 20
7.82341006845912
 30
0.0
 11
15.23771144283893
 21
7.776291863655611
 31
0.0
  0
LINE
  5
248
330
2
100
AcDbEntity
  8
image
100
AcDbLine
 10
15.23771144283893
 20
7.82341006845912
 30
0.0
 11
15.28482964764247
 21
7.82341006845912
 31
0.0
  0
LINE
  5
249
330
2
100
AcDbEntity
  8
image
100
AcDbLine
 10
15.23771144283893
 20
7.603525112709402
 30
0.0
 11
15.28482964764247
 21
7.603525112709402
 31
0.0
  0
LINE
  5
24A
330
2
100
AcDbEntity
  8
image
100
AcDbLine
 10
14.7749532997389
 20
8.066283255809453
 30
0.0
 11
14.7749532997389
 21
8.113401460612964
 31
0.0
  0
LINE
  5
24B
330
2
100
AcDbEntity
  8
image
100
AcDbLine
 10
14.99483825548862
 20
8.066283255809453
 30
0.0
 11
14.99483825548862
 21
8.113401460612964
 31
0.0
  0
LINE
  5
24C
330
2
100
AcDbEntity
  8
image
100
AcDbLine
 10
14.99483825548862
 20
8.066283255809453
 30
0.0
 11
14.94772005068512
 21
8.066283255809453
 31
0.0
  0
LINE
  5
24D
330
2
100
AcDbEntity
  8
image
100
AcDbLine
 10
14.99483825548862
 20
8.113401460612964
 30
0.0
 11
14.94772005068512
 21
8.113401460612964
 31
0.0
  0
LINE
  5
24E
330
2
100
AcDbEntity
  8
image
100
AcDbLine
 10
14.82207150454241
 20
8.066283255809453
 30
0.0
 11
14.7749532997389
 21
8.066283255809453
 31
0.0
  0
LINE
  5
24F
330
2
100
AcDbEntity
  8
image
100
AcDbLine
 10
14.82207150454241
 20
8.113401460612964
 30
0.0
 11
14.7749532997389
 21
8.113401460612964
 31
0.0
  0
LINE
  5
250
330
2
100
AcDbEntity
  8
image
100
AcDbLine
 10
14.82207150454241
 20
8.342587524402096
 30
0.0
 11
14.7749532997389
 21
8.342587524402096
 31
0.0
  0
LINE
  5
251
330
2
100
AcDbEntity
  8
image
100
AcDbLine
 10
14.82207150454241
 20
8.295469319598586
 30
0.0
 11
14.7749532997389
 21
8.295469319598586
 31
0.0
  0
LINE
  5
252
330
2
100
AcDbEntity
  8
image
100
AcDbLine
 10
14.99483825548862
 20
8.342587524402096
 30
0.0
 11
14.94772005068512
 21
8.342587524402096
 31
0.0
  0
LINE
  5
253
330
2
100
AcDbEntity
  8
image
100
AcDbLine
 10
14.99483825548862
 20
8.295469319598586
 30
0.0
 11
14.94772005068512
 21
8.295469319598586
 31
0.0
  0
LINE
  5
254
330
2
100
AcDbEntity
  8
image
100
AcDbLine
 10
14.99483825548862
 20
8.295469319598586
 30
0.0
 11
14.99483825548862
 21
8.342587524402096
 31
0.0
  0
LINE
  5
255
330
2
100
AcDbEntity
  8
image
100
AcDbLine
 10
14.7749532997389
 20
8.295469319598586
 30
0.0
 11
14.7749532997389
 21
8.342587524402096
 31
0.0
  0
LINE
  5
256
330
2
100
AcDbEntity
  8
image
100
AcDbLine
 10
14.7749532997389
 20
8.467358867440431
 30
0.0
 11
14.7749532997389
 21
8.51447707224395
 31
0.0
  0
LINE
  5
257
330
2
100
AcDbEntity
  8
image
100
AcDbLine
 10
14.99483825548862
 20
8.467358867440431
 30
0.0
 11
14.99483825548862
 21
8.51447707224395
 31
0.0
  0
LINE
  5
258
330
2
100
AcDbEntity
  8
image
100
AcDbLine
 10
14.99483825548862
 20
8.467358867440431
 30
0.0
 11
14.94772005068512
 21
8.467358867440431
 31
0.0
  0
LINE
  5
259
330
2
100
AcDbEntity
  8
image
100
AcDbLine
 10
14.99483825548862
 20
8.51447707224395
 30
0.0
 11
14.94772005068512
 21
8.51447707224395
 31
0.0
  0
LINE
  5
25A
330
2
100
AcDbEntity
  8
image
100
AcDbLine
 10
14.82207150454241
 20
8.467358867440431
 30
0.0
 11
14.7749532997389
 21
8.467358867440431
 31
0.0
  0
LINE
  5
25B
330
2
100
AcDbEntity
  8
image
100
AcDbLine
 10
14.82207150454241
 20
8.51447707224395
 30
0.0
 11
14.7749532997389
 21
8.51447707224395
 31
0.0
  0
LINE
  5
25C
330
2
100
AcDbEntity
  8
image
100
AcDbLine
 10
14.82207150454241
 20
7.917646478066146
 30
0.0
 11
14.7749532997389
 21
7.917646478066146
 31
0.0
  0
LINE
  5
25D
330
2
100
AcDbEntity
  8
image
100
AcDbLine
 10
14.82207150454241
 20
7.964764682869651
 30
0.0
 11
14.7749532997389
 21
7.964764682869651
 31
0.0
  0
LINE
  5
25E
330
2
100
AcDbEntity
  8
image
100
AcDbLine
 10
14.99483825548862
 20
7.917646478066146
 30
0.0
 11
14.94772005068512
 21
7.917646478066146
 31
0.0
  0
LINE
  5
25F
330
2
100
AcDbEntity
  8
image
100
AcDbLine
 10
14.99483825548862
 20
7.964764682869651
 30
0.0
 11
14.94772005068512
 21
7.964764682869651
 31
0.0
  0
LINE
  5
260
330
2
100
AcDbEntity
  8
image
100
AcDbLine
 10
14.99483825548862
 20
7.964764682869651
 30
0.0
 11
14.99483825548862
 21
7.917646478066146
 31
0.0
  0
LINE
  5
261
330
2
100
AcDbEntity
  8
image
100
AcDbLine
 10
14.7749532997389
 20
7.964764682869651
 30
0.0
 11
14.7749532997389
 21
7.917646478066146
 31
0.0
  0
LINE
  5
262
330
2
100
AcDbEntity
  8
image
100
AcDbLine
 10
15.19901714297049
 20
9.610181824802975
 30
0.0
 11
15.19901714297049
 21
8.781480232797171
 31
0.0
  0
LINE
  5
263
330
2
100
AcDbEntity
  8
image
100
AcDbLine
 10
15.57596278139859
 20
7.65064331751291
 30
0.0
 11
15.57596278139859
 21
6.821941725507118
 31
0.0
  0
LINE
  5
264
330
2
100
AcDbEntity
  8
image
100
AcDbLine
 10
15.73302346407695
 20
7.776291863655611
 30
0.0
 11
15.73302346407695
 21
7.713467590584265
 31
0.0
  0
LINE
  5
265
330
2
100
AcDbEntity
  8
image
100
AcDbLine
 10
15.73302346407695
 20
8.655831686654485
 30
0.0
 11
15.73302346407695
 21
8.718655959725827
 31
0.0
  0
LINE
  5
266
330
2
100
AcDbEntity
  8
image
100
AcDbLine
 10
15.57596278139859
 20
8.655831686654485
 30
0.0
 11
15.57596278139859
 21
7.776291863655611
 31
0.0
  0
LINE
  5
267
330
2
100
AcDbEntity
  8
image
100
AcDbLine
 10
15.73302346407695
 20
8.781480232797171
 30
0.0
 11
15.73302346407695
 21
8.718655959725827
 31
0.0
  0
LINE
  5
268
330
2
100
AcDbEntity
  8
image
100
AcDbLine
 10
15.73302346407695
 20
7.65064331751291
 30
0.0
 11
15.73302346407695
 21
7.713467590584265
 31
0.0
  0
LINE
  5
269
330
2
100
AcDbEntity
  8
image
100
AcDbLine
 10
15.68590525927345
 20
8.655831686654485
 30
0.0
 11
15.68590525927345
 21
8.608713481850964
 31
0.0
  0
LINE
  5
26A
330
2
100
AcDbEntity
  8
image
100
AcDbLine
 10
15.63878705446994
 20
8.655831686654485
 30
0.0
 11
15.63878705446994
 21
8.608713481850964
 31
0.0
  0
LINE
  5
26B
330
2
100
AcDbEntity
  8
image
100
AcDbLine
 10
15.63878705446994
 20
8.828598437600687
 30
0.0
 11
15.68590525927345
 21
8.828598437600687
 31
0.0
  0
LINE
  5
26C
330
2
100
AcDbEntity
  8
image
100
AcDbLine
 10
15.63878705446994
 20
8.608713481850964
 30
0.0
 11
15.68590525927345
 21
8.608713481850964
 31
0.0
  0
LINE
  5
26D
330
2
100
AcDbEntity
  8
image
100
AcDbLine
 10
15.63878705446994
 20
8.828598437600687
 30
0.0
 11
15.63878705446994
 21
8.781480232797171
 31
0.0
  0
LINE
  5
26E
330
2
100
AcDbEntity
  8
image
100
AcDbLine
 10
15.68590525927345
 20
8.828598437600687
 30
0.0
 11
15.68590525927345
 21
8.781480232797171
 31
0.0
  0
LINE
  5
26F
330
2
100
AcDbEntity
  8
image
100
AcDbLine
 10
15.68590525927345
 20
7.65064331751291
 30
0.0
 11
15.68590525927345
 21
7.603525112709402
 31
0.0
  0
LINE
  5
270
330
2
100
AcDbEntity
  8
image
100
AcDbLine
 10
15.63878705446994
 20
7.65064331751291
 30
0.0
 11
15.63878705446994
 21
7.603525112709402
 31
0.0
  0
LINE
  5
271
330
2
100
AcDbEntity
  8
image
100
AcDbLine
 10
15.68590525927345
 20
7.82341006845912
 30
0.0
 11
15.68590525927345
 21
7.776291863655611
 31
0.0
  0
LINE
  5
272
330
2
100
AcDbEntity
  8
image
100
AcDbLine
 10
15.63878705446994
 20
7.82341006845912
 30
0.0
 11
15.63878705446994
 21
7.776291863655611
 31
0.0
  0
LINE
  5
273
330
2
100
AcDbEntity
  8
image
100
AcDbLine
 10
15.63878705446994
 20
7.82341006845912
 30
0.0
 11
15.68590525927345
 21
7.82341006845912
 31
0.0
  0
LINE
  5
274
330
2
100
AcDbEntity
  8
image
100
AcDbLine
 10
15.63878705446994
 20
7.603525112709402
 30
0.0
 11
15.68590525927345
 21
7.603525112709402
 31
0.0
  0
LINE
  5
275
330
2
100
AcDbEntity
  8
image
100
AcDbLine
 10
15.57596278139859
 20
9.610181824802975
 30
0.0
 11
15.57596278139859
 21
8.781480232797171
 31
0.0
  0
DIMENSION
  5
276
330
2
100
AcDbEntity
  8
image
100
AcDbDimension
  2
*D4
 10
9.336513383190093
 20
9.06057303786601
 30
0.0
 11
6.777256223516339
 21
9.06057303786601
 31
0.0
 70
   160
  1
10X PIPE\PDIAMETER
 71
     5
 42
5.181338592418851
  3
STANDARD
100
AcDbAlignedDimension
 13
4.155174790771241
 23
8.498771003976116
 33
0.0
 14
9.336513383190093
 24
8.216061775155047
 34
0.0
100
AcDbRotatedDimension
1001
ACAD
1000
DSTYLE
1002
{
1070
   289
1070
     3
1070
    41
1040
0.125
1070
    73
1070
     0
1070
    77
1070
     0
1070
   140
1040
0.1
1070
   174
1070
     1
1070
   279
1070
     2
1070
   340
1005
14
1002
}
  0
DIMENSION
  5
287
330
2
100
AcDbEntity
  8
image
100
AcDbDimension
  2
*D5
 10
11.33139518356199
 20
9.06057303786601
 30
0.0
 11
10.33395428337604
 21
9.06057303786601
 31
0.0
 70
   160
  1
5X PIPE\PDIAMETER
 71
     5
 42
1.994881800371897
  3
STANDARD
100
AcDbAlignedDimension
 13
9.336513383190093
 23
8.216061775155047
 33
0.0
 14
11.33139518356199
 24
8.498771003976113
 34
0.0
100
AcDbRotatedDimension
1001
ACAD
1000
DSTYLE
1002
{
1070
    41
1040
0.125
1070
    73
1070
     0
1070
   140
1040
0.1
1070
   174
1070
     1
1070
   279
1070
     2
1070
   340
1005
14
1002
}
  0
MTEXT
  5
295
330
2
100
AcDbEntity
  8
text_bubbles
100
AcDbMText
 10
9.704427437408936
 20
4.556224606638441
 30
0.0
 40
0.125
 41
5.521036425613771
 71
     1
 72
     5
  3
TEE\P\PREDUCER\P\PPRESSURE REDUCING NORMALLY CLOSED MASTER VALVE (SIZE AS REQUIRED). WIRE TO MASTER VALVE 1 CIRCUIT ON NEAREST SATELLITE\P\PRAIN BIRD MODEL FS350B FLOW SENSOR MOUNTED IN 2-INCH NPT THREADOLET. WIRE TO RAIN BIRD PT3002 OR PT322 PULSE T
  1
RANSMITTER\P\P\P\P 
  7
ROMANS
 73
     1
 44
1.0
1001
ACAD
1000
MTEXTBEGIN
1070
    73
1070
     1
1070
    44
1040
1.0
1070
    74
1070
     0
1000
MTEXTEND
  0
MTEXT
  5
296
330
2
100
AcDbEntity
  8
text_bubbles
100
AcDbMText
 10
9.704427437408936
 20
1.753374758671186
 30
0.0
 40
0.125
 41
5.782499999999999
 71
     1
 72
     5
  1
NOTE:\PSTATION 24 (STATION 12 ON ESP-12-SAT) ON NEAREST SATELLITE SHOULD BE LEFT OPEN FOR MAXICOM MASTER VALVE OPERATIONS.\P\P\P\P 
  7
ROMANS
 73
     1
 44
1.0
1001
ACAD
1000
MTEXTBEGIN
1070
    73
1070
     1
1070
    44
1040
1.0
1070
    74
1070
     0
1000
MTEXTEND
  0
LEADER
  5
297
330
2
100
AcDbEntity
  8
text_bubbles
100
AcDbLeader
  3
STANDARD
 76
     2
 10
6.35949912802454
 20
6.519806402228658
 30
0.0
 10
6.55419533964876
 20
6.895891052634845
 30
0.0
  0
LEADER
  5
298
330
2
100
AcDbEntity
  8
text_bubbles
100
AcDbLeader
  3
STANDARD
 76
     2
 10
9.425919988447342
 20
6.548345481951132
 30
0.0
 10
9.569093581390728
 20
6.934263929722499
 30
0.0
  0
LEADER
  5
299
330
2
100
AcDbEntity
  8
text_bubbles
100
AcDbLeader
  3
STANDARD
 76
     2
 10
3.816849821915584
 20
6.562919797835064
 30
0.0
 10
4.011546033539805
 20
6.939004448241248
 30
0.0
  0
LEADER
  5
29A
330
2
100
AcDbEntity
  8
text_bubbles
100
AcDbLeader
  3
STANDARD
 76
     2
 10
9.291826555385704
 20
8.158057819719532
 30
0.0
 10
9.053762133816654
 20
7.76981117498059
 30
0.0
  0
LEADER
  5
29B
330
2
100
AcDbEntity
  8
text_bubbles
100
AcDbLeader
  3
STANDARD
 76
     2
 10
3.70701187678443
 20
8.474960212828227
 30
0.0
 10
3.461608704590389
 20
8.819630633129456
 30
0.0
  0
LEADER
  5
29C
330
2
100
AcDbEntity
  8
text_bubbles
100
AcDbLeader
  3
STANDARD
 76
     2
 10
11.6489318622428
 20
8.063000638649761
 30
0.0
 10
11.53378553036597
 20
7.719240262493957
 30
0.0
  0
LEADER
  5
29D
330
2
100
AcDbEntity
  8
text_bubbles
100
AcDbLeader
  3
STANDARD
 76
     2
 10
12.43836637287202
 20
8.404534594369087
 30
0.0
 10
12.63254156313728
 20
8.788914490032366
 30
0.0
  0
LEADER
  5
29E
330
2
100
AcDbEntity
  8
text_bubbles
100
AcDbLeader
  3
STANDARD
 76
     2
 10
2.302306569120978
 20
6.436283323360287
 30
0.0
 10
1.942075877549914
 20
6.036375628112828
 30
0.0
  0
ENDSEC
  0
SECTION
  2
OBJECTS
  0
DICTIONARY
  5
7
330
0
100
AcDbDictionary
281
     1
  3
ACAD_COLOR
350
2D1
  3
ACAD_GROUP
350
2BE
  3
ACAD_LAYOUT
350
2A1
  3
ACAD_MATERIAL
350
9
  3
ACAD_MLEADERSTYLE
350
309
  3
ACAD_MLINESTYLE
350
2BF
  3
ACAD_PLOTSETTINGS
350
2C0
  3
ACAD_PLOTSTYLENAME
350
6
  3
ACAD_SCALELIST
350
2D2
  3
ACAD_TABLESTYLE
350
2D3
  3
ACAD_VISUALSTYLE
350
2A6
  3
ACDB_RECOMPOSE_DATA
350
2E1
  3
ACDBVARIABLEDICTIONARY
350
2D4
  3
DWGPROPS
350
32F
1001
BBSI_PltSel
1000
1
1000

1001
BBSI_Plots
1000

1000
User124
1000
279.399993896484
1000
431.800018310547
1000
1
1000
1
1000
1
1000
1.524
1000
2.032
1000
1
1000
0
1000
1
1000
1
1000
0
1000
1
1000
LaserJet5Shaded.ctb
1000
0
1000
0
1000
1
1000
1
1000
0
1000
0
1000
0
1000
0
1000
16.49
1000
10.44
1000
PS1
1000

1001
BBSI_Bookmarks
1000
1
1000
1
1000
0
1000
1
1000
0
1000
0
1000
0
1000
0
1000
0
1000
0
1000
0
1001
BBSI_BookmarksEx
1000
0
1000
0
1000

1000
0
  0
DICTIONARY
  5
2AE
330
2AD
100
AcDbDictionary
280
     1
281
     1
  3
ACAD_LAYERFILTERS
360
311
  3
ACAD_LAYERSTATES
360
2B0
  0
DICTIONARY
  5
2D1
102
{ACAD_REACTORS
330
7
102
}
330
7
100
AcDbDictionary
281
     1
  0
DICTIONARY
  5
2BE
102
{ACAD_REACTORS
330
7
102
}
330
7
100
AcDbDictionary
281
     1
  0
DICTIONARY
  5
2A1
102
{ACAD_REACTORS
330
7
102
}
330
7
100
AcDbDictionary
281
     1
  3
Layout1
350
2AC
  3
Model
350
2A0
  0
DICTIONARY
  5
9
102
{ACAD_REACTORS
330
7
102
}
330
7
100
AcDbDictionary
281
     1
  3
ByBlock
350
2C9
  3
ByLayer
350
2C1
  3
Global
350
8
  0
DICTIONARY
  5
309
102
{ACAD_REACTORS
330
7
102
}
330
7
100
AcDbDictionary
281
     1
  3
Standard
350
30A
  0
DICTIONARY
  5
2BF
102
{ACAD_REACTORS
330
7
102
}
330
7
100
AcDbDictionary
281
     1
  3
STANDARD
350
2E2
  0
DICTIONARY
  5
2C0
102
{ACAD_REACTORS
330
7
102
}
330
7
100
AcDbDictionary
281
     1
  0
ACDBDICTIONARYWDFLT
  5
6
102
{ACAD_REACTORS
330
7
102
}
330
7
100
AcDbDictionary
281
     1
  3
Normal
350
5
100
AcDbDictionaryWithDefault
340
5
  0
DICTIONARY
  5
2D2
102
{ACAD_REACTORS
330
7
102
}
330
7
100
AcDbDictionary
281
     1
  3
A0
350
2EA
  3
A1
350
2EB
  3
A2
350
2EC
  3
A3
350
2ED
  3
A4
350
2EE
  3
A5
350
2EF
  3
A6
350
2F0
  3
A7
350
2F1
  3
A8
350
2F2
  3
A9
350
2F3
  3
B0
350
2F4
  3
B1
350
2F5
  3
B2
350
2F6
  3
B3
350
2F7
  3
B4
350
2F8
  3
B5
350
2F9
  3
B6
350
2FA
  0
DICTIONARY
  5
2D3
102
{ACAD_REACTORS
330
7
102
}
330
7
100
AcDbDictionary
281
     1
  3
Standard
350
2E3
  0
DICTIONARY
  5
2A6
102
{ACAD_REACTORS
330
7
102
}
330
7
100
AcDbDictionary
281
     1
  3
2dWireframe
350
2A5
  3
3D Hidden
350
301
  3
3dWireframe
350
2E9
  3
Basic
350
300
  3
Brighten
350
304
  3
ColorChange
350
308
  3
Conceptual
350
302
  3
Dim
350
303
  3
Facepattern
350
307
  3
Flat
350
2FC
  3
FlatWithEdges
350
2FD
  3
Gouraud
350
2FE
  3
GouraudWithEdges
350
2FF
  3
Linepattern
350
306
  3
Realistic
350
2E6
  3
Thicken
350
305
  0
XRECORD
  5
2E1
102
{ACAD_REACTORS
330
7
102
}
330
7
100
AcDbXrecord
280
     1
 90
        1
330
276
330
287
330
2E3
  0
DICTIONARY
  5
2D4
102
{ACAD_REACTORS
330
7
102
}
330
7
100
AcDbDictionary
281
     1
  3
CANNOSCALE
350
2D5
  3
CMLEADERSTYLE
350
2D6
  3
CTABLESTYLE
350
2D7
  3
CVIEWDETAILSTYLE
350
2D8
  3
CVIEWSECTIONSTYLE
350
2D9
  3
DIMADEC
350
2DA
  3
DIMASSOC
350
2DB
  3
INDEXCTL
350
32C
  3
LAYEREVAL
350
32B
  3
LAYERNOTIFY
350
2DC
  3
LIGHTINGUNITS
350
2DD
  3
MSLTSCALE
350
2DE
  3
SOLIDHIST
350
32D
  3
SORTENTS
350
2DF
  3
XCLIPFRAME
350
2E0
  0
XRECORD
  5
32F
102
{ACAD_REACTORS
330
7
102
}
330
7
100
AcDbXrecord
280
     1
  1
DWGPROPS COOKIE
  2

  3

  4

  6

  7

  8
rperez
  9

300
=
301
=
302
=
303
=
304
=
305
=
306
=
307
=
308
=
309
=
 40
0.1984639351851852
 41
2450008.54868588
 42
2456149.557072211
  1

 90
        0
  0
DICTIONARY
  5
311
102
{ACAD_REACTORS
330
2AE
102
}
330
2AE
100
AcDbDictionary
281
     1
  3
_0100-
350
314
  3
_0280-
350
313
  3
_Add Alternate
350
316
  3
_Bid Alternate
350
317
  3
_Color 253
350
319
  3
_Color 8
350
315
  3
_Color 84
350
318
  3
_Contours
350
31F
  3
_Demo
350
31A
  3
_Existing
350
31B
  3
_Hardscape
350
31E
  3
_NoXref
350
312
  3
_Row
350
31C
  3
_Utility
350
31D
  0
DICTIONARY
  5
2B0
102
{ACAD_REACTORS
330
2AE
102
}
330
2AE
100
AcDbDictionary
281
     1
  0
LAYOUT
  5
2AC
102
{ACAD_XDICTIONARY
360
332
102
}
102
{ACAD_REACTORS
330
2A1
102
}
330
2A1
100
AcDbPlotSettings
  1

  2
S:\AutoCAD 2002\Plotters\1055ColorDraftShaded.pc3
  4

  6

 40
0.0
 41
0.0
 42
0.0
 43
0.0
 44
0.0
 45
0.0
 46
0.0
 47
0.0
 48
0.0
 49
0.0
140
0.0
141
0.0
142
1.0
143
1.0
 70
   688
 72
     0
 73
     0
 74
     5
  7
Black&White.ctb
 75
    16
147
1.0
148
0.0
149
0.0
100
AcDbLayout
  1
Layout1
 70
     0
 71
     1
 10
0.0
 20
0.0
 11
12.0
 21
9.0
 12
-42.77995331085476
 22
50.00000000000001
 32
46.08892476046576
 14
1.000000000000000E+20
 24
1.000000000000000E+20
 34
1.000000000000000E+20
 15
-1.000000000000000E+20
 25
-1.000000000000000E+20
 35
-1.000000000000000E+20
146
0.0
 13
0.0
 23
0.0
 33
0.0
 16
1.0
 26
0.0
 36
0.0
 17
0.0
 27
1.0
 37
0.0
 76
     0
330
2A9
  0
LAYOUT
  5
2A0
102
{ACAD_XDICTIONARY
360
2A2
102
}
102
{ACAD_REACTORS
330
2A1
102
}
330
2A1
100
AcDbPlotSettings
  1

  2
Bluebeam PDF9 Printer HighRes.pc3
  4
User124
  6
PS1
 40
3.174999952316284
 41
3.174999952316284
 42
3.17498779296875
 43
3.17498779296875
 44
279.3999938964844
 45
431.8000183105469
 46
1.846460956092863
 47
0.0
 48
0.0
 49
0.0
140
16.49
141
10.44
142
1.0
143
0.9844775412132708
 70
 11956
 72
     0
 73
     1
 74
     1
  7
laserjet5shaded.ctb
 75
     0
147
1.015767204569846
148
0.0
149
0.0
100
AcDbLayout
  1
Model
 70
     1
 71
     0
 10
0.0
 20
0.0
 11
12.0
 21
9.0
 12
0.0
 22
0.0
 32
0.0
 14
0.0
 24
0.0
 34
0.0
 15
0.0
 25
0.0
 35
0.0
146
0.0
 13
0.0
 23
0.0
 33
0.0
 16
1.0
 26
0.0
 36
0.0
 17
0.0
 27
1.0
 37
0.0
 76
     0
330
2
331
2B9
1001
ACAD_PSEXT
1000
Bluebeam PDF9 Printer HighRes.pc3
1000
BluebeamPSDriver
1000
BLUEBEAMPDFPORT
1000

1070
     0
  0
MATERIAL
  5
2C9
102
{ACAD_XDICTIONARY
360
2CA
102
}
102
{ACAD_REACTORS
330
9
102
}
330
9
100
AcDbMaterial
  1
ByBlock
 72
     0
 43
0.0208333333333333
 43
0.0
 43
0.0
 43
0.0
 43
0.0
 43
0.0208333333333333
 43
0.0
 43
0.0
 43
0.0
 43
0.0
 43
1.0
 43
0.0
 43
0.0
 43
0.0
 43
0.0
 43
1.0
 77
     0
 47
0.0208333333333333
 47
0.0
 47
0.0
 47
0.0
 47
0.0
 47
0.0208333333333333
 47
0.0
 47
0.0
 47
0.0
 47
0.0
 47
1.0
 47
0.0
 47
0.0
 47
0.0
 47
0.0
 47
1.0
171
     0
 49
0.0208333333333333
 49
0.0
 49
0.0
 49
0.0
 49
0.0
 49
0.0208333333333333
 49
0.0
 49
0.0
 49
0.0
 49
0.0
 49
1.0
 49
0.0
 49
0.0
 49
0.0
 49
0.0
 49
1.0
175
     0
142
0.0208333333333333
142
0.0
142
0.0
142
0.0
142
0.0
142
0.0208333333333333
142
0.0
142
0.0
142
0.0
142
0.0
142
1.0
142
0.0
142
0.0
142
0.0
142
0.0
142
1.0
179
     0
144
0.0208333333333333
144
0.0
144
0.0
144
0.0
144
0.0
144
0.0208333333333333
144
0.0
144
0.0
144
0.0
144
0.0
144
1.0
144
0.0
144
0.0
144
0.0
144
0.0
144
1.0
147
0.0208333333333333
147
0.0
147
0.0
147
0.0
147
0.0
147
0.0208333333333333
147
0.0
147
0.0
147
0.0
147
0.0
147
1.0
147
0.0
147
0.0
147
0.0
147
0.0
147
1.0
  0
MATERIAL
  5
2C1
102
{ACAD_XDICTIONARY
360
2C2
102
}
102
{ACAD_REACTORS
330
9
102
}
330
9
100
AcDbMaterial
  1
ByLayer
 72
     0
 43
0.0208333333333333
 43
0.0
 43
0.0
 43
0.0
 43
0.0
 43
0.0208333333333333
 43
0.0
 43
0.0
 43
0.0
 43
0.0
 43
1.0
 43
0.0
 43
0.0
 43
0.0
 43
0.0
 43
1.0
 77
     0
 47
0.0208333333333333
 47
0.0
 47
0.0
 47
0.0
 47
0.0
 47
0.0208333333333333
 47
0.0
 47
0.0
 47
0.0
 47
0.0
 47
1.0
 47
0.0
 47
0.0
 47
0.0
 47
0.0
 47
1.0
171
     0
 49
0.0208333333333333
 49
0.0
 49
0.0
 49
0.0
 49
0.0
 49
0.0208333333333333
 49
0.0
 49
0.0
 49
0.0
 49
0.0
 49
1.0
 49
0.0
 49
0.0
 49
0.0
 49
0.0
 49
1.0
175
     0
142
0.0208333333333333
142
0.0
142
0.0
142
0.0
142
0.0
142
0.0208333333333333
142
0.0
142
0.0
142
0.0
142
0.0
142
1.0
142
0.0
142
0.0
142
0.0
142
0.0
142
1.0
179
     0
144
0.0208333333333333
144
0.0
144
0.0
144
0.0
144
0.0
144
0.0208333333333333
144
0.0
144
0.0
144
0.0
144
0.0
144
1.0
144
0.0
144
0.0
144
0.0
144
0.0
144
1.0
147
0.0208333333333333
147
0.0
147
0.0
147
0.0
147
0.0
147
0.0208333333333333
147
0.0
147
0.0
147
0.0
147
0.0
147
1.0
147
0.0
147
0.0
147
0.0
147
0.0
147
1.0
  0
MATERIAL
  5
8
102
{ACAD_XDICTIONARY
360
A
102
}
102
{ACAD_REACTORS
330
9
102
}
330
9
100
AcDbMaterial
  1
Global
 72
     0
 43
0.0208333333333333
 43
0.0
 43
0.0
 43
0.0
 43
0.0
 43
0.0208333333333333
 43
0.0
 43
0.0
 43
0.0
 43
0.0
 43
1.0
 43
0.0
 43
0.0
 43
0.0
 43
0.0
 43
1.0
 77
     0
 47
0.0208333333333333
 47
0.0
 47
0.0
 47
0.0
 47
0.0
 47
0.0208333333333333
 47
0.0
 47
0.0
 47
0.0
 47
0.0
 47
1.0
 47
0.0
 47
0.0
 47
0.0
 47
0.0
 47
1.0
171
     0
 49
0.0208333333333333
 49
0.0
 49
0.0
 49
0.0
 49
0.0
 49
0.0208333333333333
 49
0.0
 49
0.0
 49
0.0
 49
0.0
 49
1.0
 49
0.0
 49
0.0
 49
0.0
 49
0.0
 49
1.0
175
     0
142
0.0208333333333333
142
0.0
142
0.0
142
0.0
142
0.0
142
0.0208333333333333
142
0.0
142
0.0
142
0.0
142
0.0
142
1.0
142
0.0
142
0.0
142
0.0
142
0.0
142
1.0
179
     0
144
0.0208333333333333
144
0.0
144
0.0
144
0.0
144
0.0
144
0.0208333333333333
144
0.0
144
0.0
144
0.0
144
0.0
144
1.0
144
0.0
144
0.0
144
0.0
144
0.0
144
1.0
147
0.0208333333333333
147
0.0
147
0.0
147
0.0
147
0.0
147
0.0208333333333333
147
0.0
147
0.0
147
0.0
147
0.0
147
1.0
147
0.0
147
0.0
147
0.0
147
0.0
147
1.0
  0
MLEADERSTYLE
  5
30A
102
{ACAD_REACTORS
330
309
102
}
330
309
100
AcDbMLeaderStyle
170
     2
171
     1
172
     0
 90
        2
 40
0.0
 41
0.0
173
     1
 91
-1056964608
340
2B4
 92
       -2
290
     1
 42
0.09
291
     1
 43
0.36
  3
Standard
 44
0.18
300

342
286
174
     1
178
     6
175
     1
176
     0
 93
-1056964608
 45
0.18
292
     0
297
     0
 46
0.18
 94
-1056964608
 47
1.0
 49
1.0
140
1.0
293
     1
141
0.0
294
     1
177
     0
142
1.0
295
     0
296
     0
143
0.125
1001
ACAD_MLEADERVER
1070
     2
  0
MLINESTYLE
  5
2E2
102
{ACAD_REACTORS
330
2BF
102
}
330
2BF
100
AcDbMlineStyle
  2
STANDARD
 70
     0
  3

 62
   256
 51
90.0
 52
90.0
 71
     2
 49
0.5
 62
   256
  6
BYLAYER
 49
-0.5
 62
   256
  6
BYLAYER
  0
ACDBPLACEHOLDER
  5
5
102
{ACAD_REACTORS
330
6
102
}
330
6
  0
SCALE
  5
2EA
102
{ACAD_REACTORS
330
2D2
102
}
330
2D2
100
AcDbScale
 70
     0
300
1:1
140
1.0
141
1.0
290
     1
  0
SCALE
  5
2EB
102
{ACAD_REACTORS
330
2D2
102
}
330
2D2
100
AcDbScale
 70
     0
300
1/128" = 1'-0"
140
0.0078125
141
12.0
290
     0
  0
SCALE
  5
2EC
102
{ACAD_REACTORS
330
2D2
102
}
330
2D2
100
AcDbScale
 70
     0
300
1/64" = 1'-0"
140
0.015625
141
12.0
290
     0
  0
SCALE
  5
2ED
102
{ACAD_REACTORS
330
2D2
102
}
330
2D2
100
AcDbScale
 70
     0
300
1/32" = 1'-0"
140
0.03125
141
12.0
290
     0
  0
SCALE
  5
2EE
102
{ACAD_REACTORS
330
2D2
102
}
330
2D2
100
AcDbScale
 70
     0
300
1/16" = 1'-0"
140
0.0625
141
12.0
290
     0
  0
SCALE
  5
2EF
102
{ACAD_REACTORS
330
2D2
102
}
330
2D2
100
AcDbScale
 70
     0
300
3/32" = 1'-0"
140
0.09375
141
12.0
290
     0
  0
SCALE
  5
2F0
102
{ACAD_REACTORS
330
2D2
102
}
330
2D2
100
AcDbScale
 70
     0
300
1/8" = 1'-0"
140
0.125
141
12.0
290
     0
  0
SCALE
  5
2F1
102
{ACAD_REACTORS
330
2D2
102
}
330
2D2
100
AcDbScale
 70
     0
300
3/16" = 1'-0"
140
0.1875
141
12.0
290
     0
  0
SCALE
  5
2F2
102
{ACAD_REACTORS
330
2D2
102
}
330
2D2
100
AcDbScale
 70
     0
300
1/4" = 1'-0"
140
0.25
141
12.0
290
     0
  0
SCALE
  5
2F3
102
{ACAD_REACTORS
330
2D2
102
}
330
2D2
100
AcDbScale
 70
     0
300
3/8" = 1'-0"
140
0.375
141
12.0
290
     0
  0
SCALE
  5
2F4
102
{ACAD_REACTORS
330
2D2
102
}
330
2D2
100
AcDbScale
 70
     0
300
1/2" = 1'-0"
140
0.5
141
12.0
290
     0
  0
SCALE
  5
2F5
102
{ACAD_REACTORS
330
2D2
102
}
330
2D2
100
AcDbScale
 70
     0
300
3/4" = 1'-0"
140
0.75
141
12.0
290
     0
  0
SCALE
  5
2F6
102
{ACAD_REACTORS
330
2D2
102
}
330
2D2
100
AcDbScale
 70
     0
300
1" = 1'-0"
140
1.0
141
12.0
290
     0
  0
SCALE
  5
2F7
102
{ACAD_REACTORS
330
2D2
102
}
330
2D2
100
AcDbScale
 70
     0
300
1-1/2" = 1'-0"
140
1.5
141
12.0
290
     0
  0
SCALE
  5
2F8
102
{ACAD_REACTORS
330
2D2
102
}
330
2D2
100
AcDbScale
 70
     0
300
3" = 1'-0"
140
3.0
141
12.0
290
     0
  0
SCALE
  5
2F9
102
{ACAD_REACTORS
330
2D2
102
}
330
2D2
100
AcDbScale
 70
     0
300
6" = 1'-0"
140
6.0
141
12.0
290
     0
  0
SCALE
  5
2FA
102
{ACAD_REACTORS
330
2D2
102
}
330
2D2
100
AcDbScale
 70
     0
300
1'-0" = 1'-0"
140
12.0
141
12.0
290
     0
  0
TABLESTYLE
  5
2E3
102
{ACAD_XDICTIONARY
360
2E4
102
}
102
{ACAD_REACTORS
330
2D3
102
}
330
2D3
100
AcDbTableStyle
  3
Standard
 70
     0
 71
     0
 40
0.06
 41
0.06
280
     0
281
     0
  7
STANDARD
140
0.18
170
     2
 62
     0
 63
     7
283
     0
274
    -2
284
     1
 64
     0
275
    -2
285
     1
 65
     0
276
    -2
286
     1
 66
     0
277
    -2
287
     1
 67
     0
278
    -2
288
     1
 68
     0
279
    -2
289
     1
 69
     0
  7
STANDARD
140
0.25
170
     5
 62
     0
 63
     7
283
     0
274
    -2
284
     1
 64
     0
275
    -2
285
     1
 65
     0
276
    -2
286
     1
 66
     0
277
    -2
287
     1
 67
     0
278
    -2
288
     1
 68
     0
279
    -2
289
     1
 69
     0
  7
STANDARD
140
0.18
170
     5
 62
     0
 63
     7
283
     0
274
    -2
284
     1
 64
     0
275
    -2
285
     1
 65
     0
276
    -2
286
     1
 66
     0
277
    -2
287
     1
 67
     0
278
    -2
288
     1
 68
     0
279
    -2
289
     1
 69
     0
  0
VISUALSTYLE
  5
2A5
102
{ACAD_XDICTIONARY
360
2A7
102
}
102
{ACAD_REACTORS
330
2A6
102
}
330
2A6
100
AcDbVisualStyle
  2
2dWireframe
 70
     4
 71
     0
 72
     2
 73
     0
 90
        0
 40
-0.6
 41
-30.0
 62
     5
 63
     7
 74
     1
 91
        4
 64
     7
 65
   257
 75
     1
175
     1
 42
1.0
 92
        0
 66
   257
 43
1.0
 76
     1
 77
     6
 78
     2
 67
     7
 79
     5
170
     0
171
     0
290
     0
174
     0
 93
        1
 44
0.0
173
     0
291
     0
 45
0.0
1001
ACAD
1000
AcDbSavedByObjectVersion
1070
     0
  0
VISUALSTYLE
  5
301
102
{ACAD_REACTORS
330
2A6
102
}
330
2A6
100
AcDbVisualStyle
  2
3D Hidden
 70
     6
 71
     1
 72
     2
 73
     2
 90
        0
 40
-0.6
 41
-30.0
 62
     5
 63
     7
 74
     2
 91
        2
 64
     7
 65
   257
 75
     2
175
     1
 42
40.0
 92
        0
 66
   257
 43
1.0
 76
     1
 77
     6
 78
     2
 67
     7
 79
     3
170
     0
171
     0
290
     0
174
     0
 93
        1
 44
0.0
173
     0
291
     0
 45
0.0
1001
ACAD
1000
AcDbSavedByObjectVersion
1070
     0
  0
VISUALSTYLE
  5
2E9
102
{ACAD_REACTORS
330
2A6
102
}
330
2A6
100
AcDbVisualStyle
  2
3dWireframe
 70
     5
 71
     0
 72
     2
 73
     0
 90
        0
 40
-0.6
 41
-30.0
 62
     5
 63
     7
 74
     1
 91
        4
 64
     7
 65
   257
 75
     1
175
     1
 42
1.0
 92
        0
 66
   257
 43
1.0
 76
     1
 77
     6
 78
     2
 67
     7
 79
     5
170
     0
171
     0
290
     0
174
     0
 93
        1
 44
0.0
173
     0
291
     0
 45
0.0
1001
ACAD
1000
AcDbSavedByObjectVersion
1070
     0
  0
VISUALSTYLE
  5
300
102
{ACAD_REACTORS
330
2A6
102
}
330
2A6
100
AcDbVisualStyle
  2
Basic
 70
     7
 71
     1
 72
     0
 73
     1
 90
        0
 40
-0.6
 41
-30.0
 62
     5
 63
     7
 74
     0
 91
        4
 64
     7
 65
   257
 75
     1
175
     1
 42
1.0
 92
        8
 66
     7
 43
1.0
 76
     1
 77
     6
 78
     2
 67
     7
 79
     5
170
     0
171
     0
290
     0
174
     0
 93
        1
 44
0.0
173
     0
291
     1
 45
0.0
1001
ACAD
1000
AcDbSavedByObjectVersion
1070
     0
  0
VISUALSTYLE
  5
304
102
{ACAD_REACTORS
330
2A6
102
}
330
2A6
100
AcDbVisualStyle
  2
Brighten
 70
    12
 71
     2
 72
     2
 73
     0
 90
        0
 40
-0.6
 41
-30.0
 62
     5
 63
     7
 74
     1
 91
        4
 64
     7
 65
   257
 75
     1
175
     1
 42
1.0
 92
        8
 66
     7
 43
1.0
 76
     1
 77
     6
 78
     2
 67
     7
 79
     5
170
     0
171
     0
290
     0
174
     0
 93
        1
 44
50.0
173
     0
291
     1
 45
0.0
1001
ACAD
1000
AcDbSavedByObjectVersion
1070
     0
  0
VISUALSTYLE
  5
308
102
{ACAD_REACTORS
330
2A6
102
}
330
2A6
100
AcDbVisualStyle
  2
ColorChange
 70
    16
 71
     2
 72
     2
 73
     3
 90
        0
 40
-0.6
 41
-30.0
 62
     5
 63
     8
 74
     1
 91
        4
 64
     7
 65
   257
 75
     1
175
     1
 42
1.0
 92
        8
 66
     8
 43
1.0
 76
     1
 77
     6
 78
     2
 67
     7
 79
     5
170
     0
171
     0
290
     0
174
     0
 93
        1
 44
0.0
173
     0
291
     1
 45
0.0
1001
ACAD
1000
AcDbSavedByObjectVersion
1070
     0
  0
VISUALSTYLE
  5
302
102
{ACAD_REACTORS
330
2A6
102
}
330
2A6
100
AcDbVisualStyle
  2
Conceptual
 70
     9
 71
     3
 72
     2
 73
     0
 90
        0
 40
-0.6
 41
-30.0
 62
     5
 63
     7
 74
     2
 91
        2
 64
     7
 65
   257
 75
     1
175
     1
 42
40.0
 92
        8
 66
     7
 43
1.0
 76
     1
 77
     6
 78
     2
 67
     7
 79
     3
170
     0
171
     0
290
     0
174
     0
 93
        1
 44
0.0
173
     0
291
     0
 45
0.0
1001
ACAD
1000
AcDbSavedByObjectVersion
1070
     0
  0
VISUALSTYLE
  5
303
102
{ACAD_REACTORS
330
2A6
102
}
330
2A6
100
AcDbVisualStyle
  2
Dim
 70
    11
 71
     2
 72
     2
 73
     0
 90
        0
 40
-0.6
 41
-30.0
 62
     5
 63
     7
 74
     1
 91
        4
 64
     7
 65
   257
 75
     1
175
     1
 42
1.0
 92
        8
 66
     7
 43
1.0
 76
     1
 77
     6
 78
     2
 67
     7
 79
     5
170
     0
171
     0
290
     0
174
     0
 93
        1
 44
-50.0
173
     0
291
     1
 45
0.0
1001
ACAD
1000
AcDbSavedByObjectVersion
1070
     0
  0
VISUALSTYLE
  5
307
102
{ACAD_REACTORS
330
2A6
102
}
330
2A6
100
AcDbVisualStyle
  2
Facepattern
 70
    15
 71
     2
 72
     2
 73
     0
 90
        0
 40
-0.6
 41
-30.0
 62
     5
 63
     7
 74
     1
 91
        4
 64
     7
 65
   257
 75
     1
175
     1
 42
1.0
 92
        8
 66
     7
 43
1.0
 76
     1
 77
     6
 78
     2
 67
     7
 79
     5
170
     0
171
     0
290
     0
174
     0
 93
        1
 44
0.0
173
     0
291
     1
 45
0.0
1001
ACAD
1000
AcDbSavedByObjectVersion
1070
     0
  0
VISUALSTYLE
  5
2FC
102
{ACAD_REACTORS
330
2A6
102
}
330
2A6
100
AcDbVisualStyle
  2
Flat
 70
     0
 71
     2
 72
     1
 73
     1
 90
        2
 40
-0.6
 41
30.0
 62
     5
 63
     7
 74
     0
 91
        4
 64
     7
 65
   257
 75
     1
175
     1
 42
1.0
 92
        8
 66
     7
 43
1.0
 76
     1
 77
     6
 78
     2
 67
     7
 79
     5
170
     0
171
     0
290
     0
174
     0
 93
       13
 44
0.0
173
     0
291
     1
 45
0.0
1001
ACAD
1000
AcDbSavedByObjectVersion
1070
     0
  0
VISUALSTYLE
  5
2FD
102
{ACAD_REACTORS
330
2A6
102
}
330
2A6
100
AcDbVisualStyle
  2
FlatWithEdges
 70
     1
 71
     2
 72
     1
 73
     1
 90
        2
 40
-0.6
 41
30.0
 62
     5
 63
     7
 74
     1
 91
        4
 64
     7
 65
   257
 75
     1
175
     1
 42
1.0
 92
        0
 66
   257
 43
1.0
 76
     1
 77
     6
 78
     2
 67
     7
 79
     5
170
     0
171
     0
290
     0
174
     0
 93
       13
 44
0.0
173
     0
291
     1
 45
0.0
1001
ACAD
1000
AcDbSavedByObjectVersion
1070
     0
  0
VISUALSTYLE
  5
2FE
102
{ACAD_REACTORS
330
2A6
102
}
330
2A6
100
AcDbVisualStyle
  2
Gouraud
 70
     2
 71
     2
 72
     2
 73
     1
 90
        2
 40
-0.6
 41
30.0
 62
     5
 63
     7
 74
     0
 91
        4
 64
     7
 65
   257
 75
     1
175
     1
 42
1.0
 92
        0
 66
     7
 43
1.0
 76
     1
 77
     6
 78
     2
 67
     7
 79
     5
170
     0
171
     0
290
     0
174
     0
 93
       13
 44
0.0
173
     0
291
     1
 45
0.0
1001
ACAD
1000
AcDbSavedByObjectVersion
1070
     0
  0
VISUALSTYLE
  5
2FF
102
{ACAD_REACTORS
330
2A6
102
}
330
2A6
100
AcDbVisualStyle
  2
GouraudWithEdges
 70
     3
 71
     2
 72
     2
 73
     1
 90
        2
 40
-0.6
 41
30.0
 62
     5
 63
     7
 74
     1
 91
        4
 64
     7
 65
   257
 75
     1
175
     1
 42
1.0
 92
        0
 66
   257
 43
1.0
 76
     1
 77
     6
 78
     2
 67
     7
 79
     5
170
     0
171
     0
290
     0
174
     0
 93
       13
 44
0.0
173
     0
291
     1
 45
0.0
1001
ACAD
1000
AcDbSavedByObjectVersion
1070
     0
  0
VISUALSTYLE
  5
306
102
{ACAD_REACTORS
330
2A6
102
}
330
2A6
100
AcDbVisualStyle
  2
Linepattern
 70
    14
 71
     2
 72
     2
 73
     0
 90
        0
 40
-0.6
 41
-30.0
 62
     5
 63
     7
 74
     1
 91
        4
 64
     7
 65
   257
 75
     7
175
     7
 42
1.0
 92
        8
 66
     7
 43
1.0
 76
     1
 77
     6
 78
     2
 67
     7
 79
     5
170
     0
171
     0
290
     0
174
     0
 93
        1
 44
0.0
173
     0
291
     1
 45
0.0
1001
ACAD
1000
AcDbSavedByObjectVersion
1070
     0
  0
VISUALSTYLE
  5
2E6
102
{ACAD_XDICTIONARY
360
2E7
102
}
102
{ACAD_REACTORS
330
2A6
102
}
330
2A6
100
AcDbVisualStyle
  2
Realistic
 70
     8
 71
     2
 72
     2
 73
     0
 90
        2
 40
-0.6
 41
30.0
 62
     5
 63
     7
 74
     0
 91
        0
 64
     7
 65
   257
 75
     1
175
     1
 42
1.0
 92
        8
 66
   257
 43
1.0
 76
     1
 77
     6
 78
     2
 67
     7
 79
     3
170
     0
171
     0
290
     0
174
     0
 93
       13
 44
0.0
173
     0
291
     0
 45
0.0
1001
ACAD
1000
AcDbSavedByObjectVersion
1070
     0
  0
VISUALSTYLE
  5
305
102
{ACAD_REACTORS
330
2A6
102
}
330
2A6
100
AcDbVisualStyle
  2
Thicken
 70
    13
 71
     2
 72
     2
 73
     0
 90
        0
 40
-0.6
 41
-30.0
 62
     5
 63
     7
 74
     1
 91
        4
 64
     7
 65
   257
 75
     1
175
     1
 42
1.0
 92
       12
 66
     7
 43
1.0
 76
     1
 77
     6
 78
     2
 67
     7
 79
     5
170
     0
171
     0
290
     0
174
     0
 93
        1
 44
0.0
173
     0
291
     1
 45
0.0
1001
ACAD
1000
AcDbSavedByObjectVersion
1070
     0
  0
DICTIONARYVAR
  5
2D5
102
{ACAD_REACTORS
330
2D4
102
}
330
2D4
100
DictionaryVariables
280
     0
  1
1:1
  0
DICTIONARYVAR
  5
2D6
102
{ACAD_REACTORS
330
2D4
102
}
330
2D4
100
DictionaryVariables
280
     0
  1
STANDARD
  0
DICTIONARYVAR
  5
2D7
102
{ACAD_REACTORS
330
2D4
102
}
330
2D4
100
DictionaryVariables
280
     0
  1
STANDARD
  0
DICTIONARYVAR
  5
2D8
102
{ACAD_REACTORS
330
2D4
102
}
330
2D4
100
DictionaryVariables
280
     0
  1
Imperial24
  0
DICTIONARYVAR
  5
2D9
102
{ACAD_REACTORS
330
2D4
102
}
330
2D4
100
DictionaryVariables
280
     0
  1
Imperial24
  0
DICTIONARYVAR
  5
2DA
102
{ACAD_REACTORS
330
2D4
102
}
330
2D4
100
DictionaryVariables
280
     0
  1
0
  0
DICTIONARYVAR
  5
2DB
102
{ACAD_REACTORS
330
2D4
102
}
330
2D4
100
DictionaryVariables
280
     0
  1
1
  0
DICTIONARYVAR
  5
32C
102
{ACAD_REACTORS
330
2D4
102
}
330
2D4
100
DictionaryVariables
280
     0
  1
0
  0
DICTIONARYVAR
  5
32B
102
{ACAD_REACTORS
330
2D4
102
}
330
2D4
100
DictionaryVariables
280
     0
  1
0
  0
DICTIONARYVAR
  5
2DC
102
{ACAD_REACTORS
330
2D4
102
}
330
2D4
100
DictionaryVariables
280
     0
  1
15
  0
DICTIONARYVAR
  5
2DD
102
{ACAD_REACTORS
330
2D4
102
}
330
2D4
100
DictionaryVariables
280
     0
  1
0
  0
DICTIONARYVAR
  5
2DE
102
{ACAD_REACTORS
330
2D4
102
}
330
2D4
100
DictionaryVariables
280
     0
  1
0
  0
DICTIONARYVAR
  5
32D
102
{ACAD_REACTORS
330
2D4
102
}
330
2D4
100
DictionaryVariables
280
     0
  1
0
  0
DICTIONARYVAR
  5
2DF
102
{ACAD_REACTORS
330
2D4
102
}
330
2D4
100
DictionaryVariables
280
     0
  1
48
  0
DICTIONARYVAR
  5
2E0
102
{ACAD_REACTORS
330
2D4
102
}
330
2D4
100
DictionaryVariables
280
     0
  1
0
  0
XRECORD
  5
314
102
{ACAD_REACTORS
330
311
102
}
330
311
100
AcDbXrecord
280
     1
  1
_0100-
  1
*0100-*
  1
*
  1
*
 70
     0
  1
*
  1
*
  0
XRECORD
  5
313
102
{ACAD_REACTORS
330
311
102
}
330
311
100
AcDbXrecord
280
     1
  1
_0280-
  1
*0280-*
  1
*
  1
*
 70
     0
  1
*
  1
*
  0
XRECORD
  5
316
102
{ACAD_REACTORS
330
311
102
}
330
311
100
AcDbXrecord
280
     1
  1
_Add Alternate
  1
*add*alt*
  1
*
  1
*
 70
     0
  1
*
  1
*
  0
XRECORD
  5
317
102
{ACAD_REACTORS
330
311
102
}
330
311
100
AcDbXrecord
280
     1
  1
_Bid Alternate
  1
*bid*alt*
  1
*
  1
*
 70
     0
  1
*
  1
*
  0
XRECORD
  5
319
102
{ACAD_REACTORS
330
311
102
}
330
311
100
AcDbXrecord
280
     1
  1
_Color 253
  1
*
  1
253
  1
*
 70
     0
  1
*
  1
*
  0
XRECORD
  5
315
102
{ACAD_REACTORS
330
311
102
}
330
311
100
AcDbXrecord
280
     1
  1
_Color 8
  1
*
  1
8
  1
*
 70
     0
  1
*
  1
*
  0
XRECORD
  5
318
102
{ACAD_REACTORS
330
311
102
}
330
311
100
AcDbXrecord
280
     1
  1
_Color 84
  1
*
  1
84
  1
*
 70
     0
  1
*
  1
*
  0
XRECORD
  5
31F
102
{ACAD_REACTORS
330
311
102
}
330
311
100
AcDbXrecord
280
     1
  1
_Contours
  1
*contour*,*cont-*,*cp cont*,*p-cont*
  1
*
  1
*
 70
     0
  1
*
  1
*
  0
XRECORD
  5
31A
102
{ACAD_REACTORS
330
311
102
}
330
311
100
AcDbXrecord
280
     1
  1
_Demo
  1
*demo*
  1
*
  1
*
 70
     0
  1
*
  1
*
  0
XRECORD
  5
31B
102
{ACAD_REACTORS
330
311
102
}
330
311
100
AcDbXrecord
280
     1
  1
_Existing
  1
*exist*,*ex*
  1
*
  1
*
 70
     0
  1
*
  1
*
  0
XRECORD
  5
31E
102
{ACAD_REACTORS
330
311
102
}
330
311
100
AcDbXrecord
280
     1
  1
_Hardscape
  1
*sidewalk*,*sw*,*curb*,*walk*,*-lip*,*tbc*
  1
*
  1
*
 70
     0
  1
*
  1
*
  0
XRECORD
  5
312
102
{ACAD_REACTORS
330
311
102
}
330
311
100
AcDbXrecord
280
     1
  1
_NoXref
  1
~*|*
  1
*
  1
*
 70
     0
  1
*
  1
*
  0
XRECORD
  5
31C
102
{ACAD_REACTORS
330
311
102
}
330
311
100
AcDbXrecord
280
     1
  1
_Row
  1
*row*
  1
*
  1
*
 70
     0
  1
*
  1
*
  0
XRECORD
  5
31D
102
{ACAD_REACTORS
330
311
102
}
330
311
100
AcDbXrecord
280
     1
  1
_Utility
  1
*ut-*,*utility*,*wat*
  1
*
  1
*
 70
     0
  1
*
  1
*
  0
DICTIONARY
  5
332
330
2AC
100
AcDbDictionary
280
     1
281
     1
  3
ACAD_XREC_ROUNDTRIP
360
333
  0
DICTIONARY
  5
2A2
330
2A0
100
AcDbDictionary
280
     1
281
     1
  3
ACAD_XREC_ROUNDTRIP
360
331
  3
ADSK_XREC_LAYOUTTHUMBNAIL
360
2A3
  0
DICTIONARY
  5
2CA
330
2C9
100
AcDbDictionary
280
     1
281
     1
  3
ACAD_XREC_ROUNDTRIP
360
335
  3
BUMPTILE
360
2CB
  3
DIFFUSETILE
360
2CC
  3
OPACITYTILE
360
2CD
  3
REFLECTIONTILE
360
2CE
  3
REFRACTIONTILE
360
2CF
  3
SPECULARTILE
360
2D0
  0
DICTIONARY
  5
2C2
330
2C1
100
AcDbDictionary
280
     1
281
     1
  3
ACAD_XREC_ROUNDTRIP
360
334
  3
BUMPTILE
360
2C3
  3
DIFFUSETILE
360
2C4
  3
OPACITYTILE
360
2C5
  3
REFLECTIONTILE
360
2C6
  3
REFRACTIONTILE
360
2C7
  3
SPECULARTILE
360
2C8
  0
DICTIONARY
  5
A
330
8
100
AcDbDictionary
280
     1
281
     1
  3
ACAD_XREC_ROUNDTRIP
360
330
  3
BUMPTILE
360
B
  3
DIFFUSETILE
360
C
  3
OPACITYTILE
360
D
  3
REFLECTIONTILE
360
E
  3
REFRACTIONTILE
360
F
  3
SPECULARTILE
360
10
  0
DICTIONARY
  5
2E4
330
2E3
100
AcDbDictionary
280
     1
281
     1
  3
ACAD_ROUNDTRIP_2008_TABLESTYLE_CELLSTYLEMAP
360
32E
  3
ACAD_XREC_ROUNDTRIP
360
336
  0
DICTIONARY
  5
2A7
330
2A5
100
AcDbDictionary
280
     1
281
     1
  3
ACAD_XREC_ROUNDTRIP
360
2A8
  0
DICTIONARY
  5
2E7
330
2E6
100
AcDbDictionary
280
     1
281
     1
  3
ACAD_XREC_ROUNDTRIP
360
2E8
  0
XRECORD
  5
333
102
{ACAD_REACTORS
330
332
102
}
330
332
100
AcDbXrecord
280
     1
102
SHADEPLOT
 70
     0
102
SHADEPLOTRESLEVEL
 70
     2
102
SHADEPLOTCUSTOMDPI
 70
   300
  0
XRECORD
  5
331
102
{ACAD_REACTORS
330
2A2
102
}
330
2A2
100
AcDbXrecord
280
     1
102
SHADEPLOT
 70
     0
102
SHADEPLOTRESLEVEL
 70
     2
102
SHADEPLOTCUSTOMDPI
 70
   300
  0
XRECORD
  5
2A3
102
{ACAD_REACTORS
330
2A2
102
}
330
2A2
100
AcDbXrecord
280
     1
310
28000000000100007700000001000800000000000077000001000000010000000001000000000000302821FF000000FFC8C8C8FF000000FF000000FF000000FF000000FF000000FF000000FF000000FF000000FF330000FF660000FF990000FFCC0000FFFF0000FF003300FF333300FF663300FF993300FFCC3300FFFF3300
310
FF006600FF336600FF666600FF996600FFCC6600FFFF6600FF009900FF339900FF669900FF999900FFCC9900FFFF9900FF00CC00FF33CC00FF66CC00FF99CC00FFCCCC00FFFFCC00FF00FF00FF33FF00FF66FF00FF99FF00FFCCFF00FFFFFF00FF000033FF330033FF660033FF990033FFCC0033FFFF0033FF003333FF3333
310
33FF663333FF993333FFCC3333FFFF3333FF006633FF336633FF666633FF996633FFCC6633FFFF6633FF009933FF339933FF669933FF999933FFCC9933FFFF9933FF00CC33FF33CC33FF66CC33FF99CC33FFCCCC33FFFFCC33FF00FF33FF33FF33FF66FF33FF99FF33FFCCFF33FFFFFF33FF000066FF330066FF660066FF99
310
0066FFCC0066FFFF0066FF003366FF333366FF663366FF993366FFCC3366FFFF3366FF006666FF336666FF666666FF996666FFCC6666FFFF6666FF009966FF339966FF669966FF999966FFCC9966FFFF9966FF00CC66FF33CC66FF66CC66FF99CC66FFCCCC66FFFFCC66FF00FF66FF33FF66FF66FF66FF99FF66FFCCFF66FF
310
FFFF66FF000099FF330099FF660099FF990099FFCC0099FFFF0099FF003399FF333399FF663399FF993399FFCC3399FFFF3399FF006699FF336699FF666699FF996699FFCC6699FFFF6699FF009999FF339999FF669999FF999999FFCC9999FFFF9999FF00CC99FF33CC99FF66CC99FF99CC99FFCCCC99FFFFCC99FF00FF99
310
FF33FF99FF66FF99FF99FF99FFCCFF99FFFFFF99FF0000CCFF3300CCFF6600CCFF9900CCFFCC00CCFFFF00CCFF0033CCFF3333CCFF6633CCFF9933CCFFCC33CCFFFF33CCFF0066CCFF3366CCFF6666CCFF9966CCFFCC66CCFFFF66CCFF0099CCFF3399CCFF6699CCFF9999CCFFCC99CCFFFF99CCFF00CCCCFF33CCCCFF66CC
310
CCFF99CCCCFFCCCCCCFFFFCCCCFF00FFCCFF33FFCCFF66FFCCFF99FFCCFFCCFFCCFFFFFFCCFF0000FFFF3300FFFF6600FFFF9900FFFFCC00FFFFFF00FFFF0033FFFF3333FFFF6633FFFF9933FFFFCC33FFFFFF33FFFF0066FFFF3366FFFF6666FFFF9966FFFFCC66FFFFFF66FFFF0099FFFF3399FFFF6699FFFF9999FFFFCC
310
99FFFFFF99FFFF00CCFFFF33CCFFFF66CCFFFF99CCFFFFCCCCFFFFFFCCFFFF00FFFFFF33FFFFFF66FFFFFF99FFFFFFCCFFFFFFFFFFFFFF000000FF0D0D0DFF1A1A1AFF282828FF353535FF434343FF505050FF5D5D5DFF6B6B6BFF787878FF868686FF939393FFA1A1A1FFAEAEAEFFBBBBBBFFC9C9C9FFD6D6D6FFE4E4E4FF
310
F1F1F1FFFFFFFFFF000000FF000000FF000000FF000000FF000000FF000000FF000000FF000000FF000000FF0000000000000000000000000000000000000000000000000000000000000000000000000000F5F5F5F5F5F5F5F5F5F5F5F5F5F5F5F5F5F5F5F5F5F5F5F5F5F5F5F5F5F5F5F5F5F5F5F5F5F5F5F5F5F5F5F5F5
310
F5F5F5F5F5F5F5F5F5F5F5F5F5F5F5F5F5F5F5F5F5F5F5F5F5F5F5F5F5F5F5F5F5F5F5F5F5F5F5F5F5F5F5F5F5F5F5F5F5F5F5F5F5F5F5F5F5F5F5F5F5F5F5F5F5F5F5F5F5F5F5F5F5F5F5F5F5F5F5F5F5F5F5F5F5F5F5F5F5F5F5F5F5F5F5F5F5F5F5F5F5F5F5F5F5F5F5F5F5F5F5F5F5F5F5F5F5F5F5F5F5F5F5F5F5F5F5
310
F5F5F5F5F5F5F5F5F5F5F5F5F5F5F5F50000000000000000000000000000000000000000000000000000000000000000000000000000000000000000000000000000000000000000000000000000000000000000F50000F5F5F5F5F5F5F5F5F5F5F5F5F5F5F5F5000000000000000000000000000000000000000000000000
310
00000000000000000000000000000000000000000000000000000000000000000000000000000000000000000000000000000000000000000000000000000000000000000000000000000000000000000000000000000000000000000000000000000000000000000000000000000000000000000000000000000000000000
310
0000000000000000000000000000000000F50000000000000000000000000000000000000000000000000000000000000000000000000000000000000000000000000000000000000000000000000000000000000000F50000F5F5F5F5F5F5F5F5F5F5F5F5F5F5F5F500000000000000000000000000000000000000000000
310
00000000000000000000000000000000000000000000000000000000000000000000000000000000000000000000000000000000000000000000000000000000000000000000000000000000000000000000000000000000000000000000000000000000000000000000000000000000000000000000000000000000000000
310
00000000000000000000000000000000000000F50000000000000000000000000000000000000000000000000000000000000000000000000000000000000000000000000000000000000000000000000000000000000000F50000000000000000000000000000000000000000000000000000000000000000000000000000
310
00000000000000000000000000000000000000000000000000000000000000000000000000000000000000000000000000000000000000000000000000000000000000000000000000000000000000000000000000000000000000000000000000000000000000000000000000000000000000000000000000000000000000
310
000000000000000000000000000000000000000000F50000000000000000000000000000000000000000000000000000000000000000000000000000000000000000000000000000000000000000000000000000000000000000F5000000000000000000000000000000000000000000000000000000000000000000000000
310
00000000000000000000000000000000000000000000000000000000000000000000000000000000000000000000000000000000000000000000000000000000000000000000000000000000000000000000000000000000000000000000000000000000000000000000000000000000000000000000000000000000000000
310
0000000000000000000000000000000000000000000000F50000000000000000000000000000000000000000000000000000000000000000000000000000000000000000000000000000000000000000000000000000000000000000F500000000000000000000000000000000000000000000000000000000000000000000
310
00000000000000000000000000000000000000000000000000000000000000000000000000000000000000000000000000000000000000000000000000000000000000000000000000000000000000000000000000000000000000000000000000000000000000000000000000000000000000000000000000000000000000
310
00000000000000000000000000000000000000000000000000F50000000000000000000000000000000000000000000000000000000000000000000000000000000000000000000000000000000000000000000000000000000000000000F50000000000282828000000000000000000000000000000000000000000002D2D
310
2D2D2D2D2D2D2D2D2D2D2D2D2D2D2D2D2D2D2D2D2D2D2D2D2D2D2D2D2D2D2D2D2D2D2D2D2D2D2D2D2D2D2D2D2D2D2D2D2D2D2D2D2D2D2D2D0000000000000000000000000000000000000000000000000000000000000000000000000000000000000000000000000000000000000000000000000000000000000000000000
310
000000000000000000000000000000000000000000000000000000F50000000000000000000000000000000000000000000000000000000000000000000000000000000000000000000000000000000000000000000000000000000000000000F5000000282828282828280000000000000000000000000000000000000000
310
2D2D2D2D2D2D2D2D2D2D2D2D2D2D2D2D2D2D2D2D2D2D2D2D2D2D2D2D2D2D2D2D2D2D2D2D2D2D2D2D2D2D2D2D2D2D2D2D2D2D2D2D2D2D2D2D2D2D000000000000000000000000000000000000000000000000000000000000000000000000000000000000000000000000000000000000000000000000000000000000000000
310
0000000000000000000000000000000000000000000000000000000000F50000000000000000000000000000000000000000000000000000000000000000000000000000000000000000000000000000000000000000000000000000000000000000F500000028280000000028280000F5F5F5F5F5F5000000000000000000
310
00002D2D2D2D2D2D2D2D2D2D2D2D2D2D2D2D2D2D2D2D2D2D2D2D2D2D2D2D2D2D2D2D2D2D2D2D2D2D2D2D2D2D2D2D2D2D2D2D2D2D2D2D2D2D2D2D2D2D00000000000000000000000000000000000000000000000000000000000000000000000000000000000000000000000000000000000000000000000000000000000000
310
00000000000000000000000000000000000000000000000000000000000000F50000000000000000000000000000000000000000000000000000000000000000000000000000000000000000000000000000000000000000000000000000000000000000F50000282D2D2D2D2D2D28280000F5F5F5F5F50000000000000000
310
000000002D2D2D2D2D2D2D2D2D2D2D2D2D2D2D2D2D2D2D2D2D2D2D2D2D2D2D2D2D2D2D2D2D2D2D2D2D2D2D2D2D2D2D2D2D2D2D2D2D2D2D2D2D2D2D2D2D2D0000000000000000000000000000000000000000000000000000000000000000000000000000000000000000000000000000000000000000000000000000000000
310
000000000000000000000000000000000000000000000000000000000000000000F50000000000000000000000000000000000000000000000000000000000000000000000000000000000000000000000000000000000000000000000000000000000000000F50000282D2D2D2D2D2D002828282828282828282828282828
310
28282828282828282828282828282828282828282828282828282828282828282828282828282828282828282828282828282828282828282828282828282828282828282828000000000000000000000000000000000000000000000000000000000000000000000000000000000000000000000000000000000000000000
310
0000000000000000000000000000000000000000000000000000000000000000000000F50000000000000000000000000000000000000000000000000000000000000000000000000000000000000000000000000000000000000000000000000000000000000000F50000282D2D2D2D2D2D002828282D2D2D2D2D2D2D2D2D
310
2D2D2D2D2D2D2D2D2D2D2D2D2D2D2D2D2D2D2D2D2D2D2D2D2D2D2D2D2D2D2D2D2D2D2D2D2D2D2D2D2D2D2828282828282828282828282828282828282828282828F528F5F5F5F52800000000000000000000000000000000C3C3C3C3C3C300C3C300C3C3C3C3C3C3C3C3C3C3C3000000000000000000000000000000000000
310
00000000000000000000000000000000000000000000000000000000000000000000000000F50000000000000000000000000000000000000000000000000000000000000000000000000000000000000000000000000000000000000000000000000000000000000000F5000028280000000000282800002D2D2D2D2D2D2D
310
2D2D2D2D2D2D2D2D2D2D2D2D2D2D2D2D2D2D2D2D2D2D2D2D2D2D2D2D2D2D2D2D2D2D2D2D2D2D2D2D2D2D2D2D00000000000000000000000000000000000000000000F5F5F5F5F5F5F5F500000000000000000000000000000000C3C3C3C3C3C300C3C3C3C3C3C3C3C3C3C3C3C3C30000000000000000000000000000000000
310
000000000000000000000000000000000000000000000000000000000000000000000000000000F50000000000000000000000000000000000000000000000000000000000000000000000000000000000000000000000000000000000000000000000000000000000000000F5000000282800000028280000002D2D2D2D2D
310
2D2D2D2D2D2D2D2D2D2D2D2D2D2D2D2D2D2D2D2D2D2D2D2D2D2D2D2D2D2D2D2D2D2D2D2D2D2D2D2D2D2D2D2D2D2D000000000000000000000000000000000000000000000000000000000000000000000000000000000000000000C3C3C3C3C3C3C300C3C3C3C3C3C3C3C3C3C3C3C3C3000000000000000000000000000000
310
0000000000000000000000000000000000000000000000000000000000000000000000000000000000F50000000000000000000000000000000000000000000000000000000000000000000000000000000000000000000000000000000000000000000000000000000000000000F500000000282828282800000000000000
310
000000000000000000000000000000000000000000000000000000000000000000000000000000000000000000000000000000000000000000000000000000000000000000000000000000000000000000000000000000000000000000C3C3C3C3C3C3C3C3C3C3C300C3C3C3C3C3C3C3C300C3C3C3C3C3C3C3C3C300C3C3C3
310
C3C3C3C300C3C3C3C300C3C3C3C3C3C3C3C3C3C300C3C3C3C3C3C3C3C30000000000000000000000000000F50000000000000000000000000000000000000000000000000000000000000000000000000000000000000000000000000000000000000000000000000000000000000000F50000000000000000000000000000
310
0000000000000000000000000000000000000000000000000000000000000000000000000000000000000000000000000000000000000000000000000000000000000000000000000000000000000000000000000000000000000000000000C3C3C3C3C3C3C3C3C3C3C300C3C3C3C3C3C300C300C3C3C3C3C300C3C3C3C3C3
310
C3C3C3C3C3C300C3C3C3C300C3C3C3C3C3C3C3C3C3C300C3C3C3C3C3C3C3C30000000000000000000000000000F50000000000000000000000000000000000000000000000000000000000000000000000000000000000000000000000000000000000000000000000000000000000000000F5000000000000000000000000
310
00000000000000000000000000000000000000000000000000000000000000000000000000000000000000000000000000000000000000000000000000000000000000000000000000000000000000000000000000000000000000000000000000C3C3C3C3C3C3C3C3C300C3C3C300C3C3C3C3C3C3C3C3C30000C3C3C3C3C3
310
C3C300C3C3C3000000C3C3C300C3C3C3C3C300C3C3C300C3C3C3C3C3C3C3C3C3C30000000000000000000000000000F50000000000000000000000000000000000000000000000000000000000000000000000000000000000000000000000000000000000000000000000000000000000000000F500000000000000000000
310
000000000000000000000000000000000000000000000000000000000000000000000000000000000000000000000000000000000000000000000000000000000000000000000000000000000000000000000000000000000000000000000000000000C3C3C3C3C3C3C3C3C300C3C3C300C3C3C3C3C3C3C3C3C300C3C3C3C3
310
C3C3C3C300C3C3C3C3C3C3C3C3C3C3C3C3C3C3C300C3C3C300C3C3C3C3C3C3C3C3C3C30000000000000000000000000000F50000000000000000000000000000000000000000000000000000000000000000000000000000000000000000000000000000000000000000000000000000000000000000F50000000000000000
310
00000000000000000000000000000000000000000000000000000000000000000000000000000000000000000000000000000000000000000000000000000000000000000000000000000000000000000000000000000000000000000000000000000000000000000000000000000000000000C30000000000000000000000
310
000000000000000000000000000000000000000000C30000000000000000000000000000000000000000000000000000000000F50000000000000000000000000000000000000000000000000000000000000000000000000000000000000000000000000000000000000000000000000000000000000000F5000000000000
310
00000000000000000000000000000000000000000000000000000000000000000000000000000000000000000000000000000000000000000000000000000000000000000000000000000000000000000000000000000000000000000000000000000000000000C3C3C3C3C3C3000000000000000000000000000000000000
310
0000000000000000000000000000000000000000000000000000000000000000000000000000000000000000000000000000000000F50000000000000000000000000000000000000000000000000000000000000000000000000000000000000000000000000000000000000000000000000000000000000000F500000000
310
000000000000000000000000000000000000000000000000000000000000000000000000000000000000000000000000000000000000000000000000000000000000000000000000000000000000000000000000000000000000000000000000000000000000000000C3C3C3C3C3C300000000000000000000000000000000
310
00000000000000000000000000000000000000000000000000000000000000000000000000000000000000000000000000000000000000F50000000000000000000000000000000000000000000000000000000000000000000000000000000000000000000000000000000000000000000000000000000000000000F50000
310
00000000000000000000000000000000000000000000000000000000000000000000000000000000000000000000000000000000000000000000000000000000000000000000000000000000000000000000000000000000000000000000000000000000000000000000000000000000000000000000000000000000000000
310
000000000000000000000000000000000000000000000000000000000000000000000000000000000000000000000000000000000000000000F50000000000000000000000000000000000000000000000000000000000000000000000000000000000000000000000000000000000000000000000000000000000000000F5
310
00000000000000000000000000000000000000000000000000000000000000000000000000000000000000000000000000000000000000000000000000000000000000000000000000000000000000000000000000000000000000000000000000000000000000000000000000000000000000000000000000000000000000
310
0000000000000000000000000000000000000000000000000000000000000000000000000000000000000000000000000000000000000000000000F500000000000000000000000000000000000000000000000000000000000000000000000000000000000000000000000000000000000000000000000000000000000000
310
00F50000000000000000000000000000000000000000000000000000000000000000000000000000000000000000000000000000000000000000000000000000000000000000000000000000000000000000000000000000000000000000000000000000000000000000000000000000000000000000000000000000000000
310
00000000000000000000000000000000000000000000000000000000000000000000000000000000000000000000000000000000000000000000000000F50000000000000000000000000000000000000000000000000000000000000000000000000000000000000000000000000000000000000000000000000000000000
310
000000F5000000000000000000000000000000000000000000000000000000000000000000000000000000000000000000000000000000000000000000000000000000000000000000000000000000000000000000000000000000000000000000000000000000000000000000000000000000000000000000000000000000
310
000000000000000000000000000000000000000000000000000000000000000000000000000000000000000000000000000000000000000000000000000000F5000000000000000000000000000000000000000000000000000000000000000000000000000000000000000000000000000000000000000000000000000000
310
0000000000F500000000000000000000000000000000000000000000000000000000000000000000000000000000000000000000000000000000000000000000000000000000000000000000000000000000000000000000000000000000000000000000000000000000000000000000000000000000000000000000000000
310
0000000000000000000000000000000000000000000000000000000000000000000000000000000000000000000000000000000000000000000000000000000000F500000000000000000000000000000000000000000000000000000000000000000000000000000000000000000000000000000000000000000000000000
310
00000000000000F500000000000000000000000000000000000000000000000000000000000000000000000000000000000000000000000000000000000000000000000000000000000000000000000000000000000000000000000000000000000000000000000000000000000000000000000000C3C3C300C300C3C3C3C3
310
C300C300C3C3C3C3C3C300C3C3C3C3C3C3C3C3C3C3C3C3C300000000000000000000000000000000000000000000000000000000000000000000000000000000000000F50000000000000000000000000000000000000000000000000000000000000000000000000000000000000000000000000000000000000000000000
310
000000000000000000F500000000000000000000000000000000000000000000000000000000000000000000000000000000000000000000000000000000000000000000000000000000000000000000000000000000000000000000000000000000000000000000000000000000000000000000000000C3C3C300C3C3C3C3
310
C3C3C300C3C3C3C3C3C3C30000C3C3C3C3C3C3C3C3C3C3C3C3C300000000000000000000000000000000000000000000000000000000000000000000000000000000000000F5000000000000000000000000000000000000000000000000000000000000000000000000000000000000000000000000000000000000000000
310
0000000000000000000000F5000000000000000000000000000000000000000000C3C3C30000000000000000C30000000000000000C300000000000000000000000000000000000000000000000000000000000000000000000000000000000000000000000000000000000000000000000000000000000000C3C3C300C3C3
310
C3C3C3C3C300C3C3C3C3C3C3C3C3C3C3C3C3C3C3C3C3C3C3C3C3C3C300000000000000000000000000000000000000000000000000000000000000000000000000000000000000F500000000000000000000000000000000000000000000000000000000000000000000000000000000000000000000000000000000000000
310
00000000000000000000000000F50000000000000000000000000000000000000000C3C3C3C3000000C3C3C3C300C3C3C3C3C3C3C3C3C3C300000000000000000000000000000000000000000000000000000000000000000000000000000000000000000000000000000000000000000000000000000000000000C3C3C3C3
310
C3C3C3C3C3C3C3C3C3C300C3C3C3C3C3C3C3C3C3C3C3C3C3C300C3C3C3C3C300C3C3C300C3C3C3C3C300C3C3C3C3C300C3C3C3C3C3C3C3C3C300000000000000000000000000000000F50000000000000000000000000000000000000000000000000000000000000000000000000000000000000000000000000000000000
310
000000000000000000000000000000F50000000000000000000000000000000000000000C300C3C3000000C3C3C30000C3C3C3C3C3C3C3C3C3C300000000000000000000000000000000000000000000000000000000000000000000000000000000000000000000000000000000000000000000000000C3C300000000C3C3
310
00C3C3C3C3C3C3C3C3C3C3C300C3C3C3C3C3C3C3C3C3C3C3C3C30000C3C3C3C3C300C3C3C300C3C3C3C3C300C3C3C3C3C300C3C3C3C3C3C3C3C3C300000000000000000000000000000000F5000000000000000000000000000000000000000000000000000000000000000000000000000000000000000000000000000000
310
0000000000000000000000000000000000F50000000000000000000000000000000000000000C3C3C3C3000000000000000000000000000000000000000000000000000000000000000000000000000000000000000000000000000000000000000000000000000000000000000000000000000000000000C3C3C3C3000000
310
C3C3C3C3C300C3C3C3C3C300C3C3C3C3C3C3C3C300C3C3C3C3C3C3C3C300C3C3C3C3C3C300C3C3C3C3C3C3C3C3C300C3C3C3C3C3C3C3C3C3C300C3C30000000000000000000000000000000000F500000000000000000000000000000000000000000000000000000000000000000000000000000000000000000000000000
310
00000000000000000000000000000000000000F5000000000000000000000000000000000000000000000000000000000000000000000000000000000000000000000000000000000000000000000000000000000000000000000000000000000000000000000000000000000000000000000000000000000000C3C3C3C300
310
0000C3C3C3C3C300C3C3C3C3C300C3C3C3C3C3C3C30000C3C3C3C3C3C3C3C300C3C3C3C3C3C300C3C3C3C3C3C3C3C3C300C3C3C3C3C3C3C3C3C3C300C3C30000000000000000000000000000000000F50000000000000000000000000000000000000000000000000000000000000000000000000000000000000000000000
310
000000000000000000000000000000000000000000F5000000000000000000000000000000000000000000000000000000000000000000000000000000000000000000000000000000000000000000000000000000000000000000000000000000000000000000000000000000000000000000000000000000000000C3C3C3
310
C3000000C3C3C3C3C300C3C3C3C3C300C3C3C3C3C3C3C30000C3C3C3C3C3C3C3C300C3C300C3C3C300C3C3C3C3C3C3C3C3C300C3C3C3C3C3C3C3C3C3C300C3C30000000000000000000000000000000000F5000000000000000000000000000000000000000000000000000000000000000000000000000000000000000000
310
0000000000000000000000000000000000000000000000F5000000000000000000000000000000000000000000000000000000C3C3C3C3C3C3C3C3C300C3C3C3C3C3C3C3C3C3C3C300000000000000000000000000000000000000000000000000000000000000000000000000000000000000000000000000000000000000
310
0000000000000000000000000000000000000000000000000000000000000000000000000000000000000000000000000000000000000000000000000000000000000000000000000000000000000000000000F500000000000000000000000000000000000000000000000000000000000000000000000000000000000000
310
00000000000000000000000000000000000000000000000000F5000000000000000000000000000000000000000000000000000000C3C3C3C3C3C3C3C3C3C3C3C3C3C3C3C3C300C3C3C30000000000000000000000000000000000000000000000000000000000000000000000000000000000000000000000000000000000
310
00000000000000000000000000000000000000000000000000000000000000000000000000000000000000000000000000000000000000000000000000000000000000000000000000000000000000000000000000F50000000000000000000000000000000000000000000000000000000000000000000000000000000000
310
000000000000000000000000000000000000000000000000000000F5000000000000000000000000000000000000000000000000000000C3C3C3C3C3C3C3C30000C3C3C3C3C3C30000C3C3C3C3C300C3C3C300C3C3C3C3C3C3C3C300C3C3C3C3C3C3C3C3C300C3C3C3C3C3C3C3C30000C3C3C3000000000000000000000000
310
00000000000000000000C3C3C300C3C3C3C3C3C3C3C3C3C300C3C3C3C3C3C3C3C3C3C3C3000000000000000000000000000000000000000000000000000000000000000000000000000000000000000000000000000000F5000000000000000000000000000000000000000000000000000000000000000000000000000000
310
0000000000000000000000000000000000000000000000000000000000F5000000000000000000000000000000000000000000000000000000C3C3C3C3C3C3C3C30000C3C3C3C3C3C30000C3C3C3C3C300C3C3C300C3C3C3C3C3C3C3C300C3C3C300C3C300C3C300C3C3C3C3C3C3C3C300C3C3C3C300000000000000000000
310
000000000000000000000000C3C3C300C3C3C3C3C3C3C3C3C3C300C3C3C3C3C3C3C3C3C3C3C3000000000000000000000000000000000000000000000000000000000000000000000000000000000000000000000000000000F500000000000000000000000000000000000000000000000000000000000000000000000000
310
00000000000000000000000000000000000000000000000000000000000000F50000000000000000000000000000000000000000C3C3C3C3000000C3C3C3C3C3C3C3C300C3C3C3C3C3C3C3C3C3C3C3C3C3C3C3C3C3C300C3C3C3C3C3C3C3C3C3C3C3C3C3C3C3C300C3C3C3C3C3C3C3C3C3C3C300C3C3C30000000000000000
310
0000000000000000000000000000C3C3C3C3C3C300C3C3C300C3C3C3C3C3C3C3C3C3C3C3C300C3C3C3C3C3C300C3C300C3C3C3C3C3C3C3C3C300C3C3C3C3C3C30000C300C3C3C3C3C3C3C3C3000000000000000000000000000000F50000000000000000000000000000000000000000000000000000000000000000000000
310
000000000000000000000000000000000000000000000000000000000000000000F50000000000000000000000000000000000000000C3C3C3C3000000C3C3C3C3C3C3C3C300C3C3C3C3C3C3C3C3C3C3C30000C3C3C3C3C3C3C3C3C3C3C3C3C3C3C3C3C3C3C3C3C3C300C3C3C3C3C3C3C3C3C3000000000000000000000000
310
00000000000000000000000000000000C3C3C300C3C300C3C3C300C3C3C3C3C3C3C3C3C3C3C3C300C3C3C3C3C30000C3C3C3C3C3C3C3C3C3C3C3C300C3C3C300C3C300C3C300C3C3C3C3C3C3C3C3000000000000000000000000000000F5000000000000000000000000000000000000000000000000000000000000000000
310
0000000000000000000000000000000000000000000000000000000000000000000000F50000000000000000000000000000000000000000C3C3C3C3000000C30000C3C3C3C3C300C3C3C3C3C3C3C3C3C3C3C3C300C3C3C3C3C3C3C3C3C3C3C3C3C3C3C3C3C3C3C3C3C3C3C300C3C3C3C3C3C3C3C300000000000000000000
310
000000000000000000000000C3C3C3000000C3C3C3C3C3C300C3C3C300C3C3C3C3C3C3C3C3C3C3C30000C3C3C3C3C3C3C3C3C300C3C3C3C3C3C3C3C3C300C3C3C3C3C3C30000C300C3C3C3C3C3C3C3C3C30000000000000000000000000000F500000000000000000000000000000000000000000000000000000000000000
310
00000000000000000000000000000000000000000000000000000000000000000000000000F5000000000000000000000000000000000000000000C3C3000000000000000000000000000000000000000000000000000000000000000000000000000000000000000000000000000000000000000000000000000000000000
310
00000000000000000000000000C3C3C3C3000000C3C3C3C3C3C3C3C3C3C3C3C3C3C3C3C3C3C3C3C3C3C3C300C3C3C3C3C3C3C3C3C3C3C300C3C3C3C3C3C3C3C3C300C3C3C3C3C3C3C3C30000C3C3C3C3C3C3000000000000000000000000000000F50000000000000000000000000000000000000000000000000000000000
310
000000000000000000000000000000000000000000000000000000000000000000000000000000F5000000000000000000000000000000000000000000C3C300000000000000000000000000000000000000000000000000000000000000000000000000000000000000000000000000000000000000000000000000000000
310
000000000000000000000000000000C3C3C3C3000000C3C3C3C3C3C3C3C3C3C3C3C3C3C3C3C3C3C3C3C3C3C3C300C3C3C3C3C3C3C3C300C3C3C3C3C3C3C3C3C3C3C3C300C3C3C3C3C3C3C3C300C3C3C3C3C3C3C3000000000000000000000000000000F5000000000000000000000000000000000000000000000000000000
310
0000000000000000000000000000000000000000000000000000000000000000000000000000000000F50000000000000000000000000000000000000000C3C3C3C3000000C30000C3C3C3C3C300C3C3C3C3C3C3C3C3C3C3C3C300C300C3C30000000000000000000000000000000000000000000000000000000000000000
310
000000000000000000000000000000000000C3C3C30000000000000000000000000000000000000000000000000000000000000000000000000000000000000000000000000000000000000000000000000000000000000000000000000000000000000000F500000000000000000000000000000000000000000000000000
310
00000000000000000000000000000000000000000000000000000000000000000000000000000000000000F50000000000000000000000000000000000000000C3C3C3C3000000C3C3C3C3C3C3C3C300C3C3C3C3C3C3C3C3C3C3C3C3C3C3C3C300000000000000000000000000000000000000000000000000000000000000
310
00000000000000000000000000000000000000000000000000000000000000000000000000000000000000000000000000000000000000000000000000000000000000000000000000000000000000000000000000000000000000000000000000000000000000F50000000000000000000000000000000000000000000000
310
000000000000000000000000000000000000000000000000000000000000000000000000000000000000000000F50000000000000000000000000000000000000000C3C3C3C3000000C30000C3C3C3C3C300C3C3C3C3C3C3C3C3C3C300C3C3C3C3C3C300000000000000000000000000000000000000000000000000000000
310
000000000000000000000000000000000000000000C3C3C3C3000000C3C3C3C300C3C3C3C3C300000000000000000000000000000000000000000000000000000000000000000000000000000000000000000000000000000000000000000000000000000000000000F5000000000000000000000000000000000000000000
310
0000000000000000000000000000000000000000000000000000000000000000000000000000000000000000000000F500000000000000000000000000000000000000000000000000000000000000000000000000000000000000000000000000000000000000000000000000000000000000000000000000000000000000
310
0000000000000000000000000000000000000000000000C3C3C3C3000000C3C3C3C3C3C3C3C3C3C300000000000000000000000000000000000000000000000000000000000000000000000000000000000000000000000000000000000000000000000000000000000000F500000000000000000000000000000000000000
310
00000000000000000000000000000000000000000000000000000000000000000000000000000000000000000000000000F50000000000000000000000000000000000000000000000000000000000000000000000000000000000000000000000000000000000000000000000000000000000000000000000000000000000
310
00000000000000000000000000000000000000000000000000C3C3C3C3000000C3C3C3C3C3C3C3C3C3C300000000000000000000000000000000000000000000000000000000000000000000000000000000000000000000000000000000000000000000000000000000000000F50000000000000000000000000000000000
310
000000000000000000000000000000000000000000000000000000000000000000000000000000000000000000000000000000F5000000000000000000000000000000000000000000000000000000C3C3C300C3C3C3C3C300C3C3C3C3C300C3C3C3C3C3C3C3C3C300C3C3C300C3C3C3C3C3C3C300C3C3C3C3C3C3C300C3C3
310
C3C3C3C3C3C3C3C3C3C3C3C3C3000000000000000000000000000000C3C3C30000000000000000000000000000000000000000000000000000000000000000000000000000000000000000000000000000000000000000000000000000000000000000000000000000000000000000F5000000000000000000000000000000
310
0000000000000000000000000000000000000000000000000000000000000000000000000000000000000000000000000000000000F5000000000000000000000000000000000000000000C3C300000000C3C3C300C3C3C3C3C300C3C3C3C3C300C3C3C3C3C3C3C3C3C300C3C3C300C3C3C3C3C3C3C300C3C3C3C3C3C3C300
310
C3C3C3C3C3C3C300C3C3C3C3C3C300000000000000000000000000000000C3C3C30000000000000000000000000000000000000000000000000000000000000000000000000000000000000000000000000000000000000000000000000000000000000000000000000000000000000000F500000000000000000000000000
310
00000000000000000000000000000000000000000000000000000000000000000000000000000000000000000000000000000000000000F50000000000000000000000000000000000000000C3C3C3C3000000C3C3C3C3C300C3C3C3C3C300C3C3C3C3C3C3C300C3C3C3C3C3C3C3C300C30000C3C3C3C3C300C3C3C3C3C3C3
310
00C3C3C3C3C3C3C3C3C3C300C3C3C3C3C30000000000000000000000000000C3C3C3C3000000C3C3C3C300000000000000000000000000000000000000000000000000000000000000000000000000000000000000000000000000000000000000000000000000000000000000000000000000F50000000000000000000000
310
000000000000000000000000000000000000000000000000000000000000000000000000000000000000000000000000000000000000000000F50000000000000000000000000000000000000000C3C3C3C3000000C3C3C3C3C300C3C3C3C3C300C3C3C3C3C3C3C300C3C3C3C3C3C3C3C300C3C3C3C3C3C3C3C300C3C300C3
310
C3C300C3C3C3C3C3C3C3C3C30000C3C3C3C3C30000000000000000000000000000C3C3C3C3000000C3C3C3C300000000000000000000000000000000000000000000000000000000000000000000000000000000000000000000000000000000000000000000000000000000000000000000000000F5000000000000000000
310
0000000000000000000000000000000000000000000000000000000000000000000000000000000000000000000000000000000000000000000000F50000000000000000000000000000000000000000C3C3C3C3000000C3C3C3C3C300C3C3C3C3C300C3C3C3C3C3C3C300C3C3C3C3C3C3C3C300C30000C3C3C3C3C300C3C3
310
00C3C3C300C3C3C3C3C3C3C3C3C300C3C3C3C3C3C30000000000000000000000000000C3C3C3C3000000C3C3C3C300000000000000000000000000000000000000000000000000000000000000000000000000000000000000000000000000000000000000000000000000000000000000000000000000F500000000000000
310
00000000000000000000000000000000000000000000000000000000000000000000000000000000000000000000000000000000000000000000000000F50000000000000000000000000000000000000000000000000000000000000000000000000000000000000000000000000000000000000000000000000000000000
310
00000000000000000000000000000000000000000000000000000000000000000000000000000000000000000000000000000000000000000000000000000000000000000000000000000000000000000000000000000000000000000000000000000000000000000000000000000000000000000000000000F50000000000
310
000000000000000000000000000000000000000000000000000000000000000000000000000000000000000000000000000000000000000000000000000000F5000000000000000000000000000000000000000000000000000000000000000000000000000000000000000000000000000000000000000000000000000000
310
000000000000000000000000000000000000000000000000000000000000000000000000000000000000000000000000000000000000000000000000000000000000000000000000000000000000000000000000000000000000000000000000000000000000000000000000000000000000000000000000000000F5000000
310
0000000000000000000000000000000000000000000000000000000000000000000000000000000000000000000000000000000000000000000000000000000000F500000000000000000000000000000000000000000000000000000000000000000000000000000000000000000000000000000000000000000000000000
310
0000000000000000000000000000000000000000000000000000000000000000000000000000000000000000000000000000000000000000000000000000000000000000000000000000000000000000000000000000000000000000000000000000000000000000000000000000000000000000000000000000000000F500
310
00000000000000000000000000000000000000000000000000000000000000000000000000000000000000000000000000000000000000000000000000000000000000F50000000000000000000000000000000000000000000000000000000000000000000000000000000000000000000000000000000000000000000000
310
00000000000000000000000000000000000000000000000000000000000000000000000000000000000000000000000000000000000000000000000000000000000000000000000000000000000000000000000000000000000000000000000000000000000000000000000000000000000000000000000000000000000000
310
F50000000000000000000000000000000000000000000000000000000000000000000000000000000000000000000000000000000000000000000000000000000000000000F5000000000000000000000000000000000000000000000000000000000000000000000000000000000000000000000000000000000000000000
310
00000000000000000000000000000000000000000000000000000000000000000000000000000000000000000000000000000000000000000000000000000000000000000000000000000000000000000000000000000000000000000000000000000000000000000000000000000000000000000000000000000000000000
310
0000F50000000000000000000000000000000000000000000000000000000000000000000000000000000000000000000000000000000000000000000000000000000000000000F500000000000000000000000000000000000000000000000000000000000000000000000000000000000000000000000000000000000000
310
00000000000000000000000000000000000000000000000000000000000000000000000000000000000000000000000000000000000000000000000000000000000000000000000000000000000000000000000000000000000000000000000000000000000000000000000000000000000000000000000000000000000000
310
00000000F50000000000000000000000000000000000000000000000000000000000000000000000000000000000000000000000000000000000000000000000000000000000000000F50000000000000000000000000000000000000000000000000000000000000000000000000000000000000000000000000000000000
310
00000000000000000000000000000000000000000000000000000000000000000000000000000000000000000000000000000000000000000000000000000000000000000000000000000000000000000000000000000000000000000000000000000000000000000000000000000000000000000000000000000000000000
310
000000000000F50000000000000000000000000000000000000000000000000000000000000000000000000000000000000000000000000000000000000000000000000000000000000000F5000000000000000000000000000000000000000000000000000000000000000000000000000000000000000000000000000000
310
00000000000000000000000000000000000000000000000000000000000000000000000000000000000000000000000000000000000000000000000000000000000000000000000000000000000000000000000000000000000000000000000000000000000000000000000000000000000000000000000000000000000000
310
0000000000000000F50000000000000000000000000000000000000000000000000000000000000000000000000000000000000000000000000000000000000000000000000000000000000000F500000000000000000000000000000000000000000000000000000000000000000000000000000000000000000000000000
310
00000000000000000000000000000000000000000000000000000000000000000000000000000000000000000000000000000000000000000000000000000000000000000000000000000000000000000000000000000000000000000000000000000000000000000000000000000000000000000000000000000000000000
310
00000000000000000000F50000000000000000000000000000000000000000000000000000000000000000000000000000000000000000000000000000000000000000000000000000000000000000F50000000000000000000000000000000000000000000000000000000000000000000000000000000000000000000000
310
00000000000000000000000000000000000000000000000000000000000000000000000000000000000000000000000000000000000000000000000000000000000000000000000000000000000000000000000000000000000000000000000000000000000000000000000000000000000000000000000000000000000000
310
000000000000000000000000F50000000000000000000000000000000000000000000000000000000000000000000000000000000000000000000000000000000000000000000000000000000000000000F5000000000000000000000000000000000000000000000000000000000000000000000000000000000000000000
310
00000000000000000000000000000000000000000000000000000000000000000000000000000000000000000000000000000000000000000000000000000000000000000000000000000000000000000000000000000000000000000000000000000000000000000000000000000000000000000000000000000000000000
310
0000000000000000000000000000F50000000000000000000000000000000000000000000000000000000000000000000000000000000000000000000000000000000000000000000000000000000000000000F500000000000000000000000000000000000000000000000000000000000000000000000000000000000000
310
00000000000000000000000000000000000000000000000000000000000000000000000000000000000000000000000000000000000000000000000000000000000000000000000000000000000000000000000000000000000000000000000000000000000000000000000000000000000000000000000000000000000000
310
00000000000000000000000000000000F50000000000000000000000000000000000000000000000000000000000000000000000000000000000000000000000000000000000000000000000000000000000000000F50000000000000000000000000000000000000000000000000000000000000000000000000000000000
310
00000000000000000000000000000000000000000000000000000000000000000000000000000000000000000000000000000000000000000000000000000000000000000000000000000000000000000000000000000000000000000000000000000000000000000000000000000000000000000000000000000000000000
310
000000000000000000000000000000000000F50000000000000000000000000000000000000000000000000000000000000000000000000000000000000000000000000000000000000000000000000000000000000000F500000000000000000000000000000000000000C3C3C30000000000000000000000000000000000
310
00000000000000000000000000000000000000000000000000000000000000000000000000000000000000000000000000000000000000000000000000000000000000000000000000000000000000000000000000000000000000000000000000000000000000000000000000000000000000000000000000000000000000
310
0000000000000000000000000000000000000000F50000000000000000000000000000000000000000000000000000000000000000000000000000000000000000000000000000000000000000000000000000000000000000F5000000000000000000000000000000000000C3C3C3C3C30000000000000000000000000000
310
00000000000000000000000000000000000000000000000000000000000000000000000000000000000000000000000000000000000000000000000000000000000000000000000000000000000000000000000000000000000000000000000000000000000000000000000000000000000000000000000000000000000000
310
00000000000000000000000000000000000000000000F50000000000000000000000000000000000000000000000000000000000000000000000000000000000000000000000000000000000000000000000000000000000000000F500000000000000000000000000000000000000C3C3C3C3000000000000000000000000
310
00000000000000000000000000000000000000000000000000000000000000000000000000000000000000000000000000000000000000000000000000000000000000000000000000000000000000000000000000000000000000000000000000000000000000000000000000000000000000000000000000000000000000
310
000000000000000000000000000000000000000000000000F50000000000000000000000000000000000000000000000000000000000000000000000000000000000000000000000000000000000000000000000000000000000000000F500000000000000000000000000000000000000C3C3C3C300000000000000000000
310
00000000000000000000000000000000000000000000000000000000000000000000000000000000000000000000000000000000000000000000000000000000000000000000000000000000000000000000000000000000000000000000000000000000000000000000000000000000000000000000000000000000000000
310
0000000000000000000000000000000000000000000000000000F50000000000000000000000000000000000000000000000000000000000000000000000000000000000000000000000000000000000000000000000000000000000000000F50000000000000000000000000000000000000000000000C300000000000000
310
00000000000000000000000000000000000000000000000000000000000000000000000000000000000000000000000000000000000000000000000000000000000000000000000000000000000000000000000000000000000000000000000000000000000000000000000000000000000000000000000000000000000000
310
00000000000000000000000000000000000000000000000000000000F50000000000000000000000000000000000000000000000000000000000000000000000000000000000000000000000000000000000000000000000000000000000000000F5000000000000000000000000000000000000000000000000C300000000
310
00000000000000000000000000F50000000000000000000000000000000000000000000000000000000000000000000000000000000000000000000000000000000000000000000000000000000000000000000000000000000000000000000000000000000000000000000000000000000000000000000000000000000000
310
000000000000000000000000000000000000000000000000000000000000F50000000000000000000000000000000000000000000000000000000000000000000000000000000000000000000000000000000000000000000000000000000000000000F500000000000000000000000000000000000000000000000000C3F5
310
F5F5F5F5F5F5F5F5F5F5F5F5F5F5F5F5F5F5F5F5F5F5F5F5F5F5F5F5F5F5F5F5F5F5F5F5F5F5F5F5F5F5F5F5F5F5F5F5F5F5F5F5F5F5F5F5F5F5F5F5F5F5F5F5F5F5F5F5F5F5F5F5F5F5F5F5F5F5F5F5F5F5F5F5F5F5F5F5F5F5F5F5F5F5F5F5F5F5F5F5F5F5F5F5F5F5F5F5F5F5F5F5F5F500000000000000000000000000
310
0000000000000000000000000000000000000000000000000000000000000000F50000000000000000000000000000000000000000000000000000000000000000000000000000000000000000000000000000000000000000000000000000000000000000F500000000000000000000000000000000000000000000000000
310
C300F5F50000F5F5F5000000000000F5F5F5F5F500000000000000000000000000000000000000000000000000000000000000000000000000000000000000000000000000000000000000000000F5F5F5F5F5000000000000000000000000000000000000000000000000000000000000F5F5F5F500000000000000000000
310
00000000000000000000000000000000000000000000000000000000000000000000F50000000000000000000000000000000000000000000000000000000000000000000000000000000000000000000000000000000000000000000000000000000000000000F50000000000000000000000000000000000000000000000
310
0000F5F5F5F5F5F5F5F5F5F5F5F5F5F5F5F5F5C3F5F5F5F5F5F5F5F5F5F5F5F5F5F5F5F5F5F5F5F5F5F5F5F5F5F5F5F5C3F5F5F5F5F5F5F5F5F5F5F5F5F5F5F5F5F5F5F5F5F5F5F5F5F5F5F5F5F5F5F5F5F5F5C3F5F5F5F5F5F5F5F5F5F5F5F5F5F5F5F5F5F5F5F5F5F5F5F5F5F5F5F5F5F5F5F5F5F5F50000000000000000
310
000000000000000000000000000000000000000000000000000000000000000000000000F50000000000000000000000000000000000000000000000000000000000000000000000000000000000000000000000000000000000000000000000000000000000000000F5000000000000000000000000000000000000000000
310
00000000F5F5F5000000000000000000000000000000C300000000000000000000000000000000000000000000000000000000C3000000000000000000000000000000000000000000000000000000000000000000C3C300000000000000000000000000000000000000000000000000000000000000F5F5F5000000000000
310
0000000000000000000000000000000000000000000000000000000000000000000000000000F50000000000000000000000000000000000000000000000000000000000000000000000000000000000000000000000000000000000000000000000000000000000000000F500000000000000000000000000000000000000
310
000000000000F5F500000000000000000000000000000000C3C3000000000000000000000000000000000000000000000000000000C3000000000000000000000000000000000000000000000000000000000000000000C3C300000000000000000000000000000000000000000000000000000000000000F500F500000000
310
0000000000000000000000000000000000000000000000000000F500F5F500000000000000000000F50000000000000000000000000000000000000000000000000000000000000000000000000000000000000000000000000000000000000000000000000000000000000000F50000000000000000000000000000000000
310
0000000000000000F5F50000000000000000000000000000000000C300000000000000000000000000000000000000000000000000000000C3000000000000000000000000000000000000000000000000000000000000000000C300000000000000000000000000000000000000000000000000000000000000F500F50000
310
000000000000000000000000000000000000000000000000000000F5F5F5F5F500000000000000000000F50000000000000000000000000000000000000000000000000000000000000000000000000000000000000000000000000000000000000000000000000000000000000000F5000000000000000000000000000000
310
00000000000000000000F5F50000000000000000000000000000000000C3C30000000000000000000000000000000000000000000000000000C3C3C3C300000000000000000000000000000000000000000000000000000000000000C3C3C30000000000000000000000000000000000000000000000000000000000F500F5
310
0000000000000000000000000000000000000000000000000000000000F5F5F500F500000000000000000000F50000000000000000000000000000000000000000000000000000000000000000000000000000000000000000000000000000000000000000000000000000000000000000F500000000000000000000000000
310
000000000000000000000000F5F500000000000000000000000000000000C3C3C3C300000000000000000000000000000000000000000000000000C3C3C3C3000000000000000000000000000000000000000000000000000000000000C3C3C3C3C300000000000000000000000000000000000000000000000000000000F5
310
00F50000000000000000000000000000000000000000000000000000000000F5000000F500000000000000000000F50000000000000000000000000000000000000000000000000000000000000000000000000000000000000000000000000000000000000000000000000000000000000000F50000000000000000000000
310
0000000000000000000000000000F5F500000000000000000000000000000000C300C3C300000000000000000000000000000000000000000000000000C3C3C3C3000000000000000000000000000000000000000000000000000000000000C3C3C3C3C3000000000000000000000000000000000000000000000000000000
310
00F500F50000000000000000000000000000000000000000000000000000000000F5000000F500000000000000000000F50000000000000000000000000000000000000000000000000000000000000000000000000000000000000000000000000000000000000000000000000000000000000000F5000000000000000000
310
00000000000000000000000000000000F5F500000000000000000000000000000000C3C3C3C300000000000000000000000000000000000000000000000000C3C3C30000000000000000000000000000000000000000000000000000000000000000C3C3C30000000000000000000000000000000000000000000000000000
310
000000F500F50000000000000000000000000000000000000000000000000000000000F5000000F500000000000000000000F50000000000000000000000000000000000000000000000000000000000000000000000000000000000000000000000000000000000000000000000000000000000000000F500000000000000
310
000000000000000000000000000000000000F5F50000000000000000000000000000000000000000000000000000000000000000000000000000000000000000000000000000000000000000000000000000000000000000000000000000000000000000000000000000000000000000000000000000000000000000000000
310
0000000000F500F50000000000000000000000000000000000000000000000000000000000F5000000F500000000000000000000F50000000000000000000000000000000000000000000000000000000000000000000000000000000000000000000000000000000000000000000000000000000000000000F50000000000
310
0000000000000000000000000000000000000000F5F5000000000000000000000000000000000000000000000000000000000000000000000000000000000000000000000000000000000000000000000000000000000000000000000000000000000000000000000000000000000000000000000000000000000000000000
310
00000000000000F500F50000000000000000000000000000000000000000000000000000000000F5000000F500000000000000000000F50000000000000000000000000000000000000000000000000000000000000000000000000000000000000000000000000000000000000000000000000000000000000000F5000000
310
00000000000000000000000000000000000000000000F5F50000000000000000000000000000000000000000000000000000000000000000000000000000000000000000000000000000000000000000000000000000000000000000000000000000000000000000000000000000000000000000000000000000000000C3C3
310
C30000000000000000F500F50000000000000000000000000000000000000000000000000000000000F5000000F500000000000000000000F50000000000000000000000000000000000000000000000000000000000000000000000000000000000000000000000000000000000000000000000000000000000000000F500
310
000000000000000000000000000000000000000000000000F5F5000000000000000000000000000000000000000000000000000000000000000000000000000000000000000000000000000000000000000000000000000000000000000000000000C3C3C3C3000000000000000000000000000000000000000000000000C3
310
C3C3C3C300000000000000F500F50000000000000000000000000000000000000000000000000000000000F5000000F500000000000000000000F50000000000000000000000000000000000000000000000000000000000000000000000000000000000000000000000000000000000000000000000000000000000000000
310
F5000000000000000000000000000000000000000000000000F5F5F5F50000000000000000000000000000000000000000000000000000000000000000000000000000000000000000000000000000000000000000000000000000000000000000000000C3C3C3C30000000000000000000000000000000000000000000000
310
00C3C3C3C3C3000000000000F5F5F5F5F50000000000000000000000000000000000000000000000000000F5F5F5F5F5F5F5F5F50000000000000000F5000000000000000000000000000000000000000000000000000000000000000000000000000000000000000000000000000000000000000000000000000000000000
310
0000F5000000000000000000000000000000000000000000000000F5F5F5F5F500000000000000000000000000000000000000000000000000000000000000000000000000000000000000000000000000000000000000000000000000000000000000000000C3C3C3C3000000000000000000000000000000000000000000
310
00000000C3C3C300000000000000F5F5F5F5F50000000000000000000000000000000000000000000000000000F5F5F5F5F5F5F5F5F50000000000000000F500000000000000000000000000000000000000000000000000000000000000000000000000000000000000000000000000000000000000000000000000000000
310
00000000F5000000000000000000000000000000000000000000000000F5F5F5F5000000000000000000000000000000000000000000000000000000000000000000000000000000000000000000000000000000000000000000000000000000000000000000000000C3C3C300000000000000000000000000000000000000
310
0000000000000000C300000000000000F5F5F5F5F50000000000000000000000000000000000000000000000000000F5F5F5F5F5F5F5F5F50000000000000000F50000000000000000000000000000000000000000000000000000000000000000000000000000000000000000000000000000000000000000000000000000
310
000000000000F500000000000000000000000000000000000000F5F5F5000000F5F5000000F5F5F5F5000000F5F500000000000000F5F500000000000000000000000000000000000000000000000000000000000000000000000000000000000000000000000000000000000000C300000000000000000000000000000000
310
00000000000000F5F5F5C3C300F5F5F5F50000F500F5000000F5F5F5000000000000000000000000000000000000F5F5F5F500F5000000F500000000000000000000F5000000000000000000000000000000000000000000000000000000000000000000000000000000000000000000000000000000000000000000000000
310
0000000000000000F500000000000000000000000000000000000000F5F5F50000F5F5F5F50000F5F5F5F5000000F5F5F5F5F5F5F5F5F5F5F500000000000000000000000000000000000000000000000000000000000000000000000000000000000000000000000000000000000000C3C300000000000000000000000000
310
000000000000000000F5F5F500C300F5F5F5F50000F500F5F50000F5F5F5000000000000000000000000000000000000F5F5F5F5F5F5000000F500000000000000000000F500000000000000000000000000000000000000000000000000000000000000000000000000000000000000000000000000000000000000000000
310
00000000000000000000F5000000000000000000F5F5F5F5F5F5F5F5F5F5F5F5F5F5F5F50000F5F5F5F5F5F5F5F5F5F5F5F5F5F5F5F5F5F5F5F5F5F5F5F5F5F5F5F5F5F5F5F5F5F5F5F5F5F5F5F5F5F5F5F5F5F5F5F5F5F5F5F5F5F5F5F5F5F5F5F5F5F5F5F5F5F5F5F5F5F5F5F5F5F5F5F5F5C3F5F5F5F5F5F5F5F5F5F5F5
310
F5F5F5F5F5F5F5F5F5F5F5F5F5F5F5C3F5F5F5F5F5F5F5F50000F5F5F5F5F5F5F5F5F5F5F5F5F5F5F5F5F5F5F5F5F5F5F5F5F5F5F5F5F500000000F500000000000000000000F50000000000000000000000000000000000000000000000000000000000000000000000000000000000000000000000000000000000000000
310
000000000000000000000000F5000000000000000000000000F5F5F500000000F5F5F5000000000000000000F5F500000000F5F5F5F5F5F500F5F5F5F50000000000000000000000000000000000000000000000000000000000000000000000000000000000000000000000000000000000000000C3F5F500000000000000
310
00000000000000000000000000F5F5F500000000F5F5000000000000000000F5F5F500000000000000000000000000000000000000F5F5000000000000F500000000000000000000F5000000000000000000000000000000000000000000000000000000000000000000000000000000000000000000000000000000000000
310
0000000000000000000000000000F5000000000000000000F5F5F5F5F5F5F5F5F5F5F5F5F5000000000000000000F5F500000000F5F5F5F500F500F5F5F5F50000000000000000000000000000000000000000000000000000000000000000000000000000000000000000000000000000000000000000F5F5F50000000000
310
000000000000000000000000000000F5F5F500000000F5F5000000000000000000F5F5F500000000000000000000000000000000000000F5F5000000000000F500000000000000000000F500000000000000000000000000000000000000000000000000000000000000000000000000000000000000000000000000000000
310
00000000000000000000000000000000F5000000000000000000000000F5F5F5F5000000F5F5F50000000000000000F5F5F5F500F5F5F5F5F5F5F5F5F5F5F5F5F5F5F5F5F5F5F5F5F5F5F5F5F5F5F5F5F5F5F5F5F5F5F5F5F5F5F5F5F5F5F5F5F5F5F5F5F5F5F5F5F5F5F5F5F5F5F5F5F5F5F5F5F5F5F5F5F5F5F5F5F5F5F5
310
F5F5F5F5F5F5F5F5F5F5F5F5F5F5F5F5F5F5F5F5F5F500F5F5F5F50000000000000000F5F5F5000000000000000000000000000000000000F5F5F5F50000000000F500000000000000000000F50000000000000000000000000000000000000000000000000000000000000000000000000000000000000000000000000000
310
000000000000000000000000000000000000F5000000000000F5F5F5F5F5F5F5F5F5F5F5F5F5F5F5F5F5F5F5F5F5F5F5F5F5F5F5F5F50000F5F5F5F5F5F5F5F5F5F5F5000000000000000000000000000000000000000000000000000000000000000000000000000000000000000000000000000000000000000000F50000
310
00000000000000000000000000000000000000F5F5F50000F5F5F5F5F5F5F5F5C3F5F5F5F5F5F5F5F5F5F5F5F5F5F5F5F5F5F5F5F5F5F5F5F5F5F5F5F5F5F5F5000000F500000000000000000000F5000000000000000000000000000000000000000000000000000000000000000000000000000000000000000000000000
310
0000000000000000000000000000000000000000F500000000000000000000000000000000000000F5F5F50000000000000000F5F5F5F5000000F5F50000C3F5F50000F5F5000000000000000000000000000000000000000000000000000000000000000000000000000000000000000000000000000000000000000000F5
310
000000000000000000000000000000000000000000F5F5F5000000F5F5F5F500000000C3000000F5F5F5000000000000000000000000000000000000F5F5F5F500F5000000F500000000000000000000F500000000000000000000000000000000000000000000000000000000000000000000000000000000000000000000
310
00000000000000000000000000000000000000000000F500000000000000000000000000000000000000F5F5F5000000000000000000F5F500000000000000C30000000000F5000000000000000000000000000000000000000000000000000000000000000000000000000000000000000000000000000000000000000000
310
00F5000000000000000000000000000000000000000000F5000000000000F5F50000000000C3000000F5F5F500000000000000000000000000000000000000F5F500F5F5F500F5F5F5F50000000000000000F50000000000000000000000000000000000000000000000000000000000000000000000000000000000000000
310
000000000000000000000000000000000000000000000000F5000000000000000000000000000000000000000000000000000000000000000000000000000000C3000000000000F500000000000000000000000000000000000000000000000000000000000000000000000000000000000000000000000000000000000000
310
000000F5000000000000000000000000000000000000000000F50000000000000000000000000000C30000000000000000000000000000000000000000000000000000F5F5F5F5F5F5F5F5F50000000000000000F5000000000000000000000000000000000000000000000000000000000000000000000000000000000000
310
0000000000000000000000000000000000000000000000000000F5000000000000000000000000000000000000000000000000000000000000000000000000C3C3C3C3000000000000F50000000000000000000000000000000000000000000000000000000000000000000000000000000000000000000000000000000000
310
0000000000F5000000000000000000000000000000000000000000F50000000000000000000000000000C3C3C3000000000000000000000000000000000000000000000000F5F5F5F5F5F5F5F5F50000000000000000F500000000000000000000000000000000000000000000000000000000000000000000000000000000
310
00000000000000000000000000000000000000000000000000000000F5000000000000000000000000000000000000000000000000000000000000000000000000C3C300C3000000000000F5000000000000000000000000000000000000000000000000000000000000000000000000000000000000000000000000000000
310
00000000000000F5000000000000000000000000000000000000000000F500000000000000000000000000C3C3C3C300000000000000000000000000000000000000000000000000F5F5F500F5F5F5F50000000000000000F50000000000000000000000000000000000000000000000000000000000000000000000000000
310
000000000000000000000000000000000000000000000000000000000000F5000000000000000000000000000000000000000000000000000000000000000000000000C3C3C3C3000000000000F500000000000000000000000000000000000000000000000000F5F5F5F5F5F5F5F5F5000000000000000000000000000000
310
000000000000000000F5000000000000F5F5F5F5F5F5F5F5F5000000000000F500000000000000000000000000C3C3C3C30000000000000000000000000000000000000000000000000000F5000000F500000000000000000000F5000000000000000000000000000000000000000000000000000000000000000000000000
310
0000000000000000000000000000000000000000000000000000000000000000F5000000000000000000000000000000000000000000000000000000000000000000000000C3C3C3C3000000000000F5F5F5F5F5F5F5F5F5F5F5F5F5F5F5F5F5F5F5F5F5F5F5F5F5F5F5F5F5F5F5F5F5F5F5F5F5F5F5F5F5F5F5F5F5F5F5F5
310
F5F5F5F5F5F5F5F5F5F5F5F5F5F5F5F5F5F5F5F5F5F5F5F5F5F5F5F5F5F5F5F5F5F500000000000000000000000000C3C3C3C30000000000000000000000000000000000000000000000000000F5000000F500000000000000000000F500000000000000000000000000000000000000000000000000000000000000000000
310
00000000000000000000000000000000000000000000000000000000000000000000F500000000000000000000000000000000000000000000000000000000000000000000000000000000000000000000F500000000000000000000000000000000000000000000000000F5F5F5F5F5F5F5F5000000000000000000000000
310
00000000000000000000000000F500000000000000F5F5F5F5F5F5F500000000000000F500000000000000000000000000000000000000000000000000000000000000000000000000000000000000F5000000F500000000000000000000F50000000000000000000000000000000000000000000000000000000000000000
310
000000000000000000000000000000000000000000000000000000000000000000000000F500000000000000000000000000000000000000000000000000000000000000000000000000000000000000000000F500000000000000000000000000000000000000000000000000F5F5F5F5F5F5F5F5F5000000000000000000
310
000000000000000000000000000000F500000000000000F5F5F5F5F5F5F500000000000000F500000000000000000000000000000000000000000000000000000000000000000000000000000000000000F5000000F500000000000000000000F5000000000000000000000000000000000000000000000000000000000000
310
0000000000000000000000000000000000000000000000000000000000000000000000000000F500000000000000000000000000000000000000000000000000000000000000000000000000000000000000000000000000000000000000000000000000000000000000000000000000000000000000000000000000000000
310
0000000000000000000000000000000000000000000000000000000000000000000000000000000000000000000000000000000000000000000000000000000000000000000000000000000000000000000000F5000000F500000000000000000000F500000000000000000000000000000000000000000000000000000000
310
00000000000000000000000000000000000000000000000000000000000000000000000000000000F50000000000000000000000000000000000000000000000000000000000000000000000000000000000000000000000000000000000000000000000000000000000000000000000000000000000000000000000000000
310
00000000000000000000000000000000000000000000000000000000000000000000000000000000000000000000000000000000000000000000000000000000000000000000000000000000000000000000000000F5000000F500000000000000000000F50000000000000000000000000000000000000000000000000000
310
000000000000000000000000000000000000000000000000000000000000000000000000000000000000F5000000000000000000000000000000000000000000000000000000000000000000000000000000000000000000000000000000000000000000000000000000000000000000000000000000000000000000000000
310
000000000000000000000000000000000000000000000000000000000000000000000000000000000000000000000000000000000000000000000000000000000000000000000000000000000000000000000000000000F5000000F500000000000000000000F5000000000000000000000000000000000000000000000000
310
0000000000000000000000000000000000000000000000000000000000000000000000000000000000000000F500000000000000000000000000000000000000000000000000000000000000000000000000000000000000000000000000000000000000000000000000000000000000000000000000000000000000000000
310
0000000000000000000000000000000000000000000000000000000000000000000000000000000000000000000000000000000000000000000000000000000000000000000000000000000000000000000000000000000000F5F5F500F500000000000000000000F500000000000000000000000000000000000000000000
310
00000000000000000000000000000000000000000000000000000000000000000000000000000000000000000000F50000000000000000000000000000000000000000000000000000000000000000000000000000000000000000000000000000000000000000000000000000000000000000000000000000000000000000
310
00000000000000000000000000000000000000000000000000000000000000000000000000000000000000000000000000000000000000000000000000000000000000000000000000000000000000000000000000000000000000F5F5F5F5F500000000000000000000F50000000000000000000000000000000000000000
310
000000000000000000000000000000000000000000000000000000000000000000000000000000000000000000000000F5000000000000000000000000000000000000000000000000000000000000000000000000000000000000000000000000000000000000000000000000000000000000000000000000000000000000
310
000000000000000000000000000000000000000000000000000000000000000000000000000000000000000000000000000000000000000000000000000000000000000000000000000000000000000000000000000000000000000000000000000000000000000000000000F5000000000000000000000000000000000000
310
0000000000000000000000000000000000000000000000000000000000000000000000000000000000000000000000000000F500000000000000000000000000000000000000000000000000000000000000000000000000000000000000000000000000000000000000000000000000000000000000000000000000000000
310
0000000000000000000000000000000000000000000000000000000000000000000000000000000000000000000000000000000000000000000000000000000000000000000000000000000000000000000000000000000000000000000000000000000000000000000000000000F500000000000000000000000000000000
310
00000000000000000000000000000000000000000000000000000000000000000000000000000000000000000000000000000000F50000000000000000000000000000000000000000000000000000000000000000000000000000000000000000000000000000000000000000000000000000000000000000000000000000
310
00000000000000000000000000000000000000000000000000000000000000000000000000000000000000000000000000000000000000000000000000000000000000000000000000000000000000000000000000000000000000000000000000000000000000000000000000000000F50000000000000000000000000000
310
000000000000000000000000000000000000000000000000000000000000000000000000000000000000000000000000000000000000F5000000000000000000000000000000000000000000000000000000000000000000000000000000000000000000000000000000000000000000000000000000000000000000000000
310
000000000000000000000000000000000000000000000000000000000000000000000000000000000000000000000000000000000000000000000000000000000000000000000000000000000000000000000000000000000000000000000000000000000000000000000000000000000000F5000000000000000000000000
310
0000000000000000000000000000000000000000000000000000000000000000000000000000000000000000000000000000000000000000F500000000000000000000000000000000000000000000000000000000000000000000000000000000000000000000000000000000000000000000000000000000000000000000
310
0000000000000000000000000000000000000000000000000000000000000000000000000000000000000000000000000000000000000000000000000000000000000000000000000000000000000000000000000000000000000000000000000000000000000000000000000000000000000000F500000000000000000000
310
00000000000000000000000000000000000000000000000000000000000000000000000000000000000000000000000000000000000000000000F50000000000000000000000000000000000000000000000000000000000000000000000000000000000000000000000000000000000000000000000000000000000000000
310
00000000000000000000000000000000000000000000000000000000000000000000000000000000000000000000000000000000000000000000000000000000000000000000000000000000000000000000000000000000000000000000000000000000000000000000000000000000000000000000F50000000000000000
310
000000000000000000000000000000000000000000000000000000000000000000000000000000000000000000000000000000000000000000000000F5000000000000000000000000000000000000000000000000000000000000000000000000000000000000000000000000000000000000000000000000000000000000
310
000000000000000000000000000000000000000000000000000000000000000000000000000000000000000000000000000000000000000000000000000000000000000000000000000000000000000000000000000000000000000000000000000000000000000000000000000000000000000000000000F5000000000000
310
0000000000000000000000000000000000000000000000000000000000000000000000000000000000000000000000000000000000000000000000000000F500000000000000000000000000000000000000000000000000000000000000000000000000000000000000000000000000000000000000000000000000000000
310
0000000000000000000000000000000000000000000000000000000000000000000000000000000000000000000000000000000000000000000000000000000000000000000000000000000000000000000000000000000000000000000000000000000000000000000000000000000000000000000000000000F500000000
310
00000000000000000000000000000000000000000000000000000000000000000000000000000000000000000000000000000000000000000000000000000000F5F5F5F5F5F5F5F5F5F5F5F5F5F5F5F5F5F5F5F5F5F5F5F5F5F5F5F5F5F5F5F5F5F5F5F5F5F5F5F5F5F5F5F5F5F5F5F5F5F5F5F5F5F5F5F5F5F5F5F5F5F5F5
310
F5F5F5F5F5F5F5F5F5F5F5F5F5F5F5F5F5F5F5F5F5F5F5F5F5F5F5F5F5F5F5F5F5F5F5F5F5F5F5F5F5F5F5F5F5F5F5F5F5F5F5F5F5F5F5F5F5F5F5F5F5F5F5F5F5F5F5F5F5F5F5F5F5F5F5F5F5F5F5F5F5F5F5F5F5F5F5F5F5F5F5F5F5F5F5F5F5F5F5F5F5F5F5F5F5F5F5F5F5F5F5F5F5F5F5F5F5F5F5F5F5F5F5F5F50000
310
0000000000000000000000000000000000000000000000000000000000000000
  0
XRECORD
  5
335
102
{ACAD_REACTORS
330
2CA
102
}
330
2CA
100
AcDbXrecord
280
     1
102
MATERIAL
148
0.0
149
0.0
149
0.0
 93
        0
 94
      127
282
     0
 72
     0
 77
     0
171
     0
175
     0
179
     0
273
     0
  0
XRECORD
  5
2CB
102
{ACAD_REACTORS
330
2CA
102
}
330
2CA
100
AcDbXrecord
280
     1
270
     1
271
     1
  0
XRECORD
  5
2CC
102
{ACAD_REACTORS
330
2CA
102
}
330
2CA
100
AcDbXrecord
280
     1
270
     1
271
     1
  0
XRECORD
  5
2CD
102
{ACAD_REACTORS
330
2CA
102
}
330
2CA
100
AcDbXrecord
280
     1
270
     1
271
     1
  0
XRECORD
  5
2CE
102
{ACAD_REACTORS
330
2CA
102
}
330
2CA
100
AcDbXrecord
280
     1
270
     1
271
     1
  0
XRECORD
  5
2CF
102
{ACAD_REACTORS
330
2CA
102
}
330
2CA
100
AcDbXrecord
280
     1
270
     1
271
     1
  0
XRECORD
  5
2D0
102
{ACAD_REACTORS
330
2CA
102
}
330
2CA
100
AcDbXrecord
280
     1
270
     1
271
     1
  0
XRECORD
  5
334
102
{ACAD_REACTORS
330
2C2
102
}
330
2C2
100
AcDbXrecord
280
     1
102
MATERIAL
148
0.0
149
0.0
149
0.0
 93
        0
 94
      127
282
     0
 72
     0
 77
     0
171
     0
175
     0
179
     0
273
     0
  0
XRECORD
  5
2C3
102
{ACAD_REACTORS
330
2C2
102
}
330
2C2
100
AcDbXrecord
280
     1
270
     1
271
     1
  0
XRECORD
  5
2C4
102
{ACAD_REACTORS
330
2C2
102
}
330
2C2
100
AcDbXrecord
280
     1
270
     1
271
     1
  0
XRECORD
  5
2C5
102
{ACAD_REACTORS
330
2C2
102
}
330
2C2
100
AcDbXrecord
280
     1
270
     1
271
     1
  0
XRECORD
  5
2C6
102
{ACAD_REACTORS
330
2C2
102
}
330
2C2
100
AcDbXrecord
280
     1
270
     1
271
     1
  0
XRECORD
  5
2C7
102
{ACAD_REACTORS
330
2C2
102
}
330
2C2
100
AcDbXrecord
280
     1
270
     1
271
     1
  0
XRECORD
  5
2C8
102
{ACAD_REACTORS
330
2C2
102
}
330
2C2
100
AcDbXrecord
280
     1
270
     1
271
     1
  0
XRECORD
  5
330
102
{ACAD_REACTORS
330
A
102
}
330
A
100
AcDbXrecord
280
     1
102
MATERIAL
148
0.0
149
0.0
149
0.0
 93
        0
 94
      127
282
     0
 72
     0
 77
     0
171
     0
175
     0
179
     0
273
     0
  0
XRECORD
  5
B
102
{ACAD_REACTORS
330
A
102
}
330
A
100
AcDbXrecord
280
     1
270
     1
271
     1
  0
XRECORD
  5
C
102
{ACAD_REACTORS
330
A
102
}
330
A
100
AcDbXrecord
280
     1
270
     1
271
     1
  0
XRECORD
  5
D
102
{ACAD_REACTORS
330
A
102
}
330
A
100
AcDbXrecord
280
     1
270
     1
271
     1
  0
XRECORD
  5
E
102
{ACAD_REACTORS
330
A
102
}
330
A
100
AcDbXrecord
280
     1
270
     1
271
     1
  0
XRECORD
  5
F
102
{ACAD_REACTORS
330
A
102
}
330
A
100
AcDbXrecord
280
     1
270
     1
271
     1
  0
XRECORD
  5
10
102
{ACAD_REACTORS
330
A
102
}
330
A
100
AcDbXrecord
280
     1
270
     1
271
     1
  0
CELLSTYLEMAP
  5
32E
102
{ACAD_REACTORS
330
2E4
102
}
330
2E4
100
AcDbCellStyleMap
 90
        3
300
CELLSTYLE
  1
TABLEFORMAT_BEGIN
 90
        5
170
     1
 91
        0
 92
    32768
 62
   257
 93
        1
300
CONTENTFORMAT
  1
CONTENTFORMAT_BEGIN
 90
        0
 91
        0
 92
      512
 93
        0
300

 40
0.0
140
1.0
 94
        5
 62
     0
340
286
144
0.25
309
CONTENTFORMAT_END
171
     0
 94
        0
309
TABLEFORMAT_END
  1
CELLSTYLE_BEGIN
 90
        1
 91
        1
300
_TITLE
309
CELLSTYLE_END
300
CELLSTYLE
  1
TABLEFORMAT_BEGIN
 90
        5
170
     1
 91
        0
 92
        0
 62
   257
 93
        1
300
CONTENTFORMAT
  1
CONTENTFORMAT_BEGIN
 90
        0
 91
        0
 92
      512
 93
        0
300

 40
0.0
140
1.0
 94
        5
 62
     0
340
286
144
0.18
309
CONTENTFORMAT_END
171
     0
 94
        0
309
TABLEFORMAT_END
  1
CELLSTYLE_BEGIN
 90
        2
 91
        1
300
_HEADER
309
CELLSTYLE_END
300
CELLSTYLE
  1
TABLEFORMAT_BEGIN
 90
        5
170
     1
 91
        0
 92
        0
 62
   257
 93
        1
300
CONTENTFORMAT
  1
CONTENTFORMAT_BEGIN
 90
        0
 91
        0
 92
      512
 93
        0
300

 40
0.0
140
1.0
 94
        2
 62
     0
340
286
144
0.18
309
CONTENTFORMAT_END
171
     0
 94
        0
309
TABLEFORMAT_END
  1
CELLSTYLE_BEGIN
 90
        3
 91
        2
300
_DATA
309
CELLSTYLE_END
  0
XRECORD
  5
336
102
{ACAD_REACTORS
330
2E4
102
}
330
2E4
100
AcDbXrecord
280
     1
102
ACAD_ROUNDTRIP_PRE2007_TABLESTYLE
 90
      512
 91
        0
  1

 92
      512
 93
        0
  2

 94
      512
 95
        0
  3

  0
XRECORD
  5
2A8
102
{ACAD_REACTORS
330
2A7
102
}
330
2A7
100
AcDbXrecord
280
     1
102
RTVSPost2010Prop28
280
     1
102
RTVSPost2010PropOp28
 70
     1
102
RTVSPost2010Prop29
280
     1
102
RTVSPost2010PropOp29
 70
     1
102
RTVSPost2010Prop30
280
     0
102
RTVSPost2010PropOp30
 70
     1
102
RTVSPost2010Prop31
280
     0
102
RTVSPost2010PropOp31
 70
     1
102
RTVSPost2010Prop32
280
     0
102
RTVSPost2010PropOp32
 70
     1
102
RTVSPost2010Prop33
280
     0
102
RTVSPost2010PropOp33
 70
     1
102
RTVSPost2010Prop34
280
     0
102
RTVSPost2010PropOp34
 70
     1
102
RTVSPost2010Prop35
280
     0
102
RTVSPost2010PropOp35
 70
     1
102
RTVSPost2010Prop36
280
     0
102
RTVSPost2010PropOp36
 70
     1
102
RTVSPost2010Prop37
 90
       50
102
RTVSPost2010PropOp37
 70
     1
102
RTVSPost2010Prop38
140
0.0
102
RTVSPost2010PropOp38
 70
     1
102
RTVSPost2010Prop39
140
1.0
102
RTVSPost2010PropOp39
 70
     1
102
RTVSPost2010Prop40
 90
        0
102
RTVSPost2010PropOp40
 70
     1
102
RTVSPost2010Prop41ColorIndex
 90
       18
102
RTVSPost2010Prop41ColorRGB
 90
        0
102
RTVSPost2010PropOp41
 70
     1
102
RTVSPost2010Prop42
 90
       50
102
RTVSPost2010PropOp42
 70
     1
102
RTVSPost2010Prop43
 90
        3
102
RTVSPost2010PropOp43
 70
     1
102
RTVSPost2010Prop44ColorIndex
 90
        5
102
RTVSPost2010Prop44ColorRGB
 90
      255
102
RTVSPost2010PropOp44
 70
     1
102
RTVSPost2010Prop45
280
     0
102
RTVSPost2010PropOp45
 70
     1
102
RTVSPost2010Prop46
 90
       50
102
RTVSPost2010PropOp46
 70
     1
102
RTVSPost2010Prop47
 90
       50
102
RTVSPost2010PropOp47
 70
     1
102
RTVSPost2010Prop48
 90
       50
102
RTVSPost2010PropOp48
 70
     1
102
RTVSPost2010Prop49
280
     0
102
RTVSPost2010PropOp49
 70
     1
102
RTVSPost2010Prop50
 90
       50
102
RTVSPost2010PropOp50
 70
     1
102
RTVSPost2010Prop51ColorIndex
 90
      256
102
RTVSPost2010Prop51ColorRGB
 90
-16777216
102
RTVSPost2010PropOp51
 70
     0
102
RTVSPost2010Prop52
140
1.0
102
RTVSPost2010PropOp52
 70
     0
102
RTVSPost2010Prop53
 90
        2
102
RTVSPost2010PropOp53
 70
     1
102
RTVSPost2010Prop54
  1
strokes_ogs.tif
102
RTVSPost2010PropOp54
 70
     1
102
RTVSPost2010Prop55
280
     0
102
RTVSPost2010PropOp55
 70
     1
102
RTVSPost2010Prop56
140
1.0
102
RTVSPost2010PropOp56
 70
     1
102
RTVSPost2010Prop57
140
1.0
102
RTVSPost2010PropOp57
 70
     1
102
RTVSPropertyOp0
 70
     1
102
RTVSPropertyOp1
 70
     1
102
RTVSPropertyOp2
 70
     1
102
RTVSPropertyOp3
 70
     1
102
RTVSPropertyOp4
 70
     1
102
RTVSPropertyOp5
 70
     1
102
RTVSPropertyOp6
 70
     1
102
RTVSPropertyOp7
 70
     1
102
RTVSPropertyOp8
 70
     1
102
RTVSPropertyOp9
 70
     1
102
RTVSPropertyOp10
 70
     1
102
RTVSPropertyOp11
 70
     1
102
RTVSPropertyOp12
 70
     1
102
RTVSPropertyOp13
 70
     1
102
RTVSPropertyOp14
 70
     1
102
RTVSPropertyOp15
 70
     1
102
RTVSPropertyOp16
 70
     1
102
RTVSPropertyOp17
 70
     1
102
RTVSPropertyOp18
 70
     1
102
RTVSPropertyOp19
 70
     1
102
RTVSPropertyOp20
 70
     1
102
RTVSPropertyOp21
 70
     1
102
RTVSPropertyOp22
 70
     1
102
RTVSPropertyOp23
 70
     1
102
RTVSPropertyOp24
 70
     1
102
RTVSPropertyOp25
 70
     1
102
RTVSPropertyOp26
 70
     1
102
RTVSPropertyOp27
 70
     1
102
RTVSPropertyOp28
 70
     1
102
RTVSPropertyOp29
 70
     1
102
RTVSPropertyOp30
 70
     1
102
RTVSPropertyOp31
 70
     1
102
RTVSPropertyOp32
 70
     1
102
RTVSPropertyOp33
 70
     1
102
RTVSPropertyOp34
 70
     1
102
RTVSPropertyOp35
 70
     1
102
RTVSPropertyOp36
 70
     1
102
RTVSPropertyOp37
 70
     1
102
RTVSPropertyOp38
 70
     1
102
RTVSPropertyOp39
 70
     1
102
RTVSPropertyOp40
 70
     1
102
RTVSPropertyOp41
 70
     1
102
RTVSPropertyOp42
 70
     1
102
RTVSPropertyOp43
 70
     1
102
RTVSPropertyOp44
 70
     1
102
RTVSPropertyOp45
 70
     1
102
RTVSPropertyOp46
 70
     1
102
RTVSPropertyOp47
 70
     1
102
RTVSPropertyOp48
 70
     1
102
RTVSPropertyOp49
 70
     1
102
RTVSPropertyOp50
 70
     1
102
RTVSPropertyOp51
 70
     0
102
RTVSPropertyOp52
 70
     0
102
RTVSPropertyOp53
 70
     1
102
RTVSPropertyOp54
 70
     1
102
RTVSPropertyOp55
 70
     1
102
RTVSPropertyOp56
 70
     1
102
RTVSPropertyOp57
 70
     1
102
RTVSPropertyOp58
 70
     1
102
RTVSPropertyOp59
 70
     1
102
RTVSPropertyOp60
 70
     1
102
RTVSPropertyOp61
 70
     1
102
RTVSPropertyOp62
 70
     1
  0
XRECORD
  5
2E8
102
{ACAD_REACTORS
330
2E7
102
}
330
2E7
100
AcDbXrecord
280
     1
102
RTVSPost2010Prop28
280
     0
102
RTVSPost2010PropOp28
 70
     1
102
RTVSPost2010Prop29
280
     1
102
RTVSPost2010PropOp29
 70
     1
102
RTVSPost2010Prop30
280
     1
102
RTVSPost2010PropOp30
 70
     1
102
RTVSPost2010Prop31
280
     0
102
RTVSPost2010PropOp31
 70
     1
102
RTVSPost2010Prop32
280
     0
102
RTVSPost2010PropOp32
 70
     1
102
RTVSPost2010Prop33
280
     0
102
RTVSPost2010PropOp33
 70
     1
102
RTVSPost2010Prop34
280
     0
102
RTVSPost2010PropOp34
 70
     1
102
RTVSPost2010Prop35
280
     0
102
RTVSPost2010PropOp35
 70
     1
102
RTVSPost2010Prop36
280
     0
102
RTVSPost2010PropOp36
 70
     1
102
RTVSPost2010Prop37
 90
       50
102
RTVSPost2010PropOp37
 70
     1
102
RTVSPost2010Prop38
140
0.0
102
RTVSPost2010PropOp38
 70
     1
102
RTVSPost2010Prop39
140
1.0
102
RTVSPost2010PropOp39
 70
     1
102
RTVSPost2010Prop40
 90
        0
102
RTVSPost2010PropOp40
 70
     1
102
RTVSPost2010Prop41ColorIndex
 90
       18
102
RTVSPost2010Prop41ColorRGB
 90
        0
102
RTVSPost2010PropOp41
 70
     1
102
RTVSPost2010Prop42
 90
       50
102
RTVSPost2010PropOp42
 70
     1
102
RTVSPost2010Prop43
 90
        3
102
RTVSPost2010PropOp43
 70
     1
102
RTVSPost2010Prop44ColorIndex
 90
        5
102
RTVSPost2010Prop44ColorRGB
 90
      255
102
RTVSPost2010PropOp44
 70
     1
102
RTVSPost2010Prop45
280
     0
102
RTVSPost2010PropOp45
 70
     1
102
RTVSPost2010Prop46
 90
       50
102
RTVSPost2010PropOp46
 70
     1
102
RTVSPost2010Prop47
 90
       50
102
RTVSPost2010PropOp47
 70
     1
102
RTVSPost2010Prop48
 90
       50
102
RTVSPost2010PropOp48
 70
     1
102
RTVSPost2010Prop49
280
     0
102
RTVSPost2010PropOp49
 70
     1
102
RTVSPost2010Prop50
 90
       50
102
RTVSPost2010PropOp50
 70
     1
102
RTVSPost2010Prop51ColorIndex
 90
      256
102
RTVSPost2010Prop51ColorRGB
 90
-16777216
102
RTVSPost2010PropOp51
 70
     0
102
RTVSPost2010Prop52
140
1.0
102
RTVSPost2010PropOp52
 70
     0
102
RTVSPost2010Prop53
 90
        2
102
RTVSPost2010PropOp53
 70
     1
102
RTVSPost2010Prop54
  1
strokes_ogs.tif
102
RTVSPost2010PropOp54
 70
     1
102
RTVSPost2010Prop55
280
     0
102
RTVSPost2010PropOp55
 70
     1
102
RTVSPost2010Prop56
140
1.0
102
RTVSPost2010PropOp56
 70
     1
102
RTVSPost2010Prop57
140
1.0
102
RTVSPost2010PropOp57
 70
     1
102
RTVSPropertyOp0
 70
     1
102
RTVSPropertyOp1
 70
     1
102
RTVSPropertyOp2
 70
     1
102
RTVSPropertyOp3
 70
     1
102
RTVSPropertyOp4
 70
     1
102
RTVSPropertyOp5
 70
     1
102
RTVSPropertyOp6
 70
     1
102
RTVSPropertyOp7
 70
     1
102
RTVSPropertyOp8
 70
     1
102
RTVSPropertyOp9
 70
     1
102
RTVSPropertyOp10
 70
     1
102
RTVSPropertyOp11
 70
     1
102
RTVSPropertyOp12
 70
     1
102
RTVSPropertyOp13
 70
     1
102
RTVSPropertyOp14
 70
     1
102
RTVSPropertyOp15
 70
     1
102
RTVSPropertyOp16
 70
     1
102
RTVSPropertyOp17
 70
     1
102
RTVSPropertyOp18
 70
     1
102
RTVSPropertyOp19
 70
     1
102
RTVSPropertyOp20
 70
     1
102
RTVSPropertyOp21
 70
     1
102
RTVSPropertyOp22
 70
     1
102
RTVSPropertyOp23
 70
     1
102
RTVSPropertyOp24
 70
     1
102
RTVSPropertyOp25
 70
     1
102
RTVSPropertyOp26
 70
     1
102
RTVSPropertyOp27
 70
     1
102
RTVSPropertyOp28
 70
     1
102
RTVSPropertyOp29
 70
     1
102
RTVSPropertyOp30
 70
     1
102
RTVSPropertyOp31
 70
     1
102
RTVSPropertyOp32
 70
     1
102
RTVSPropertyOp33
 70
     1
102
RTVSPropertyOp34
 70
     1
102
RTVSPropertyOp35
 70
     1
102
RTVSPropertyOp36
 70
     1
102
RTVSPropertyOp37
 70
     1
102
RTVSPropertyOp38
 70
     1
102
RTVSPropertyOp39
 70
     1
102
RTVSPropertyOp40
 70
     1
102
RTVSPropertyOp41
 70
     1
102
RTVSPropertyOp42
 70
     1
102
RTVSPropertyOp43
 70
     1
102
RTVSPropertyOp44
 70
     1
102
RTVSPropertyOp45
 70
     1
102
RTVSPropertyOp46
 70
     1
102
RTVSPropertyOp47
 70
     1
102
RTVSPropertyOp48
 70
     1
102
RTVSPropertyOp49
 70
     1
102
RTVSPropertyOp50
 70
     1
102
RTVSPropertyOp51
 70
     0
102
RTVSPropertyOp52
 70
     0
102
RTVSPropertyOp53
 70
     1
102
RTVSPropertyOp54
 70
     1
102
RTVSPropertyOp55
 70
     1
102
RTVSPropertyOp56
 70
     1
102
RTVSPropertyOp57
 70
     1
102
RTVSPropertyOp58
 70
     1
102
RTVSPropertyOp59
 70
     1
102
RTVSPropertyOp60
 70
     1
102
RTVSPropertyOp61
 70
     1
102
RTVSPropertyOp62
 70
     1
  0
ENDSEC
  0
EOF
