  0
SECTION
  2
HEADER
  9
$ACADVER
  1
AC1015
  9
$ACADMAINTVER
 70
    13
  9
$DWGCODEPAGE
  3
ANSI_1252
  9
$INSBASE
 10
0.0
 20
0.0
 30
0.0
  9
$EXTMIN
 10
-0.378254074714981
 20
-0.3655147390782023
 30
0.0
  9
$EXTMAX
 10
16.11174592528501
 20
10.07448526092179
 30
0.03
  9
$LIMMIN
 10
0.0
 20
0.0
  9
$LIMMAX
 10
12.0
 20
9.0
  9
$ORTHOMODE
 70
     1
  9
$REGENMODE
 70
     1
  9
$FILLMODE
 70
     1
  9
$QTEXTMODE
 70
     0
  9
$MIRRTEXT
 70
     0
  9
$LTSCALE
 40
1.0
  9
$ATTMODE
 70
     1
  9
$TEXTSIZE
 40
0.1
  9
$TRACEWID
 40
0.05
  9
$TEXTSTYLE
  7
ROMANS
  9
$CLAYER
  8
TEXT_BUBBLES
  9
$CELTYPE
  6
ByLayer
  9
$CECOLOR
 62
   256
  9
$CELTSCALE
 40
1.0
  9
$DISPSILH
 70
     0
  9
$DIMSCALE
 40
1.0
  9
$DIMASZ
 40
0.18
  9
$DIMEXO
 40
0.0625
  9
$DIMDLI
 40
0.38
  9
$DIMRND
 40
0.0
  9
$DIMDLE
 40
0.0
  9
$DIMEXE
 40
0.1
  9
$DIMTP
 40
0.0
  9
$DIMTM
 40
0.0
  9
$DIMTXT
 40
0.1
  9
$DIMCEN
 40
0.09
  9
$DIMTSZ
 40
0.0
  9
$DIMTOL
 70
     0
  9
$DIMLIM
 70
     0
  9
$DIMTIH
 70
     1
  9
$DIMTOH
 70
     1
  9
$DIMSE1
 70
     0
  9
$DIMSE2
 70
     0
  9
$DIMTAD
 70
     0
  9
$DIMZIN
 70
     0
  9
$DIMBLK
  1

  9
$DIMASO
 70
     1
  9
$DIMSHO
 70
     1
  9
$DIMPOST
  1

  9
$DIMAPOST
  1

  9
$DIMALT
 70
     0
  9
$DIMALTD
 70
     2
  9
$DIMALTF
 40
25.4
  9
$DIMLFAC
 40
1.0
  9
$DIMTOFL
 70
     0
  9
$DIMTVP
 40
0.0
  9
$DIMTIX
 70
     0
  9
$DIMSOXD
 70
     0
  9
$DIMSAH
 70
     0
  9
$DIMBLK1
  1

  9
$DIMBLK2
  1

  9
$DIMSTYLE
  2
Standard
  9
$DIMCLRD
 70
     0
  9
$DIMCLRE
 70
     0
  9
$DIMCLRT
 70
     0
  9
$DIMTFAC
 40
1.0
  9
$DIMGAP
 40
0.09
  9
$DIMJUST
 70
     0
  9
$DIMSD1
 70
     0
  9
$DIMSD2
 70
     0
  9
$DIMTOLJ
 70
     1
  9
$DIMTZIN
 70
     0
  9
$DIMALTZ
 70
     0
  9
$DIMALTTZ
 70
     0
  9
$DIMUPT
 70
     1
  9
$DIMDEC
 70
     4
  9
$DIMTDEC
 70
     4
  9
$DIMALTU
 70
     2
  9
$DIMALTTD
 70
     2
  9
$DIMTXSTY
  7
Standard
  9
$DIMAUNIT
 70
     0
  9
$DIMADEC
 70
     0
  9
$DIMALTRND
 40
0.0
  9
$DIMAZIN
 70
     0
  9
$DIMDSEP
 70
    46
  9
$DIMATFIT
 70
     3
  9
$DIMFRAC
 70
     0
  9
$DIMLDRBLK
  1

  9
$DIMLUNIT
 70
     2
  9
$DIMLWD
 70
    -2
  9
$DIMLWE
 70
    -2
  9
$DIMTMOVE
 70
     0
  9
$LUNITS
 70
     2
  9
$LUPREC
 70
     4
  9
$SKETCHINC
 40
0.1
  9
$FILLETRAD
 40
0.0
  9
$AUNITS
 70
     0
  9
$AUPREC
 70
     0
  9
$MENU
  1
.
  9
$ELEVATION
 40
0.0
  9
$PELEVATION
 40
0.0
  9
$THICKNESS
 40
0.0
  9
$LIMCHECK
 70
     0
  9
$CHAMFERA
 40
0.5
  9
$CHAMFERB
 40
0.5
  9
$CHAMFERC
 40
1.0
  9
$CHAMFERD
 40
0.0
  9
$SKPOLY
 70
     0
  9
$TDCREATE
 40
2451171.555810312
  9
$TDUCREATE
 40
2451171.847476979
  9
$TDUPDATE
 40
2453034.451946747
  9
$TDUUPDATE
 40
2453034.743613414
  9
$TDINDWG
 40
0.6248969907
  9
$TDUSRTIMER
 40
0.6248968750
  9
$USRTIMER
 70
     1
  9
$ANGBASE
 50
0.0
  9
$ANGDIR
 70
     0
  9
$PDMODE
 70
     0
  9
$PDSIZE
 40
0.0
  9
$PLINEWID
 40
0.0
  9
$SPLFRAME
 70
     0
  9
$SPLINETYPE
 70
     6
  9
$SPLINESEGS
 70
     8
  9
$HANDSEED
  5
B2D
  9
$SURFTAB1
 70
     6
  9
$SURFTAB2
 70
     6
  9
$SURFTYPE
 70
     6
  9
$SURFU
 70
     6
  9
$SURFV
 70
     6
  9
$UCSBASE
  2

  9
$UCSNAME
  2

  9
$UCSORG
 10
0.0
 20
0.0
 30
0.0
  9
$UCSXDIR
 10
1.0
 20
0.0
 30
0.0
  9
$UCSYDIR
 10
0.0
 20
1.0
 30
0.0
  9
$UCSORTHOREF
  2

  9
$UCSORTHOVIEW
 70
     0
  9
$UCSORGTOP
 10
0.0
 20
0.0
 30
0.0
  9
$UCSORGBOTTOM
 10
0.0
 20
0.0
 30
0.0
  9
$UCSORGLEFT
 10
0.0
 20
0.0
 30
0.0
  9
$UCSORGRIGHT
 10
0.0
 20
0.0
 30
0.0
  9
$UCSORGFRONT
 10
0.0
 20
0.0
 30
0.0
  9
$UCSORGBACK
 10
0.0
 20
0.0
 30
0.0
  9
$PUCSBASE
  2

  9
$PUCSNAME
  2

  9
$PUCSORG
 10
0.0
 20
0.0
 30
0.0
  9
$PUCSXDIR
 10
1.0
 20
0.0
 30
0.0
  9
$PUCSYDIR
 10
0.0
 20
1.0
 30
0.0
  9
$PUCSORTHOREF
  2

  9
$PUCSORTHOVIEW
 70
     0
  9
$PUCSORGTOP
 10
0.0
 20
0.0
 30
0.0
  9
$PUCSORGBOTTOM
 10
0.0
 20
0.0
 30
0.0
  9
$PUCSORGLEFT
 10
0.0
 20
0.0
 30
0.0
  9
$PUCSORGRIGHT
 10
0.0
 20
0.0
 30
0.0
  9
$PUCSORGFRONT
 10
0.0
 20
0.0
 30
0.0
  9
$PUCSORGBACK
 10
0.0
 20
0.0
 30
0.0
  9
$USERI1
 70
     0
  9
$USERI2
 70
     0
  9
$USERI3
 70
     0
  9
$USERI4
 70
     0
  9
$USERI5
 70
     0
  9
$USERR1
 40
0.0
  9
$USERR2
 40
0.0
  9
$USERR3
 40
0.0
  9
$USERR4
 40
0.0
  9
$USERR5
 40
0.0
  9
$WORLDVIEW
 70
     1
  9
$SHADEDGE
 70
     3
  9
$SHADEDIF
 70
    70
  9
$TILEMODE
 70
     1
  9
$MAXACTVP
 70
    48
  9
$PINSBASE
 10
0.0
 20
0.0
 30
0.0
  9
$PLIMCHECK
 70
     0
  9
$PEXTMIN
 10
1.056411918938625
 20
0.8127226217658627
 30
-0.0015258207003583
  9
$PEXTMAX
 10
9.512796550678555
 20
7.3166777694175
 30
0.0000000349246037
  9
$PLIMMIN
 10
0.8948189287460039
 20
0.5967235097856363
  9
$PLIMMAX
 10
9.730408884685799
 20
7.451894855023855
  9
$UNITMODE
 70
     0
  9
$VISRETAIN
 70
     1
  9
$PLINEGEN
 70
     1
  9
$PSLTSCALE
 70
     1
  9
$TREEDEPTH
 70
  3020
  9
$CMLSTYLE
  2
Standard
  9
$CMLJUST
 70
     0
  9
$CMLSCALE
 40
1.0
  9
$PROXYGRAPHICS
 70
     1
  9
$MEASUREMENT
 70
     0
  9
$CELWEIGHT
370
    -1
  9
$ENDCAPS
280
     0
  9
$JOINSTYLE
280
     0
  9
$LWDISPLAY
290
     0
  9
$INSUNITS
 70
     1
  9
$HYPERLINKBASE
  1

  9
$STYLESHEET
  1
8500ColorShaded.ctb
  9
$XEDIT
290
     1
  9
$CEPSNTYPE
380
     0
  9
$PSTYLEMODE
290
     1
  9
$FINGERPRINTGUID
  2
{8C135157-9AA8-11D2-84B8-0008C7D8F019}
  9
$VERSIONGUID
  2
{A1069BB6-C0ED-434D-8F90-9899AD9E8BF2}
  9
$EXTNAMES
290
     1
  9
$PSVPSCALE
 40
0.0
  9
$OLESTARTUP
290
     0
  0
ENDSEC
  0
SECTION
  2
CLASSES
  0
CLASS
  1
ACDBDICTIONARYWDFLT
  2
AcDbDictionaryWithDefault
  3
AutoCAD 2000
 90
        0
280
     0
281
     0
  0
CLASS
  1
ACDBPLACEHOLDER
  2
AcDbPlaceHolder
  3
AutoCAD 2000
 90
        0
280
     0
281
     0
  0
CLASS
  1
LAYOUT
  2
AcDbLayout
  3
AutoCAD 2000
 90
        0
280
     0
281
     0
  0
CLASS
  1
RASTERVARIABLES
  2
AcDbRasterVariables
  3
ISM
 90
        0
280
     0
281
     0
  0
CLASS
  1
IMAGEDEF
  2
AcDbRasterImageDef
  3
ISM
 90
    32768
280
     0
281
     0
  0
CLASS
  1
IMAGEDEF_REACTOR
  2
AcDbRasterImageDefReactor
  3
ISM
 90
    32769
280
     0
281
     0
  0
CLASS
  1
IMAGE
  2
AcDbRasterImage
  3
ISM
 90
    32895
280
     0
281
     1
  0
CLASS
  1
DICTIONARYVAR
  2
AcDbDictionaryVar
  3
AutoCAD 2000
 90
        0
280
     0
281
     0
  0
CLASS
  1
SORTENTSTABLE
  2
AcDbSortentsTable
  3
AutoCAD 2000
 90
        0
280
     0
281
     0
  0
CLASS
  1
LONG_TRANSACTION
  2
AcDbLongTransaction
  3
AutoCAD 2000
 90
    32768
280
     0
281
     0
  0
CLASS
  1
LWPOLYLINE
  2
AcDbPolyline
  3
AutoCAD 2000
 90
    32768
280
     0
281
     1
  0
CLASS
  1
HATCH
  2
AcDbHatch
  3
AutoCAD 2000
 90
    32768
280
     0
281
     1
  0
CLASS
  1
XRECORD
  2
AcDbXrecord
  3
AutoCAD 2000
 90
    32768
280
     0
281
     0
  0
CLASS
  1
LONG_TRANSACTION
  2
AcDbLongTransaction
  3
AutoCAD 2000
 90
    32768
280
     0
281
     0
  0
CLASS
  1
LWPOLYLINE
  2
AcDbPolyline
  3
AutoCAD 2000
 90
    32768
280
     0
281
     1
  0
CLASS
  1
HATCH
  2
AcDbHatch
  3
AutoCAD 2000
 90
    32768
280
     0
281
     1
  0
CLASS
  1
XRECORD
  2
AcDbXrecord
  3
AutoCAD 2000
 90
    32768
280
     0
281
     0
  0
CLASS
  1
PLOTSETTINGS
  2
AcDbPlotSettings
  3
AutoCAD 2000
 90
        0
280
     0
281
     0
  0
ENDSEC
  0
SECTION
  2
TABLES
  0
TABLE
  2
VPORT
  5
8
330
0
100
AcDbSymbolTable
 70
     2
  0
VPORT
  5
B2C
330
8
100
AcDbSymbolTableRecord
100
AcDbViewportTableRecord
  2
*Active
 70
     0
 10
0.0
 20
0.0
 11
1.0
 21
1.0
 12
7.866989071952427
 22
4.854485309538316
 13
0.0
 23
0.0
 14
0.5
 24
0.5
 15
0.5
 25
0.5
 16
0.0
 26
0.0
 36
1.0
 17
0.0
 27
0.0
 37
0.0
 40
11.00761055535137
 41
1.505548705302096
 42
50.0
 43
0.0
 44
0.0
 50
0.0
 51
0.0
 71
     0
 72
  5000
 73
     1
 74
     1
 75
     0
 76
     0
 77
     0
 78
     2
281
     0
 65
     1
110
0.0
120
0.0
130
0.0
111
1.0
121
0.0
131
0.0
112
0.0
122
1.0
132
0.0
 79
     0
146
0.0
  0
ENDTAB
  0
TABLE
  2
LTYPE
  5
5
330
0
100
AcDbSymbolTable
 70
     1
  0
LTYPE
  5
14
330
5
100
AcDbSymbolTableRecord
100
AcDbLinetypeTableRecord
  2
ByBlock
 70
     0
  3

 72
    65
 73
     0
 40
0.0
  0
LTYPE
  5
15
330
5
100
AcDbSymbolTableRecord
100
AcDbLinetypeTableRecord
  2
ByLayer
 70
     0
  3

 72
    65
 73
     0
 40
0.0
  0
LTYPE
  5
16
330
5
100
AcDbSymbolTableRecord
100
AcDbLinetypeTableRecord
  2
Continuous
 70
     0
  3
Solid line
 72
    65
 73
     0
 40
0.0
  0
ENDTAB
  0
TABLE
  2
LAYER
  5
2
330
0
100
AcDbSymbolTable
 70
     5
  0
LAYER
  5
10
330
2
100
AcDbSymbolTableRecord
100
AcDbLayerTableRecord
  2
0
 70
     0
 62
     7
  6
Continuous
370
    -3
390
F
  0
LAYER
  5
78
330
2
100
AcDbSymbolTableRecord
100
AcDbLayerTableRecord
  2
IMAGE
 70
     0
 62
     7
  6
Continuous
370
    -3
390
F
  0
LAYER
  5
203
330
2
100
AcDbSymbolTableRecord
100
AcDbLayerTableRecord
  2
TEXT_BUBBLES
 70
     0
 62
     6
  6
Continuous
370
    -3
390
F
  0
LAYER
  5
477
330
2
100
AcDbSymbolTableRecord
100
AcDbLayerTableRecord
  2
Defpoints
 70
     0
 62
     7
  6
Continuous
290
     0
370
    -3
390
F
  0
LAYER
  5
7F5
330
2
100
AcDbSymbolTableRecord
100
AcDbLayerTableRecord
  2
TITLE
 70
     0
 62
     4
  6
Continuous
370
    -3
390
F
  0
ENDTAB
  0
TABLE
  2
STYLE
  5
3
330
0
100
AcDbSymbolTable
 70
     6
  0
STYLE
  5
11
330
3
100
AcDbSymbolTableRecord
100
AcDbTextStyleTableRecord
  2
Standard
 70
     0
 40
0.0
 41
1.0
 50
0.0
 71
     0
 42
0.2
  3
txt
  4

  0
STYLE
  5
20E
330
3
100
AcDbSymbolTableRecord
100
AcDbTextStyleTableRecord
  2
ROMANS
 70
     0
 40
0.0
 41
1.0
 50
0.0
 71
     0
 42
0.1
  3
ROMANS.SHX
  4

  0
STYLE
  5
20F
330
3
100
AcDbSymbolTableRecord
100
AcDbTextStyleTableRecord
  2
SIMPLEX
 70
     0
 40
0.0
 41
1.0
 50
0.0
 71
     0
 42
0.1
  3
SIMPLEX
  4

  0
STYLE
  5
7F6
330
3
100
AcDbSymbolTableRecord
100
AcDbTextStyleTableRecord
  2
L100
 70
     0
 40
0.1
 41
1.0
 50
0.0
 71
     0
 42
0.1
  3
SIMPLEX
  4

  0
STYLE
  5
7F7
330
3
100
AcDbSymbolTableRecord
100
AcDbTextStyleTableRecord
  2
L200
 70
     0
 40
0.2
 41
1.0
 50
0.0
 71
     0
 42
0.081
  3
ARIAL.TTF
  4

1001
ACAD
1000
Arial
1071
       34
  0
STYLE
  5
7F8
330
3
100
AcDbSymbolTableRecord
100
AcDbTextStyleTableRecord
  2
L80
 70
     0
 40
0.08
 41
1.0
 50
0.0
 71
     0
 42
0.08
  3
ROMANS
  4

  0
ENDTAB
  0
TABLE
  2
VIEW
  5
6
330
0
100
AcDbSymbolTable
 70
     1
  0
VIEW
  5
AA6
330
6
100
AcDbSymbolTableRecord
100
AcDbViewTableRecord
  2
PS1
 70
     0
 40
10.44
 10
7.866745925285016
 20
4.854485260921797
 41
16.48999999999999
 11
0.0
 21
0.0
 31
1.0
 12
0.0
 22
0.0
 32
0.0
 42
50.0
 43
0.0
 44
0.0
 50
0.0
 71
     0
281
     0
 72
     1
110
0.0
120
0.0
130
0.0
111
1.0
121
0.0
131
0.0
112
0.0
122
1.0
132
0.0
 79
     0
146
0.0
  0
ENDTAB
  0
TABLE
  2
UCS
  5
7
330
0
100
AcDbSymbolTable
 70
     0
  0
ENDTAB
  0
TABLE
  2
APPID
  5
9
330
0
100
AcDbSymbolTable
 70
    29
  0
APPID
  5
12
330
9
100
AcDbSymbolTableRecord
100
AcDbRegAppTableRecord
  2
ACAD
 70
     0
  0
APPID
  5
2A0
330
9
100
AcDbSymbolTableRecord
100
AcDbRegAppTableRecord
  2
CONTENTBLOCKICON
 70
     0
  0
APPID
  5
7F9
330
9
100
AcDbSymbolTableRecord
100
AcDbRegAppTableRecord
  2
CLSI_CADWRITER
 70
     0
  0
APPID
  5
7FA
330
9
100
AcDbSymbolTableRecord
100
AcDbRegAppTableRecord
  2
RAK
 70
     0
  0
APPID
  5
7FB
330
9
100
AcDbSymbolTableRecord
100
AcDbRegAppTableRecord
  2
WID_Sprinkler
 70
     0
  0
APPID
  5
7FC
330
9
100
AcDbSymbolTableRecord
100
AcDbRegAppTableRecord
  2
WID_Valve
 70
     0
  0
APPID
  5
7FD
330
9
100
AcDbSymbolTableRecord
100
AcDbRegAppTableRecord
  2
WID_Fitting
 70
     0
  0
APPID
  5
7FE
330
9
100
AcDbSymbolTableRecord
100
AcDbRegAppTableRecord
  2
WID_HPNode
 70
     0
  0
APPID
  5
7FF
330
9
100
AcDbSymbolTableRecord
100
AcDbRegAppTableRecord
  2
WID_Node
 70
     0
  0
APPID
  5
800
330
9
100
AcDbSymbolTableRecord
100
AcDbRegAppTableRecord
  2
WID_Conduit
 70
     0
  0
APPID
  5
801
330
9
100
AcDbSymbolTableRecord
100
AcDbRegAppTableRecord
  2
WID_SprinklerSection
 70
     0
  0
APPID
  5
802
330
9
100
AcDbSymbolTableRecord
100
AcDbRegAppTableRecord
  2
WID_MainLineSection
 70
     0
  0
APPID
  5
803
330
9
100
AcDbSymbolTableRecord
100
AcDbRegAppTableRecord
  2
WID_ManifoldSection
 70
     0
  0
APPID
  5
804
330
9
100
AcDbSymbolTableRecord
100
AcDbRegAppTableRecord
  2
WID_DripSection
 70
     0
  0
APPID
  5
805
330
9
100
AcDbSymbolTableRecord
100
AcDbRegAppTableRecord
  2
WID_HPSection
 70
     0
  0
APPID
  5
806
330
9
100
AcDbSymbolTableRecord
100
AcDbRegAppTableRecord
  2
WID_Sleeve
 70
     0
  0
APPID
  5
807
330
9
100
AcDbSymbolTableRecord
100
AcDbRegAppTableRecord
  2
WID_Layout
 70
     0
  0
APPID
  5
808
330
9
100
AcDbSymbolTableRecord
100
AcDbRegAppTableRecord
  2
WID_Island
 70
     0
  0
APPID
  5
809
330
9
100
AcDbSymbolTableRecord
100
AcDbRegAppTableRecord
  2
WID_Controller
 70
     0
  0
APPID
  5
80A
330
9
100
AcDbSymbolTableRecord
100
AcDbRegAppTableRecord
  2
WID_SprinklerLateral
 70
     0
  0
APPID
  5
80B
330
9
100
AcDbSymbolTableRecord
100
AcDbRegAppTableRecord
  2
WID_HPDripLateral
 70
     0
  0
APPID
  5
80C
330
9
100
AcDbSymbolTableRecord
100
AcDbRegAppTableRecord
  2
WID_LabelPipeSize
 70
     0
  0
APPID
  5
80D
330
9
100
AcDbSymbolTableRecord
100
AcDbRegAppTableRecord
  2
WID_LabelPipeSegment
 70
     0
  0
APPID
  5
80E
330
9
100
AcDbSymbolTableRecord
100
AcDbRegAppTableRecord
  2
WID_LabelValveDesignator
 70
     0
  0
APPID
  5
80F
330
9
100
AcDbSymbolTableRecord
100
AcDbRegAppTableRecord
  2
WID_CheckArc
 70
     0
  0
APPID
  5
810
330
9
100
AcDbSymbolTableRecord
100
AcDbRegAppTableRecord
  2
WID_ObjectType
 70
     0
  0
APPID
  5
811
330
9
100
AcDbSymbolTableRecord
100
AcDbRegAppTableRecord
  2
WID_DripLateral
 70
     0
  0
APPID
  5
812
330
9
100
AcDbSymbolTableRecord
100
AcDbRegAppTableRecord
  2
ABNSLEADERTOOLS
 70
     0
  0
APPID
  5
813
330
9
100
AcDbSymbolTableRecord
100
AcDbRegAppTableRecord
  2
DCO15
 70
     0
  0
ENDTAB
  0
TABLE
  2
DIMSTYLE
  5
A
330
0
100
AcDbSymbolTable
 70
     1
100
AcDbDimStyleTable
 71
     0
  0
DIMSTYLE
105
27
102
{ACAD_REACTORS
330
476
102
}
330
A
100
AcDbSymbolTableRecord
100
AcDbDimStyleTableRecord
  2
Standard
 70
     0
 44
0.1
140
0.1
288
     1
340
11
  0
ENDTAB
  0
TABLE
  2
BLOCK_RECORD
  5
1
330
0
100
AcDbSymbolTable
 70
     7
  0
BLOCK_RECORD
  5
1F
102
{ACAD_XDICTIONARY
360
76
102
}
330
1
100
AcDbSymbolTableRecord
100
AcDbBlockTableRecord
  2
*Model_Space
340
22
  0
BLOCK_RECORD
  5
1B
102
{ACAD_XDICTIONARY
360
260
102
}
330
1
100
AcDbSymbolTableRecord
100
AcDbBlockTableRecord
  2
*Paper_Space
340
1E
  0
BLOCK_RECORD
  5
23
102
{ACAD_XDICTIONARY
360
262
102
}
330
1
100
AcDbSymbolTableRecord
100
AcDbBlockTableRecord
  2
*Paper_Space0
340
26
  0
BLOCK_RECORD
  5
478
330
1
100
AcDbSymbolTableRecord
100
AcDbBlockTableRecord
  2
*D1
340
0
  0
BLOCK_RECORD
  5
6F9
330
1
100
AcDbSymbolTableRecord
100
AcDbBlockTableRecord
  2
TITLBLK
340
0
102
{BLKREFS
331
89A
102
}
  0
BLOCK_RECORD
  5
71A
330
1
100
AcDbSymbolTableRecord
100
AcDbBlockTableRecord
  2
bubble
340
0
310
2800000020000000200000000100080000000000000400000000000000000000000000000000000000000000000080000080000000808000800000008000800080800000C0C0C000C0DCC000F0CAA6000020400000206000002080000020A0000020C0000020E00000400000004020000040400000406000004080000040A0
310
000040C0000040E00000600000006020000060400000606000006080000060A0000060C0000060E00000800000008020000080400000806000008080000080A0000080C0000080E00000A0000000A0200000A0400000A0600000A0800000A0A00000A0C00000A0E00000C0000000C0200000C0400000C0600000C0800000C0
310
A00000C0C00000C0E00000E0000000E0200000E0400000E0600000E0800000E0A00000E0C00000E0E00040000000400020004000400040006000400080004000A0004000C0004000E00040200000402020004020400040206000402080004020A0004020C0004020E000404000004040200040404000404060004040800040
310
40A0004040C0004040E00040600000406020004060400040606000406080004060A0004060C0004060E00040800000408020004080400040806000408080004080A0004080C0004080E00040A0000040A0200040A0400040A0600040A0800040A0A00040A0C00040A0E00040C0000040C0200040C0400040C0600040C08000
310
40C0A00040C0C00040C0E00040E0000040E0200040E0400040E0600040E0800040E0A00040E0C00040E0E00080000000800020008000400080006000800080008000A0008000C0008000E00080200000802020008020400080206000802080008020A0008020C0008020E00080400000804020008040400080406000804080
310
008040A0008040C0008040E00080600000806020008060400080606000806080008060A0008060C0008060E00080800000808020008080400080806000808080008080A0008080C0008080E00080A0000080A0200080A0400080A0600080A0800080A0A00080A0C00080A0E00080C0000080C0200080C0400080C0600080C0
310
800080C0A00080C0C00080C0E00080E0000080E0200080E0400080E0600080E0800080E0A00080E0C00080E0E000C0000000C0002000C0004000C0006000C0008000C000A000C000C000C000E000C0200000C0202000C0204000C0206000C0208000C020A000C020C000C020E000C0400000C0402000C0404000C0406000C0
310
408000C040A000C040C000C040E000C0600000C0602000C0604000C0606000C0608000C060A000C060C000C060E000C0800000C0802000C0804000C0806000C0808000C080A000C080C000C080E000C0A00000C0A02000C0A04000C0A06000C0A08000C0A0A000C0A0C000C0A0E000C0C00000C0C02000C0C04000C0C06000
310
C0C08000C0C0A000F0FBFF00A4A0A000808080000000FF0000FF000000FFFF00FF000000FF00FF00FFFF0000FFFFFF0008080808080808080808080808080808080808080808080808080808080808080808080808080808080808080808080808080808080808080808080808080808080808080808080808080808FDFDFD
310
08080808080808080808080808080808080808080808080808080808FD080808FDFDFDFDFDFD0808080808080808080808080808080808080808FDFD08080808080808080808FDFDFDFD080808080808080808080808080808FD08080808080808080808080808080808FD08080808080808080808080808FD080808080808
310
0808080808080808080808FD0808080808080808080808FDFD08080808080808080808080808080808080808FD080808080808080808FD080808080808080808080808080808080808080808FD0808080808080808FD08FD0808080808080808FD0808FD0808080808080808FDFD08080808080808FD0808FD080808080808
310
FD08080808FD080808080808FD08FD08080808080808FD0808FD080808080808FD08080808FD080808080808FD0808FD080808080808FD080808FD08080808FD080808080808FD08080808FD080808FD080808080808FD08080808FD0808FD0808080808080808FD0808FD0808080808FD0808080808FD08080808FD0808FD
310
0808080808080808FD0808FD0808080808FD0808080808FD0808080808FDFD08080808080808080808FDFD08080808080808FD08080808FD0808080808FDFD08080808080808080808FDFD08080808080808FD08080808FD08080808FD0808FD0808080808080808FD0808FD0808080808FD0808080808FD08080808FD0808
310
FD0808080808080808FD0808FD0808080808FD0808080808FD080808FD08080808FD080808080808FD08080808FD080808FD080808080808FD0808FD080808080808FD08080808FD080808080808FD0808FD080808080808FD0808FD080808080808FD08080808FD080808080808FD08FD08080808080808FD08FD08080808
310
08080808FD0808FD0808080808080808FDFD0808080808080808FD080808080808080808080808080808080808080808FD08080808080808080808FDFD08080808080808080808080808080808080808FD080808080808080808080808FD0808080808080808080808080808080808FD0808080808080808080808080808FD
310
08080808080808080808080808080808FD080808080808080808080808080808FDFD0808080808080808080808FDFDFD080808080808080808080808080808080808FD08080808FDFDFDFDFDFD08080808080808080808080808080808080808080808FDFDFDFD080808080808080808080808080808080808080808080808
310
0808080808080808080808080808080808080808080808080808080808080808080808080808080808080808080808080808080808080808
102
{BLKREFS
331
922
331
928
331
92B
331
92E
331
931
331
934
331
937
331
93F
331
942
331
945
331
948
331
94B
331
9CF
331
9D2
331
9D5
331
9D8
331
9DB
331
9DE
331
9E1
331
9E4
331
9E7
331
9EA
331
9ED
331
9F0
102
}
  0
BLOCK_RECORD
  5
71F
330
1
100
AcDbSymbolTableRecord
100
AcDbBlockTableRecord
  2
PlotLayout2002
340
0
102
{BLKREFS
331
723
331
AA1
102
}
  0
BLOCK_RECORD
  5
722
330
1
100
AcDbSymbolTableRecord
100
AcDbBlockTableRecord
  2
wid
340
0
102
{BLKREFS
331
897
331
898
102
}
  0
BLOCK_RECORD
  5
AA0
330
1
100
AcDbSymbolTableRecord
100
AcDbBlockTableRecord
  2
pagesetups
340
0
102
{BLKREFS
331
AA4
331
AA5
102
}
  0
ENDTAB
  0
ENDSEC
  0
SECTION
  2
BLOCKS
  0
BLOCK
  5
20
330
1F
100
AcDbEntity
  8
0
100
AcDbBlockBegin
  2
*Model_Space
 70
     0
 10
0.0
 20
0.0
 30
0.0
  3
*Model_Space
  1

  0
ENDBLK
  5
21
330
1F
100
AcDbEntity
  8
0
100
AcDbBlockEnd
  0
BLOCK
  5
1C
330
1B
100
AcDbEntity
 67
     1
  8
0
100
AcDbBlockBegin
  2
*Paper_Space
 70
     0
 10
0.0
 20
0.0
 30
0.0
  3
*Paper_Space
  1

  0
ENDBLK
  5
1D
330
1B
100
AcDbEntity
 67
     1
  8
0
100
AcDbBlockEnd
  0
BLOCK
  5
24
330
23
100
AcDbEntity
  8
0
100
AcDbBlockBegin
  2
*Paper_Space0
 70
     0
 10
0.0
 20
0.0
 30
0.0
  3
*Paper_Space0
  1

  0
ENDBLK
  5
25
330
23
100
AcDbEntity
  8
0
100
AcDbBlockEnd
  0
BLOCK
  5
483
330
478
100
AcDbEntity
  8
0
100
AcDbBlockBegin
  2
*D1
 70
     1
 10
0.0
 20
0.0
 30
0.0
  3
*D1
  1

  0
LINE
  5
ABB
330
478
100
AcDbEntity
  8
IMAGE
 62
     0
370
    -2
100
AcDbLine
 10
2.803610275446281
 20
8.724884136470439
 30
0.0
 11
3.402936497576167
 21
8.724884136470439
 31
0.0
  0
LINE
  5
ABC
330
478
100
AcDbEntity
  8
IMAGE
 62
     0
370
    -2
100
AcDbLine
 10
2.848690685079354
 20
7.976277989907446
 30
0.0
 11
3.402936497576167
 21
7.976277989907446
 31
0.0
  0
LINE
  5
ABD
330
478
100
AcDbEntity
  8
IMAGE
 62
     0
370
    -2
100
AcDbLine
 10
3.302936497576167
 20
8.544884136470439
 30
0.0
 11
3.302936497576167
 21
8.48531319152177
 31
0.0
  0
LINE
  5
ABE
330
478
100
AcDbEntity
  8
IMAGE
 62
     0
370
    -2
100
AcDbLine
 10
3.302936497576167
 20
8.156277989907447
 30
0.0
 11
3.302936497576167
 21
8.156503667712245
 31
0.0
  0
SOLID
  5
ABF
330
478
100
AcDbEntity
  8
IMAGE
 62
     0
100
AcDbTrace
 10
3.272936497576167
 20
8.544884136470439
 30
0.0
 11
3.332936497576167
 21
8.544884136470439
 31
0.0
 12
3.302936497576167
 22
8.724884136470439
 32
0.0
 13
3.302936497576167
 23
8.724884136470439
 33
0.0
  0
SOLID
  5
AC0
330
478
100
AcDbEntity
  8
IMAGE
 62
     0
100
AcDbTrace
 10
3.272936497576167
 20
8.156277989907447
 30
0.0
 11
3.332936497576167
 21
8.156277989907447
 31
0.0
 12
3.302936497576167
 22
7.976277989907446
 32
0.0
 13
3.302936497576167
 23
7.976277989907446
 33
0.0
  0
MTEXT
  5
AC1
330
478
100
AcDbEntity
  8
IMAGE
 62
     0
100
AcDbMText
 10
3.302936497576166
 20
8.320908429617007
 30
0.0
 40
0.125
 41
0.0
 71
     5
 72
     1
  1
\A1;14.5" MIN.
  7
ROMANS
 73
     1
 44
1.0
  0
POINT
  5
AC2
330
478
100
AcDbEntity
  8
Defpoints
 62
     0
100
AcDbPoint
 10
2.741110275446281
 20
8.724884136470439
 30
0.0
  0
POINT
  5
AC3
330
478
100
AcDbEntity
  8
Defpoints
 62
     0
100
AcDbPoint
 10
2.786190685079354
 20
7.976277989907446
 30
0.0
  0
POINT
  5
AC4
330
478
100
AcDbEntity
  8
Defpoints
 62
     0
100
AcDbPoint
 10
3.302936497576167
 20
7.976277989907446
 30
0.0
  0
ENDBLK
  5
484
330
478
100
AcDbEntity
  8
0
100
AcDbBlockEnd
  0
BLOCK
  5
704
330
6F9
100
AcDbEntity
  8
0
100
AcDbBlockBegin
  2
TITLBLK
 70
     2
 10
0.0
 20
0.0
 30
0.0
  3
TITLBLK
  1

  0
LWPOLYLINE
  5
6FA
330
6F9
100
AcDbEntity
  8
TITLE
 62
     3
100
AcDbPolyline
 90
        2
 70
     0
 43
0.04
 39
0.03
 10
0.3424999999999994
 20
-0.0000000000000003
 10
7.654581983261419
 20
-0.0000000000000003
  0
ATTDEF
  5
6FB
330
6F9
100
AcDbEntity
  8
TITLE
100
AcDbText
 10
0.625
 20
0.0999999999999998
 30
0.0
 40
0.2
  1
TITLE
  7
L200
100
AcDbAttributeDefinition
  3
DETAIL TITLE TOP 2ND LINE
  2
TITLE2
 70
     0
  0
LWPOLYLINE
  5
6FC
330
6F9
100
AcDbEntity
  8
TITLE
 62
     3
100
AcDbPolyline
 90
        2
 70
     1
 43
0.03
 10
0.0
 20
-0.3425000000000002
 42
0.9999999999999998
 10
0.0
 20
0.3425000000000002
 42
0.9999999999999998
  0
ATTDEF
  5
6FD
330
6F9
100
AcDbEntity
  8
TITLE
100
AcDbText
 10
-0.0776944065484311
 20
-0.1000000000000003
 30
0.0
 40
0.2
  1
#
  7
L200
 72
     4
 11
0.0
 21
-0.0000000000000003
 31
0.0
100
AcDbAttributeDefinition
  3
#
  2
#
 70
     0
  0
ATTDEF
  5
6FE
330
6F9
100
AcDbEntity
  8
TITLE
 62
     7
100
AcDbText
 10
0.625
 20
-0.1836633170828782
 30
0.0
 40
0.1
  1
N.T.S.
  7
L100
100
AcDbAttributeDefinition
  3
SCALE
  2
SCALE
 70
     0
  0
ATTDEF
  5
6FF
330
6F9
100
AcDbEntity
  8
TITLE
100
AcDbText
 10
2.107203380653828
 20
-0.2914343300200487
 30
0.0
 40
0.2
  1
TITLE2
  7
L200
100
AcDbAttributeDefinition
  3
DETAIL TITLE BOTTOM 1
  2
TITLE3
 70
     0
  0
ATTDEF
  5
700
330
6F9
100
AcDbEntity
  8
TITLE
 62
     7
100
AcDbText
 10
7.570772459451895
 20
-0.1618486459795794
 30
0.0
 40
0.08
  1
-
  7
L80
 72
     2
 11
7.654581983261419
 21
-0.1618486459795794
 31
0.0
100
AcDbAttributeDefinition
  3
DWG-NAME
  2
DWG-NAME
 70
     0
  0
ATTDEF
  5
701
330
6F9
100
AcDbEntity
  8
TITLE
 62
     7
100
AcDbText
 10
7.570772459451895
 20
0.0853756950662722
 30
0.0
 40
0.08
  1
-
  7
L80
 72
     2
 11
7.654581983261419
 21
0.0853756950662722
 31
0.0
100
AcDbAttributeDefinition
  3
REVISION DATE
  2
REVISED
 70
     0
  0
ATTDEF
  5
702
330
6F9
100
AcDbEntity
  8
TITLE
100
AcDbText
 10
0.625
 20
0.459485206268383
 30
0.0
 40
0.2
  1
TITLE
  7
L200
100
AcDbAttributeDefinition
  3
DETAIL TITLE TOP LINE
  2
TITLE1
 70
     0
  0
ATTDEF
  5
703
330
6F9
100
AcDbEntity
  8
TITLE
100
AcDbText
 10
2.107203380653828
 20
-0.6149710156615936
 30
0.0
 40
0.2
  1
TITLE2
  7
L200
100
AcDbAttributeDefinition
  3
DETAIL TITLE BOTTOM 2
  2
TITLE4
 70
     0
  0
ENDBLK
  5
705
330
6F9
100
AcDbEntity
  8
0
100
AcDbBlockEnd
  0
BLOCK
  5
71D
330
71A
100
AcDbEntity
  8
0
100
AcDbBlockBegin
  2
bubble
 70
     2
 10
0.0
 20
0.0
 30
0.0
  3
bubble
  1

  0
CIRCLE
  5
71B
330
71A
100
AcDbEntity
  8
TEXT_BUBBLES
100
AcDbCircle
 10
0.0
 20
0.0
 30
0.0
 40
0.1398891854377198
  0
ATTDEF
  5
71C
330
71A
100
AcDbEntity
  8
TEXT_BUBBLES
100
AcDbText
 10
0.0
 20
0.0
 30
0.0
 40
0.125
  1

  7
ROMANS
 72
     4
 11
0.0
 21
0.0
 31
0.0
100
AcDbAttributeDefinition
  3
Number
  2
XX
 70
     0
  0
ENDBLK
  5
71E
330
71A
100
AcDbEntity
  8
0
100
AcDbBlockEnd
  0
BLOCK
  5
720
330
71F
100
AcDbEntity
  8
0
100
AcDbBlockBegin
  2
PlotLayout2002
 70
     0
 10
0.0
 20
0.0
 30
0.0
  3
PlotLayout2002
  1

  0
ENDBLK
  5
721
330
71F
100
AcDbEntity
  8
0
100
AcDbBlockEnd
  0
BLOCK
  5
724
330
722
100
AcDbEntity
  8
0
 62
    40
100
AcDbBlockBegin
  2
wid
 70
     0
 10
0.0
 20
0.0
 30
0.0
  3
wid
  1

  0
INSERT
  5
723
330
722
100
AcDbEntity
  8
0
100
AcDbBlockReference
  2
PlotLayout2002
 10
0.0
 20
0.0
 30
0.0
  0
ENDBLK
  5
725
330
722
100
AcDbEntity
  8
0
 62
    40
100
AcDbBlockEnd
  0
BLOCK
  5
AA2
330
AA0
100
AcDbEntity
  8
0
100
AcDbBlockBegin
  2
pagesetups
 70
     0
 10
0.0
 20
0.0
 30
0.0
  3
pagesetups
  1

  0
INSERT
  5
AA1
330
AA0
100
AcDbEntity
  8
0
100
AcDbBlockReference
  2
PlotLayout2002
 10
0.0
 20
0.0
 30
0.0
  0
ENDBLK
  5
AA3
330
AA0
100
AcDbEntity
  8
0
100
AcDbBlockEnd
  0
ENDSEC
  0
SECTION
  2
ENTITIES
  0
LINE
  5
21E
330
1F
100
AcDbEntity
  8
IMAGE
100
AcDbLine
 10
2.509329986167244
 20
9.655796931793023
 30
0.0
 11
2.509123576064999
 21
8.939867749963877
 31
0.0
  0
LINE
  5
21F
330
1F
100
AcDbEntity
  8
IMAGE
100
AcDbLine
 10
2.509123576064999
 20
8.939867749963877
 30
0.0
 11
2.540954220869815
 21
8.939867749963877
 31
0.0
  0
LINE
  5
221
330
1F
100
AcDbEntity
  8
IMAGE
100
AcDbLine
 10
2.540954220869815
 20
8.939867749963877
 30
0.0
 11
2.539978523783396
 21
9.654140403675913
 31
0.0
  0
ARC
  5
222
330
1F
100
AcDbEntity
  8
IMAGE
100
AcDbCircle
 10
2.526334787003612
 20
9.686061317809199
 30
0.0
 40
0.0347144971506236
100
AcDbArc
 50
293.1429835745748
 51
240.6694579860812
  0
LWPOLYLINE
  5
224
330
1F
100
AcDbEntity
  8
IMAGE
100
AcDbPolyline
 90
        4
 70
     1
 43
0.0
 10
2.481385132358033
 20
8.756748020578065
 10
2.56869266457678
 20
8.756748020578065
 10
2.56869266457678
 20
8.899600239296649
 10
2.481385132358033
 20
8.899600239296649
  0
LINE
  5
225
330
1F
100
AcDbEntity
  8
IMAGE
100
AcDbLine
 10
2.506483018394381
 20
8.899600239296649
 30
0.0
 11
2.506483018394381
 21
8.756748020578065
 31
0.0
  0
LINE
  5
226
330
1F
100
AcDbEntity
  8
IMAGE
100
AcDbLine
 10
2.534141908180893
 20
8.899600239296649
 30
0.0
 11
2.534141908180893
 21
8.756748020578065
 31
0.0
  0
ARC
  5
227
330
1F
100
AcDbEntity
  8
IMAGE
100
AcDbCircle
 10
2.629624253819013
 20
8.827172725398231
 30
0.0
 40
0.1649866112780925
100
AcDbArc
 50
136.9171196735521
 51
153.9605270834689
  0
ARC
  5
228
330
1F
100
AcDbEntity
  8
IMAGE
100
AcDbCircle
 10
2.420453543115803
 20
8.827172725398231
 30
0.0
 40
0.1649866112780925
100
AcDbArc
 50
26.03947291653109
 51
43.08288032644784
  0
LINE
  5
229
330
1F
100
AcDbEntity
  8
IMAGE
100
AcDbLine
 10
2.509123576064999
 20
8.716480509910836
 30
0.0
 11
2.540954220869815
 21
8.716480509910836
 31
0.0
  0
ARC
  5
22A
330
1F
100
AcDbEntity
  8
IMAGE
100
AcDbCircle
 10
2.629624253819013
 20
8.829175534476483
 30
0.0
 40
0.1649866112780925
100
AcDbArc
 50
206.039472916531
 51
223.0828803264478
  0
ARC
  5
22B
330
1F
100
AcDbEntity
  8
IMAGE
100
AcDbCircle
 10
2.420453543115803
 20
8.829175534476483
 30
0.0
 40
0.1649866112780925
100
AcDbArc
 50
316.9171196735521
 51
333.9605270834689
  0
LINE
  5
22F
330
1F
100
AcDbEntity
  8
IMAGE
100
AcDbLine
 10
2.509123576064999
 20
8.716480509910836
 30
0.0
 11
2.509123576064999
 21
8.046365768608904
 31
0.0
  0
LINE
  5
231
330
1F
100
AcDbEntity
  8
IMAGE
100
AcDbLine
 10
2.540954220869815
 20
8.716480509910836
 30
0.0
 11
2.540954220869815
 21
8.046365768608904
 31
0.0
  0
LWPOLYLINE
  5
235
330
1F
100
AcDbEntity
  8
IMAGE
100
AcDbPolyline
 90
        4
 70
     1
 43
0.0
 10
2.46616696087972
 20
8.046365768608904
 10
2.46616696087972
 20
7.975199691700833
 10
2.572228508147893
 20
7.975199691700833
 10
2.572228508147893
 20
8.046365768608904
  0
LINE
  5
236
330
1F
100
AcDbEntity
  8
IMAGE
100
AcDbLine
 10
2.650729751377167
 20
7.745135544297914
 30
0.0
 11
2.394187021388241
 21
7.745135544297912
 31
0.0
  0
ARC
  5
237
330
1F
100
AcDbEntity
  8
IMAGE
100
AcDbCircle
 10
2.542770393291802
 20
7.874125370388878
 30
0.0
 40
0.1268231220479326
100
AcDbArc
 50
127.1582018245553
 51
173.3008394644094
  0
LINE
  5
238
330
1F
100
AcDbEntity
  8
IMAGE
100
AcDbLine
 10
2.416813174014082
 20
7.888920072069179
 30
0.0
 11
2.416813174014082
 21
7.801735243504053
 31
0.0
  0
ARC
  5
239
330
1F
100
AcDbEntity
  8
IMAGE
100
AcDbCircle
 10
2.532535811013459
 20
7.904775115050364
 30
0.0
 40
0.0808401583509354
100
AcDbArc
 50
347.6376028182326
 51
60.59352417231895
  0
LINE
  5
23A
330
1F
100
AcDbEntity
  8
IMAGE
100
AcDbLine
 10
2.611501528392566
 20
7.887467698114054
 30
0.0
 11
2.611501528392566
 21
7.818811913638429
 31
0.0
  0
LINE
  5
23B
330
1F
100
AcDbEntity
  8
IMAGE
100
AcDbLine
 10
2.416813174014082
 20
7.888920072069179
 30
0.0
 11
2.611501528392566
 21
7.888920072069179
 31
0.0
  0
ARC
  5
23C
330
1F
100
AcDbEntity
  8
IMAGE
100
AcDbCircle
 10
2.063696311626227
 20
7.501070722337633
 30
0.0
 40
0.0202701967418534
100
AcDbArc
 50
339.2093867777753
 51
110.811549926942
  0
ARC
  5
23D
330
1F
100
AcDbEntity
  8
IMAGE
100
AcDbCircle
 10
2.021068144396196
 20
7.462649797598329
 30
0.0
 40
0.018644757884093
100
AcDbArc
 50
138.5379879897302
 51
305.1231142858741
  0
LINE
  5
23E
330
1F
100
AcDbEntity
  8
IMAGE
100
AcDbLine
 10
2.007095858233743
 20
7.474994926838276
 30
0.0
 11
2.056494403939836
 21
7.520018371311322
 31
0.0
  0
LINE
  5
240
330
1F
100
AcDbEntity
  8
IMAGE
100
AcDbLine
 10
2.082646591015845
 20
7.493875738876298
 30
0.0
 11
2.031795131086785
 21
7.447399920448123
 31
0.0
  0
ARC
  5
242
330
1F
100
AcDbEntity
  8
IMAGE
100
AcDbCircle
 10
2.391529402135553
 20
7.751623144183998
 30
0.0
 40
0.0163806670132302
100
AcDbArc
 50
243.4839160117618
 51
279.3370081285134
  0
LINE
  5
243
330
1F
100
AcDbEntity
  8
IMAGE
100
AcDbLine
 10
2.381323803047802
 20
7.764436106334043
 30
0.0
 11
2.068917511600919
 21
7.520656940624421
 31
0.0
  0
LINE
  5
244
330
1F
100
AcDbEntity
  8
IMAGE
100
AcDbLine
 10
2.083650370531663
 20
7.504636729790207
 30
0.0
 11
2.407150516684137
 21
7.755175277907262
 31
0.0
  0
LINE
  5
245
330
1F
100
AcDbEntity
  8
IMAGE
100
AcDbLine
 10
2.394187021388241
 20
7.745135544297912
 30
0.0
 11
2.394187021388241
 21
7.619039301516062
 31
0.0
  0
ARC
  5
246
330
1F
100
AcDbEntity
  8
IMAGE
100
AcDbCircle
 10
2.981220461139183
 20
7.501070722337633
 30
0.0
 40
0.0202701967418534
100
AcDbArc
 50
69.18845007305797
 51
200.7906132222246
  0
ARC
  5
247
330
1F
100
AcDbEntity
  8
IMAGE
100
AcDbCircle
 10
3.023848628369213
 20
7.462649797598329
 30
0.0
 40
0.018644757884093
100
AcDbArc
 50
234.8768857141258
 51
41.46201201026982
  0
LINE
  5
248
330
1F
100
AcDbEntity
  8
IMAGE
100
AcDbLine
 10
3.037820914531667
 20
7.474994926838276
 30
0.0
 11
2.988422368825574
 21
7.520018371311322
 31
0.0
  0
LINE
  5
249
330
1F
100
AcDbEntity
  8
IMAGE
100
AcDbLine
 10
2.962270181749564
 20
7.493875738876298
 30
0.0
 11
3.013121641678623
 21
7.447399920448123
 31
0.0
  0
ARC
  5
24A
330
1F
100
AcDbEntity
  8
IMAGE
100
AcDbCircle
 10
2.653387370629857
 20
7.751623144183998
 30
0.0
 40
0.0163806670132302
100
AcDbArc
 50
51.46247378831816
 51
203.3316158335928
  0
LINE
  5
24B
330
1F
100
AcDbEntity
  8
IMAGE
100
AcDbLine
 10
2.663592969717607
 20
7.764436106334043
 30
0.0
 11
2.975999261164489
 21
7.520656940624421
 31
0.0
  0
LINE
  5
24C
330
1F
100
AcDbEntity
  8
IMAGE
100
AcDbLine
 10
2.961266402233746
 20
7.504636729790207
 30
0.0
 11
2.637766256081272
 21
7.755175277907262
 31
0.0
  0
LINE
  5
24D
330
1F
100
AcDbEntity
  8
IMAGE
100
AcDbLine
 10
2.650729751377167
 20
7.745135544297912
 30
0.0
 11
2.650729751377167
 21
7.619039301516062
 31
0.0
  0
LWPOLYLINE
  5
24E
330
1F
100
AcDbEntity
  8
IMAGE
100
AcDbPolyline
 90
       14
 70
     0
 43
0.0
 10
2.366655303506809
 20
7.752989875325845
 42
-0.4385108651310272
 10
2.34871901034706
 20
7.78403942371114
 42
-0.2813761756748647
 10
2.377644373951339
 20
7.812050700753736
 42
-0.2563601862612431
 10
2.418320737017073
 20
7.800304032156063
 10
2.447246100621352
 20
7.779521483863893
 42
0.151844209126808
 10
2.468940142772068
 20
7.772292780108294
 10
2.546677149834233
 20
7.772292780108294
 42
0.1761144745021952
 10
2.566563351897802
 20
7.779521483863893
 10
2.598200475632804
 20
7.80843634887594
 42
-0.2728365869467559
 10
2.628933718219241
 20
7.821086580448236
 42
-0.1301615513176607
 10
2.658763040762107
 20
7.80843634887594
 42
-0.2871590258243043
 10
2.668706122346387
 20
7.781328659802795
 42
-0.1616495223658054
 10
2.662378682041389
 20
7.770485604169396
 42
0.0222613497478809
 10
2.658833774590621
 20
7.767071863732702
 42
2.139382358767603
  0
ARC
  5
24F
330
1F
100
AcDbEntity
  8
IMAGE
100
AcDbCircle
 10
2.653387370629857
 20
7.751623144183998
 30
0.0
 40
0.0163806670132302
100
AcDbArc
 50
260.6629918714882
 51
296.516083988238
  0
ARC
  5
250
330
1F
100
AcDbEntity
  8
IMAGE
100
AcDbCircle
 10
2.391529402135553
 20
7.751623144183998
 30
0.0
 40
0.0163806670132302
100
AcDbArc
 50
336.6683841664031
 51
128.5375262116818
  0
CIRCLE
  5
251
330
1F
100
AcDbEntity
  8
IMAGE
100
AcDbCircle
 10
2.601816155807089
 20
7.696391290695213
 30
0.0
 40
0.0271175624121525
  0
CIRCLE
  5
252
330
1F
100
AcDbEntity
  8
IMAGE
100
AcDbCircle
 10
2.42916773864492
 20
7.68735538600589
 30
0.0
 40
0.0225979621942919
  0
LINE
  5
253
330
1F
100
AcDbEntity
  8
IMAGE
100
AcDbLine
 10
2.487922424792069
 20
7.745135544297912
 30
0.0
 11
2.487922424792069
 21
7.718981014926283
 31
0.0
  0
LINE
  5
254
330
1F
100
AcDbEntity
  8
IMAGE
100
AcDbLine
 10
2.487922424792069
 20
7.718981014926283
 30
0.0
 11
2.557524151462081
 21
7.718981014926283
 31
0.0
  0
LINE
  5
255
330
1F
100
AcDbEntity
  8
IMAGE
100
AcDbLine
 10
2.557524151462081
 20
7.718981014926283
 30
0.0
 11
2.557524151462081
 21
7.745135544297912
 31
0.0
  0
LINE
  5
256
330
1F
100
AcDbEntity
  8
IMAGE
100
AcDbLine
 10
2.394187021388241
 20
7.619039301516062
 30
0.0
 11
2.650729751377167
 21
7.619039301516062
 31
0.0
  0
LINE
  5
2A7
330
1F
100
AcDbEntity
  8
IMAGE
100
AcDbLine
 10
2.469986262973961
 20
7.619039301516062
 30
0.0
 11
2.469986262973961
 21
6.198087958708408
 31
0.0
  0
LINE
  5
2A8
330
1F
100
AcDbEntity
  8
IMAGE
100
AcDbLine
 10
2.55811531672638
 20
7.619039301516062
 30
0.0
 11
2.55811531672638
 21
6.198970486350427
 31
0.0
  0
LWPOLYLINE
  5
2AB
330
1F
100
AcDbEntity
  8
IMAGE
100
AcDbPolyline
 90
        2
 70
     0
 43
0.0174933527056723
 10
2.431828118466794
 20
7.663125151338403
 10
2.431896783249702
 20
6.194727220664029
  0
LWPOLYLINE
  5
2AC
330
1F
100
AcDbEntity
  8
IMAGE
100
AcDbPolyline
 90
        4
 70
     0
 43
0.0174933527056723
 10
2.432066778251103
 20
2.559380282846057
 42
0.1259671753729509
 10
2.491131068681674
 20
2.412219593128516
 42
0.0712088424180204
 10
2.565739322205756
 20
2.33596252731496
 42
-0.267898288550189
 10
2.628172810075921
 20
2.22260598518072
 42
3.002596717700678
  0
LWPOLYLINE
  5
2B0
330
1F
100
AcDbEntity
  8
IMAGE
100
AcDbPolyline
 90
        6
 70
     0
 43
0.0174933527056723
 10
2.604078445196691
 20
7.418167829207739
 10
2.604078445196691
 20
7.447890676978229
 42
0.1562848955026542
 10
2.591774864321345
 20
7.497087118976761
 10
2.541535190553668
 20
7.561657478781192
 42
-0.2617593047704202
 10
2.516927989907963
 20
7.629302602150943
 10
2.523079780345637
 20
7.718981014926283
  0
LWPOLYLINE
  5
2B1
330
1F
100
AcDbEntity
  8
IMAGE
100
AcDbPolyline
 90
        8
 70
     1
 43
0.0
 10
2.575370076855882
 20
7.34335346451936
 42
0.4142135623730951
 10
2.589724280473787
 20
7.328999260901454
 10
2.62458443925228
 20
7.328999260901454
 42
0.4142135623730951
 10
2.638938642870185
 20
7.34335346451936
 10
2.638938642870185
 20
7.402788687738176
 42
0.4142135623730951
 10
2.62458443925228
 20
7.417142891356082
 10
2.589724280473787
 20
7.417142891356082
 42
0.4142135623730951
 10
2.575370076855882
 20
7.402788687738176
  0
LWPOLYLINE
  5
2B3
330
1F
100
AcDbEntity
  8
IMAGE
100
AcDbPolyline
 90
        2
 70
     0
 43
0.0087466763528361
 10
2.564091768456804
 20
7.283902520319896
 10
2.399018543535868
 20
7.283902520319896
  0
LWPOLYLINE
  5
2B4
330
1F
100
AcDbEntity
  8
IMAGE
100
AcDbPolyline
 90
        2
 70
     0
 43
0.0087466763528361
 10
2.46258710955017
 20
7.200883504139078
 10
2.642014538089021
 20
7.200883504139078
  0
LWPOLYLINE
  5
2B5
330
1F
100
AcDbEntity
  8
IMAGE
100
AcDbPolyline
 90
        2
 70
     0
 43
0.0087
 10
2.56278598516495
 20
6.517489932412125
 10
2.401736565763263
 20
6.517489932412125
  0
LWPOLYLINE
  5
2B6
330
1F
100
AcDbEntity
  8
IMAGE
100
AcDbPolyline
 90
        2
 70
     0
 43
0.0087
 10
2.465285800957365
 20
6.414430560593705
 10
2.642004892126423
 20
6.414430560593705
  0
LWPOLYLINE
  5
2BF
330
1F
100
AcDbEntity
  8
IMAGE
100
AcDbPolyline
 90
        2
 70
     0
 43
0.0174933527056723
 10
2.431896783249702
 20
6.194727220664029
 10
2.431901185187518
 20
6.100591681210634
  0
LINE
  5
2C0
330
1F
100
AcDbEntity
  8
IMAGE
100
AcDbLine
 10
2.469986262973961
 20
6.198087958708408
 30
0.0
 11
2.469986262973961
 21
6.097577164045068
 31
0.0
  0
LINE
  5
2C1
330
1F
100
AcDbEntity
  8
IMAGE
100
AcDbLine
 10
2.55811531672638
 20
6.198970486350427
 30
0.0
 11
2.55811531672638
 21
6.09796934604174
 31
0.0
  0
LWPOLYLINE
  5
2C2
330
1F
100
AcDbEntity
  8
IMAGE
100
AcDbPolyline
 90
        2
 70
     0
 43
0.0174933527056723
 10
2.608040562414842
 20
6.195205090370059
 10
2.605103756567971
 20
7.328999260901454
  0
LWPOLYLINE
  5
2D5
330
1F
100
AcDbEntity
  8
IMAGE
100
AcDbPolyline
 90
        2
 70
     0
 43
0.0087
 10
2.559956061992393
 20
5.701863981008343
 10
2.405511987745599
 20
5.701863981008343
  0
LWPOLYLINE
  5
2D6
330
1F
100
AcDbEntity
  8
IMAGE
100
AcDbPolyline
 90
        2
 70
     0
 43
0.0087
 10
2.466403915823654
 20
5.668108942847007
 10
2.63911553737785
 20
5.668108942847007
  0
ARC
  5
2D8
330
1F
100
AcDbEntity
  8
IMAGE
100
AcDbCircle
 10
2.51405078985017
 20
5.43016361932699
 30
0.0
 40
0.0440645268762088
100
AcDbArc
 50
180.0
 51
0.0
  0
LWPOLYLINE
  5
2D9
330
1F
100
AcDbEntity
  8
IMAGE
100
AcDbPolyline
 90
        2
 70
     0
 43
0.0174933527056723
 10
2.609606075711855
 20
5.590817213679463
 10
2.60854505010171
 20
6.000440700655735
  0
LINE
  5
2DA
330
1F
100
AcDbEntity
  8
IMAGE
100
AcDbLine
 10
2.55811531672638
 20
5.595770258620751
 30
0.0
 11
2.55811531672638
 21
5.55048258219401
 31
0.0
  0
LINE
  5
2DB
330
1F
100
AcDbEntity
  8
IMAGE
100
AcDbLine
 10
2.469986262973961
 20
5.596614625030285
 30
0.0
 11
2.469986262973961
 21
5.558630235069684
 31
0.0
  0
LWPOLYLINE
  5
2DC
330
1F
100
AcDbEntity
  8
IMAGE
100
AcDbPolyline
 90
        2
 70
     0
 43
0.0174933527056723
 10
2.431924873862968
 20
5.594008822630158
 10
2.431926211393541
 20
5.565405701158759
  0
CIRCLE
  5
2E9
330
1F
100
AcDbEntity
  8
IMAGE
100
AcDbCircle
 10
2.805227375763667
 20
3.002703720860106
 30
0.0
 40
0.040623154691391
  0
LINE
  5
2EB
102
{ACAD_REACTORS
330
30C
102
}
330
1F
100
AcDbEntity
  8
IMAGE
100
AcDbLine
 10
2.562179884216631
 20
6.743228332601004
 30
0.0
 11
4.139229830755619
 21
7.639210775647677
 31
0.0
  0
LINE
  5
2F7
102
{ACAD_REACTORS
330
30C
102
}
330
1F
100
AcDbEntity
  8
IMAGE
100
AcDbLine
 10
2.562179884216631
 20
6.743228332601004
 30
0.0
 11
4.161168428498104
 21
5.201503373920754
 31
0.0
  0
LINE
  5
2F8
102
{ACAD_REACTORS
330
30C
102
}
330
1F
100
AcDbEntity
  8
IMAGE
100
AcDbLine
 10
4.161168428498104
 20
5.201503373920754
 30
0.0
 11
6.040026171919867
 21
6.28626239785432
 31
0.0
  0
LINE
  5
2F9
102
{ACAD_REACTORS
330
30C
102
}
330
1F
100
AcDbEntity
  8
IMAGE
100
AcDbLine
 10
6.160571530345761
 20
6.203259443188332
 30
0.0
 11
4.076115853389675
 21
7.684134027783693
 31
0.0
  0
LINE
  5
2FA
330
1F
100
AcDbEntity
  8
IMAGE
100
AcDbLine
 10
6.026655044045653
 20
6.159413374441057
 30
0.0
 11
4.158270816706544
 21
5.080701237837171
 31
0.0
  0
LINE
  5
2FB
330
1F
100
AcDbEntity
  8
IMAGE
100
AcDbLine
 10
4.158270816706544
 20
5.080701237837171
 30
0.0
 11
2.55811531672638
 21
6.629866197037573
 31
0.0
  0
HATCH
  5
30C
330
1F
100
AcDbEntity
  8
IMAGE
100
AcDbHatch
 10
0.0
 20
0.0
 30
0.0
210
0.0
220
0.0
230
1.0
  2
AR-B816
 70
     0
 71
     1
 91
        1
 92
       33
 93
        4
 72
     1
 10
2.562179884216631
 20
6.743228332601004
 11
4.161168428498104
 21
5.201503373920754
 72
     1
 10
4.161168428498104
 20
5.201503373920754
 11
6.040026171919867
 21
6.28626239785432
 72
     1
 10
6.160571530345761
 20
6.203259443188332
 11
4.076115853389675
 21
7.684134027783693
 72
     1
 10
2.562179884216631
 20
6.743228332601004
 11
4.139229830755619
 21
7.639210775647677
 97
        4
330
2F7
330
2F8
330
2F9
330
2EB
 75
     0
 76
     1
 52
30.0
 41
0.0174933527056723
 77
     0
 78
     2
 53
29.99999999999999
 43
-0.8659223037622583
 44
-0.7488995737864242
 45
-0.069973410822689
 46
0.1211975027237873
 79
     0
 53
119.9999999999999
 43
-0.8659223037622583
 44
-0.7488995737864242
 45
-0.1911709135464763
 46
0.0512240919010983
 79
     2
 49
0.1399468216453779
 49
-0.1399468216453779
 98
        1
 10
-0.8659223037622583
 20
-0.7488995737864242
  0
LINE
  5
313
330
1F
100
AcDbEntity
  8
IMAGE
100
AcDbLine
 10
2.461498215184824
 20
6.679218743849116
 30
0.0
 11
0.6843209617811317
 21
5.574758256164447
 31
0.0
  0
LINE
  5
315
330
1F
100
AcDbEntity
  8
IMAGE
100
AcDbLine
 10
0.6843209617811317
 20
5.574758256164447
 30
0.0
 11
0.6683721383341661
 21
5.462523646101087
 31
0.0
  0
LINE
  5
316
330
1F
100
AcDbEntity
  8
IMAGE
100
AcDbLine
 10
0.6683721383341661
 20
5.462523646101087
 30
0.0
 11
2.43113212990614
 21
6.535678325773363
 31
0.0
  0
LINE
  5
317
330
1F
100
AcDbEntity
  8
IMAGE
100
AcDbLine
 10
0.8157668499037249
 20
5.54578120962772
 30
0.0
 11
0.8157668499037249
 21
2.944063465292387
 31
0.0
  0
LINE
  5
319
330
1F
100
AcDbEntity
  8
IMAGE
100
AcDbLine
 10
4.075227778658294
 20
5.16109802718139
 30
0.0
 11
4.075227778658294
 21
2.559380282846057
 31
0.0
  0
LINE
  5
31A
330
1F
100
AcDbEntity
  8
IMAGE
100
AcDbLine
 10
4.075227778658294
 20
2.559380282846057
 30
0.0
 11
6.037995411552905
 21
3.692584704054445
 31
0.0
  0
LINE
  5
31B
330
1F
100
AcDbEntity
  8
IMAGE
100
AcDbLine
 10
6.037995411552905
 20
6.43715058897621
 30
0.0
 11
6.037995411552905
 21
4.921140039314391
 31
0.0
  0
LINE
  5
31C
330
1F
100
AcDbEntity
  8
IMAGE
100
AcDbLine
 10
2.609662525826375
 20
8.724884136470439
 30
0.0
 11
2.861703029400207
 21
8.724884136470439
 31
0.0
  0
LINE
  5
31D
330
1F
100
AcDbEntity
  8
IMAGE
100
AcDbLine
 10
2.677742439564767
 20
7.976277989907446
 30
0.0
 11
2.937025480532501
 21
7.976277989907446
 31
0.0
  0
LWPOLYLINE
  5
35E
330
1F
100
AcDbEntity
  8
IMAGE
100
AcDbPolyline
 90
        5
 70
     0
 43
0.0
 10
6.037995411552905
 20
4.921140039314391
 10
6.111235717505352
 20
4.942898245299311
 10
5.934930049231161
 20
4.736195288442567
 10
6.069880090405868
 20
4.773184221154557
 10
6.037995411552905
 20
4.725316185450105
  0
LINE
  5
35F
330
1F
100
AcDbEntity
  8
IMAGE
100
AcDbLine
 10
6.037995411552905
 20
4.725316185450105
 30
0.0
 11
6.037995411552905
 21
3.522879804790692
 31
0.0
  0
LWPOLYLINE
  5
360
330
1F
100
AcDbEntity
  8
IMAGE
100
AcDbPolyline
 90
        4
 70
     0
 43
0.0
 10
5.565487947854308
 20
6.626028880199545
 10
5.764436423653255
 20
6.688315213058062
 10
5.574579130348494
 20
6.517538386745632
 10
5.683378941466143
 20
6.542274748066881
  0
TEXT
  5
3FE
330
1F
100
AcDbEntity
  8
TEXT_BUBBLES
100
AcDbText
 10
8.242199897765999
 20
1.440463066101
 30
0.0
 40
0.10000000149
  1

  7
SIMPLEX
100
AcDbText
  0
TEXT
  5
3FF
330
1F
100
AcDbEntity
  8
TEXT_BUBBLES
100
AcDbText
 10
8.242199897765999
 20
-1.226204156876
 30
0.0
 40
0.10000000149
  1

  7
SIMPLEX
100
AcDbText
  0
TEXT
  5
400
330
1F
100
AcDbEntity
  8
TEXT_BUBBLES
100
AcDbText
 10
8.242199897765999
 20
-1.559537649154999
 30
0.0
 40
0.10000000149
  1

  7
SIMPLEX
100
AcDbText
  0
TEXT
  5
401
330
1F
100
AcDbEntity
  8
TEXT_BUBBLES
100
AcDbText
 10
8.242199897765999
 20
0.6071295142170001
 30
0.0
 40
0.10000000149
  1

  7
SIMPLEX
100
AcDbText
  0
TEXT
  5
402
330
1F
100
AcDbEntity
  8
TEXT_BUBBLES
100
AcDbText
 10
8.242199897765999
 20
0.9404628872869999
 30
0.0
 40
0.10000000149
  1

  7
SIMPLEX
100
AcDbText
  0
TEXT
  5
403
330
1F
100
AcDbEntity
  8
TEXT_BUBBLES
100
AcDbText
 10
8.242199897765999
 20
0.107129439712
 30
0.0
 40
0.10000000149
  1

  7
SIMPLEX
100
AcDbText
  0
TEXT
  5
405
330
1F
100
AcDbEntity
  8
TEXT_BUBBLES
100
AcDbText
 10
4.588362519113744
 20
3.444456744145555
 30
0.0
 40
0.10000000149
  1

  7
ROMANS
100
AcDbText
  0
TEXT
  5
406
330
1F
100
AcDbEntity
  8
TEXT_BUBBLES
100
AcDbText
 10
4.588362519113744
 20
4.065617251347554
 30
0.0
 40
0.10000000149
  1

  7
ROMANS
100
AcDbText
  0
TEXT
  5
407
330
1F
100
AcDbEntity
  8
TEXT_BUBBLES
100
AcDbText
 10
4.588362519113744
 20
5.152648138950555
 30
0.0
 40
0.10000000149
  1

  7
ROMANS
100
AcDbText
  0
TEXT
  5
408
330
1F
100
AcDbEntity
  8
TEXT_BUBBLES
100
AcDbText
 10
4.588362519113744
 20
6.394969153355554
 30
0.0
 40
0.10000000149
  1

  7
ROMANS
100
AcDbText
  0
TEXT
  5
409
330
1F
100
AcDbEntity
  8
TEXT_BUBBLES
100
AcDbText
 10
4.588362519113744
 20
4.842067885349554
 30
0.0
 40
0.10000000149
  1

  7
ROMANS
100
AcDbText
  0
TEXT
  5
40A
330
1F
100
AcDbEntity
  8
TEXT_BUBBLES
100
AcDbText
 10
16.90309906005899
 20
2.055109977722
 30
0.0
 40
0.10000000149
  1

  7
ROMANS
100
AcDbText
  0
TEXT
  5
40B
330
1F
100
AcDbEntity
  8
TEXT_BUBBLES
100
AcDbText
 10
16.90309906005899
 20
2.210409641266
 30
0.0
 40
0.10000000149
  1

  7
ROMANS
100
AcDbText
  0
TEXT
  5
40C
330
1F
100
AcDbEntity
  8
TEXT_BUBBLES
100
AcDbText
 10
4.588362519113744
 20
3.133876490543554
 30
0.0
 40
0.10000000149
  1

  7
ROMANS
100
AcDbText
  0
TEXT
  5
40D
330
1F
100
AcDbEntity
  8
TEXT_BUBBLES
100
AcDbText
 10
16.90309906005899
 20
2.831608295440999
 30
0.0
 40
0.10000000149
  1

  7
ROMANS
100
AcDbText
  0
TEXT
  5
40E
330
1F
100
AcDbEntity
  8
TEXT_BUBBLES
100
AcDbText
 10
16.90309906005899
 20
2.986907958984
 30
0.0
 40
0.10000000149
  1

  7
ROMANS
100
AcDbText
  0
TEXT
  5
40F
330
1F
100
AcDbEntity
  8
TEXT_BUBBLES
100
AcDbText
 10
16.90309906005899
 20
2.521008968353
 30
0.0
 40
0.10000000149
  1

  7
ROMANS
100
AcDbText
  0
TEXT
  5
410
330
1F
100
AcDbEntity
  8
TEXT_BUBBLES
100
AcDbText
 10
16.90309906005899
 20
1.744510650635
 30
0.0
 40
0.10000000149
  1

  7
ROMANS
100
AcDbText
  0
TEXT
  5
411
330
1F
100
AcDbEntity
  8
TEXT_BUBBLES
100
AcDbText
 10
16.90309906005899
 20
1.12331199646
 30
0.0
 40
0.10000000149
  1

  7
ROMANS
100
AcDbText
  0
TEXT
  5
412
330
1F
100
AcDbEntity
  8
TEXT_BUBBLES
100
AcDbText
 10
16.90309906005899
 20
0.968012332916
 30
0.0
 40
0.10000000149
  1

  7
ROMANS
100
AcDbText
  0
TEXT
  5
413
330
1F
100
AcDbEntity
  8
TEXT_BUBBLES
100
AcDbText
 10
16.90309906005899
 20
1.433911323547
 30
0.0
 40
0.10000000149
  1

  7
ROMANS
100
AcDbText
  0
TEXT
  5
414
330
1F
100
AcDbEntity
  8
TEXT_BUBBLES
100
AcDbText
 10
4.588362519113744
 20
5.618518519352554
 30
0.0
 40
0.10000000149
  1

  7
ROMANS
100
AcDbText
  0
TEXT
  5
415
330
1F
100
AcDbEntity
  8
TEXT_BUBBLES
100
AcDbText
 10
4.588362519113744
 20
3.755036997746555
 30
0.0
 40
0.10000000149
  1

  7
ROMANS
100
AcDbText
  0
TEXT
  5
416
330
1F
100
AcDbEntity
  8
TEXT_BUBBLES
100
AcDbText
 10
4.588362519113744
 20
5.929098772953555
 30
0.0
 40
0.10000000149
  1

  7
ROMANS
100
AcDbText
  0
TEXT
  5
41F
330
1F
100
AcDbEntity
  8
TEXT_BUBBLES
100
AcDbText
 10
4.588362519113744
 20
3.444456744145555
 30
0.0
 40
0.10000000149
  1

  7
ROMANS
100
AcDbText
  0
TEXT
  5
420
330
1F
100
AcDbEntity
  8
TEXT_BUBBLES
100
AcDbText
 10
4.588362519113744
 20
4.065617251347554
 30
0.0
 40
0.10000000149
  1

  7
ROMANS
100
AcDbText
  0
TEXT
  5
421
330
1F
100
AcDbEntity
  8
TEXT_BUBBLES
100
AcDbText
 10
4.588362519113744
 20
5.152648138950555
 30
0.0
 40
0.10000000149
  1

  7
ROMANS
100
AcDbText
  0
TEXT
  5
422
330
1F
100
AcDbEntity
  8
TEXT_BUBBLES
100
AcDbText
 10
4.588362519113744
 20
6.394969153355554
 30
0.0
 40
0.10000000149
  1

  7
ROMANS
100
AcDbText
  0
TEXT
  5
423
330
1F
100
AcDbEntity
  8
TEXT_BUBBLES
100
AcDbText
 10
4.588362519113744
 20
4.842067885349554
 30
0.0
 40
0.10000000149
  1

  7
ROMANS
100
AcDbText
  0
TEXT
  5
424
330
1F
100
AcDbEntity
  8
TEXT_BUBBLES
100
AcDbText
 10
16.90309906005899
 20
2.055109977722
 30
0.0
 40
0.10000000149
  1

  7
ROMANS
100
AcDbText
  0
TEXT
  5
425
330
1F
100
AcDbEntity
  8
TEXT_BUBBLES
100
AcDbText
 10
16.90309906005899
 20
2.210409641266
 30
0.0
 40
0.10000000149
  1

  7
ROMANS
100
AcDbText
  0
TEXT
  5
426
330
1F
100
AcDbEntity
  8
TEXT_BUBBLES
100
AcDbText
 10
4.588362519113744
 20
3.133876490543554
 30
0.0
 40
0.10000000149
  1

  7
ROMANS
100
AcDbText
  0
TEXT
  5
427
330
1F
100
AcDbEntity
  8
TEXT_BUBBLES
100
AcDbText
 10
16.90309906005899
 20
2.831608295440999
 30
0.0
 40
0.10000000149
  1

  7
ROMANS
100
AcDbText
  0
TEXT
  5
428
330
1F
100
AcDbEntity
  8
TEXT_BUBBLES
100
AcDbText
 10
16.90309906005899
 20
2.986907958984
 30
0.0
 40
0.10000000149
  1

  7
ROMANS
100
AcDbText
  0
TEXT
  5
429
330
1F
100
AcDbEntity
  8
TEXT_BUBBLES
100
AcDbText
 10
16.90309906005899
 20
2.521008968353
 30
0.0
 40
0.10000000149
  1

  7
ROMANS
100
AcDbText
  0
TEXT
  5
42A
330
1F
100
AcDbEntity
  8
TEXT_BUBBLES
100
AcDbText
 10
16.90309906005899
 20
1.744510650635
 30
0.0
 40
0.10000000149
  1

  7
ROMANS
100
AcDbText
  0
TEXT
  5
42B
330
1F
100
AcDbEntity
  8
TEXT_BUBBLES
100
AcDbText
 10
16.90309906005899
 20
1.12331199646
 30
0.0
 40
0.10000000149
  1

  7
ROMANS
100
AcDbText
  0
TEXT
  5
42C
330
1F
100
AcDbEntity
  8
TEXT_BUBBLES
100
AcDbText
 10
16.90309906005899
 20
0.968012332916
 30
0.0
 40
0.10000000149
  1

  7
ROMANS
100
AcDbText
  0
TEXT
  5
42D
330
1F
100
AcDbEntity
  8
TEXT_BUBBLES
100
AcDbText
 10
16.90309906005899
 20
1.433911323547
 30
0.0
 40
0.10000000149
  1

  7
ROMANS
100
AcDbText
  0
TEXT
  5
42E
330
1F
100
AcDbEntity
  8
TEXT_BUBBLES
100
AcDbText
 10
4.588362519113744
 20
5.618518519352554
 30
0.0
 40
0.10000000149
  1

  7
ROMANS
100
AcDbText
  0
TEXT
  5
42F
330
1F
100
AcDbEntity
  8
TEXT_BUBBLES
100
AcDbText
 10
4.588362519113744
 20
3.755036997746555
 30
0.0
 40
0.10000000149
  1

  7
ROMANS
100
AcDbText
  0
TEXT
  5
431
330
1F
100
AcDbEntity
  8
TEXT_BUBBLES
100
AcDbText
 10
4.588362519113744
 20
5.929098772953555
 30
0.0
 40
0.10000000149
  1

  7
ROMANS
100
AcDbText
  0
MTEXT
  5
44C
330
1F
100
AcDbEntity
  8
TEXT_BUBBLES
100
AcDbMText
 10
7.654506024718163
 20
9.459012189820789
 30
0.0
 40
0.125
 41
7.7903
 71
     1
 72
     5
  3
FREEDOM SYSTEM ANTENNA\P\P14.5" IS REQUIRED FOR 450 TO 470 MHZ.  FOR OTHER FREQUENCIES\PREFER TO INSTRUCTIONS WITH ANTENNA FOR PROPER LENGTH.\P\PCONNECT #10 GA OR LARGER GROUND WIRE TO "U" BOLT OF ANTENNA\PUSING A GROUND TERMINAL LUG (PANDUIT MODEL C
  3
X70-14-C). {\H0.8x; \P\P}CONNECT 25'-0" LENGTH OF RG-8/U COAXIAL CABLE MODEL RAC-02 TO\PANTENNA COAXIAL CABLE CONNECTOR.\P\PSECURE COPPER GROUND WIRE AND COAXIAL CABLE TO THE ANTENNA \PMAST USING PROPER STANDOFF INSULATORS (RADIO SHACK #15-823)\P\P1-
  3
1/4" ANTENNA MAST 5'-0" LONG. \P\PATTACH MAST TO SIDE OF BUILDING OR OTHER MOUNTING LOCATION ON\PBUILDING USING THE PROPER MOUNTING BRACKETS.\P\PSECURE COPPER GROUND WIRE AND COAXIAL CABLE TO SIDE OF\PBUILDING USING PROPER STANDOFF INSULATORS. (RADIO
  3
 SHACK #15-853, \P#15-854 OR #15-820)\P\PCOAXIAL CABLE THROUGH WALL OF BUILDING AND TO COAXIAL CABLE\PCONNECTOR ON TOP OF FREEDOM SYSTEM. REFER TO SITECONTROL DETAIL 503\P\PCONNECT 25'-0" LENGTH OF RG-8/U COAXIAL CABLE MODEL RAC-02 TO\PSURGE ARRESTOR
  1
. REFER TO SITECONTROL DETAIL 503\P\P#6 GA OR LARGER GROUND WIRE FROM GROUNDING STUD ON SURGE\PARRESTOR TO TO GROUND GRID\P\PATTACH EACH GROUND GRID-REFER TO SITECONTROL DETAIL 305
  7
ROMANS
 73
     1
 44
1.0
  0
DIMENSION
  5
476
330
1F
100
AcDbEntity
  8
IMAGE
100
AcDbDimension
  2
*D1
 10
3.302936497576167
 20
7.976277989907446
 30
0.0
 11
3.302936497576166
 21
8.320908429617007
 31
0.0
 70
   160
  1
14.5" MIN.
 71
     5
 42
0.7486061465629926
  3
Standard
100
AcDbAlignedDimension
 13
2.741110275446281
 23
8.724884136470439
 33
0.0
 14
2.786190685079354
 24
7.976277989907446
 34
0.0
 50
90.0
100
AcDbRotatedDimension
1001
ACAD
1000
DSTYLE
1002
{
1070
   140
1040
0.125
1070
   340
1005
20E
1002
}
  0
LWPOLYLINE
  5
4BF
330
1F
100
AcDbEntity
  8
IMAGE
100
AcDbPolyline
 90
        2
 70
     0
 43
0.0087
 10
2.38309416138447
 20
5.068406384495041
 10
2.486515913820213
 20
5.068406384495041
  0
LWPOLYLINE
  5
4C0
330
1F
100
AcDbEntity
  8
IMAGE
100
AcDbPolyline
 90
        2
 70
     0
 43
0.0087
 10
2.562113504460186
 20
5.064720744318946
 10
2.665535256895929
 20
5.064720744318946
  0
LWPOLYLINE
  5
4C1
330
1F
100
AcDbEntity
  8
IMAGE
100
AcDbPolyline
 90
        2
 70
     0
 43
0.0087
 10
2.38309416138447
 20
3.632115774322745
 10
2.486515913820213
 20
3.632115774322745
  0
LWPOLYLINE
  5
4C2
330
1F
100
AcDbEntity
  8
IMAGE
100
AcDbPolyline
 90
        2
 70
     0
 43
0.0087
 10
2.562113504460186
 20
3.62843013414665
 10
2.665535256895929
 20
3.62843013414665
  0
LWPOLYLINE
  5
4C3
330
1F
100
AcDbEntity
  8
IMAGE
100
AcDbPolyline
 90
        2
 70
     0
 43
0.0087
 10
2.38309416138447
 20
4.392722095896406
 10
2.486515913820213
 20
4.392722095896406
  0
LWPOLYLINE
  5
4C4
330
1F
100
AcDbEntity
  8
IMAGE
100
AcDbPolyline
 90
        2
 70
     0
 43
0.0087
 10
2.562113504460186
 20
4.389036455720311
 10
2.665535256895929
 20
4.389036455720311
  0
LWPOLYLINE
  5
4C5
330
1F
100
AcDbEntity
  8
IMAGE
100
AcDbPolyline
 90
        2
 70
     0
 43
0.0087
 10
2.38309416138447
 20
2.896209914715281
 10
2.486515913820213
 20
2.896209914715281
  0
HATCH
  5
4FD
330
1F
100
AcDbEntity
  8
IMAGE
100
AcDbHatch
 10
0.0
 20
0.0
 30
0.0
210
0.0
220
0.0
230
1.0
  2
EARTH
 70
     0
 71
     0
 91
        1
 92
        5
 93
       20
 72
     3
 10
2.572270999953549
 20
2.243575716768883
 11
0.0
 21
0.045604864261559
 40
0.7170455520210162
 50
114.7239932476478
 51
180.0
 73
     0
 72
     1
 10
2.572270999953544
 20
2.197970852507323
 11
2.51881237683755
 21
2.197970852507324
 72
     3
 10
2.518812376837543
 20
2.243575716768883
 11
0.0
 21
0.045604864261559
 40
0.7170455520210162
 50
180.0
 51
245.2760067523517
 73
     0
 72
     1
 10
2.487760346014287
 20
2.22927762101913
 11
2.410530692368651
 21
2.22927762101913
 72
     3
 10
2.379478661545394
 20
2.243575716768883
 11
0.0
 21
0.045604864261559
 40
0.7170455520210162
 50
114.7239932476478
 51
180.0
 73
     0
 72
     1
 10
2.379478661545384
 20
2.197970852507324
 11
2.326020038429388
 21
2.197970852507324
 72
     1
 10
2.326020038429388
 20
2.197970852507324
 11
2.295652138409572
 21
2.151133693565894
 72
     1
 10
2.295652138409572
 20
2.151133693565894
 11
2.227459526983118
 21
2.106792057907441
 72
     1
 10
2.227459526983118
 20
2.106792057907441
 11
2.251326956162468
 21
2.028341462561741
 72
     1
 10
2.251326956162468
 20
2.028341462561741
 11
2.288832887386988
 21
1.963534435177656
 72
     1
 10
2.288832887386988
 20
1.963534435177656
 11
2.377483251881195
 21
1.929425475490411
 72
     1
 10
2.377483251881195
 20
1.929425475490411
 11
2.462724016164262
 21
1.929425475490411
 72
     1
 10
2.462724016164262
 20
1.929425475490411
 11
2.561603282492498
 21
1.994232502874493
 72
     1
 10
2.561603282492498
 20
1.994232502874493
 11
2.677530676377199
 21
2.055628598484978
 72
     1
 10
2.677530676377199
 20
2.055628598484978
 11
3.015084057397871
 21
2.031752354552147
 72
     1
 10
3.015084057397871
 20
2.031752354552147
 11
3.124192200259986
 21
2.059039490475377
 72
     1
 10
3.124192200259986
 20
2.059039490475377
 11
3.291264078014677
 21
2.086326666181819
 72
     1
 10
3.291264078014677
 20
2.086326666181819
 11
3.318541107405168
 21
2.168188153517926
 72
     1
 10
3.318541107405168
 20
2.168188153517926
 11
3.352637413118394
 21
2.22927762101913
 72
     1
 10
3.352637413118394
 20
2.22927762101913
 11
2.603323030776807
 21
2.22927762101913
 97
        0
 75
     0
 76
     1
 52
135.0
 41
0.65
 77
     0
 78
     6
 53
135.0
 43
4.528148809489366
 44
-0.4223765754945248
 45
-0.2298097038856279
 46
0.0
 79
     2
 49
0.1625
 49
-0.1625
 53
135.0
 43
4.485059490010811
 44
-0.4654658949730801
 45
-0.2298097038856279
 46
0.0
 79
     2
 49
0.1625
 49
-0.1625
 53
135.0
 43
4.441970170532255
 44
-0.5085552144516353
 45
-0.2298097038856279
 46
0.0
 79
     2
 49
0.1625
 49
-0.1625
 53
225.0
 43
4.413243957546551
 44
-0.5085552144516353
 45
-0.0000000000000001
 46
-0.2298097038856279
 79
     2
 49
0.1625
 49
-0.1625
 53
225.0
 43
4.370154638067996
 44
-0.4654658949730801
 45
-0.0000000000000001
 46
-0.2298097038856279
 79
     2
 49
0.1625
 49
-0.1625
 53
225.0
 43
4.327065318589442
 44
-0.4223765754945248
 45
-0.0000000000000001
 46
-0.2298097038856279
 79
     2
 49
0.1625
 49
-0.1625
 47
0.0016899862092437
 98
        1
 10
2.721692191944534
 20
2.143422118593363
  0
INSERT
  5
897
330
1F
100
AcDbEntity
  8
TEXT_BUBBLES
 62
    42
100
AcDbBlockReference
  2
wid
 10
16.21332305138359
 20
-1.956968045147149
 30
0.0
  0
INSERT
  5
898
330
1F
100
AcDbEntity
  8
TEXT_BUBBLES
 62
    42
100
AcDbBlockReference
  2
wid
 10
16.21332305138359
 20
-1.956968045147149
 30
0.0
  0
LWPOLYLINE
  5
899
330
1F
100
AcDbEntity
  8
IMAGE
100
AcDbPolyline
 90
        4
 70
     1
 43
0.0
 10
-0.378254074714981
 20
-0.3655147390782023
 10
16.11174592528501
 20
-0.3655147390782021
 10
16.11174592528501
 20
10.07448526092179
 10
-0.378254074714981
 20
10.07448526092179
  0
INSERT
  5
89A
330
1F
100
AcDbEntity
  8
TEXT_BUBBLES
 62
    42
100
AcDbBlockReference
 66
     1
  2
TITLBLK
 10
0.2281882957995016
 20
0.5187123574001653
 30
0.0
  0
ATTRIB
  5
89B
330
89A
100
AcDbEntity
  8
TITLE
100
AcDbText
 10
0.8531882957995016
 20
0.618712357400165
 30
0.0
 40
0.2
  1
ANTENNA INSTALLATION
  7
L200
100
AcDbAttribute
  2
TITLE2
 70
     0
  0
ATTRIB
  5
89C
330
89A
100
AcDbEntity
  8
TITLE
100
AcDbText
 10
-0.0048949238457918
 20
0.4200084010563727
 30
0.0
 40
0.2
  1
504
  7
L200
 72
     4
 11
0.2281882957995016
 21
0.5187123574001653
 31
0.0
100
AcDbAttribute
  2
#
 70
     0
  0
ATTRIB
  5
89D
330
89A
100
AcDbEntity
  8
TITLE
 62
     7
100
AcDbText
 10
0.8531882957995016
 20
0.335049040317287
 30
0.0
 40
0.1
  1
N.T.S.
  7
L100
100
AcDbAttribute
  2
SCALE
 70
     0
  0
ATTRIB
  5
89E
330
89A
100
AcDbEntity
  8
TITLE
100
AcDbText
 10
2.33539167645333
 20
0.227278027380116
 30
0.0
 40
0.2
  1

  7
L200
100
AcDbAttribute
  2
TITLE3
 70
     0
  0
ATTRIB
  5
89F
330
89A
100
AcDbEntity
  8
TITLE
 62
     7
100
AcDbText
 10
-0.1326518327427508
 20
-0.29480322636277
 30
0.0
 40
0.08
  1
504-FREEDOM-LDI-SDI-TWI BASE ANT.DWG
  7
L80
 72
     2
 11
2.534014833923915
 21
-0.29480322636277
 31
0.0
100
AcDbAttribute
  2
DWG-NAME
 70
     0
  0
ATTRIB
  5
8A0
330
89A
100
AcDbEntity
  8
TITLE
 62
     7
100
AcDbText
 10
7.311341707632349
 20
0.6040880524664374
 30
0.0
 40
0.08
  1
1-21-04
  7
L80
 72
     2
 11
7.88277027906092
 21
0.6040880524664374
 31
0.0
100
AcDbAttribute
  2
REVISED
 70
     0
  0
ATTRIB
  5
8A1
330
89A
100
AcDbEntity
  8
TITLE
100
AcDbText
 10
0.8531882957995016
 20
0.978197563668548
 30
0.0
 40
0.2
  1
FREEDOM SYSTEM RADIO OR LDI/SDI/TWI BASE 
  7
L200
100
AcDbAttribute
  2
TITLE1
 70
     0
  0
ATTRIB
  5
8A2
330
89A
100
AcDbEntity
  8
TITLE
100
AcDbText
 10
2.33539167645333
 20
-0.0962586582614282
 30
0.0
 40
0.2
  1

  7
L200
100
AcDbAttribute
  2
TITLE4
 70
     0
  0
SEQEND
  5
8A3
330
89A
100
AcDbEntity
  8
TEXT_BUBBLES
 62
    40
  0
INSERT
  5
922
330
1F
100
AcDbEntity
  8
TEXT_BUBBLES
100
AcDbBlockReference
 66
     1
  2
bubble
 10
1.740462600413722
 20
2.114631215093102
 30
0.0
  0
ATTRIB
  5
923
330
922
100
AcDbEntity
  8
TEXT_BUBBLES
100
AcDbText
 10
1.612486409937532
 20
2.052131215093102
 30
0.0
 40
0.125
  1
12
  7
ROMANS
 72
     4
 11
1.740462600413722
 21
2.114631215093102
 31
0.0
100
AcDbAttribute
  2
XX
 70
     0
  0
SEQEND
  5
924
330
922
100
AcDbEntity
  8
TEXT_BUBBLES
  0
INSERT
  5
928
330
1F
100
AcDbEntity
  8
TEXT_BUBBLES
100
AcDbBlockReference
 66
     1
  2
bubble
 10
1.740462600413722
 20
4.25245196428695
 30
0.0
  0
ATTRIB
  5
929
330
928
100
AcDbEntity
  8
TEXT_BUBBLES
100
AcDbText
 10
1.680938790889913
 20
4.18995196428695
 30
0.0
 40
0.125
  1
8
  7
ROMANS
 72
     4
 11
1.740462600413722
 21
4.25245196428695
 31
0.0
100
AcDbAttribute
  2
XX
 70
     0
  0
SEQEND
  5
92A
330
928
100
AcDbEntity
  8
TEXT_BUBBLES
  0
INSERT
  5
92B
330
1F
100
AcDbEntity
  8
TEXT_BUBBLES
100
AcDbBlockReference
 66
     1
  2
bubble
 10
1.781849622114889
 20
5.653088238511458
 30
0.0
  0
ATTRIB
  5
92C
330
92B
100
AcDbEntity
  8
TEXT_BUBBLES
100
AcDbText
 10
1.719349622114889
 20
5.590588238511458
 30
0.0
 40
0.125
  1
6
  7
ROMANS
 72
     4
 11
1.781849622114889
 21
5.653088238511458
 31
0.0
100
AcDbAttribute
  2
XX
 70
     0
  0
SEQEND
  5
92D
330
92B
100
AcDbEntity
  8
TEXT_BUBBLES
  0
INSERT
  5
92E
330
1F
100
AcDbEntity
  8
TEXT_BUBBLES
100
AcDbBlockReference
 66
     1
  2
bubble
 10
1.740462600413722
 20
6.534270979608234
 30
0.0
  0
ATTRIB
  5
92F
330
92E
100
AcDbEntity
  8
TEXT_BUBBLES
100
AcDbText
 10
1.680938790889913
 20
6.471770979608234
 30
0.0
 40
0.125
  1
5
  7
ROMANS
 72
     4
 11
1.740462600413722
 21
6.534270979608234
 31
0.0
100
AcDbAttribute
  2
XX
 70
     0
  0
SEQEND
  5
930
330
92E
100
AcDbEntity
  8
TEXT_BUBBLES
  0
INSERT
  5
931
330
1F
100
AcDbEntity
  8
TEXT_BUBBLES
100
AcDbBlockReference
 66
     1
  2
bubble
 10
1.740462600413722
 20
7.321558714406803
 30
0.0
  0
ATTRIB
  5
932
330
931
100
AcDbEntity
  8
TEXT_BUBBLES
100
AcDbText
 10
1.680938790889913
 20
7.259058714406803
 30
0.0
 40
0.125
  1
3
  7
ROMANS
 72
     4
 11
1.740462600413722
 21
7.321558714406803
 31
0.0
100
AcDbAttribute
  2
XX
 70
     0
  0
SEQEND
  5
933
330
931
100
AcDbEntity
  8
TEXT_BUBBLES
  0
INSERT
  5
934
330
1F
100
AcDbEntity
  8
TEXT_BUBBLES
100
AcDbBlockReference
 66
     1
  2
bubble
 10
1.741564361092129
 20
8.397762600776097
 30
0.0
  0
ATTRIB
  5
935
330
934
100
AcDbEntity
  8
TEXT_BUBBLES
100
AcDbText
 10
1.682040551568319
 20
8.335262600776097
 30
0.0
 40
0.125
  1
2
  7
ROMANS
 72
     4
 11
1.741564361092129
 21
8.397762600776097
 31
0.0
100
AcDbAttribute
  2
XX
 70
     0
  0
SEQEND
  5
936
330
934
100
AcDbEntity
  8
TEXT_BUBBLES
  0
INSERT
  5
937
330
1F
100
AcDbEntity
  8
TEXT_BUBBLES
100
AcDbBlockReference
 66
     1
  2
bubble
 10
1.74189758515306
 20
9.459486037249327
 30
0.0
  0
ATTRIB
  5
938
330
937
100
AcDbEntity
  8
TEXT_BUBBLES
100
AcDbText
 10
1.691302347057822
 20
9.396986037249327
 30
0.0
 40
0.125
  1
1
  7
ROMANS
 72
     4
 11
1.74189758515306
 21
9.459486037249327
 31
0.0
100
AcDbAttribute
  2
XX
 70
     0
  0
SEQEND
  5
939
330
937
100
AcDbEntity
  8
TEXT_BUBBLES
  0
INSERT
  5
93F
330
1F
100
AcDbEntity
  8
TEXT_BUBBLES
100
AcDbBlockReference
 66
     1
  2
bubble
 10
3.393152743441334
 20
2.395355429402194
 30
0.0
  0
ATTRIB
  5
940
330
93F
100
AcDbEntity
  8
TEXT_BUBBLES
100
AcDbText
 10
3.283033695822287
 20
2.332855429402194
 30
0.0
 40
0.125
  1
11
  7
ROMANS
 72
     4
 11
3.393152743441334
 21
2.395355429402194
 31
0.0
100
AcDbAttribute
  2
XX
 70
     0
  0
SEQEND
  5
941
330
93F
100
AcDbEntity
  8
TEXT_BUBBLES
  0
INSERT
  5
942
330
1F
100
AcDbEntity
  8
TEXT_BUBBLES
100
AcDbBlockReference
 66
     1
  2
bubble
 10
3.348008269758481
 20
3.277854566601159
 30
0.0
  0
ATTRIB
  5
943
330
942
100
AcDbEntity
  8
TEXT_BUBBLES
100
AcDbText
 10
3.22003207928229
 20
3.215354566601159
 30
0.0
 40
0.125
  1
10
  7
ROMANS
 72
     4
 11
3.348008269758481
 21
3.277854566601159
 31
0.0
100
AcDbAttribute
  2
XX
 70
     0
  0
SEQEND
  5
944
330
942
100
AcDbEntity
  8
TEXT_BUBBLES
  0
INSERT
  5
945
330
1F
100
AcDbEntity
  8
TEXT_BUBBLES
100
AcDbBlockReference
 66
     1
  2
bubble
 10
3.142930646023478
 20
3.934778947655726
 30
0.0
  0
ATTRIB
  5
946
330
945
100
AcDbEntity
  8
TEXT_BUBBLES
100
AcDbText
 10
3.086383026975859
 20
3.872278947655726
 30
0.0
 40
0.125
  1
9
  7
ROMANS
 72
     4
 11
3.142930646023478
 21
3.934778947655726
 31
0.0
100
AcDbAttribute
  2
XX
 70
     0
  0
SEQEND
  5
947
330
945
100
AcDbEntity
  8
TEXT_BUBBLES
  0
INSERT
  5
948
330
1F
100
AcDbEntity
  8
TEXT_BUBBLES
100
AcDbBlockReference
 66
     1
  2
bubble
 10
3.363559142712791
 20
5.091121231441631
 30
0.0
  0
ATTRIB
  5
949
330
948
100
AcDbEntity
  8
TEXT_BUBBLES
100
AcDbText
 10
3.304035333188982
 20
5.028621231441631
 30
0.0
 40
0.125
  1
7
  7
ROMANS
 72
     4
 11
3.363559142712791
 21
5.091121231441631
 31
0.0
100
AcDbAttribute
  2
XX
 70
     0
  0
SEQEND
  5
94A
330
948
100
AcDbEntity
  8
TEXT_BUBBLES
  0
INSERT
  5
94B
330
1F
100
AcDbEntity
  8
TEXT_BUBBLES
100
AcDbBlockReference
 66
     1
  2
bubble
 10
3.387315399672959
 20
7.376078739084071
 30
0.0
  0
ATTRIB
  5
94C
330
94B
100
AcDbEntity
  8
TEXT_BUBBLES
100
AcDbText
 10
3.324815399672959
 20
7.313578739084071
 30
0.0
 40
0.125
  1
4
  7
ROMANS
 72
     4
 11
3.387315399672959
 21
7.376078739084071
 31
0.0
100
AcDbAttribute
  2
XX
 70
     0
  0
SEQEND
  5
94D
330
94B
100
AcDbEntity
  8
TEXT_BUBBLES
  0
CIRCLE
  5
950
330
1F
100
AcDbEntity
  8
IMAGE
100
AcDbCircle
 10
2.805227375763667
 20
3.269400051945737
 30
0.0
 40
0.040623154691391
  0
POLYLINE
  5
99E
330
1F
100
AcDbEntity
  8
IMAGE
100
AcDb2dPolyline
 66
     1
 10
0.0
 20
0.0
 30
0.0
 70
     4
 40
0.0175
 41
0.0175
 75
     6
  0
VERTEX
  5
99F
330
99E
100
AcDbEntity
  8
IMAGE
100
AcDbVertex
100
AcDb2dVertex
 10
2.805227375763667
 20
3.002703720860106
 30
0.0
 70
    16
  0
VERTEX
  5
9A6
330
99E
100
AcDbEntity
  8
IMAGE
100
AcDbVertex
100
AcDb2dVertex
 10
2.805227375763667
 20
3.002703720860106
 30
0.0
 70
     8
  0
VERTEX
  5
9A7
330
99E
100
AcDbEntity
  8
IMAGE
100
AcDbVertex
100
AcDb2dVertex
 10
2.80464015385339
 20
2.840804942150368
 30
0.0
 70
     8
  0
VERTEX
  5
9A8
330
99E
100
AcDbEntity
  8
IMAGE
100
AcDbVertex
100
AcDb2dVertex
 10
2.802976191856142
 20
2.714446560840334
 30
0.0
 70
     8
  0
VERTEX
  5
9A9
330
99E
100
AcDbEntity
  8
IMAGE
100
AcDbVertex
100
AcDb2dVertex
 10
2.800382045372291
 20
2.618733277924253
 30
0.0
 70
     8
  0
VERTEX
  5
9AA
330
99E
100
AcDbEntity
  8
IMAGE
100
AcDbVertex
100
AcDb2dVertex
 10
2.79700427000221
 20
2.548769794396374
 30
0.0
 70
     8
  0
VERTEX
  5
9AB
330
99E
100
AcDbEntity
  8
IMAGE
100
AcDbVertex
100
AcDb2dVertex
 10
2.79298942134627
 20
2.499660811250951
 30
0.0
 70
     8
  0
VERTEX
  5
9AC
330
99E
100
AcDbEntity
  8
IMAGE
100
AcDbVertex
100
AcDb2dVertex
 10
2.788484055004843
 20
2.46651102948223
 30
0.0
 70
     8
  0
VERTEX
  5
9AD
330
99E
100
AcDbEntity
  8
IMAGE
100
AcDbVertex
100
AcDb2dVertex
 10
2.783634726578297
 20
2.444425150084465
 30
0.0
 70
     8
  0
VERTEX
  5
9AE
330
99E
100
AcDbEntity
  8
IMAGE
100
AcDbVertex
100
AcDb2dVertex
 10
2.778587991667007
 20
2.428507874051904
 30
0.0
 70
     8
  0
VERTEX
  5
9AF
330
99E
100
AcDbEntity
  8
IMAGE
100
AcDbVertex
100
AcDb2dVertex
 10
2.773469693553506
 20
2.414650605647989
 30
0.0
 70
     8
  0
VERTEX
  5
9B0
330
99E
100
AcDbEntity
  8
IMAGE
100
AcDbVertex
100
AcDb2dVertex
 10
2.76832282624899
 20
2.401891562212936
 30
0.0
 70
     8
  0
VERTEX
  5
9B1
330
99E
100
AcDbEntity
  8
IMAGE
100
AcDbVertex
100
AcDb2dVertex
 10
2.763169671446818
 20
2.390055664356147
 30
0.0
 70
     8
  0
VERTEX
  5
9B2
330
99E
100
AcDbEntity
  8
IMAGE
100
AcDbVertex
100
AcDb2dVertex
 10
2.758032510840349
 20
2.378967832687031
 30
0.0
 70
     8
  0
VERTEX
  5
9B3
330
99E
100
AcDbEntity
  8
IMAGE
100
AcDbVertex
100
AcDb2dVertex
 10
2.752933626122944
 20
2.368452987814991
 30
0.0
 70
     8
  0
VERTEX
  5
9B4
330
99E
100
AcDbEntity
  8
IMAGE
100
AcDbVertex
100
AcDb2dVertex
 10
2.747895298987961
 20
2.358336050349434
 30
0.0
 70
     8
  0
VERTEX
  5
9B5
330
99E
100
AcDbEntity
  8
IMAGE
100
AcDbVertex
100
AcDb2dVertex
 10
2.742939811128759
 20
2.348441940899765
 30
0.0
 70
     8
  0
VERTEX
  5
9B6
330
99E
100
AcDbEntity
  8
IMAGE
100
AcDbVertex
100
AcDb2dVertex
 10
2.7380894442387
 20
2.338595580075391
 30
0.0
 70
     8
  0
VERTEX
  5
9B7
330
99E
100
AcDbEntity
  8
IMAGE
100
AcDbVertex
100
AcDb2dVertex
 10
2.733382407842844
 20
2.328586872603024
 30
0.0
 70
     8
  0
VERTEX
  5
9B8
330
99E
100
AcDbEntity
  8
IMAGE
100
AcDbVertex
100
AcDb2dVertex
 10
2.728920622793062
 20
2.318065659678602
 30
0.0
 70
     8
  0
VERTEX
  5
9B9
330
99E
100
AcDbEntity
  8
IMAGE
100
AcDbVertex
100
AcDb2dVertex
 10
2.724821937772929
 20
2.306646766615372
 30
0.0
 70
     8
  0
VERTEX
  5
9BA
330
99E
100
AcDbEntity
  8
IMAGE
100
AcDbVertex
100
AcDb2dVertex
 10
2.721204201466019
 20
2.293945018726581
 30
0.0
 70
     8
  0
VERTEX
  5
9BB
330
99E
100
AcDbEntity
  8
IMAGE
100
AcDbVertex
100
AcDb2dVertex
 10
2.718185262555904
 20
2.279575241325474
 30
0.0
 70
     8
  0
VERTEX
  5
9BC
330
99E
100
AcDbEntity
  8
IMAGE
100
AcDbVertex
100
AcDb2dVertex
 10
2.715882969726159
 20
2.263152259725297
 30
0.0
 70
     8
  0
VERTEX
  5
9BD
330
99E
100
AcDbEntity
  8
IMAGE
100
AcDbVertex
100
AcDb2dVertex
 10
2.714415171660358
 20
2.244290899239297
 30
0.0
 70
     8
  0
VERTEX
  5
9BE
330
99E
100
AcDbEntity
  8
IMAGE
100
AcDbVertex
100
AcDb2dVertex
 10
2.713899717042075
 20
2.22260598518072
 30
0.0
 70
     8
  0
VERTEX
  5
9A0
330
99E
100
AcDbEntity
  8
IMAGE
100
AcDbVertex
100
AcDb2dVertex
 10
2.805227375763667
 20
2.519235070873868
 30
0.0
 70
    16
  0
VERTEX
  5
9A1
330
99E
100
AcDbEntity
  8
IMAGE
100
AcDbVertex
100
AcDb2dVertex
 10
2.779130401100339
 20
2.414925960884389
 30
0.0
 70
    16
  0
VERTEX
  5
9A2
330
99E
100
AcDbEntity
  8
IMAGE
100
AcDbVertex
100
AcDb2dVertex
 10
2.736730482505357
 20
2.339953774905261
 30
0.0
 70
    16
  0
VERTEX
  5
9A3
330
99E
100
AcDbEntity
  8
IMAGE
100
AcDbVertex
100
AcDb2dVertex
 10
2.713899717042075
 20
2.284539538266365
 30
0.0
 70
    16
  0
VERTEX
  5
9A4
330
99E
100
AcDbEntity
  8
IMAGE
100
AcDbVertex
100
AcDb2dVertex
 10
2.713899717042075
 20
2.22260598518072
 30
0.0
 70
    16
  0
SEQEND
  5
9A5
330
99E
100
AcDbEntity
  8
IMAGE
  0
INSERT
  5
9CF
330
1F
100
AcDbEntity
  8
TEXT_BUBBLES
100
AcDbBlockReference
 66
     1
  2
bubble
 10
7.172034190446314
 20
9.39849636076023
 30
0.0
  0
ATTRIB
  5
9D0
330
9CF
100
AcDbEntity
  8
TEXT_BUBBLES
100
AcDbText
 10
7.121438952351076
 20
9.33599636076023
 30
0.0
 40
0.125
  1
1
  7
ROMANS
 72
     4
 11
7.172034190446314
 21
9.39849636076023
 31
0.0
100
AcDbAttribute
  2
XX
 70
     0
  0
SEQEND
  5
9D1
330
9CF
100
AcDbEntity
  8
TEXT_BUBBLES
  0
INSERT
  5
9D2
330
1F
100
AcDbEntity
  8
TEXT_BUBBLES
100
AcDbBlockReference
 66
     1
  2
bubble
 10
7.172034190446313
 20
8.950571811227167
 30
0.0
  0
ATTRIB
  5
9D3
330
9D2
100
AcDbEntity
  8
TEXT_BUBBLES
100
AcDbText
 10
7.112510380922504
 20
8.888071811227167
 30
0.0
 40
0.125
  1
2
  7
ROMANS
 72
     4
 11
7.172034190446313
 21
8.950571811227167
 31
0.0
100
AcDbAttribute
  2
XX
 70
     0
  0
SEQEND
  5
9D4
330
9D2
100
AcDbEntity
  8
TEXT_BUBBLES
  0
INSERT
  5
9D5
330
1F
100
AcDbEntity
  8
TEXT_BUBBLES
100
AcDbBlockReference
 66
     1
  2
bubble
 10
7.172034190446313
 20
8.313640191611016
 30
0.0
  0
ATTRIB
  5
9D6
330
9D5
100
AcDbEntity
  8
TEXT_BUBBLES
100
AcDbText
 10
7.112510380922504
 20
8.251140191611016
 30
0.0
 40
0.125
  1
3
  7
ROMANS
 72
     4
 11
7.172034190446313
 21
8.313640191611016
 31
0.0
100
AcDbAttribute
  2
XX
 70
     0
  0
SEQEND
  5
9D7
330
9D5
100
AcDbEntity
  8
TEXT_BUBBLES
  0
INSERT
  5
9D8
330
1F
100
AcDbEntity
  8
TEXT_BUBBLES
100
AcDbBlockReference
 66
     1
  2
bubble
 10
7.172034190446313
 20
7.669792934909345
 30
0.0
  0
ATTRIB
  5
9D9
330
9D8
100
AcDbEntity
  8
TEXT_BUBBLES
100
AcDbText
 10
7.109534190446313
 20
7.607292934909345
 30
0.0
 40
0.125
  1
4
  7
ROMANS
 72
     4
 11
7.172034190446313
 21
7.669792934909345
 31
0.0
100
AcDbAttribute
  2
XX
 70
     0
  0
SEQEND
  5
9DA
330
9D8
100
AcDbEntity
  8
TEXT_BUBBLES
  0
INSERT
  5
9DB
330
1F
100
AcDbEntity
  8
TEXT_BUBBLES
100
AcDbBlockReference
 66
     1
  2
bubble
 10
7.172034190446313
 20
7.053970563847978
 30
0.0
  0
ATTRIB
  5
9DC
330
9DB
100
AcDbEntity
  8
TEXT_BUBBLES
100
AcDbText
 10
7.112510380922504
 20
6.991470563847978
 30
0.0
 40
0.125
  1
5
  7
ROMANS
 72
     4
 11
7.172034190446313
 21
7.053970563847978
 31
0.0
100
AcDbAttribute
  2
XX
 70
     0
  0
SEQEND
  5
9DD
330
9DB
100
AcDbEntity
  8
TEXT_BUBBLES
  0
INSERT
  5
9DE
330
1F
100
AcDbEntity
  8
TEXT_BUBBLES
100
AcDbBlockReference
 66
     1
  2
bubble
 10
7.172034190446313
 20
6.372692621894684
 30
0.0
  0
ATTRIB
  5
9DF
330
9DE
100
AcDbEntity
  8
TEXT_BUBBLES
100
AcDbText
 10
7.109534190446313
 20
6.310192621894684
 30
0.0
 40
0.125
  1
6
  7
ROMANS
 72
     4
 11
7.172034190446313
 21
6.372692621894684
 31
0.0
100
AcDbAttribute
  2
XX
 70
     0
  0
SEQEND
  5
9E0
330
9DE
100
AcDbEntity
  8
TEXT_BUBBLES
  0
INSERT
  5
9E1
330
1F
100
AcDbEntity
  8
TEXT_BUBBLES
100
AcDbBlockReference
 66
     1
  2
bubble
 10
7.172034190446313
 20
5.957695748349829
 30
0.0
  0
ATTRIB
  5
9E2
330
9E1
100
AcDbEntity
  8
TEXT_BUBBLES
100
AcDbText
 10
7.112510380922504
 20
5.895195748349829
 30
0.0
 40
0.125
  1
7
  7
ROMANS
 72
     4
 11
7.172034190446313
 21
5.957695748349829
 31
0.0
100
AcDbAttribute
  2
XX
 70
     0
  0
SEQEND
  5
9E3
330
9E1
100
AcDbEntity
  8
TEXT_BUBBLES
  0
INSERT
  5
9E4
330
1F
100
AcDbEntity
  8
TEXT_BUBBLES
100
AcDbBlockReference
 66
     1
  2
bubble
 10
7.172034190446313
 20
5.324287551854597
 30
0.0
  0
ATTRIB
  5
9E5
330
9E4
100
AcDbEntity
  8
TEXT_BUBBLES
100
AcDbText
 10
7.112510380922504
 20
5.261787551854597
 30
0.0
 40
0.125
  1
8
  7
ROMANS
 72
     4
 11
7.172034190446313
 21
5.324287551854597
 31
0.0
100
AcDbAttribute
  2
XX
 70
     0
  0
SEQEND
  5
9E6
330
9E4
100
AcDbEntity
  8
TEXT_BUBBLES
  0
INSERT
  5
9E7
330
1F
100
AcDbEntity
  8
TEXT_BUBBLES
100
AcDbBlockReference
 66
     1
  2
bubble
 10
7.172034190446313
 20
4.45260916697314
 30
0.0
  0
ATTRIB
  5
9E8
330
9E7
100
AcDbEntity
  8
TEXT_BUBBLES
100
AcDbText
 10
7.115486571398695
 20
4.39010916697314
 30
0.0
 40
0.125
  1
9
  7
ROMANS
 72
     4
 11
7.172034190446313
 21
4.45260916697314
 31
0.0
100
AcDbAttribute
  2
XX
 70
     0
  0
SEQEND
  5
9E9
330
9E7
100
AcDbEntity
  8
TEXT_BUBBLES
  0
INSERT
  5
9EA
330
1F
100
AcDbEntity
  8
TEXT_BUBBLES
100
AcDbBlockReference
 66
     1
  2
bubble
 10
7.172034190446313
 20
3.784846850474273
 30
0.0
  0
ATTRIB
  5
9EB
330
9EA
100
AcDbEntity
  8
TEXT_BUBBLES
100
AcDbText
 10
7.044057999970123
 20
3.722346850474273
 30
0.0
 40
0.125
  1
10
  7
ROMANS
 72
     4
 11
7.172034190446313
 21
3.784846850474273
 31
0.0
100
AcDbAttribute
  2
XX
 70
     0
  0
SEQEND
  5
9EC
330
9EA
100
AcDbEntity
  8
TEXT_BUBBLES
  0
INSERT
  5
9ED
330
1F
100
AcDbEntity
  8
TEXT_BUBBLES
100
AcDbBlockReference
 66
     1
  2
bubble
 10
7.172034190446313
 20
3.164187253186469
 30
0.0
  0
ATTRIB
  5
9EE
330
9ED
100
AcDbEntity
  8
TEXT_BUBBLES
100
AcDbText
 10
7.061915142827266
 20
3.101687253186469
 30
0.0
 40
0.125
  1
11
  7
ROMANS
 72
     4
 11
7.172034190446313
 21
3.164187253186469
 31
0.0
100
AcDbAttribute
  2
XX
 70
     0
  0
SEQEND
  5
9EF
330
9ED
100
AcDbEntity
  8
TEXT_BUBBLES
  0
INSERT
  5
9F0
330
1F
100
AcDbEntity
  8
TEXT_BUBBLES
100
AcDbBlockReference
 66
     1
  2
bubble
 10
7.172034190446313
 20
2.541702078266655
 30
0.0
  0
ATTRIB
  5
9F1
330
9F0
100
AcDbEntity
  8
TEXT_BUBBLES
100
AcDbText
 10
7.044057999970123
 20
2.479202078266655
 30
0.0
 40
0.125
  1
12
  7
ROMANS
 72
     4
 11
7.172034190446313
 21
2.541702078266655
 31
0.0
100
AcDbAttribute
  2
XX
 70
     0
  0
SEQEND
  5
9F2
330
9F0
100
AcDbEntity
  8
TEXT_BUBBLES
  0
LINE
  5
A08
330
1F
100
AcDbEntity
  8
IMAGE
100
AcDbLine
 10
4.075227778658294
 20
2.559380282846057
 30
0.0
 11
0.8157668499037249
 21
2.944063465292387
 31
0.0
  0
LINE
  5
A09
330
1F
100
AcDbEntity
  8
IMAGE
100
AcDbLine
 10
4.075227778658294
 20
5.16109802718139
 30
0.0
 11
0.8157668499037249
 21
5.54578120962772
 31
0.0
  0
LINE
  5
A0C
330
1F
100
AcDbEntity
  8
IMAGE
100
AcDbLine
 10
0.6683721383341661
 20
5.462523646101087
 30
0.0
 11
0.8157668499037249
 21
5.517668209695111
 31
0.0
  0
LINE
  5
A31
330
1F
100
AcDbEntity
  8
IMAGE
100
AcDbLine
 10
2.107494916891353
 20
6.091952212993667
 30
0.0
 11
2.228946748020536
 21
6.081801765876452
 31
0.0
  0
ARC
  5
A32
330
1F
100
AcDbEntity
  8
IMAGE
100
AcDbCircle
 10
2.583655210084116
 20
6.810522350273179
 30
0.0
 40
0.8104639308340757
100
AcDbArc
 50
244.0452606936085
 51
285.1738300585296
  0
LINE
  5
A33
330
1F
100
AcDbEntity
  8
IMAGE
100
AcDbLine
 10
2.795792829761538
 20
6.028314313047395
 30
0.0
 11
2.910304549610208
 21
6.018743892035059
 31
0.0
  0
LINE
  5
A34
330
1F
100
AcDbEntity
  8
IMAGE
100
AcDbLine
 10
2.910304549610208
 20
6.018743892035059
 30
0.0
 11
2.914725632503321
 21
6.071642902959593
 31
0.0
  0
LINE
  5
A35
330
1F
100
AcDbEntity
  8
IMAGE
100
AcDbLine
 10
2.111915999784466
 20
6.144851223918199
 30
0.0
 11
2.243430280499993
 21
6.133859798435763
 31
0.0
  0
ARC
  5
A36
330
1F
100
AcDbEntity
  8
IMAGE
100
AcDbCircle
 10
2.583655210084116
 20
6.810522350273179
 30
0.0
 40
0.7573804933912954
100
AcDbArc
 50
243.3068177610848
 51
285.8685700673329
  0
LINE
  5
A37
330
1F
100
AcDbEntity
  8
IMAGE
100
AcDbLine
 10
2.790746976803764
 20
6.082004531735721
 30
0.0
 11
2.914725632503321
 21
6.071642902959593
 31
0.0
  0
LINE
  5
A38
330
1F
100
AcDbEntity
  8
IMAGE
100
AcDbLine
 10
2.107494916891353
 20
6.091952212993667
 30
0.0
 11
2.111915999784466
 21
6.144851223918199
 31
0.0
  0
LWPOLYLINE
  5
A39
330
1F
100
AcDbEntity
  8
IMAGE
100
AcDbPolyline
 90
        6
 70
     1
 43
0.0
 10
2.171985189465301
 20
6.111013486306622
 10
2.161557727026723
 20
6.095997723760518
 10
2.143339963985313
 20
6.097520289856283
 10
2.135549663382481
 20
6.114058618498151
 10
2.145977125821058
 20
6.129074381044254
 10
2.164194888862469
 20
6.127551814948491
  0
LWPOLYLINE
  5
A3A
330
1F
100
AcDbEntity
  8
IMAGE
100
AcDbPolyline
 90
        6
 70
     1
 43
0.0
 10
2.875825856602066
 20
6.045203332751992
 10
2.865398394163488
 20
6.030187570205889
 10
2.847180631122078
 20
6.031710136301653
 10
2.839390330519245
 20
6.048248464943521
 10
2.849817792957823
 20
6.063264227489627
 10
2.868035555999233
 20
6.061741661393862
  0
LINE
  5
A3B
330
1F
100
AcDbEntity
  8
IMAGE
100
AcDbLine
 10
2.228946748020536
 20
6.081801765876452
 30
0.0
 11
2.233367830913648
 21
6.134700776800983
 31
0.0
  0
LINE
  5
A3C
330
1F
100
AcDbEntity
  8
IMAGE
100
AcDbLine
 10
2.795792829761538
 20
6.028314313047395
 30
0.0
 11
2.800213912654651
 21
6.081213323971926
 31
0.0
  0
LWPOLYLINE
  5
A3D
330
1F
100
AcDbEntity
  8
IMAGE
100
AcDbPolyline
 90
        2
 70
     0
 43
0.0174933527056723
 10
2.431901185187518
 20
6.100591681210634
 10
2.431902685824335
 20
6.068500529064109
  0
LINE
  5
A3E
330
1F
100
AcDbEntity
  8
IMAGE
100
AcDbLine
 10
2.469986262973961
 20
6.097577164045068
 30
0.0
 11
2.469986262973961
 21
6.06172025209736
 31
0.0
  0
LINE
  5
A3F
330
1F
100
AcDbEntity
  8
IMAGE
100
AcDbLine
 10
2.55811531672638
 20
6.09796934604174
 30
0.0
 11
2.55811531672638
 21
6.053572599221686
 31
0.0
  0
LWPOLYLINE
  5
A40
330
1F
100
AcDbEntity
  8
IMAGE
100
AcDbPolyline
 90
        2
 70
     0
 43
0.0174933527056723
 10
2.608279922209924
 20
6.10279695906197
 10
2.608040562414842
 20
6.195205090370059
  0
LWPOLYLINE
  5
A41
330
1F
100
AcDbEntity
  8
IMAGE
100
AcDbPolyline
 90
        2
 70
     0
 43
0.0174933527056723
 10
2.431905216036633
 20
6.014391882014609
 10
2.431924873862968
 20
5.594008822630158
  0
LINE
  5
A42
330
1F
100
AcDbEntity
  8
IMAGE
100
AcDbLine
 10
2.469986262973961
 20
6.00806914064293
 30
0.0
 11
2.469986262973961
 21
5.596614625030285
 31
0.0
  0
LINE
  5
A43
330
1F
100
AcDbEntity
  8
IMAGE
100
AcDbLine
 10
2.55811531672638
 20
6.00046093468156
 30
0.0
 11
2.55811531672638
 21
5.595770258620751
 31
0.0
  0
LWPOLYLINE
  5
A44
330
1F
100
AcDbEntity
  8
IMAGE
100
AcDbPolyline
 90
        2
 70
     0
 43
0.0174933527056723
 10
2.608407493184166
 20
6.053546435034803
 10
2.608279922209924
 20
6.10279695906197
  0
LINE
  5
A45
330
1F
100
AcDbEntity
  8
IMAGE
100
AcDbLine
 10
2.107494916891353
 20
5.588862195965991
 30
0.0
 11
2.228946748020536
 21
5.578711748848776
 31
0.0
  0
ARC
  5
A46
330
1F
100
AcDbEntity
  8
IMAGE
100
AcDbCircle
 10
2.583655210084116
 20
6.307432333245504
 30
0.0
 40
0.8104639308340757
100
AcDbArc
 50
244.0452606936085
 51
285.1738300585296
  0
LINE
  5
A47
330
1F
100
AcDbEntity
  8
IMAGE
100
AcDbLine
 10
2.795792829761538
 20
5.525224296019719
 30
0.0
 11
2.910304549610208
 21
5.515653875007384
 31
0.0
  0
LINE
  5
A48
330
1F
100
AcDbEntity
  8
IMAGE
100
AcDbLine
 10
2.910304549610208
 20
5.515653875007384
 30
0.0
 11
2.914725632503321
 21
5.568552885931917
 31
0.0
  0
LINE
  5
A49
330
1F
100
AcDbEntity
  8
IMAGE
100
AcDbLine
 10
2.111915999784466
 20
5.641761206890524
 30
0.0
 11
2.243430280499993
 21
5.630769781408088
 31
0.0
  0
ARC
  5
A4A
330
1F
100
AcDbEntity
  8
IMAGE
100
AcDbCircle
 10
2.583655210084116
 20
6.307432333245504
 30
0.0
 40
0.7573804933912954
100
AcDbArc
 50
243.3068177610848
 51
285.8685700673329
  0
LINE
  5
A4B
330
1F
100
AcDbEntity
  8
IMAGE
100
AcDbLine
 10
2.790746976803764
 20
5.578914514708046
 30
0.0
 11
2.914725632503321
 21
5.568552885931917
 31
0.0
  0
LINE
  5
A4C
330
1F
100
AcDbEntity
  8
IMAGE
100
AcDbLine
 10
2.107494916891353
 20
5.588862195965991
 30
0.0
 11
2.111915999784466
 21
5.641761206890524
 31
0.0
  0
LWPOLYLINE
  5
A4D
330
1F
100
AcDbEntity
  8
IMAGE
100
AcDbPolyline
 90
        6
 70
     1
 43
0.0
 10
2.171985189465301
 20
5.607923469278946
 10
2.161557727026723
 20
5.592907706732843
 10
2.143339963985313
 20
5.594430272828607
 10
2.135549663382481
 20
5.610968601470475
 10
2.145977125821058
 20
5.625984364016579
 10
2.164194888862469
 20
5.624461797920815
  0
LWPOLYLINE
  5
A4E
330
1F
100
AcDbEntity
  8
IMAGE
100
AcDbPolyline
 90
        6
 70
     1
 43
0.0
 10
2.875825856602066
 20
5.542113315724317
 10
2.865398394163488
 20
5.527097553178213
 10
2.847180631122078
 20
5.528620119273978
 10
2.839390330519245
 20
5.545158447915846
 10
2.849817792957823
 20
5.560174210461951
 10
2.868035555999233
 20
5.558651644366187
  0
LINE
  5
A4F
330
1F
100
AcDbEntity
  8
IMAGE
100
AcDbLine
 10
2.228946748020536
 20
5.578711748848776
 30
0.0
 11
2.233367830913648
 21
5.631610759773307
 31
0.0
  0
LINE
  5
A50
330
1F
100
AcDbEntity
  8
IMAGE
100
AcDbLine
 10
2.795792829761538
 20
5.525224296019719
 30
0.0
 11
2.800213912654651
 21
5.578123306944251
 31
0.0
  0
LWPOLYLINE
  5
A51
330
1F
100
AcDbEntity
  8
IMAGE
100
AcDbPolyline
 90
        2
 70
     0
 43
0.0174933527056723
 10
2.431928741590546
 20
5.511297381154157
 10
2.432066778251103
 20
2.559380282846057
  0
LINE
  5
A52
330
1F
100
AcDbEntity
  8
IMAGE
100
AcDbLine
 10
2.469986262973961
 20
5.504979123615254
 30
0.0
 11
2.469986262973961
 21
5.43016361932699
 31
0.0
  0
LINE
  5
A53
330
1F
100
AcDbEntity
  8
IMAGE
100
AcDbLine
 10
2.55811531672638
 20
5.497370917653886
 30
0.0
 11
2.55811531672638
 21
5.43016361932699
 31
0.0
  0
POLYLINE
  5
A54
330
1F
100
AcDbEntity
  8
IMAGE
100
AcDb2dPolyline
 66
     1
 10
0.0
 20
0.0
 30
0.0
 40
0.0175
 41
0.0175
  0
VERTEX
  5
A55
330
A54
100
AcDbEntity
  8
IMAGE
100
AcDbVertex
100
AcDb2dVertex
 10
2.609606075711855
 20
5.590817213679463
 30
0.0
 40
0.0174933527056723
 41
0.0174934591692527
  0
VERTEX
  5
A56
330
A54
100
AcDbEntity
  8
IMAGE
100
AcDbVertex
100
AcDb2dVertex
 10
2.60971172655667
 20
5.550500189840986
 30
0.0
 40
0.0174953245541166
 41
0.0174968147462065
  0
SEQEND
  5
A57
330
A54
100
AcDbEntity
  8
IMAGE
  0
POLYLINE
  5
A58
330
1F
100
AcDbEntity
  8
IMAGE
100
AcDb2dPolyline
 66
     1
 10
0.0
 20
0.0
 30
0.0
 40
0.0175
 41
0.0175
  0
VERTEX
  5
A59
330
A58
100
AcDbEntity
  8
IMAGE
100
AcDbVertex
100
AcDb2dVertex
 10
2.609850897046876
 20
5.497391859461897
 30
0.0
 40
0.0174935994103337
 41
0.0174953245541166
  0
VERTEX
  5
A5A
330
A58
100
AcDbEntity
  8
IMAGE
100
AcDbVertex
100
AcDb2dVertex
 10
2.611562871200892
 20
4.844091803987359
 30
0.0
 40
0.0174953245541166
 41
0.0174968147462065
  0
VERTEX
  5
A5B
330
A58
100
AcDbEntity
  8
IMAGE
100
AcDbVertex
100
AcDb2dVertex
 10
2.613150336805376
 20
4.279766629807069
 30
0.0
 40
0.0174968147462065
 41
0.0174978916237137
  0
VERTEX
  5
A5C
330
A58
100
AcDbEntity
  8
IMAGE
100
AcDbVertex
100
AcDb2dVertex
 10
2.614522427228215
 20
3.871961451098982
 30
0.0
 40
0.0174978916237137
 41
0.0174986235292251
  0
VERTEX
  5
A5D
330
A58
100
AcDbEntity
  8
IMAGE
100
AcDbVertex
100
AcDb2dVertex
 10
2.615833097172315
 20
3.594796027823492
 30
0.0
 40
0.0174986235292251
 41
0.0174990788082463
  0
VERTEX
  5
A5E
330
A58
100
AcDbEntity
  8
IMAGE
100
AcDbVertex
100
AcDb2dVertex
 10
2.617236301340583
 20
3.422390119940988
 30
0.0
 40
0.0174990788082463
 41
0.017499325817918
  0
VERTEX
  5
A5F
330
A58
100
AcDbEntity
  8
IMAGE
100
AcDbVertex
100
AcDb2dVertex
 10
2.618885994435925
 20
3.328863487411862
 30
0.0
 40
0.017499325817918
 41
0.0174994329740255
  0
VERTEX
  5
A60
330
A58
100
AcDbEntity
  8
IMAGE
100
AcDbVertex
100
AcDb2dVertex
 10
2.620936131161248
 20
3.288335890196504
 30
0.0
 40
0.0174994329740255
 41
0.0174994690437776
  0
VERTEX
  5
A61
330
A58
100
AcDbEntity
  8
IMAGE
100
AcDbVertex
100
AcDb2dVertex
 10
2.623540666219458
 20
3.274927088255307
 30
0.0
 40
0.0174994690437776
 41
0.0174994915367556
  0
VERTEX
  5
A62
330
A58
100
AcDbEntity
  8
IMAGE
100
AcDbVertex
100
AcDb2dVertex
 10
2.626818977728367
 20
3.26706525641374
 30
0.0
 40
0.0174994915367556
 41
0.0174995119455114
  0
VERTEX
  5
A63
330
A58
100
AcDbEntity
  8
IMAGE
100
AcDbVertex
100
AcDb2dVertex
 10
2.630752137465401
 20
3.260412228957597
 30
0.0
 40
0.0174995119455114
 41
0.0174995307157175
  0
VERTEX
  5
A64
330
A58
100
AcDbEntity
  8
IMAGE
100
AcDbVertex
100
AcDb2dVertex
 10
2.635286640622891
 20
3.25493825503775
 30
0.0
 40
0.0174995307157175
 41
0.0174995483375872
  0
VERTEX
  5
A65
330
A58
100
AcDbEntity
  8
IMAGE
100
AcDbVertex
100
AcDb2dVertex
 10
2.64036898239317
 20
3.250613583805073
 30
0.0
 40
0.0174995483375872
 41
0.0174995653225616
  0
VERTEX
  5
A66
330
A58
100
AcDbEntity
  8
IMAGE
100
AcDbVertex
100
AcDb2dVertex
 10
2.645945657968569
 20
3.247408464410438
 30
0.0
 40
0.0174995653225616
 41
0.01749958216589
  0
VERTEX
  5
A67
330
A58
100
AcDbEntity
  8
IMAGE
100
AcDbVertex
100
AcDb2dVertex
 10
2.651963162541418
 20
3.245293146004718
 30
0.0
 40
0.01749958216589
 41
0.017499599306836
  0
VERTEX
  5
A68
330
A58
100
AcDbEntity
  8
IMAGE
100
AcDbVertex
100
AcDb2dVertex
 10
2.65836799130405
 20
3.244237877738787
 30
0.0
 40
0.017499599306836
 41
0.0174996171013804
  0
VERTEX
  5
A69
330
A58
100
AcDbEntity
  8
IMAGE
100
AcDbVertex
100
AcDb2dVertex
 10
2.665106639448796
 20
3.244212908763518
 30
0.0
 40
0.0174996171013804
 41
0.0174996357577877
  0
VERTEX
  5
A6A
330
A58
100
AcDbEntity
  8
IMAGE
100
AcDbVertex
100
AcDb2dVertex
 10
2.672107823027095
 20
3.245160928879068
 30
0.0
 40
0.0174996357577877
 41
0.0174996551243716
  0
VERTEX
  5
A6B
330
A58
100
AcDbEntity
  8
IMAGE
100
AcDbVertex
100
AcDb2dVertex
 10
2.67922914152682
 20
3.246914390482734
 30
0.0
 40
0.0174996551243716
 41
0.0174996748378522
  0
VERTEX
  5
A6C
330
A58
100
AcDbEntity
  8
IMAGE
100
AcDbVertex
100
AcDb2dVertex
 10
2.686310415294951
 20
3.249278186621098
 30
0.0
 40
0.0174996748378522
 41
0.0174996944342298
  0
VERTEX
  5
A6D
330
A58
100
AcDbEntity
  8
IMAGE
100
AcDbVertex
100
AcDb2dVertex
 10
2.693191464678468
 20
3.252057210340742
 30
0.0
 40
0.0174996944342298
 41
0.0174997133869875
  0
VERTEX
  5
A6E
330
A58
100
AcDbEntity
  8
IMAGE
100
AcDbVertex
100
AcDb2dVertex
 10
2.699712110024351
 20
3.255056354688247
 30
0.0
 40
0.0174997133869875
 41
0.0174997311297833
  0
VERTEX
  5
A6F
330
A58
100
AcDbEntity
  8
IMAGE
100
AcDbVertex
100
AcDb2dVertex
 10
2.705712171679582
 20
3.258080512710196
 30
0.0
 40
0.0174997311297833
 41
0.0174997470703586
  0
VERTEX
  5
A70
330
A58
100
AcDbEntity
  8
IMAGE
100
AcDbVertex
100
AcDb2dVertex
 10
2.711031469991141
 20
3.26093457745317
 30
0.0
 40
0.0174997470703586
 41
0.0174997605997014
  0
VERTEX
  5
A71
330
A58
100
AcDbEntity
  8
IMAGE
100
AcDbVertex
100
AcDb2dVertex
 10
2.715509825306007
 20
3.26342344196375
 30
0.0
 40
0.0174997605997014
 41
0.0174997716235745
  0
VERTEX
  5
A72
330
A58
100
AcDbEntity
  8
IMAGE
100
AcDbVertex
100
AcDb2dVertex
 10
2.719188984170736
 20
3.265396190180461
 30
0.0
 40
0.0174997716235745
 41
0.0174997822212015
  0
VERTEX
  5
A73
330
A58
100
AcDbEntity
  8
IMAGE
100
AcDbVertex
100
AcDb2dVertex
 10
2.722918397930178
 20
3.266878669609587
 30
0.0
 40
0.0174997822212015
 41
0.0174997952830562
  0
VERTEX
  5
A74
330
A58
100
AcDbEntity
  8
IMAGE
100
AcDbVertex
100
AcDb2dVertex
 10
2.727749444128761
 20
3.267940918649354
 30
0.0
 40
0.0174997952830562
 41
0.0174998138211202
  0
VERTEX
  5
A75
330
A58
100
AcDbEntity
  8
IMAGE
100
AcDbVertex
100
AcDb2dVertex
 10
2.734733500310909
 20
3.268652975697989
 30
0.0
 40
0.0174998138211202
 41
0.0174998407494137
  0
VERTEX
  5
A76
330
A58
100
AcDbEntity
  8
IMAGE
100
AcDbVertex
100
AcDb2dVertex
 10
2.744921944021047
 20
3.269084879153718
 30
0.0
 40
0.0174998407494137
 41
0.0174998788960334
  0
VERTEX
  5
A77
330
A58
100
AcDbEntity
  8
IMAGE
100
AcDbVertex
100
AcDb2dVertex
 10
2.759366152803603
 20
3.269306667414769
 30
0.0
 40
0.0174998788960334
 41
0.0174999310529181
  0
VERTEX
  5
A78
330
A58
100
AcDbEntity
  8
IMAGE
100
AcDbVertex
100
AcDb2dVertex
 10
2.779117504203001
 20
3.269388378879366
 30
0.0
 40
0.0174999310529181
  0
VERTEX
  5
A79
330
A58
100
AcDbEntity
  8
IMAGE
100
AcDbVertex
100
AcDb2dVertex
 10
2.805227375763667
 20
3.269400051945737
 30
0.0
  0
SEQEND
  5
A7A
330
A58
100
AcDbEntity
  8
IMAGE
  0
INSERT
  5
AA4
330
1F
100
AcDbEntity
  8
IMAGE
100
AcDbBlockReference
  2
pagesetups
 10
0.0
 20
0.0
 30
0.0
  0
INSERT
  5
AA5
330
1F
100
AcDbEntity
  8
IMAGE
100
AcDbBlockReference
  2
pagesetups
 10
0.0
 20
0.0
 30
0.0
  0
LEADER
  5
AE2
330
1F
100
AcDbEntity
  8
TEXT_BUBBLES
100
AcDbLeader
  3
Standard
 76
     2
 10
2.509176745704791
 20
9.124285548806369
 30
0.0
 10
1.88111471045525
 20
9.445790190250214
 30
0.0
1001
ACAD
1000
DSTYLE
1002
{
1070
   147
1040
0.09
1070
    77
1070
     0
1002
}
  0
LEADER
  5
AE3
330
1F
100
AcDbEntity
  8
TEXT_BUBBLES
100
AcDbLeader
  3
Standard
 76
     2
 10
2.509123576064999
 20
8.384066753776984
 30
0.0
 10
1.881453546529848
 20
8.397762600776097
 30
0.0
1001
ACAD
1000
DSTYLE
1002
{
1070
   147
1040
0.09
1070
    77
1070
     0
1002
}
  0
LEADER
  5
AE4
330
1F
100
AcDbEntity
  8
TEXT_BUBBLES
100
AcDbLeader
  3
Standard
 76
     2
 10
2.394187021388241
 20
7.655280826600638
 30
0.0
 10
1.894217847958696
 20
7.317819709366087
 30
0.0
1001
ACAD
1000
DSTYLE
1002
{
1070
   147
1040
0.09
1070
    77
1070
     0
1002
}
  0
LEADER
  5
AE5
330
1F
100
AcDbEntity
  8
TEXT_BUBBLES
100
AcDbLeader
  3
Standard
 76
     2
 10
2.399018543535868
 20
7.283902520319896
 30
0.0
 10
1.879679725715912
 20
6.520575132609121
 30
0.0
1001
ACAD
1000
DSTYLE
1002
{
1070
   147
1040
0.09
1070
    77
1070
     0
1002
}
  0
LEADER
  5
AE6
330
1F
100
AcDbEntity
  8
TEXT_BUBBLES
100
AcDbLeader
  3
Standard
 76
     2
 10
2.46258710955017
 20
7.200883504139078
 30
0.0
 10
1.879679725715912
 20
6.520575132609121
 30
0.0
1001
ACAD
1000
DSTYLE
1002
{
1070
   147
1040
0.09
1070
    77
1070
     0
1002
}
  0
LEADER
  5
AE7
330
1F
100
AcDbEntity
  8
TEXT_BUBBLES
100
AcDbLeader
  3
Standard
 76
     2
 10
2.401074761186834
 20
6.517379631649387
 30
0.0
 10
1.879679725715912
 20
6.520575132609121
 30
0.0
1001
ACAD
1000
DSTYLE
1002
{
1070
   147
1040
0.09
1070
    77
1070
     0
1002
}
  0
LEADER
  5
AE9
330
1F
100
AcDbEntity
  8
TEXT_BUBBLES
100
AcDbLeader
  3
Standard
 76
     2
 10
2.465285800957365
 20
6.414430560593705
 30
0.0
 10
1.879679725715912
 20
6.520575132609121
 30
0.0
1001
ACAD
1000
DSTYLE
1002
{
1070
   147
1040
0.09
1070
    77
1070
     0
1002
}
  0
LEADER
  5
AEA
330
1F
100
AcDbEntity
  8
TEXT_BUBBLES
100
AcDbLeader
  3
Standard
 76
     2
 10
2.638938642870185
 20
7.376078739084071
 30
0.0
 10
3.24742621423524
 20
7.376078739084071
 30
0.0
1001
ACAD
1000
DSTYLE
1002
{
1070
   147
1040
0.09
1070
    77
1070
     0
1002
}
  0
LEADER
  5
AEB
330
1F
100
AcDbEntity
  8
TEXT_BUBBLES
100
AcDbLeader
  3
Standard
 76
     2
 10
2.431909643076202
 20
5.919719541021267
 30
0.0
 10
1.918192334151472
 20
5.684387584781598
 30
0.0
1001
ACAD
1000
DSTYLE
1002
{
1070
   147
1040
0.09
1070
    77
1070
     0
1002
}
  0
LEADER
  5
AEC
330
1F
100
AcDbEntity
  8
TEXT_BUBBLES
100
AcDbLeader
  3
Standard
 76
     2
 10
2.910304549610208
 20
6.018743892035059
 30
0.0
 10
3.24749165186478
 20
5.169206580712
 30
0.0
1001
ACAD
1000
DSTYLE
1002
{
1070
   147
1040
0.09
1070
    77
1070
     0
1002
}
  0
LEADER
  5
AED
330
1F
100
AcDbEntity
  8
TEXT_BUBBLES
100
AcDbLeader
  3
Standard
 76
     2
 10
2.910304549610208
 20
5.515653875007384
 30
0.0
 10
3.24749165186478
 20
5.169206580712
 30
0.0
1001
ACAD
1000
DSTYLE
1002
{
1070
   147
1040
0.09
1070
    77
1070
     0
1002
}
  0
LEADER
  5
AEE
330
1F
100
AcDbEntity
  8
TEXT_BUBBLES
100
AcDbLeader
  3
Standard
 76
     2
 10
2.386039792616528
 20
5.068406384495041
 30
0.0
 10
1.879679725715949
 20
4.238756117287847
 30
0.0
1001
ACAD
1000
DSTYLE
1002
{
1070
   147
1040
0.09
1070
    77
1070
     0
1002
}
  0
LEADER
  5
AEF
330
1F
100
AcDbEntity
  8
TEXT_BUBBLES
100
AcDbLeader
  3
Standard
 76
     2
 10
2.575062617403042
 20
5.064720744318946
 30
0.0
 10
1.879679725716021
 20
4.238756117287965
 30
0.0
1001
ACAD
1000
DSTYLE
1002
{
1070
   147
1040
0.09
1070
    77
1070
     0
1002
}
  0
LEADER
  5
AF0
330
1F
100
AcDbEntity
  8
TEXT_BUBBLES
100
AcDbLeader
  3
Standard
 76
     2
 10
2.38309416138447
 20
4.392722095896406
 30
0.0
 10
1.879679725716021
 20
4.238756117287965
 30
0.0
1001
ACAD
1000
DSTYLE
1002
{
1070
   147
1040
0.09
1070
    77
1070
     0
1002
}
  0
LEADER
  5
AF1
330
1F
100
AcDbEntity
  8
TEXT_BUBBLES
100
AcDbLeader
  3
Standard
 76
     2
 10
2.586908024138913
 20
4.389036455720311
 30
0.0
 10
1.879679725716021
 20
4.238756117287965
 30
0.0
1001
ACAD
1000
DSTYLE
1002
{
1070
   147
1040
0.09
1070
    77
1070
     0
1002
}
  0
LEADER
  5
AF2
330
1F
100
AcDbEntity
  8
TEXT_BUBBLES
100
AcDbLeader
  3
Standard
 76
     2
 10
2.722918397930178
 20
3.266878669609587
 30
0.0
 10
3.085558266061932
 20
3.807196056091156
 30
0.0
1001
ACAD
1000
DSTYLE
1002
{
1070
   147
1040
0.09
1070
    77
1070
     0
1002
}
  0
LEADER
  5
AF3
330
1F
100
AcDbEntity
  8
TEXT_BUBBLES
100
AcDbLeader
  3
Standard
 76
     2
 10
2.804928789647355
 20
2.920382665183225
 30
0.0
 10
3.225525697402928
 20
3.210274956720696
 30
0.0
1001
ACAD
1000
DSTYLE
1002
{
1070
   147
1040
0.09
1070
    77
1070
     0
1002
}
  0
LEADER
  5
AF4
330
1F
100
AcDbEntity
  8
TEXT_BUBBLES
100
AcDbLeader
  3
Standard
 76
     2
 10
2.494782088446703
 20
2.400343053334215
 30
0.0
 10
1.880351785851442
 20
2.114631215093102
 30
0.0
1001
ACAD
1000
DSTYLE
1002
{
1070
   147
1040
0.09
1070
    77
1070
     0
1002
}
  0
LEADER
  5
AF5
330
1F
100
AcDbEntity
  8
TEXT_BUBBLES
100
AcDbLeader
  3
Standard
 76
     2
 10
2.74505740277342
 20
2.35266991685234
 30
0.0
 10
1.880351785851442
 20
2.114631215093102
 30
0.0
1001
ACAD
1000
DSTYLE
1002
{
1070
   147
1040
0.09
1070
    77
1070
     0
1002
}
  0
LEADER
  5
AF6
330
1F
100
AcDbEntity
  8
TEXT_BUBBLES
100
AcDbLeader
  3
Standard
 76
     2
 10
2.788484055004843
 20
2.46651102948223
 30
0.0
 10
3.254290075891483
 20
2.41227121384656
 30
0.0
1001
ACAD
1000
DSTYLE
1002
{
1070
   147
1040
0.09
1070
    77
1070
     0
1002
}
  0
VIEWPORT
  5
34
330
1B
100
AcDbEntity
 67
     1
  8
0
100
AcDbViewport
 10
5.295314101604982
 20
4.051512243298548
 30
0.0
 40
11.31410000354996
 41
7.19520960641075
 68
     1
 69
     1
 12
5.295314101604982
 22
4.051512243298548
 13
0.0
 23
0.0
 14
0.5
 24
0.5
 15
0.5
 25
0.5
 16
0.0
 26
0.0
 36
1.0
 17
0.0
 27
0.0
 37
0.0
 42
50.0
 43
0.0
 44
0.0
 45
7.19520960641075
 50
0.0
 51
0.0
 72
   100
 90
    32800
  1

281
     0
 71
     1
 74
     0
110
0.0
120
0.0
130
0.0
111
1.0
121
0.0
131
0.0
112
0.0
122
1.0
132
0.0
 79
     0
146
0.0
  0
VIEWPORT
  5
36
330
1B
100
AcDbEntity
 67
     1
  8
0
100
AcDbViewport
 10
5.284645549143392
 20
4.064763659379613
 30
0.0
 40
8.455432878629428
 41
6.503621855007381
 68
     2
 69
     2
 12
7.630505768579887
 22
5.000107029745011
 13
0.0
 23
0.0
 14
0.5
 24
0.5
 15
0.5
 25
0.5
 16
0.0
 26
0.0
 36
1.0
 17
0.0
 27
0.0
 37
0.0
 42
50.0
 43
0.0
 44
0.0
 45
11.79951409175254
 50
0.0
 51
0.0
 72
   100
 90
    32864
  1

281
     0
 71
     1
 74
     0
110
0.0
120
0.0
130
0.0
111
1.0
121
0.0
131
0.0
112
0.0
122
1.0
132
0.0
 79
     0
146
0.0
  0
ENDSEC
  0
SECTION
  2
OBJECTS
  0
DICTIONARY
  5
C
330
0
100
AcDbDictionary
281
     1
  3
ACAD_GROUP
350
D
  3
ACAD_IMAGE_DICT
350
2B
  3
ACAD_IMAGE_VARS
350
2C
  3
ACAD_LAYOUT
350
1A
  3
ACAD_MLINESTYLE
350
17
  3
ACAD_PLOTSETTINGS
350
19
  3
ACAD_PLOTSTYLENAME
350
E
  3
AcadDim
350
AE1
  3
AcDbVariableDictionary
350
74
  3
ASE_INDEX_DICTIONARY
350
8D9
  3
BNS_SELSET
350
6F1
  0
DICTIONARY
  5
76
330
1F
100
AcDbDictionary
280
     1
281
     1
  3
ACAD_LAYOUTSELFREF
360
60C
  3
ACAD_SORTENTS
360
77
  0
DICTIONARY
  5
260
330
1B
100
AcDbDictionary
280
     1
281
     1
  3
ACAD_LAYOUTSELFREF
360
60B
  0
DICTIONARY
  5
262
330
23
100
AcDbDictionary
280
     1
281
     1
  3
ACAD_LAYOUTSELFREF
360
60D
  0
DICTIONARY
  5
D
102
{ACAD_REACTORS
330
C
102
}
330
C
100
AcDbDictionary
281
     1
  0
DICTIONARY
  5
2B
102
{ACAD_REACTORS
330
C
102
}
330
C
100
AcDbDictionary
281
     1
  0
RASTERVARIABLES
  5
2C
102
{ACAD_REACTORS
330
C
102
}
330
C
100
AcDbRasterVariables
 90
        0
 70
     1
 71
     1
 72
     5
  0
DICTIONARY
  5
1A
102
{ACAD_REACTORS
330
C
102
}
330
C
100
AcDbDictionary
281
     1
  3
Layout1
350
1E
  3
Layout2
350
26
  3
Model
350
22
  0
DICTIONARY
  5
17
102
{ACAD_REACTORS
330
C
102
}
330
C
100
AcDbDictionary
281
     1
  3
Standard
350
18
  0
DICTIONARY
  5
19
102
{ACAD_REACTORS
330
C
102
}
330
C
100
AcDbDictionary
281
     1
  3
1055 B&W Full Shaded Draft
350
A8E
  3
1055 B&W Full Shaded Final
350
A8F
  3
1055 B&W Half Shaded Draft
350
A90
  3
1055 B&W Half Shaded Final
350
A91
  3
1055 Color Full Shaded Draft
350
A92
  3
1055 Color Full Shaded Final
350
A93
  3
1055 Color Half Shaded Draft
350
A94
  3
1055 Color Half Shaded Final
350
A95
  3
1055-B&W-Shaded-Draft
350
A96
  3
1055-B&W-Shaded-Final
350
A97
  3
1055-Color-Shaded-Draft
350
A98
  3
1055-Color-Shaded-Final
350
A99
  3
1055cm B&W Shaded Draft
350
814
  3
1055cm B&W Shaded Final
350
815
  3
1055cm Color Draft
350
816
  3
1055cm Color Shaded Draft
350
817
  3
1055cm Color Shaded Final
350
818
  3
1055cmB&WShadedDraft
350
819
  3
1055cmColorShadedDraft
350
81A
  3
8500 B&W Shaded 11x17
350
81B
  3
8500 B&W Shaded 8.5x11
350
81C
  3
8500 Color Shaded 11x17
350
81D
  3
8500 Color Shaded 8.5x11
350
81E
  3
8500-B&W-Shaded-11x17
350
A9A
  3
8500-B&W-Shaded-8.5x11
350
A9B
  3
8500-Color-Shaded-11x17
350
A9C
  3
8500-Color-Shaded-8.5x11
350
A9D
  3
8500B&WShaded11x17
350
81F
  3
8500ColorShaded11x17
350
820
  3
Laser Jet 5 Shaded 11x17
350
821
  3
Laser Jet 5 Shaded 8.5x11
350
822
  3
LaserJet5-Shaded-11x17
350
A9E
  3
LaserJet5-Shaded-8.5x11
350
A9F
  3
LaserJet5Shaded 11x17
350
823
  0
ACDBDICTIONARYWDFLT
  5
E
102
{ACAD_REACTORS
330
C
102
}
330
C
100
AcDbDictionary
281
     1
  3
Normal
350
F
100
AcDbDictionaryWithDefault
340
F
  0
XRECORD
  5
AE1
102
{ACAD_REACTORS
330
C
102
}
330
C
100
AcDbXrecord
280
     1
 90
   990106
  3

 60
     4
 61
     0
 62
     1
 63
     3
 64
     0
 65
     0
 66
     0
 67
     3
 68
     1
 69
     0
 70
     0
 71
     0
 72
     0
 40
0.0
170
     0
  0
DICTIONARY
  5
74
102
{ACAD_REACTORS
330
C
102
}
330
C
100
AcDbDictionary
281
     1
  3
DIMASSOC
350
8DC
  3
SORTENTS
350
75
  0
DICTIONARY
  5
8D9
102
{ACAD_REACTORS
330
C
102
}
330
C
100
AcDbDictionary
281
     1
  3
ASEBlockHierarchyIndexRecord
350
8DA
1001
DCO15
1040
1448881532.116
  0
DICTIONARY
  5
6F1
102
{ACAD_REACTORS
330
C
102
}
330
0
100
AcDbDictionary
281
     1
  0
XRECORD
  5
60C
102
{ACAD_REACTORS
330
76
102
}
330
76
100
AcDbXrecord
280
     1
340
1F
  0
SORTENTSTABLE
  5
77
102
{ACAD_REACTORS
330
76
102
}
330
76
100
AcDbSortentsTable
330
1F
  0
XRECORD
  5
60B
102
{ACAD_REACTORS
330
260
102
}
330
260
100
AcDbXrecord
280
     1
340
1B
  0
XRECORD
  5
60D
102
{ACAD_REACTORS
330
262
102
}
330
262
100
AcDbXrecord
280
     1
340
23
  0
LAYOUT
  5
1E
102
{ACAD_REACTORS
330
1A
102
}
330
1A
100
AcDbPlotSettings
  1

  2
HP_LASER_5SI.pc3
  4
Letter
  6

 40
5.129999999999999
 41
5.129999999999999
 42
5.809999999999999
 43
4.28
 44
279.3999938964843
 45
215.8999938964843
 46
0.0
 47
0.0
 48
0.0
 49
0.0
140
0.0
141
0.0
142
1.0
143
0.8001000000000001
 70
   688
 72
     0
 73
     0
 74
     1
  7

 75
     0
147
1.249859314418639
148
-26.83286274104108
149
-20.64315459285291
100
AcDbLayout
  1
Layout1
 70
     1
 71
     1
 10
0.8948189287460039
 20
0.5967235097856363
 11
9.730408884685799
 21
7.451894855023855
 12
0.0
 22
0.0
 32
0.0
 14
1.056411918938625
 24
0.8127226217658627
 34
-0.0015258207003583
 15
9.512796550678555
 25
7.3166777694175
 35
0.0000000349246037
146
0.0
 13
0.0
 23
0.0
 33
0.0
 16
1.0
 26
0.0
 36
0.0
 17
0.0
 27
1.0
 37
0.0
 76
     0
330
1B
331
34
  0
LAYOUT
  5
26
102
{ACAD_REACTORS
330
1A
102
}
330
1A
100
AcDbPlotSettings
  1

  2

  4

  6

 40
0.0
 41
0.0
 42
0.0
 43
0.0
 44
0.0
 45
0.0
 46
0.0
 47
0.0
 48
0.0
 49
0.0
140
0.0
141
0.0
142
1.0
143
1.0
 70
   688
 72
     0
 73
     0
 74
     5
  7

 75
    16
147
1.0
148
0.0
149
0.0
100
AcDbLayout
  1
Layout2
 70
     1
 71
     2
 10
0.0
 20
0.0
 11
12.0
 21
9.0
 12
0.0
 22
0.0
 32
0.0
 14
0.0
 24
0.0
 34
0.0
 15
0.0
 25
0.0
 35
0.0
146
0.0
 13
0.0
 23
0.0
 33
0.0
 16
1.0
 26
0.0
 36
0.0
 17
0.0
 27
1.0
 37
0.0
 76
     0
330
23
  0
LAYOUT
  5
22
102
{ACAD_REACTORS
330
1A
102
}
330
1A
100
AcDbPlotSettings
  1

  2
8500ColorShaded.pc3
  4
11x17
  6
PS1
 40
5.027083396911621
 41
5.027085304260253
 42
5.027099609375
 43
5.027069091796875
 44
279.3999938964843
 45
431.7999877929687
 46
0.0
 47
0.0
 48
-0.378254074714981
 49
-0.3655147390782023
140
16.11174592528501
141
10.07448526092179
142
1.0
143
0.9932178093297139
 70
 11952
 72
     0
 73
     1
 74
     1
  7
8500ColorShaded.ctb
 75
     0
147
1.006828502878802
148
9.621213942615881
149
9.300258690268126
100
AcDbLayout
  1
Model
 70
     1
 71
     0
 10
0.0
 20
0.0
 11
12.0
 21
9.0
 12
0.0
 22
0.0
 32
0.0
 14
0.0
 24
0.0
 34
0.0
 15
0.0
 25
0.0
 35
0.0
146
0.0
 13
0.0
 23
0.0
 33
0.0
 16
1.0
 26
0.0
 36
0.0
 17
0.0
 27
1.0
 37
0.0
 76
     0
330
1F
  0
MLINESTYLE
  5
18
102
{ACAD_REACTORS
330
17
102
}
330
17
100
AcDbMlineStyle
  2
STANDARD
 70
     0
  3

 62
   256
 51
90.0
 52
90.0
 71
     2
 49
0.5
 62
   256
  6
BYLAYER
 49
-0.5
 62
   256
  6
BYLAYER
  0
PLOTSETTINGS
  5
A8E
102
{ACAD_REACTORS
330
19
102
}
330
19
100
AcDbPlotSettings
  1
1055 B&W Full Shaded Draft
  2
1055B&WDraftShaded.pc3
  4
User607
  6
PS1
 40
0.0
 41
0.0
 42
0.0
 43
0.0
 44
901.7000122070312
 45
1155.700073242187
 46
0.0
 47
0.0
 48
180377.877572
 49
80019.819395
140
180380.8390819999
141
80022.26069
142
1.0
143
1.0
 70
   688
 72
     0
 73
     2
 74
     5
  7
1055B&WFullDraftShaded.ctb
 75
    16
147
1.0
148
-4581114.014650871
149
-2032337.537636779
  0
PLOTSETTINGS
  5
A8F
102
{ACAD_REACTORS
330
19
102
}
330
19
100
AcDbPlotSettings
  1
1055 B&W Full Shaded Final
  2
1055B&WFinalShaded.pc3
  4
User258
  6
PS1
 40
4.995333194732666
 41
8.297393798828125
 42
4.99530029296875
 43
8.29736328125
 44
761.9576416015624
 45
1066.757690429687
 46
0.0
 47
0.0
 48
180377.877572
 49
80019.819395
140
180380.8390819999
141
80022.26069
142
1.0
143
1.0
 70
   688
 72
     0
 73
     3
 74
     5
  7
1055B&WFullFinalShaded.ctb
 75
    16
147
1.0
148
-4581114.014650871
149
-2032337.537636779
  0
PLOTSETTINGS
  5
A90
102
{ACAD_REACTORS
330
19
102
}
330
19
100
AcDbPlotSettings
  1
1055 B&W Half Shaded Draft
  2
1055B&WDraftShaded.pc3
  4
User607
  6
PS1
 40
0.0
 41
0.0
 42
0.0
 43
0.0
 44
901.7000122070312
 45
1155.700073242187
 46
0.0
 47
0.0
 48
180377.877572
 49
80019.819395
140
180380.8390819999
141
80022.26069
142
1.0
143
2.0
 70
   688
 72
     0
 73
     2
 74
     5
  7
1055B&WHalfDraftShaded.ctb
 75
    17
147
0.5
148
-4581114.014650871
149
-2032337.537636779
  0
PLOTSETTINGS
  5
A91
102
{ACAD_REACTORS
330
19
102
}
330
19
100
AcDbPlotSettings
  1
1055 B&W Half Shaded Final
  2
1055B&WFinalShaded.pc3
  4
User258
  6
PS1
 40
4.995333194732666
 41
8.297393798828125
 42
4.99530029296875
 43
8.29736328125
 44
761.9576416015624
 45
1066.757690429687
 46
0.0
 47
0.0
 48
180377.877572
 49
80019.819395
140
180380.8390819999
141
80022.26069
142
1.0
143
2.0
 70
   688
 72
     0
 73
     3
 74
     5
  7
1055B&WHalfFinalShaded.ctb
 75
    17
147
0.5
148
-4581114.014650871
149
-2032337.537636779
  0
PLOTSETTINGS
  5
A92
102
{ACAD_REACTORS
330
19
102
}
330
19
100
AcDbPlotSettings
  1
1055 Color Full Shaded Draft
  2
1055ColorDraftShaded.pc3
  4
User607
  6
PS1
 40
0.0
 41
0.0
 42
0.0
 43
0.0
 44
901.7000122070312
 45
1155.700073242187
 46
0.0
 47
0.0
 48
180377.877572
 49
80019.819395
140
180380.8390819999
141
80022.26069
142
1.0
143
1.0
 70
   688
 72
     0
 73
     2
 74
     5
  7
1055ColorFullDraftShaded.ctb
 75
    16
147
1.0
148
-4581114.014650871
149
-2032337.537636779
  0
PLOTSETTINGS
  5
A93
102
{ACAD_REACTORS
330
19
102
}
330
19
100
AcDbPlotSettings
  1
1055 Color Full Shaded Final
  2
1055ColorFinalShaded.pc3
  4
User607
  6
PS1
 40
0.0
 41
0.0
 42
0.0
 43
0.0
 44
901.7000122070312
 45
1155.700073242187
 46
0.0
 47
0.0
 48
180377.877572
 49
80019.819395
140
180380.8390819999
141
80022.26069
142
1.0
143
1.0
 70
   688
 72
     0
 73
     2
 74
     5
  7
1055ColorFullFinalShaded.ctb
 75
    16
147
1.0
148
-4581114.014650871
149
-2032337.537636779
  0
PLOTSETTINGS
  5
A94
102
{ACAD_REACTORS
330
19
102
}
330
19
100
AcDbPlotSettings
  1
1055 Color Half Shaded Draft
  2
1055ColorDraftShaded.pc3
  4
User607
  6
PS1
 40
0.0
 41
0.0
 42
0.0
 43
0.0
 44
901.7000122070312
 45
1155.700073242187
 46
0.0
 47
0.0
 48
180377.877572
 49
80019.819395
140
180380.8390819999
141
80022.26069
142
1.0
143
1.0
 70
   688
 72
     0
 73
     2
 74
     5
  7
1055ColorHalfDraftShaded.ctb
 75
    16
147
1.0
148
-4581114.014650871
149
-2032337.537636779
  0
PLOTSETTINGS
  5
A95
102
{ACAD_REACTORS
330
19
102
}
330
19
100
AcDbPlotSettings
  1
1055 Color Half Shaded Final
  2
1055ColorFinalShaded.pc3
  4
User607
  6
PS1
 40
0.0
 41
0.0
 42
0.0
 43
0.0
 44
901.7000122070312
 45
1155.700073242187
 46
0.0
 47
0.0
 48
180377.877572
 49
80019.819395
140
180380.8390819999
141
80022.26069
142
1.0
143
1.0
 70
   688
 72
     0
 73
     2
 74
     5
  7
1055ColorHalfFinalShaded.ctb
 75
    16
147
1.0
148
-4581114.014650871
149
-2032337.537636779
  0
PLOTSETTINGS
  5
A96
102
{ACAD_REACTORS
330
19
102
}
330
19
100
AcDbPlotSettings
  1
1055-B&W-Shaded-Draft
  2
1055B&WDraftShaded.pc3
  4
User257
  6

 40
4.995333194732666
 41
8.297393798828125
 42
4.99530029296875
 43
8.29736328125
 44
901.6152954101562
 45
1155.615356445312
 46
0.0
 47
0.0
 48
180360.0524337165
 49
80033.77936194791
140
180369.1574725906
141
80037.61796031875
142
1.0
143
1.0
 70
  1712
 72
     0
 73
     1
 74
     4
  7
1055B&WFullDraftShaded.ctb
 75
    16
147
1.0
148
-4581145.331816398
149
-2032857.995793476
  0
PLOTSETTINGS
  5
A97
102
{ACAD_REACTORS
330
19
102
}
330
19
100
AcDbPlotSettings
  1
1055-B&W-Shaded-Final
  2
1055B&WFinalShaded.pc3
  4
User607
  6

 40
0.0
 41
0.0
 42
0.0
 43
0.0
 44
901.7000122070312
 45
1155.700073242187
 46
0.0
 47
0.0
 48
180360.0524337165
 49
80033.77936194791
140
180369.1574725906
141
80037.61796031875
142
1.0
143
1.0
 70
  1712
 72
     0
 73
     1
 74
     4
  7
1055B&WFullFinalShaded.ctb
 75
    16
147
1.0
148
-4581145.331816398
149
-2032857.995793476
  0
PLOTSETTINGS
  5
A98
102
{ACAD_REACTORS
330
19
102
}
330
19
100
AcDbPlotSettings
  1
1055-Color-Shaded-Draft
  2
1055ColorDraftShaded.pc3
  4
User257
  6

 40
4.995333194732666
 41
8.297393798828125
 42
4.99530029296875
 43
8.29736328125
 44
901.6152954101562
 45
1155.615356445312
 46
0.0
 47
0.0
 48
180360.0524337165
 49
80033.77936194791
140
180369.1574725906
141
80037.61796031875
142
1.0
143
1.0
 70
  1712
 72
     0
 73
     1
 74
     4
  7
1055ColorFullDraftShaded.ctb
 75
    16
147
1.0
148
-4581145.331816398
149
-2032857.995793476
  0
PLOTSETTINGS
  5
A99
102
{ACAD_REACTORS
330
19
102
}
330
19
100
AcDbPlotSettings
  1
1055-Color-Shaded-Final
  2
1055ColorDraftShaded.pc3
  4
User257
  6

 40
4.995333194732666
 41
8.297393798828125
 42
4.99530029296875
 43
8.29736328125
 44
901.6152954101562
 45
1155.615356445312
 46
0.0
 47
0.0
 48
180360.0524337165
 49
80033.77936194791
140
180369.1574725906
141
80037.61796031875
142
1.0
143
1.0
 70
  1712
 72
     0
 73
     1
 74
     4
  7
1055ColorFullFinalShaded.ctb
 75
    16
147
1.0
148
-4581145.331816398
149
-2032857.995793476
  0
PLOTSETTINGS
  5
814
102
{ACAD_REACTORS
330
19
102
}
330
19
100
AcDbPlotSettings
  1
1055cm B&W Shaded Draft
  2
1055B&WDraftShaded.pc3
  4
User257
  6
PS1
 40
4.995333194732666
 41
8.297393798828125
 42
4.99530029296875
 43
8.29736328125
 44
901.6152954101562
 45
1155.615356445312
 46
0.0
 47
0.0
 48
180377.877572
 49
80019.819395
140
180380.8390819999
141
80022.26069
142
1.0
143
1.0
 70
   688
 72
     0
 73
     2
 74
     3
  7
1055B&WDraftShaded.ctb
 75
    16
147
1.0
148
-4581153.377679998
149
-2032365.335819999
  0
PLOTSETTINGS
  5
815
102
{ACAD_REACTORS
330
19
102
}
330
19
100
AcDbPlotSettings
  1
1055cm B&W Shaded Final
  2
1055B&WFinalShaded.pc3
  4
User257
  6
PS1
 40
4.995333194732666
 41
8.297271728515625
 42
4.99530029296875
 43
8.29736328125
 44
901.6576538085937
 45
1155.657592773437
 46
0.0
 47
0.0
 48
180377.877572
 49
80019.819395
140
180380.8390819999
141
80022.26069
142
1.0
143
1.0
 70
   672
 72
     0
 73
     2
 74
     3
  7
1055B&WFinalShaded.ctb
 75
     0
147
1.0
148
-4581153.377679998
149
-2032365.335819999
  0
PLOTSETTINGS
  5
816
102
{ACAD_REACTORS
330
19
102
}
330
19
100
AcDbPlotSettings
  1
1055cm Color Draft
  2
1055ColorDraftShaded.pc3
  4
User257
  6
PS1
 40
4.995333194732666
 41
8.297393798828125
 42
4.99530029296875
 43
8.29736328125
 44
901.6152954101562
 45
1155.615356445312
 46
0.0
 47
0.0
 48
180377.877572
 49
80019.819395
140
180380.8390819999
141
80022.26069
142
1.0
143
1.0
 70
   688
 72
     0
 73
     2
 74
     3
  7
Color.CTB
 75
    16
147
1.0
148
-4581153.377679998
149
-2032365.335819999
  0
PLOTSETTINGS
  5
817
102
{ACAD_REACTORS
330
19
102
}
330
19
100
AcDbPlotSettings
  1
1055cm Color Shaded Draft
  2
1055ColorDraftShaded.pc3
  4
User257
  6
PS1
 40
4.995333194732666
 41
8.297393798828125
 42
4.99530029296875
 43
8.29736328125
 44
901.6152954101562
 45
1155.615356445312
 46
0.0
 47
0.0
 48
180377.877572
 49
80019.819395
140
180380.8390819999
141
80022.26069
142
1.0
143
1.0
 70
   688
 72
     0
 73
     2
 74
     3
  7
1055ColorDraftShaded.CTB
 75
    16
147
1.0
148
-4581153.377679998
149
-2032365.335819999
  0
PLOTSETTINGS
  5
818
102
{ACAD_REACTORS
330
19
102
}
330
19
100
AcDbPlotSettings
  1
1055cm Color Shaded Final
  2
1055ColorFinalShaded.pc3
  4
User257
  6
PS1
 40
4.995333194732666
 41
8.297271728515625
 42
4.99530029296875
 43
8.29736328125
 44
901.6576538085937
 45
1155.657592773437
 46
0.0
 47
0.0
 48
180377.877572
 49
80019.819395
140
180380.8390819999
141
80022.26069
142
1.0
143
1.0
 70
   688
 72
     0
 73
     2
 74
     3
  7
1055ColorFinalShaded.ctb
 75
    16
147
1.0
148
-4581153.377679998
149
-2032365.335819999
  0
PLOTSETTINGS
  5
819
102
{ACAD_REACTORS
330
19
102
}
330
19
100
AcDbPlotSettings
  1
1055cmB&WShadedDraft
  2
1055B&WDraftShaded.pc3
  4
User257
  6

 40
4.995333194732666
 41
8.297393798828125
 42
4.99530029296875
 43
8.29736328125
 44
901.6152954101562
 45
1155.615356445312
 46
0.0
 47
0.0
 48
180360.0524337165
 49
80033.77936194791
140
180369.1574725906
141
80037.61796031875
142
1.0
143
30.0
 70
  1712
 72
     0
 73
     1
 74
     0
  7
1055B&WDraftShaded.ctb
 75
    23
147
0.0333333333333333
148
-4580581.320935756
149
-2032339.826086972
  0
PLOTSETTINGS
  5
81A
102
{ACAD_REACTORS
330
19
102
}
330
19
100
AcDbPlotSettings
  1
1055cmColorShadedDraft
  2
1055ColorDraftShaded.pc3
  4
User257
  6

 40
4.995333194732666
 41
8.297393798828125
 42
4.99530029296875
 43
8.29736328125
 44
901.6152954101562
 45
1155.615356445312
 46
0.0
 47
0.0
 48
180360.0524337165
 49
80033.77936194791
140
180369.1574725906
141
80037.61796031875
142
1.0
143
30.0
 70
  1712
 72
     0
 73
     1
 74
     0
  7
1055ColorDraftShaded.ctb
 75
    23
147
0.0333333333333333
148
-4580581.320935756
149
-2032339.826086972
  0
PLOTSETTINGS
  5
81B
102
{ACAD_REACTORS
330
19
102
}
330
19
100
AcDbPlotSettings
  1
8500 B&W Shaded 11x17
  2
8500B&WShaded.pc3
  4
11x17
  6
PS1
 40
5.027083396911621
 41
5.027085304260253
 42
5.027099609375
 43
5.027069091796875
 44
279.3999938964843
 45
431.7999877929687
 46
0.0
 47
0.762
 48
180377.877572
 49
80019.819395
140
180380.8390819999
141
80022.26069
142
1.0
143
1.980353799589804
 70
   692
 72
     0
 73
     1
 74
     3
  7
8500B&WShaded.ctb
 75
     0
147
0.5049602753846977
148
-4581153.377679998
149
-2032365.335819999
  0
PLOTSETTINGS
  5
81C
102
{ACAD_REACTORS
330
19
102
}
330
19
100
AcDbPlotSettings
  1
8500 B&W Shaded 8.5x11
  2
8500B&WShaded.pc3
  4
Letter
  6
PS1
 40
5.027083396911621
 41
5.027085304260253
 42
5.027084350585937
 43
5.027069091796875
 44
215.8999938964843
 45
279.3999938964843
 46
16.50999999999999
 47
0.0
 48
180377.877572
 49
80019.819395
140
180380.8390819999
141
80022.26069
142
1.0
143
3.089030970531291
 70
   692
 72
     0
 73
     1
 74
     3
  7
8500B&WShaded.ctb
 75
     0
147
0.3237261165523398
148
-4581153.377679998
149
-2032365.335819999
  0
PLOTSETTINGS
  5
81D
102
{ACAD_REACTORS
330
19
102
}
330
19
100
AcDbPlotSettings
  1
8500 Color Shaded 11x17
  2
8500ColorShaded.pc3
  4
11x17
  6
PS1
 40
5.027083396911621
 41
5.027085304260253
 42
5.027099609375
 43
5.027069091796875
 44
279.3999938964843
 45
431.7999877929687
 46
0.0
 47
0.762
 48
180377.877572
 49
80019.819395
140
180380.8390819999
141
80022.26069
142
1.0
143
1.980353799589804
 70
   692
 72
     0
 73
     1
 74
     3
  7
8500ColorShaded.ctb
 75
     0
147
0.5049602753846977
148
-4581153.377679998
149
-2032365.335819999
  0
PLOTSETTINGS
  5
81E
102
{ACAD_REACTORS
330
19
102
}
330
19
100
AcDbPlotSettings
  1
8500 Color Shaded 8.5x11
  2
8500ColorShaded.pc3
  4
Letter
  6
PS1
 40
5.027083396911621
 41
5.027085304260253
 42
5.027084350585937
 43
5.027069091796875
 44
215.8999938964843
 45
279.3999938964843
 46
16.50999999999999
 47
0.0
 48
180377.877572
 49
80019.819395
140
180380.8390819999
141
80022.26069
142
1.0
143
3.089030970531291
 70
   692
 72
     0
 73
     1
 74
     3
  7
8500ColorShaded.ctb
 75
     0
147
0.3237261165523398
148
-4581153.377679998
149
-2032365.335819999
  0
PLOTSETTINGS
  5
A9A
102
{ACAD_REACTORS
330
19
102
}
330
19
100
AcDbPlotSettings
  1
8500-B&W-Shaded-11x17
  2
8500B&WShaded.pc3
  4
11x17
  6

 40
5.027083396911621
 41
5.027085304260253
 42
5.027099609375
 43
5.027069091796875
 44
279.3999938964843
 45
431.7999877929687
 46
0.0
 47
0.0
 48
180360.0524337165
 49
80033.77936194791
140
180369.1574725906
141
80037.61796031875
142
1.0
143
4.787622939151733
 70
  1712
 72
     0
 73
     1
 74
     0
  7
8500B&WShaded.ctb
 75
     0
147
0.2088719209322652
148
-4580581.320935756
149
-2032339.826086972
  0
PLOTSETTINGS
  5
A9B
102
{ACAD_REACTORS
330
19
102
}
330
19
100
AcDbPlotSettings
  1
8500-B&W-Shaded-8.5x11
  2
8500B&WShaded.pc3
  4
Letter
  6

 40
5.027083396911621
 41
5.027085304260253
 42
5.027084350585937
 43
5.027069091796875
 44
215.8999938964843
 45
279.3999938964843
 46
0.0
 47
0.0
 48
180360.0524337165
 49
80033.77936194791
140
180369.1574725906
141
80037.61796031875
142
1.0
143
1.400341199009821
 70
  1712
 72
     0
 73
     1
 74
     0
  7
8500B&WShaded.ctb
 75
     0
147
0.7141116755738516
148
0.0
149
0.0
  0
PLOTSETTINGS
  5
A9C
102
{ACAD_REACTORS
330
19
102
}
330
19
100
AcDbPlotSettings
  1
8500-Color-Shaded-11x17
  2
8500ColorShaded.pc3
  4
11x17
  6

 40
5.027083396911621
 41
5.027085304260253
 42
5.027099609375
 43
5.027069091796875
 44
279.3999938964843
 45
431.7999877929687
 46
0.0
 47
0.0
 48
180360.0524337165
 49
80033.77936194791
140
180369.1574725906
141
80037.61796031875
142
1.0
143
4.787622939151733
 70
  1712
 72
     0
 73
     1
 74
     0
  7
8500ColorShaded.ctb
 75
     0
147
0.2088719209322652
148
-4580581.320935756
149
-2032339.826086972
  0
PLOTSETTINGS
  5
A9D
102
{ACAD_REACTORS
330
19
102
}
330
19
100
AcDbPlotSettings
  1
8500-Color-Shaded-8.5x11
  2
8500ColorShaded.pc3
  4
Letter
  6

 40
5.027083396911621
 41
5.027085304260253
 42
5.027084350585937
 43
5.027069091796875
 44
215.8999938964843
 45
279.3999938964843
 46
0.0
 47
0.0
 48
180360.0524337165
 49
80033.77936194791
140
180369.1574725906
141
80037.61796031875
142
1.0
143
1.400341199009821
 70
  1712
 72
     0
 73
     1
 74
     0
  7
8500ColorShaded.ctb
 75
     0
147
0.7141116755738516
148
0.0
149
0.0
  0
PLOTSETTINGS
  5
81F
102
{ACAD_REACTORS
330
19
102
}
330
19
100
AcDbPlotSettings
  1
8500B&WShaded11x17
  2
8500B&WShaded.pc3
  4
11x17
  6

 40
5.027083396911621
 41
5.027085304260253
 42
5.027099609375
 43
5.027069091796875
 44
279.3999938964843
 45
431.7999877929687
 46
0.0
 47
0.0
 48
180360.0524337165
 49
80033.77936194791
140
180369.1574725906
141
80037.61796031875
142
1.0
143
4.787622939151733
 70
  1712
 72
     0
 73
     1
 74
     0
  7
8500B&WShaded.ctb
 75
     0
147
0.2088719209322652
148
-4580581.320935756
149
-2032339.826086972
  0
PLOTSETTINGS
  5
820
102
{ACAD_REACTORS
330
19
102
}
330
19
100
AcDbPlotSettings
  1
8500ColorShaded11x17
  2
8500ColorShaded.pc3
  4
11x17
  6

 40
5.027083396911621
 41
5.027085304260253
 42
5.027099609375
 43
5.027069091796875
 44
279.3999938964843
 45
431.7999877929687
 46
0.0
 47
0.0
 48
180360.0524337165
 49
80033.77936194791
140
180369.1574725906
141
80037.61796031875
142
1.0
143
4.787622939151733
 70
  1712
 72
     0
 73
     1
 74
     0
  7
8500ColorShaded.ctb
 75
     0
147
0.2088719209322652
148
-4580581.320935756
149
-2032339.826086972
  0
PLOTSETTINGS
  5
821
102
{ACAD_REACTORS
330
19
102
}
330
19
100
AcDbPlotSettings
  1
Laser Jet 5 Shaded 11x17
  2
LaserJet5Shaded.pc3
  4
11x17
  6
PS1
 40
7.143749713897705
 41
5.873736858367919
 42
7.143768310546875
 43
7.14373779296875
 44
279.3999938964843
 45
431.7999877929687
 46
0.0
 47
2.54
 48
180377.877572
 49
80019.819395
140
180380.8390819999
141
80022.26069
142
1.0
143
2.011976231014692
 70
   692
 72
     0
 73
     1
 74
     3
  7
LaserJet5Shaded.ctb
 75
     0
147
0.4970237642895384
148
-4581153.377679998
149
-2032365.335819999
  0
PLOTSETTINGS
  5
822
102
{ACAD_REACTORS
330
19
102
}
330
19
100
AcDbPlotSettings
  1
Laser Jet 5 Shaded 8.5x11
  2
LaserJet5Shaded.pc3
  4
Letter
  6
PS1
 40
7.143749713897705
 41
6.974400997161865
 42
7.14373779296875
 43
6.297088623046875
 44
215.8999938964843
 45
279.3999938964843
 46
15.49399999999999
 47
0.0
 48
180377.877572
 49
80019.819395
140
180380.8390819999
141
80022.26069
142
1.0
143
3.126375516456624
 70
   692
 72
     0
 73
     1
 74
     3
  7
LaserJet5Shaded.ctb
 75
     0
147
0.3198592090861117
148
-4581153.377679998
149
-2032365.335819999
  0
PLOTSETTINGS
  5
A9E
102
{ACAD_REACTORS
330
19
102
}
330
19
100
AcDbPlotSettings
  1
LaserJet5-Shaded-11x17
  2
LaserJet5Shaded.pc3
  4
11x17
  6

 40
7.143749713897705
 41
5.873736858367919
 42
7.143768310546875
 43
7.14373779296875
 44
279.3999938964843
 45
431.7999877929687
 46
0.0
 47
0.0
 48
180360.0524337165
 49
80033.77936194791
140
180369.1574725906
141
80037.61796031875
142
1.0
143
4.864072045424008
 70
  1712
 72
     0
 73
     1
 74
     0
  7
LaserJet5Shaded.ctb
 75
     0
147
0.205589060084086
148
-4580581.320935756
149
-2032339.826086972
  0
PLOTSETTINGS
  5
A9F
102
{ACAD_REACTORS
330
19
102
}
330
19
100
AcDbPlotSettings
  1
LaserJet5-Shaded-8.5x11
  2
LaserJet5Shaded.pc3
  4
Letter
  6

 40
7.143749713897705
 41
6.974400997161865
 42
7.14373779296875
 43
6.297088623046875
 44
215.8999938964843
 45
279.3999938964843
 46
0.0
 47
0.0
 48
180360.0524337165
 49
80033.77936194791
140
180369.1574725906
141
80037.61796031875
142
1.0
143
1.417270490660323
 70
  1712
 72
     0
 73
     1
 74
     0
  7
LaserJet5Shaded.ctb
 75
     0
147
0.7055816138061886
148
0.0
149
0.0
  0
PLOTSETTINGS
  5
823
102
{ACAD_REACTORS
330
19
102
}
330
19
100
AcDbPlotSettings
  1
LaserJet5Shaded 11x17
  2
LaserJet5Shaded.pc3
  4
11x17
  6

 40
7.143749713897705
 41
5.873736858367919
 42
7.143768310546875
 43
7.14373779296875
 44
279.3999938964843
 45
431.7999877929687
 46
0.0
 47
0.0
 48
180360.0524337165
 49
80033.77936194791
140
180369.1574725906
141
80037.61796031875
142
1.0
143
4.864072045424008
 70
  1712
 72
     0
 73
     1
 74
     0
  7
LaserJet5Shaded.ctb
 75
     0
147
0.205589060084086
148
-4580581.320935756
149
-2032339.826086972
  0
ACDBPLACEHOLDER
  5
F
102
{ACAD_REACTORS
330
E
102
}
330
E
  0
DICTIONARYVAR
  5
8DC
102
{ACAD_REACTORS
330
74
102
}
330
74
100
DictionaryVariables
280
     0
  1
1
  0
DICTIONARYVAR
  5
75
102
{ACAD_REACTORS
330
74
102
}
330
74
100
DictionaryVariables
280
     0
  1
1
  0
XRECORD
  5
8DA
102
{ACAD_REACTORS
330
8D9
102
}
330
8D9
100
AcDbXrecord
280
     1
330
897
330
898
330
89A
330
922
330
928
330
92B
330
92E
330
931
330
934
330
937
330
93F
330
942
330
945
330
948
330
94B
330
9CF
330
9D2
330
9D5
330
9D8
330
9DB
330
9DE
330
9E1
330
9E4
330
9E7
330
9EA
330
9ED
330
9F0
330
AA4
330
AA5
330
723
330
AA1
  0
ENDSEC
  0
EOF
