  0
SECTION
  2
HEADER
  9
$ACADVER
  1
AC1015
  9
$ACADMAINTVER
 70
    13
  9
$DWGCODEPAGE
  3
ANSI_1252
  9
$INSBASE
 10
0.0
 20
0.0
 30
0.0
  9
$EXTMIN
 10
0.0
 20
0.0
 30
0.0
  9
$EXTMAX
 10
16.49
 20
10.44
 30
0.03
  9
$LIMMIN
 10
0.0
 20
-0.1363636364
  9
$LIMMAX
 10
12.0
 20
9.1363636364
  9
$ORTHOMODE
 70
     1
  9
$REGENMODE
 70
     1
  9
$FILLMODE
 70
     1
  9
$QTEXTMODE
 70
     0
  9
$MIRRTEXT
 70
     0
  9
$LTSCALE
 40
0.5
  9
$ATTMODE
 70
     1
  9
$TEXTSIZE
 40
0.2
  9
$TRACEWID
 40
0.05
  9
$TEXTSTYLE
  7
STANDARD
  9
$CLAYER
  8
TEXT_BUBBLES
  9
$CELTYPE
  6
ByLayer
  9
$CECOLOR
 62
   256
  9
$CELTSCALE
 40
1.0
  9
$DISPSILH
 70
     0
  9
$DIMSCALE
 40
1.0
  9
$DIMASZ
 40
0.1
  9
$DIMEXO
 40
0.0625
  9
$DIMDLI
 40
0.38
  9
$DIMRND
 40
0.0
  9
$DIMDLE
 40
0.0
  9
$DIMEXE
 40
0.18
  9
$DIMTP
 40
0.0
  9
$DIMTM
 40
0.0
  9
$DIMTXT
 40
0.125
  9
$DIMCEN
 40
0.09
  9
$DIMTSZ
 40
0.0
  9
$DIMTOL
 70
     0
  9
$DIMLIM
 70
     0
  9
$DIMTIH
 70
     1
  9
$DIMTOH
 70
     1
  9
$DIMSE1
 70
     0
  9
$DIMSE2
 70
     0
  9
$DIMTAD
 70
     0
  9
$DIMZIN
 70
     0
  9
$DIMBLK
  1

  9
$DIMASO
 70
     1
  9
$DIMSHO
 70
     0
  9
$DIMPOST
  1

  9
$DIMAPOST
  1

  9
$DIMALT
 70
     0
  9
$DIMALTD
 70
     2
  9
$DIMALTF
 40
25.0
  9
$DIMLFAC
 40
1.0
  9
$DIMTOFL
 70
     0
  9
$DIMTVP
 40
0.0
  9
$DIMTIX
 70
     0
  9
$DIMSOXD
 70
     0
  9
$DIMSAH
 70
     0
  9
$DIMBLK1
  1

  9
$DIMBLK2
  1

  9
$DIMSTYLE
  2
Standard
  9
$DIMCLRD
 70
   256
  9
$DIMCLRE
 70
   256
  9
$DIMCLRT
 70
   256
  9
$DIMTFAC
 40
1.0
  9
$DIMGAP
 40
0.09
  9
$DIMJUST
 70
     0
  9
$DIMSD1
 70
     0
  9
$DIMSD2
 70
     0
  9
$DIMTOLJ
 70
     1
  9
$DIMTZIN
 70
     0
  9
$DIMALTZ
 70
     0
  9
$DIMALTTZ
 70
     0
  9
$DIMUPT
 70
     0
  9
$DIMDEC
 70
     4
  9
$DIMTDEC
 70
     4
  9
$DIMALTU
 70
     2
  9
$DIMALTTD
 70
     2
  9
$DIMTXSTY
  7
STANDARD
  9
$DIMAUNIT
 70
     0
  9
$DIMADEC
 70
     0
  9
$DIMALTRND
 40
0.0
  9
$DIMAZIN
 70
     0
  9
$DIMDSEP
 70
    46
  9
$DIMATFIT
 70
     1
  9
$DIMFRAC
 70
     0
  9
$DIMLDRBLK
  1

  9
$DIMLUNIT
 70
     2
  9
$DIMLWD
 70
    -2
  9
$DIMLWE
 70
    -2
  9
$DIMTMOVE
 70
     0
  9
$LUNITS
 70
     2
  9
$LUPREC
 70
     4
  9
$SKETCHINC
 40
0.1
  9
$FILLETRAD
 40
0.0
  9
$AUNITS
 70
     0
  9
$AUPREC
 70
     0
  9
$MENU
  1
acad
  9
$ELEVATION
 40
0.0
  9
$PELEVATION
 40
0.0
  9
$THICKNESS
 40
0.0
  9
$LIMCHECK
 70
     0
  9
$CHAMFERA
 40
0.0
  9
$CHAMFERB
 40
0.0
  9
$CHAMFERC
 40
0.0
  9
$CHAMFERD
 40
0.0
  9
$SKPOLY
 70
     0
  9
$TDCREATE
 40
2444975.380666932
  9
$TDUCREATE
 40
2444975.672333599
  9
$TDUPDATE
 40
2453034.425202674
  9
$TDUUPDATE
 40
2453034.716869340
  9
$TDINDWG
 40
0.2777075116
  9
$TDUSRTIMER
 40
0.2777075116
  9
$USRTIMER
 70
     1
  9
$ANGBASE
 50
0.0
  9
$ANGDIR
 70
     0
  9
$PDMODE
 70
     0
  9
$PDSIZE
 40
0.0
  9
$PLINEWID
 40
0.0
  9
$SPLFRAME
 70
     0
  9
$SPLINETYPE
 70
     6
  9
$SPLINESEGS
 70
     8
  9
$HANDSEED
  5
464
  9
$SURFTAB1
 70
     6
  9
$SURFTAB2
 70
     6
  9
$SURFTYPE
 70
     6
  9
$SURFU
 70
     6
  9
$SURFV
 70
     6
  9
$UCSBASE
  2

  9
$UCSNAME
  2

  9
$UCSORG
 10
0.0
 20
0.0
 30
0.0
  9
$UCSXDIR
 10
1.0
 20
0.0
 30
0.0
  9
$UCSYDIR
 10
0.0
 20
1.0
 30
0.0
  9
$UCSORTHOREF
  2

  9
$UCSORTHOVIEW
 70
     0
  9
$UCSORGTOP
 10
0.0
 20
0.0
 30
0.0
  9
$UCSORGBOTTOM
 10
0.0
 20
0.0
 30
0.0
  9
$UCSORGLEFT
 10
0.0
 20
0.0
 30
0.0
  9
$UCSORGRIGHT
 10
0.0
 20
0.0
 30
0.0
  9
$UCSORGFRONT
 10
0.0
 20
0.0
 30
0.0
  9
$UCSORGBACK
 10
0.0
 20
0.0
 30
0.0
  9
$PUCSBASE
  2

  9
$PUCSNAME
  2

  9
$PUCSORG
 10
0.0
 20
0.0
 30
0.0
  9
$PUCSXDIR
 10
1.0
 20
0.0
 30
0.0
  9
$PUCSYDIR
 10
0.0
 20
1.0
 30
0.0
  9
$PUCSORTHOREF
  2

  9
$PUCSORTHOVIEW
 70
     0
  9
$PUCSORGTOP
 10
0.0
 20
0.0
 30
0.0
  9
$PUCSORGBOTTOM
 10
0.0
 20
0.0
 30
0.0
  9
$PUCSORGLEFT
 10
0.0
 20
0.0
 30
0.0
  9
$PUCSORGRIGHT
 10
0.0
 20
0.0
 30
0.0
  9
$PUCSORGFRONT
 10
0.0
 20
0.0
 30
0.0
  9
$PUCSORGBACK
 10
0.0
 20
0.0
 30
0.0
  9
$USERI1
 70
     0
  9
$USERI2
 70
     0
  9
$USERI3
 70
     0
  9
$USERI4
 70
     0
  9
$USERI5
 70
     0
  9
$USERR1
 40
0.0
  9
$USERR2
 40
0.0
  9
$USERR3
 40
0.0
  9
$USERR4
 40
0.0
  9
$USERR5
 40
0.0
  9
$WORLDVIEW
 70
     0
  9
$SHADEDGE
 70
     3
  9
$SHADEDIF
 70
    70
  9
$TILEMODE
 70
     1
  9
$MAXACTVP
 70
    16
  9
$PINSBASE
 10
0.0
 20
0.0
 30
0.0
  9
$PLIMCHECK
 70
     0
  9
$PEXTMIN
 10
1.000000000000000E+20
 20
1.000000000000000E+20
 30
1.000000000000000E+20
  9
$PEXTMAX
 10
-1.000000000000000E+20
 20
-1.000000000000000E+20
 30
-1.000000000000000E+20
  9
$PLIMMIN
 10
0.0
 20
0.0
  9
$PLIMMAX
 10
12.0
 20
9.0
  9
$UNITMODE
 70
     0
  9
$VISRETAIN
 70
     0
  9
$PLINEGEN
 70
     1
  9
$PSLTSCALE
 70
     0
  9
$TREEDEPTH
 70
  3020
  9
$CMLSTYLE
  2
Standard
  9
$CMLJUST
 70
     0
  9
$CMLSCALE
 40
1.0
  9
$PROXYGRAPHICS
 70
     1
  9
$MEASUREMENT
 70
     0
  9
$CELWEIGHT
370
    -1
  9
$ENDCAPS
280
     0
  9
$JOINSTYLE
280
     0
  9
$LWDISPLAY
290
     0
  9
$INSUNITS
 70
     0
  9
$HYPERLINKBASE
  1

  9
$STYLESHEET
  1
8500Color.ctb
  9
$XEDIT
290
     1
  9
$CEPSNTYPE
380
     0
  9
$PSTYLEMODE
290
     1
  9
$FINGERPRINTGUID
  2
{9A55BA9F-56A3-45E8-B51F-1B04A4E6D871}
  9
$VERSIONGUID
  2
{3145DE86-4A69-478C-84F6-E158E60B247B}
  9
$EXTNAMES
290
     1
  9
$PSVPSCALE
 40
0.0
  9
$OLESTARTUP
290
     0
  0
ENDSEC
  0
SECTION
  2
CLASSES
  0
CLASS
  1
ACDBDICTIONARYWDFLT
  2
AcDbDictionaryWithDefault
  3
AutoCAD 2000
 90
        0
280
     0
281
     0
  0
CLASS
  1
ACDBPLACEHOLDER
  2
AcDbPlaceHolder
  3
AutoCAD 2000
 90
        0
280
     0
281
     0
  0
CLASS
  1
LAYOUT
  2
AcDbLayout
  3
AutoCAD 2000
 90
        0
280
     0
281
     0
  0
CLASS
  1
DICTIONARYVAR
  2
AcDbDictionaryVar
  3
AutoCAD 2000
 90
        0
280
     0
281
     0
  0
CLASS
  1
DIMASSOC
  2
AcDbDimAssoc
  3
"AcDbDimAssoc|Product Desc:     AcDim ARX App For Dimension|Company:          Autodesk, Inc.|WEB Address:      www.autodesk.com"
 90
        0
280
     0
281
     0
  0
CLASS
  1
PLOTSETTINGS
  2
AcDbPlotSettings
  3
AutoCAD 2000
 90
        0
280
     0
281
     0
  0
ENDSEC
  0
SECTION
  2
TABLES
  0
TABLE
  2
VPORT
  5
19
330
0
100
AcDbSymbolTable
 70
     2
  0
VPORT
  5
463
330
19
100
AcDbSymbolTableRecord
100
AcDbViewportTableRecord
  2
*Active
 70
     0
 10
0.0
 20
0.0
 11
1.0
 21
1.0
 12
8.245000038393776
 22
5.220002313504804
 13
0.0
 23
0.0
 14
0.1
 24
0.1
 15
0.1
 25
0.1
 16
0.0
 26
0.0
 36
1.0
 17
0.0
 27
0.0
 37
0.0
 40
11.00724506558551
 41
1.505548705302096
 42
50.0
 43
0.0
 44
0.0
 50
0.0
 51
0.0
 71
     0
 72
 10000
 73
     1
 74
     1
 75
     0
 76
     0
 77
     0
 78
     1
281
     0
 65
     1
110
0.0
120
0.0
130
0.0
111
1.0
121
0.0
131
0.0
112
0.0
122
1.0
132
0.0
 79
     0
146
0.0
  0
ENDTAB
  0
TABLE
  2
LTYPE
  5
14
330
0
100
AcDbSymbolTable
 70
     1
  0
LTYPE
  5
15
330
14
100
AcDbSymbolTableRecord
100
AcDbLinetypeTableRecord
  2
ByBlock
 70
     0
  3

 72
    65
 73
     0
 40
0.0
  0
LTYPE
  5
16
330
14
100
AcDbSymbolTableRecord
100
AcDbLinetypeTableRecord
  2
ByLayer
 70
     0
  3

 72
    65
 73
     0
 40
0.0
  0
LTYPE
  5
8
330
14
100
AcDbSymbolTableRecord
100
AcDbLinetypeTableRecord
  2
CONTINUOUS
 70
     0
  3
CONTINUOUS
 72
    65
 73
     0
 40
0.0
  0
ENDTAB
  0
TABLE
  2
LAYER
  5
10
102
{ACAD_XDICTIONARY
360
3FB
102
}
330
0
100
AcDbSymbolTable
 70
     5
  0
LAYER
  5
4
330
10
100
AcDbSymbolTableRecord
100
AcDbLayerTableRecord
  2
0
 70
     0
 62
     7
  6
CONTINUOUS
370
    -3
390
5
  0
LAYER
  5
23
330
10
100
AcDbSymbolTableRecord
100
AcDbLayerTableRecord
  2
IMAGE
 70
     0
 62
     7
  6
CONTINUOUS
370
    -3
390
5
  0
LAYER
  5
2C
330
10
100
AcDbSymbolTableRecord
100
AcDbLayerTableRecord
  2
TEXT_BUBBLES
 70
     0
 62
     6
  6
CONTINUOUS
370
    -3
390
5
1001
RAK
1000
{EFB-CP-BUBBLES
1070
     0
1070
     6
1000
CONTINUOUS
1000
EFB-CP-BUBBLES}
1000
{EFB-CP-LEADERS
1070
     0
1070
    -6
1000
CONTINUOUS
1000
EFB-CP-LEADERS}
1000
{EFB-CP-BSP-BUBBLES
1070
     0
1070
     6
1000
CONTINUOUS
1000
EFB-CP-BSP-BUBBLES}
1000
{EFB-CP-BSP-LEADERS
1070
     0
1070
    -6
1000
CONTINUOUS
1000
EFB-CP-BSP-LEADERS}
1000
{EFB-CP-NP-BUBBLES
1070
     0
1070
     6
1000
CONTINUOUS
1000
EFB-CP-NP-BUBBLES}
1000
{EFB-CP-NP-LEADERS
1070
     0
1070
    -6
1000
CONTINUOUS
1000
EFB-CP-NP-LEADERS}
1000
{EFB-CP-PRS-BUBBLES
1070
     0
1070
     6
1000
CONTINUOUS
1000
EFB-CP-PRS-BUBBLES}
1000
{EFB-CP-PRS-LEADERS
1070
     0
1070
    -6
1000
CONTINUOUS
1000
EFB-CP-PRS-LEADERS}
1000
{EFB-CP-PRS-BSP-BUBBLES
1070
     0
1070
     6
1000
CONTINUOUS
1000
EFB-CP-PRS-BSP-BUBBLES}
1000
{EFB-CP-PRS-BSP-LEADERS
1070
     0
1070
    -6
1000
CONTINUOUS
1000
EFB-CP-PRS-BSP-LEADERS}
1000
{EFB-CP-PRS-NP-BUBBLES
1070
     0
1070
     6
1000
CONTINUOUS
1000
EFB-CP-PRS-NP-BUBBLES}
1000
{EFB-CP-PRS-NP-LEADERS
1070
     0
1070
    -6
1000
CONTINUOUS
1000
EFB-CP-PRS-NP-LEADERS}
  0
LAYER
  5
58
330
10
100
AcDbSymbolTableRecord
100
AcDbLayerTableRecord
  2
Defpoints
 70
     0
 62
     7
  6
CONTINUOUS
290
     0
370
    -3
390
5
  0
LAYER
  5
356
330
10
100
AcDbSymbolTableRecord
100
AcDbLayerTableRecord
  2
TITLE
 70
     0
 62
     4
  6
CONTINUOUS
370
    -3
390
5
  0
ENDTAB
  0
TABLE
  2
STYLE
  5
11
330
0
100
AcDbSymbolTable
 70
     6
  0
STYLE
  5
12
330
11
100
AcDbSymbolTableRecord
100
AcDbTextStyleTableRecord
  2
STANDARD
 70
     0
 40
0.0
 41
1.0
 50
0.0
 71
     0
 42
0.2
  3
txt
  4

  0
STYLE
  5
28
330
11
100
AcDbSymbolTableRecord
100
AcDbTextStyleTableRecord
  2
SIMPLEX
 70
     0
 40
0.0
 41
0.0
 50
0.0
 71
     0
 42
0.0
  3
SIMPLEX
  4

  0
STYLE
  5
2B
330
11
100
AcDbSymbolTableRecord
100
AcDbTextStyleTableRecord
  2
ROMANS
 70
     0
 40
0.0
 41
1.0
 50
0.0
 71
     0
 42
0.1
  3
romans
  4

  0
STYLE
  5
357
330
11
100
AcDbSymbolTableRecord
100
AcDbTextStyleTableRecord
  2
L100
 70
     0
 40
0.1
 41
1.0
 50
0.0
 71
     0
 42
0.1
  3
SIMPLEX
  4

  0
STYLE
  5
358
330
11
100
AcDbSymbolTableRecord
100
AcDbTextStyleTableRecord
  2
L200
 70
     0
 40
0.2
 41
1.0
 50
0.0
 71
     0
 42
0.081
  3
ARIAL.TTF
  4

1001
ACAD
1000
Arial
1071
       34
  0
STYLE
  5
359
330
11
100
AcDbSymbolTableRecord
100
AcDbTextStyleTableRecord
  2
L80
 70
     0
 40
0.08
 41
1.0
 50
0.0
 71
     0
 42
0.08
  3
ROMANS
  4

  0
ENDTAB
  0
TABLE
  2
VIEW
  5
17
330
0
100
AcDbSymbolTable
 70
     1
  0
VIEW
  5
390
330
17
100
AcDbSymbolTableRecord
100
AcDbViewTableRecord
  2
PS1
 70
     0
 40
10.44
 10
8.245
 20
5.219999999999999
 41
16.49
 11
0.0
 21
0.0
 31
1.0
 12
0.0
 22
0.0
 32
0.0
 42
50.0
 43
0.0
 44
0.0
 50
0.0
 71
     0
281
     0
 72
     1
110
0.0
120
0.0
130
0.0
111
1.0
121
0.0
131
0.0
112
0.0
122
1.0
132
0.0
 79
     0
146
0.0
  0
ENDTAB
  0
TABLE
  2
UCS
  5
18
330
0
100
AcDbSymbolTable
 70
     0
  0
ENDTAB
  0
TABLE
  2
APPID
  5
1B
330
0
100
AcDbSymbolTable
 70
     4
  0
APPID
  5
1C
330
1B
100
AcDbSymbolTableRecord
100
AcDbRegAppTableRecord
  2
ACAD
 70
     0
  0
APPID
  5
2A4
330
1B
100
AcDbSymbolTableRecord
100
AcDbRegAppTableRecord
  2
TCAD
 70
     0
  0
APPID
  5
2D
330
1B
100
AcDbSymbolTableRecord
100
AcDbRegAppTableRecord
  2
RAK
 70
     0
  0
APPID
  5
38A
330
1B
100
AcDbSymbolTableRecord
100
AcDbRegAppTableRecord
  2
DCO15
 70
     0
  0
ENDTAB
  0
TABLE
  2
DIMSTYLE
  5
1D
330
0
100
AcDbSymbolTable
 70
     1
100
AcDbDimStyleTable
 71
     1
340
1E
  0
DIMSTYLE
105
1E
102
{ACAD_REACTORS
330
2FA
330
5D
330
4E
330
6D
102
}
330
1D
100
AcDbSymbolTableRecord
100
AcDbDimStyleTableRecord
  2
Standard
 70
     0
340
12
  0
ENDTAB
  0
TABLE
  2
BLOCK_RECORD
  5
1
330
0
100
AcDbSymbolTable
 70
     7
  0
BLOCK_RECORD
  5
2
330
1
100
AcDbSymbolTableRecord
100
AcDbBlockTableRecord
  2
*Model_Space
340
A
  0
BLOCK_RECORD
  5
C
330
1
100
AcDbSymbolTableRecord
100
AcDbBlockTableRecord
  2
*Paper_Space
340
F
  0
BLOCK_RECORD
  5
88
330
1
100
AcDbSymbolTableRecord
100
AcDbBlockTableRecord
  2
_X7
340
0
102
{BLKREFS
331
87
331
274
331
28E
102
}
  0
BLOCK_RECORD
  5
2E
330
1
100
AcDbSymbolTableRecord
100
AcDbBlockTableRecord
  2
bubble
340
0
310
2800000020000000200000000100080000000000000400000000000000000000000000000000000000000000000080000080000000808000800000008000800080800000C0C0C000C0DCC000F0CAA6000020400000206000002080000020A0000020C0000020E00000400000004020000040400000406000004080000040A0
310
000040C0000040E00000600000006020000060400000606000006080000060A0000060C0000060E00000800000008020000080400000806000008080000080A0000080C0000080E00000A0000000A0200000A0400000A0600000A0800000A0A00000A0C00000A0E00000C0000000C0200000C0400000C0600000C0800000C0
310
A00000C0C00000C0E00000E0000000E0200000E0400000E0600000E0800000E0A00000E0C00000E0E00040000000400020004000400040006000400080004000A0004000C0004000E00040200000402020004020400040206000402080004020A0004020C0004020E000404000004040200040404000404060004040800040
310
40A0004040C0004040E00040600000406020004060400040606000406080004060A0004060C0004060E00040800000408020004080400040806000408080004080A0004080C0004080E00040A0000040A0200040A0400040A0600040A0800040A0A00040A0C00040A0E00040C0000040C0200040C0400040C0600040C08000
310
40C0A00040C0C00040C0E00040E0000040E0200040E0400040E0600040E0800040E0A00040E0C00040E0E00080000000800020008000400080006000800080008000A0008000C0008000E00080200000802020008020400080206000802080008020A0008020C0008020E00080400000804020008040400080406000804080
310
008040A0008040C0008040E00080600000806020008060400080606000806080008060A0008060C0008060E00080800000808020008080400080806000808080008080A0008080C0008080E00080A0000080A0200080A0400080A0600080A0800080A0A00080A0C00080A0E00080C0000080C0200080C0400080C0600080C0
310
800080C0A00080C0C00080C0E00080E0000080E0200080E0400080E0600080E0800080E0A00080E0C00080E0E000C0000000C0002000C0004000C0006000C0008000C000A000C000C000C000E000C0200000C0202000C0204000C0206000C0208000C020A000C020C000C020E000C0400000C0402000C0404000C0406000C0
310
408000C040A000C040C000C040E000C0600000C0602000C0604000C0606000C0608000C060A000C060C000C060E000C0800000C0802000C0804000C0806000C0808000C080A000C080C000C080E000C0A00000C0A02000C0A04000C0A06000C0A08000C0A0A000C0A0C000C0A0E000C0C00000C0C02000C0C04000C0C06000
310
C0C08000C0C0A000F0FBFF00A4A0A000808080000000FF0000FF000000FFFF00FF000000FF00FF00FFFF0000FFFFFF0008080808080808080808080808080808080808080808080808080808080808080808080808080808080808080808080808080808080808080808080808080808080808080808080808080808FDFDFD
310
08080808080808080808080808080808080808080808080808080808FD080808FDFDFDFDFDFD0808080808080808080808080808080808080808FDFD08080808080808080808FDFDFDFD080808080808080808080808080808FD08080808080808080808080808080808FD08080808080808080808080808FD080808080808
310
0808080808080808080808FD0808080808080808080808FDFD08080808080808080808080808080808080808FD080808080808080808FD080808080808080808080808080808080808080808FD0808080808080808FD08FD0808080808080808FD0808FD0808080808080808FDFD08080808080808FD0808FD080808080808
310
FD08080808FD080808080808FD08FD08080808080808FD0808FD080808080808FD08080808FD080808080808FD0808FD080808080808FD080808FD08080808FD080808080808FD08080808FD080808FD080808080808FD08080808FD0808FD0808080808080808FD0808FD0808080808FD0808080808FD08080808FD0808FD
310
0808080808080808FD0808FD0808080808FD0808080808FD0808080808FDFD08080808080808080808FDFD08080808080808FD08080808FD0808080808FDFD08080808080808080808FDFD08080808080808FD08080808FD08080808FD0808FD0808080808080808FD0808FD0808080808FD0808080808FD08080808FD0808
310
FD0808080808080808FD0808FD0808080808FD0808080808FD080808FD08080808FD080808080808FD08080808FD080808FD080808080808FD0808FD080808080808FD08080808FD080808080808FD0808FD080808080808FD0808FD080808080808FD08080808FD080808080808FD08FD08080808080808FD08FD08080808
310
08080808FD0808FD0808080808080808FDFD0808080808080808FD080808080808080808080808080808080808080808FD08080808080808080808FDFD08080808080808080808080808080808080808FD080808080808080808080808FD0808080808080808080808080808080808FD0808080808080808080808080808FD
310
08080808080808080808080808080808FD080808080808080808080808080808FDFD0808080808080808080808FDFDFD080808080808080808080808080808080808FD08080808FDFDFDFDFDFD08080808080808080808080808080808080808080808FDFDFDFD080808080808080808080808080808080808080808080808
310
0808080808080808080808080808080808080808080808080808080808080808080808080808080808080808080808080808080808080808
102
{BLKREFS
331
3D
331
29
331
34
331
37
331
3A
331
43
331
40
331
287
331
265
331
80
331
2A8
331
2F2
331
277
331
26C
331
2A0
331
49
331
46
102
}
  0
BLOCK_RECORD
  5
2FD
330
1
100
AcDbSymbolTableRecord
100
AcDbBlockTableRecord
  2
*D2
340
0
  0
BLOCK_RECORD
  5
349
330
1
100
AcDbSymbolTableRecord
100
AcDbBlockTableRecord
  2
TITLBLK
340
0
102
{BLKREFS
331
369
102
}
  0
BLOCK_RECORD
  5
3A0
330
1
100
AcDbSymbolTableRecord
100
AcDbBlockTableRecord
  2
*D4
340
0
  0
BLOCK_RECORD
  5
3AD
330
1
100
AcDbSymbolTableRecord
100
AcDbBlockTableRecord
  2
*D5
340
0
  0
BLOCK_RECORD
  5
3BA
330
1
100
AcDbSymbolTableRecord
100
AcDbBlockTableRecord
  2
*D6
340
0
  0
ENDTAB
  0
ENDSEC
  0
SECTION
  2
BLOCKS
  0
BLOCK
  5
3
330
2
100
AcDbEntity
  8
0
100
AcDbBlockBegin
  2
*Model_Space
 70
     0
 10
0.0
 20
0.0
 30
0.0
  3
*Model_Space
  1

  0
ENDBLK
  5
9
330
2
100
AcDbEntity
  8
0
100
AcDbBlockEnd
  0
BLOCK
  5
D
330
C
100
AcDbEntity
 67
     1
  8
0
100
AcDbBlockBegin
  2
*Paper_Space
 70
     0
 10
0.0
 20
0.0
 30
0.0
  3
*Paper_Space
  1

  0
ENDBLK
  5
E
330
C
100
AcDbEntity
 67
     1
  8
0
100
AcDbBlockEnd
  0
BLOCK
  5
260
330
88
100
AcDbEntity
  8
0
100
AcDbBlockBegin
  2
_X7
 70
     0
 10
0.0
 20
0.0
 30
0.0
  3
_X7
  1

  0
LINE
  5
89
330
88
100
AcDbEntity
  8
0
 62
     0
100
AcDbLine
 10
0.9957423310740558
 20
6.122973601457712
 30
0.0
 11
1.037366206962081
 21
6.164597477345737
 31
0.0
  0
LINE
  5
8A
330
88
100
AcDbEntity
  8
0
 62
     0
100
AcDbLine
 10
0.9956538505443454
 20
6.123061897623298
 30
0.0
 11
1.037277910796495
 21
6.164685957875447
 31
0.0
  0
LINE
  5
8B
330
88
100
AcDbEntity
  8
0
 62
     0
100
AcDbLine
 10
0.9955657454006159
 20
6.123150569174865
 30
0.0
 11
1.037189239244928
 21
6.164774063019176
 31
0.0
  0
LINE
  5
8C
330
88
100
AcDbEntity
  8
0
 62
     0
100
AcDbLine
 10
0.9954780156581927
 20
6.123239616127738
 30
0.0
 11
1.037100192292054
 21
6.1648617927616
 31
0.0
  0
LINE
  5
8D
330
88
100
AcDbEntity
  8
0
 62
     0
100
AcDbLine
 10
0.9953906613527188
 20
6.12332903851756
 30
0.0
 11
1.037010769902232
 21
6.164949147067074
 31
0.0
  0
LINE
  5
8E
330
88
100
AcDbEntity
  8
0
 62
     0
100
AcDbLine
 10
0.9953036825401632
 20
6.123418836400302
 30
0.0
 11
1.03692097201949
 21
6.16503612587963
 31
0.0
  0
LINE
  5
8F
330
88
100
AcDbEntity
  8
0
 62
     0
100
AcDbLine
 10
0.9952170792968381
 20
6.123509009852273
 30
0.0
 11
1.036830798567519
 21
6.165122729122955
 31
0.0
  0
LINE
  5
90
330
88
100
AcDbEntity
  8
0
 62
     0
100
AcDbLine
 10
0.9951308517194187
 20
6.12359955897015
 30
0.0
 11
1.036740249449642
 21
6.165208956700374
 31
0.0
  0
LINE
  5
91
330
88
100
AcDbEntity
  8
0
 62
     0
100
AcDbLine
 10
0.9950449999249682
 20
6.123690483870997
 30
0.0
 11
1.036649324548795
 21
6.165294808494825
 31
0.0
  0
LINE
  5
92
330
88
100
AcDbEntity
  8
0
 62
     0
100
AcDbLine
 10
0.9949595240509719
 20
6.123781784692297
 30
0.0
 11
1.036558023727495
 21
6.165380284368821
 31
0.0
  0
LINE
  5
93
330
88
100
AcDbEntity
  8
0
 62
     0
100
AcDbLine
 10
0.9948744242553729
 20
6.123873461591995
 30
0.0
 11
1.036466346827798
 21
6.16546538416442
 31
0.0
  0
LINE
  5
94
330
88
100
AcDbEntity
  8
0
 62
     0
100
AcDbLine
 10
0.9947897007166147
 20
6.123965514748533
 30
0.0
 11
1.036374293671259
 21
6.165550107703178
 31
0.0
  0
LINE
  5
95
330
88
100
AcDbEntity
  8
0
 62
     0
100
AcDbLine
 10
0.9947053536336911
 20
6.124057944360907
 30
0.0
 11
1.036281864058886
 21
6.165634454786101
 31
0.0
  0
LINE
  5
96
330
88
100
AcDbEntity
  8
0
 62
     0
100
AcDbLine
 10
0.9946213832261994
 20
6.124150750648711
 30
0.0
 11
1.036189057771081
 21
6.165718425193594
 31
0.0
  0
LINE
  5
97
330
88
100
AcDbEntity
  8
0
 62
     0
100
AcDbLine
 10
0.9945377897344
 20
6.124243933852208
 30
0.0
 11
1.036095874567584
 21
6.165802018685393
 31
0.0
  0
LINE
  5
98
330
88
100
AcDbEntity
  8
0
 62
     0
100
AcDbLine
 10
0.9944545734192828
 20
6.124337494232388
 30
0.0
 11
1.036002314187404
 21
6.16588523500051
 31
0.0
  0
LINE
  5
99
330
88
100
AcDbEntity
  8
0
 62
     0
100
AcDbLine
 10
0.9943717345626387
 20
6.12443143207104
 30
0.0
 11
1.035908376348752
 21
6.165968073857154
 31
0.0
  0
LINE
  5
9A
330
88
100
AcDbEntity
  8
0
 62
     0
100
AcDbLine
 10
0.9942892734671346
 20
6.124525747670833
 30
0.0
 11
1.035814060748959
 21
6.166050534952658
 31
0.0
  0
LINE
  5
9B
330
88
100
AcDbEntity
  8
0
 62
     0
100
AcDbLine
 10
0.9942071904563992
 20
6.124620441355395
 30
0.0
 11
1.035719367064398
 21
6.166132617963394
 31
0.0
  0
LINE
  5
9C
330
88
100
AcDbEntity
  8
0
 62
     0
100
AcDbLine
 10
0.9941254858751102
 20
6.124715513469402
 30
0.0
 11
1.035624294950391
 21
6.166214322544682
 31
0.0
  0
LINE
  5
9D
330
88
100
AcDbEntity
  8
0
 62
     0
100
AcDbLine
 10
0.9940441600890892
 20
6.124810964378678
 30
0.0
 11
1.035528844041115
 21
6.166295648330704
 31
0.0
  0
LINE
  5
9E
330
88
100
AcDbEntity
  8
0
 62
     0
100
AcDbLine
 10
0.9939632134854031
 20
6.124906794470288
 30
0.0
 11
1.035433013949504
 21
6.16637659493439
 31
0.0
  0
LINE
  5
9F
330
88
100
AcDbEntity
  8
0
 62
     0
100
AcDbLine
 10
0.9938826464724714
 20
6.125003004152653
 30
0.0
 11
1.03533680426714
 21
6.166457161947321
 31
0.0
  0
LINE
  5
A0
330
88
100
AcDbEntity
  8
0
 62
     0
100
AcDbLine
 10
0.9938024594801778
 20
6.125099593855656
 30
0.0
 11
1.035240214564136
 21
6.166537348939615
 31
0.0
  0
LINE
  5
A1
330
88
100
AcDbEntity
  8
0
 62
     0
100
AcDbLine
 10
0.9937226529599914
 20
6.125196564030766
 30
0.0
 11
1.035143244389026
 21
6.166617155459801
 31
0.0
  0
LINE
  5
A2
330
88
100
AcDbEntity
  8
0
 62
     0
100
AcDbLine
 10
0.9936432273850915
 20
6.125293915151162
 30
0.0
 11
1.03504589326863
 21
6.166696581034702
 31
0.0
  0
LINE
  5
A3
330
88
100
AcDbEntity
  8
0
 62
     0
100
AcDbLine
 10
0.9935641832504988
 20
6.125391647711867
 30
0.0
 11
1.034948160707925
 21
6.166775625169294
 31
0.0
  0
LINE
  5
A4
330
88
100
AcDbEntity
  8
0
 62
     0
100
AcDbLine
 10
0.9934855210732166
 20
6.125489762229881
 30
0.0
 11
1.034850046189911
 21
6.166854287346576
 31
0.0
  0
LINE
  5
A5
330
88
100
AcDbEntity
  8
0
 62
     0
100
AcDbLine
 10
0.9934072413923724
 20
6.125588259244334
 30
0.0
 11
1.034751549175459
 21
6.16693256702742
 31
0.0
  0
LINE
  5
A6
330
88
100
AcDbEntity
  8
0
 62
     0
100
AcDbLine
 10
0.993329344769373
 20
6.125687139316632
 30
0.0
 11
1.034652669103161
 21
6.16701046365042
 31
0.0
  0
LINE
  5
A7
330
88
100
AcDbEntity
  8
0
 62
     0
100
AcDbLine
 10
0.9932518317880614
 20
6.125786403030616
 30
0.0
 11
1.034553405389177
 21
6.167087976631732
 31
0.0
  0
LINE
  5
A8
330
88
100
AcDbEntity
  8
0
 62
     0
100
AcDbLine
 10
0.9931747030548816
 20
6.125886050992733
 30
0.0
 11
1.03445375742706
 21
6.167165105364912
 31
0.0
  0
LINE
  5
A9
330
88
100
AcDbEntity
  8
0
 62
     0
100
AcDbLine
 10
0.993097959199053
 20
6.125986083832201
 30
0.0
 11
1.034353724587591
 21
6.16724184922074
 31
0.0
  0
LINE
  5
AA
330
88
100
AcDbEntity
  8
0
 62
     0
100
AcDbLine
 10
0.9930216008727491
 20
6.126086502201193
 30
0.0
 11
1.034253306218599
 21
6.167318207547044
 31
0.0
  0
LINE
  5
AB
330
88
100
AcDbEntity
  8
0
 62
     0
100
AcDbLine
 10
0.9929456287512827
 20
6.126187306775024
 30
0.0
 11
1.034152501644769
 21
6.167394179668511
 31
0.0
  0
LINE
  5
AC
330
88
100
AcDbEntity
  8
0
 62
     0
100
AcDbLine
 10
0.9928700435333032
 20
6.126288498252341
 30
0.0
 11
1.034051310167451
 21
6.167469764886489
 31
0.0
  0
LINE
  5
AD
330
88
100
AcDbEntity
  8
0
 62
     0
100
AcDbLine
 10
0.9927948459409961
 20
6.12639007735533
 30
0.0
 11
1.033949731064462
 21
6.167544962478797
 31
0.0
  0
LINE
  5
AE
330
88
100
AcDbEntity
  8
0
 62
     0
100
AcDbLine
 10
0.9927200367202919
 20
6.126492044829923
 30
0.0
 11
1.033847763589869
 21
6.1676197716995
 31
0.0
  0
LINE
  5
AF
330
88
100
AcDbEntity
  8
0
 62
     0
100
AcDbLine
 10
0.9926456166410851
 20
6.126594401446013
 30
0.0
 11
1.033745406973779
 21
6.167694191778708
 31
0.0
  0
LINE
  5
B0
330
88
100
AcDbEntity
  8
0
 62
     0
100
AcDbLine
 10
0.9925715864974574
 20
6.126697147997681
 30
0.0
 11
1.033642660422111
 21
6.167768221922336
 31
0.0
  0
LINE
  5
B1
330
88
100
AcDbEntity
  8
0
 62
     0
100
AcDbLine
 10
0.9924979471079115
 20
6.126800285303433
 30
0.0
 11
1.03353952311636
 21
6.167841861311881
 31
0.0
  0
LINE
  5
B2
330
88
100
AcDbEntity
  8
0
 62
     0
100
AcDbLine
 10
0.9924246993156129
 20
6.126903814206431
 30
0.0
 11
1.033435994213361
 21
6.16791510910418
 31
0.0
  0
LINE
  5
B3
330
88
100
AcDbEntity
  8
0
 62
     0
100
AcDbLine
 10
0.9923518439886386
 20
6.127007735574752
 30
0.0
 11
1.03333207284504
 21
6.167987964431154
 31
0.0
  0
LINE
  5
B4
330
88
100
AcDbEntity
  8
0
 62
     0
100
AcDbLine
 10
0.9922793820202358
 20
6.127112050301646
 30
0.0
 11
1.033227758118146
 21
6.168060426399557
 31
0.0
  0
LINE
  5
B5
330
88
100
AcDbEntity
  8
0
 62
     0
100
AcDbLine
 10
0.9922073143290893
 20
6.127216759305797
 30
0.0
 11
1.033123049113995
 21
6.168132494090704
 31
0.0
  0
LINE
  5
B6
330
88
100
AcDbEntity
  8
0
 62
     0
100
AcDbLine
 10
0.9921356418595978
 20
6.127321863531602
 30
0.0
 11
1.03301794488819
 21
6.168204166560195
 31
0.0
  0
LINE
  5
B7
330
88
100
AcDbEntity
  8
0
 62
     0
100
AcDbLine
 10
0.9920643655821583
 20
6.127427363949459
 30
0.0
 11
1.032912444470333
 21
6.168275442837635
 31
0.0
  0
LINE
  5
B8
330
88
100
AcDbEntity
  8
0
 62
     0
100
AcDbLine
 10
0.9919934864934615
 20
6.12753326155606
 30
0.0
 11
1.032806546863733
 21
6.168346321926331
 31
0.0
  0
LINE
  5
B9
330
88
100
AcDbEntity
  8
0
 62
     0
100
AcDbLine
 10
0.9919230056167959
 20
6.12763955737469
 30
0.0
 11
1.032700251045102
 21
6.168416802802997
 31
0.0
  0
LINE
  5
BA
330
88
100
AcDbEntity
  8
0
 62
     0
100
AcDbLine
 10
0.9918529240023616
 20
6.127746252455552
 30
0.0
 11
1.03259355596424
 21
6.168486884417431
 31
0.0
  0
LINE
  5
BB
330
88
100
AcDbEntity
  8
0
 62
     0
100
AcDbLine
 10
0.9917832427275948
 20
6.127853347876082
 30
0.0
 11
1.03248646054371
 21
6.168556565692198
 31
0.0
  0
LINE
  5
BC
330
88
100
AcDbEntity
  8
0
 62
     0
100
AcDbLine
 10
0.9917139628975027
 20
6.127960844741287
 30
0.0
 11
1.032378963678506
 21
6.16862584552229
 31
0.0
  0
LINE
  5
BD
330
88
100
AcDbEntity
  8
0
 62
     0
100
AcDbLine
 10
0.9916450856450065
 20
6.128068744184087
 30
0.0
 11
1.032271064235705
 21
6.168694722774787
 31
0.0
  0
LINE
  5
BE
330
88
100
AcDbEntity
  8
0
 62
     0
100
AcDbLine
 10
0.9915766121313009
 20
6.128177047365678
 30
0.0
 11
1.032162761054114
 21
6.168763196288492
 31
0.0
  0
LINE
  5
BF
330
88
100
AcDbEntity
  8
0
 62
     0
100
AcDbLine
 10
0.9915085435462174
 20
6.128285755475891
 30
0.0
 11
1.032054052943901
 21
6.168831264873575
 31
0.0
  0
LINE
  5
C0
330
88
100
AcDbEntity
  8
0
 62
     0
100
AcDbLine
 10
0.9914408811086046
 20
6.128394869733575
 30
0.0
 11
1.031944938686217
 21
6.168898927311188
 31
0.0
  0
LINE
  5
C1
330
88
100
AcDbEntity
  8
0
 62
     0
100
AcDbLine
 10
0.9913736260667182
 20
6.128504391386986
 30
0.0
 11
1.031835417032807
 21
6.168966182353075
 31
0.0
  0
LINE
  5
C2
330
88
100
AcDbEntity
  8
0
 62
     0
100
AcDbLine
 10
0.9913067796986229
 20
6.128614321714187
 30
0.0
 11
1.031725486705606
 21
6.16903302872117
 31
0.0
  0
LINE
  5
C3
330
88
100
AcDbEntity
  8
0
 62
     0
100
AcDbLine
 10
0.9912403433126057
 20
6.128724662023466
 30
0.0
 11
1.031615146396326
 21
6.169099465107187
 31
0.0
  0
LINE
  5
C4
330
88
100
AcDbEntity
  8
0
 62
     0
100
AcDbLine
 10
0.9911743182476048
 20
6.128835413653762
 30
0.0
 11
1.031504394766031
 21
6.169165490172188
 31
0.0
  0
LINE
  5
C5
330
88
100
AcDbEntity
  8
0
 62
     0
100
AcDbLine
 10
0.9911087058736477
 20
6.128946577975101
 30
0.0
 11
1.031393230444691
 21
6.169231102546145
 31
0.0
  0
LINE
  5
C6
330
88
100
AcDbEntity
  8
0
 62
     0
100
AcDbLine
 10
0.9910435075923064
 20
6.129058156389057
 30
0.0
 11
1.031281652030735
 21
6.169296300827486
 31
0.0
  0
LINE
  5
C7
330
88
100
AcDbEntity
  8
0
 62
     0
100
AcDbLine
 10
0.9909787248371634
 20
6.12917015032921
 30
0.0
 11
1.031169658090582
 21
6.16936108358263
 31
0.0
  0
LINE
  5
C8
330
88
100
AcDbEntity
  8
0
 62
     0
100
AcDbLine
 10
0.9909143590742923
 20
6.129282561261636
 30
0.0
 11
1.031057247158156
 21
6.1694254493455
 31
0.0
  0
LINE
  5
C9
330
88
100
AcDbEntity
  8
0
 62
     0
100
AcDbLine
 10
0.9908504118027551
 20
6.129395390685395
 30
0.0
 11
1.030944417734397
 21
6.169489396617038
 31
0.0
  0
LINE
  5
CA
330
88
100
AcDbEntity
  8
0
 62
     0
100
AcDbLine
 10
0.9907868845551119
 20
6.129508640133049
 30
0.0
 11
1.030831168286744
 21
6.169552923864681
 31
0.0
  0
LINE
  5
CB
330
88
100
AcDbEntity
  8
0
 62
     0
100
AcDbLine
 10
0.9907237788979468
 20
6.12962231117118
 30
0.0
 11
1.030717497248612
 21
6.169616029521846
 31
0.0
  0
LINE
  5
CC
330
88
100
AcDbEntity
  8
0
 62
     0
100
AcDbLine
 10
0.9906610964324107
 20
6.129736405400941
 30
0.0
 11
1.030603403018851
 21
6.169678711987382
 31
0.0
  0
LINE
  5
CD
330
88
100
AcDbEntity
  8
0
 62
     0
100
AcDbLine
 10
0.9905988387947786
 20
6.129850924458605
 30
0.0
 11
1.030488883961187
 21
6.169740969625014
 31
0.0
  0
LINE
  5
CE
330
88
100
AcDbEntity
  8
0
 62
     0
100
AcDbLine
 10
0.9905370076570246
 20
6.129965870016148
 30
0.0
 11
1.030373938403644
 21
6.169802800762768
 31
0.0
  0
LINE
  5
CF
330
88
100
AcDbEntity
  8
0
 62
     0
100
AcDbLine
 10
0.9904756047274146
 20
6.130081243781835
 30
0.0
 11
1.030258564637958
 21
6.169864203692378
 31
0.0
  0
LINE
  5
D0
330
88
100
AcDbEntity
  8
0
 62
     0
100
AcDbLine
 10
0.9904146317511168
 20
6.130197047500833
 30
0.0
 11
1.030142760918959
 21
6.169925176668676
 31
0.0
  0
LINE
  5
D1
330
88
100
AcDbEntity
  8
0
 62
     0
100
AcDbLine
 10
0.9903540905108288
 20
6.130313282955842
 30
0.0
 11
1.03002652546395
 21
6.169985717908964
 31
0.0
  0
LINE
  5
D2
330
88
100
AcDbEntity
  8
0
 62
     0
100
AcDbLine
 10
0.9902939828274268
 20
6.130429951967737
 30
0.0
 11
1.029909856452055
 21
6.170045825592366
 31
0.0
  0
LINE
  5
D3
330
88
100
AcDbEntity
  8
0
 62
     0
100
AcDbLine
 10
0.990234310560632
 20
6.130547056396238
 30
0.0
 11
1.029792752023554
 21
6.170105497859161
 31
0.0
  0
LINE
  5
D4
330
88
100
AcDbEntity
  8
0
 62
     0
100
AcDbLine
 10
0.9901750756096966
 20
6.1306645981406
 30
0.0
 11
1.029675210279193
 21
6.170164732810096
 31
0.0
  0
LINE
  5
D5
330
88
100
AcDbEntity
  8
0
 62
     0
100
AcDbLine
 10
0.9901162799141141
 20
6.130782579140315
 30
0.0
 11
1.029557229279478
 21
6.170223528505679
 31
0.0
  0
LINE
  5
D6
330
88
100
AcDbEntity
  8
0
 62
     0
100
AcDbLine
 10
0.990057925454348
 20
6.130901001375844
 30
0.0
 11
1.029438807043948
 21
6.170281882965445
 31
0.0
  0
LINE
  5
D7
330
88
100
AcDbEntity
  8
0
 62
     0
100
AcDbLine
 10
0.9900000142525824
 20
6.131019866869376
 30
0.0
 11
1.029319941550417
 21
6.170339794167211
 31
0.0
  0
LINE
  5
D8
330
88
100
AcDbEntity
  8
0
 62
     0
100
AcDbLine
 10
0.9899425483734988
 20
6.131139177685589
 30
0.0
 11
1.029200630734203
 21
6.170397260046294
 31
0.0
  0
LINE
  5
D9
330
88
100
AcDbEntity
  8
0
 62
     0
100
AcDbLine
 10
0.9898855299250739
 20
6.131258935932461
 30
0.0
 11
1.029080872487332
 21
6.170454278494719
 31
0.0
  0
LINE
  5
DA
330
88
100
AcDbEntity
  8
0
 62
     0
100
AcDbLine
 10
0.9898289610594018
 20
6.131379143762085
 30
0.0
 11
1.028960664657707
 21
6.170510847360391
 31
0.0
  0
LINE
  5
DB
330
88
100
AcDbEntity
  8
0
 62
     0
100
AcDbLine
 10
0.9897728439735436
 20
6.131499803371523
 30
0.0
 11
1.028840005048269
 21
6.170566964446249
 31
0.0
  0
LINE
  5
DC
330
88
100
AcDbEntity
  8
0
 62
     0
100
AcDbLine
 10
0.9897171809104017
 20
6.131620917003678
 30
0.0
 11
1.028718891416114
 21
6.170622627509391
 31
0.0
  0
LINE
  5
DD
330
88
100
AcDbEntity
  8
0
 62
     0
100
AcDbLine
 10
0.9896619741596209
 20
6.131742486948194
 30
0.0
 11
1.028597321471598
 21
6.170677834260172
 31
0.0
  0
LINE
  5
DE
330
88
100
AcDbEntity
  8
0
 62
     0
100
AcDbLine
 10
0.9896072260585194
 20
6.13186451554239
 30
0.0
 11
1.028475292877403
 21
6.170732582361273
 31
0.0
  0
LINE
  5
DF
330
88
100
AcDbEntity
  8
0
 62
     0
100
AcDbLine
 10
0.9895529389930471
 20
6.131987005172214
 30
0.0
 11
1.028352803247579
 21
6.170786869426746
 31
0.0
  0
LINE
  5
E0
330
88
100
AcDbEntity
  8
0
 62
     0
100
AcDbLine
 10
0.9894991153987742
 20
6.132109958273237
 30
0.0
 11
1.028229850146555
 21
6.170840693021019
 31
0.0
  0
LINE
  5
E1
330
88
100
AcDbEntity
  8
0
 62
     0
100
AcDbLine
 10
0.9894457577619119
 20
6.132233377331671
 30
0.0
 11
1.028106431088121
 21
6.170894050657881
 31
0.0
  0
LINE
  5
E2
330
88
100
AcDbEntity
  8
0
 62
     0
100
AcDbLine
 10
0.9893928686203645
 20
6.13235726488542
 30
0.0
 11
1.027982543534372
 21
6.170946939799429
 31
0.0
  0
LINE
  5
E3
330
88
100
AcDbEntity
  8
0
 62
     0
100
AcDbLine
 10
0.9893404505648158
 20
6.132481623525169
 30
0.0
 11
1.027858184894623
 21
6.170999357854977
 31
0.0
  0
LINE
  5
E4
330
88
100
AcDbEntity
  8
0
 62
     0
100
AcDbLine
 10
0.9892885062398494
 20
6.132606455895499
 30
0.0
 11
1.027733352524294
 21
6.171051302179943
 31
0.0
  0
LINE
  5
E5
330
88
100
AcDbEntity
  8
0
 62
     0
100
AcDbLine
 10
0.9892370383451044
 20
6.132731764696051
 30
0.0
 11
1.027608043723742
 21
6.171102770074688
 31
0.0
  0
LINE
  5
E6
330
88
100
AcDbEntity
  8
0
 62
     0
100
AcDbLine
 10
0.9891860496364703
 20
6.132857552682713
 30
0.0
 11
1.027482255737079
 21
6.171153758783322
 31
0.0
  0
LINE
  5
E7
330
88
100
AcDbEntity
  8
0
 62
     0
100
AcDbLine
 10
0.9891355429273193
 20
6.132983822668858
 30
0.0
 11
1.027355985750934
 21
6.171204265492473
 31
0.0
  0
LINE
  5
E8
330
88
100
AcDbEntity
  8
0
 62
     0
100
AcDbLine
 10
0.9890855210897775
 20
6.133110577526614
 30
0.0
 11
1.027229230893179
 21
6.171254287330016
 31
0.0
  0
LINE
  5
E9
330
88
100
AcDbEntity
  8
0
 62
     0
100
AcDbLine
 10
0.9890359870560416
 20
6.133237820188175
 30
0.0
 11
1.027101988231618
 21
6.171303821363751
 31
0.0
  0
LINE
  5
EA
330
88
100
AcDbEntity
  8
0
 62
     0
100
AcDbLine
 10
0.9889869438197345
 20
6.133365553647164
 30
0.0
 11
1.026974254772629
 21
6.171352864600058
 31
0.0
  0
LINE
  5
EB
330
88
100
AcDbEntity
  8
0
 62
     0
100
AcDbLine
 10
0.9889383944373083
 20
6.133493780960034
 30
0.0
 11
1.026846027459758
 21
6.171401413982485
 31
0.0
  0
LINE
  5
EC
330
88
100
AcDbEntity
  8
0
 62
     0
100
AcDbLine
 10
0.9888903420294932
 20
6.133622505247516
 30
0.0
 11
1.026717303172276
 21
6.1714494663903
 31
0.0
  0
LINE
  5
ED
330
88
100
AcDbEntity
  8
0
 62
     0
100
AcDbLine
 10
0.9888427897827966
 20
6.133751729696116
 30
0.0
 11
1.026588078723677
 21
6.171497018636996
 31
0.0
  0
LINE
  5
EE
330
88
100
AcDbEntity
  8
0
 62
     0
100
AcDbLine
 10
0.9887957409510491
 20
6.133881457559665
 30
0.0
 11
1.026458350860127
 21
6.171544067468744
 31
0.0
  0
LINE
  5
EF
330
88
100
AcDbEntity
  8
0
 62
     0
100
AcDbLine
 10
0.9887491988570065
 20
6.134011692160919
 30
0.0
 11
1.026328116258873
 21
6.171590609562787
 31
0.0
  0
LINE
  5
F0
330
88
100
AcDbEntity
  8
0
 62
     0
100
AcDbLine
 10
0.9887031668940055
 20
6.134142436893214
 30
0.0
 11
1.026197371526578
 21
6.171636641525787
 31
0.0
  0
LINE
  5
F1
330
88
100
AcDbEntity
  8
0
 62
     0
100
AcDbLine
 10
0.9886576485276737
 20
6.134273695222179
 30
0.0
 11
1.026066113197613
 21
6.171682159892119
 31
0.0
  0
LINE
  5
F2
330
88
100
AcDbEntity
  8
0
 62
     0
100
AcDbLine
 10
0.9886126472977025
 20
6.134405470687505
 30
0.0
 11
1.025934337732287
 21
6.17172716112209
 31
0.0
  0
LINE
  5
F3
330
88
100
AcDbEntity
  8
0
 62
     0
100
AcDbLine
 10
0.9885681668196795
 20
6.134537766904778
 30
0.0
 11
1.025802041515014
 21
6.171771641600114
 31
0.0
  0
LINE
  5
F4
330
88
100
AcDbEntity
  8
0
 62
     0
100
AcDbLine
 10
0.9885242107869844
 20
6.13467058756738
 30
0.0
 11
1.025669220852412
 21
6.171815597632808
 31
0.0
  0
LINE
  5
F5
330
88
100
AcDbEntity
  8
0
 62
     0
100
AcDbLine
 10
0.9884807829727535
 20
6.134803936448446
 30
0.0
 11
1.025535871971346
 21
6.171859025447039
 31
0.0
  0
LINE
  5
F6
330
88
100
AcDbEntity
  8
0
 62
     0
100
AcDbLine
 10
0.9884378872319135
 20
6.134937817402902
 30
0.0
 11
1.02540199101689
 21
6.171901921187879
 31
0.0
  0
LINE
  5
F7
330
88
100
AcDbEntity
  8
0
 62
     0
100
AcDbLine
 10
0.9883955275032853
 20
6.135072234369571
 30
0.0
 11
1.025267574050221
 21
6.171944280916507
 31
0.0
  0
LINE
  5
F8
330
88
100
AcDbEntity
  8
0
 62
     0
100
AcDbLine
 10
0.9883537078117687
 20
6.135207191373351
 30
0.0
 11
1.025132617046441
 21
6.171986100608024
 31
0.0
  0
LINE
  5
F9
330
88
100
AcDbEntity
  8
0
 62
     0
100
AcDbLine
 10
0.9883124322706002
 20
6.135342692527479
 30
0.0
 11
1.024997115892313
 21
6.172027376149193
 31
0.0
  0
LINE
  5
FA
330
88
100
AcDbEntity
  8
0
 62
     0
100
AcDbLine
 10
0.9882717050836982
 20
6.135478742035874
 30
0.0
 11
1.024861066383919
 21
6.172068103336095
 31
0.0
  0
LINE
  5
FB
330
88
100
AcDbEntity
  8
0
 62
     0
100
AcDbLine
 10
0.9882315305480913
 20
6.135615344195564
 30
0.0
 11
1.024724464224229
 21
6.172108277871702
 31
0.0
  0
LINE
  5
FC
330
88
100
AcDbEntity
  8
0
 62
     0
100
AcDbLine
 10
0.9881919130564385
 20
6.135752503399207
 30
0.0
 11
1.024587305020585
 21
6.172147895363354
 31
0.0
  0
LINE
  5
FD
330
88
100
AcDbEntity
  8
0
 62
     0
100
AcDbLine
 10
0.9881528570996415
 20
6.135890224137707
 30
0.0
 11
1.024449584282085
 21
6.172186951320151
 31
0.0
  0
LINE
  5
FE
330
88
100
AcDbEntity
  8
0
 62
     0
100
AcDbLine
 10
0.9881143672695573
 20
6.13602851100292
 30
0.0
 11
1.024311297416873
 21
6.172225441150235
 31
0.0
  0
LINE
  5
FF
330
88
100
AcDbEntity
  8
0
 62
     0
100
AcDbLine
 10
0.9880764482618122
 20
6.136167368690471
 30
0.0
 11
1.024172439729322
 21
6.17226336015798
 31
0.0
  0
LINE
  5
100
330
88
100
AcDbEntity
  8
0
 62
     0
100
AcDbLine
 10
0.9880391048787229
 20
6.136306802002678
 30
0.0
 11
1.024033006417114
 21
6.17230070354107
 31
0.0
  0
LINE
  5
101
330
88
100
AcDbEntity
  8
0
 62
     0
100
AcDbLine
 10
0.9880023420323327
 20
6.136446815851584
 30
0.0
 11
1.023892992568208
 21
6.17233746638746
 31
0.0
  0
LINE
  5
102
330
88
100
AcDbEntity
  8
0
 62
     0
100
AcDbLine
 10
0.9879661647475625
 20
6.136587415262111
 30
0.0
 11
1.023752393157681
 21
6.17237364367223
 31
0.0
  0
LINE
  5
103
330
88
100
AcDbEntity
  8
0
 62
     0
100
AcDbLine
 10
0.9879305781654863
 20
6.136728605375332
 30
0.0
 11
1.023611203044461
 21
6.172409230254307
 31
0.0
  0
LINE
  5
104
330
88
100
AcDbEntity
  8
0
 62
     0
100
AcDbLine
 10
0.987895587546737
 20
6.136870391451878
 30
0.0
 11
1.023469416967914
 21
6.172444220873056
 31
0.0
  0
LINE
  5
105
330
88
100
AcDbEntity
  8
0
 62
     0
100
AcDbLine
 10
0.9878611982750452
 20
6.137012778875484
 30
0.0
 11
1.023327029544309
 21
6.172478610144747
 31
0.0
  0
LINE
  5
106
330
88
100
AcDbEntity
  8
0
 62
     0
100
AcDbLine
 10
0.9878274158609235
 20
6.137155773156659
 30
0.0
 11
1.023184035263134
 21
6.17251239255887
 31
0.0
  0
LINE
  5
107
330
88
100
AcDbEntity
  8
0
 62
     0
100
AcDbLine
 10
0.9877942459454965
 20
6.137299379936528
 30
0.0
 11
1.023040428483264
 21
6.172545562474296
 31
0.0
  0
LINE
  5
108
330
88
100
AcDbEntity
  8
0
 62
     0
100
AcDbLine
 10
0.9877616943044895
 20
6.137443604990818
 30
0.0
 11
1.022896203428975
 21
6.172578114115303
 31
0.0
  0
LINE
  5
109
330
88
100
AcDbEntity
  8
0
 62
     0
100
AcDbLine
 10
0.9877297668523805
 20
6.137588454234006
 30
0.0
 11
1.022751354185787
 21
6.172610041567413
 31
0.0
  0
LINE
  5
10A
330
88
100
AcDbEntity
  8
0
 62
     0
100
AcDbLine
 10
0.9876984696467252
 20
6.137733933723647
 30
0.0
 11
1.022605874696146
 21
6.172641338773067
 31
0.0
  0
LINE
  5
10B
330
88
100
AcDbEntity
  8
0
 62
     0
100
AcDbLine
 10
0.9876678088926629
 20
6.137880049664881
 30
0.0
 11
1.022459758754911
 21
6.17267199952713
 31
0.0
  0
LINE
  5
10C
330
88
100
AcDbEntity
  8
0
 62
     0
100
AcDbLine
 10
0.987637790947614
 20
6.138026808415129
 30
0.0
 11
1.022313000004663
 21
6.172702017472179
 31
0.0
  0
LINE
  5
10D
330
88
100
AcDbEntity
  8
0
 62
     0
100
AcDbLine
 10
0.987608422326177
 20
6.138174216488988
 30
0.0
 11
1.022165591930804
 21
6.172731386093616
 31
0.0
  0
LINE
  5
10E
330
88
100
AcDbEntity
  8
0
 62
     0
100
AcDbLine
 10
0.9875797097052368
 20
6.138322280563345
 30
0.0
 11
1.022017527856447
 21
6.172760098714556
 31
0.0
  0
LINE
  5
10F
330
88
100
AcDbEntity
  8
0
 62
     0
100
AcDbLine
 10
0.9875516599292973
 20
6.138471007482702
 30
0.0
 11
1.02186880093709
 21
6.172788148490496
 31
0.0
  0
LINE
  5
110
330
88
100
AcDbEntity
  8
0
 62
     0
100
AcDbLine
 10
0.9875242800160453
 20
6.138620404264747
 30
0.0
 11
1.021719404155046
 21
6.172815528403748
 31
0.0
  0
LINE
  5
111
330
88
100
AcDbEntity
  8
0
 62
     0
100
AcDbLine
 10
0.9874975771621635
 20
6.138770478106161
 30
0.0
 11
1.021569330313631
 21
6.17284223125763
 31
0.0
  0
LINE
  5
112
330
88
100
AcDbEntity
  8
0
 62
     0
100
AcDbLine
 10
0.9874715587494026
 20
6.138921236388697
 30
0.0
 11
1.021418572031095
 21
6.17286824967039
 31
0.0
  0
LINE
  5
113
330
88
100
AcDbEntity
  8
0
 62
     0
100
AcDbLine
 10
0.9874462323509293
 20
6.139072686685521
 30
0.0
 11
1.021267121734272
 21
6.172893576068863
 31
0.0
  0
LINE
  5
114
330
88
100
AcDbEntity
  8
0
 62
     0
100
AcDbLine
 10
0.9874216057379634
 20
6.139224836767851
 30
0.0
 11
1.021114971651941
 21
6.172918202681829
 31
0.0
  0
LINE
  5
115
330
88
100
AcDbEntity
  8
0
 62
     0
100
AcDbLine
 10
0.9873976868867224
 20
6.139377694611908
 30
0.0
 11
1.020962113807885
 21
6.17294212153307
 31
0.0
  0
LINE
  5
116
330
88
100
AcDbEntity
  8
0
 62
     0
100
AcDbLine
 10
0.9873744839856891
 20
6.13953126840617
 30
0.0
 11
1.020808540013622
 21
6.172965324434104
 31
0.0
  0
LINE
  5
117
330
88
100
AcDbEntity
  8
0
 62
     0
100
AcDbLine
 10
0.9873520054432212
 20
6.139685566558999
 30
0.0
 11
1.020654241860793
 21
6.172987802976572
 31
0.0
  0
LINE
  5
118
330
88
100
AcDbEntity
  8
0
 62
     0
100
AcDbLine
 10
0.9873302598955259
 20
6.139840597706601
 30
0.0
 11
1.020499210713192
 21
6.173009548524267
 31
0.0
  0
LINE
  5
119
330
88
100
AcDbEntity
  8
0
 62
     0
100
AcDbLine
 10
0.987309256215015
 20
6.139996370721386
 30
0.0
 11
1.020343437698406
 21
6.173030552204778
 31
0.0
  0
LINE
  5
11A
330
88
100
AcDbEntity
  8
0
 62
     0
100
AcDbLine
 10
0.9872890035190685
 20
6.140152894720737
 30
0.0
 11
1.020186913699056
 21
6.173050804900724
 31
0.0
  0
LINE
  5
11B
330
88
100
AcDbEntity
  8
0
 62
     0
100
AcDbLine
 10
0.9872695111792296
 20
6.140310179076195
 30
0.0
 11
1.020029629343598
 21
6.173070297240563
 31
0.0
  0
LINE
  5
11C
330
88
100
AcDbEntity
  8
0
 62
     0
100
AcDbLine
 10
0.9872507888308545
 20
6.140468233423115
 30
0.0
 11
1.019871574996677
 21
6.173089019588938
 31
0.0
  0
LINE
  5
11D
330
88
100
AcDbEntity
  8
0
 62
     0
100
AcDbLine
 10
0.9872328463832507
 20
6.140627067670808
 30
0.0
 11
1.019712740748984
 21
6.173106962036542
 31
0.0
  0
LINE
  5
11E
330
88
100
AcDbEntity
  8
0
 62
     0
100
AcDbLine
 10
0.9872156940303279
 20
6.140786692013183
 30
0.0
 11
1.01955311640661
 21
6.173124114389465
 31
0.0
  0
LINE
  5
11F
330
88
100
AcDbEntity
  8
0
 62
     0
100
AcDbLine
 10
0.9871993422617984
 20
6.140947116939949
 30
0.0
 11
1.019392691479843
 21
6.173140466157994
 31
0.0
  0
LINE
  5
120
330
88
100
AcDbEntity
  8
0
 62
     0
100
AcDbLine
 10
0.9871838018749599
 20
6.141108353248408
 30
0.0
 11
1.019231455171385
 21
6.173156006544833
 31
0.0
  0
LINE
  5
121
330
88
100
AcDbEntity
  8
0
 62
     0
100
AcDbLine
 10
0.987169083987098
 20
6.141270412055842
 30
0.0
 11
1.01906939636395
 21
6.173170724432694
 31
0.0
  0
LINE
  5
122
330
88
100
AcDbEntity
  8
0
 62
     0
100
AcDbLine
 10
0.98715520004855
 20
6.141433304812591
 30
0.0
 11
1.018906503607201
 21
6.173184608371243
 31
0.0
  0
LINE
  5
123
330
88
100
AcDbEntity
  8
0
 62
     0
100
AcDbLine
 10
0.9871421618564726
 20
6.14159704331581
 30
0.0
 11
1.018742765103982
 21
6.17319764656332
 31
0.0
  0
LINE
  5
124
330
88
100
AcDbEntity
  8
0
 62
     0
100
AcDbLine
 10
0.9871299815693605
 20
6.141761639723995
 30
0.0
 11
1.018578168695798
 21
6.173209826850432
 31
0.0
  0
LINE
  5
125
330
88
100
AcDbEntity
  8
0
 62
     0
100
AcDbLine
 10
0.9871186717223679
 20
6.141927106572299
 30
0.0
 11
1.018412701847494
 21
6.173221136697425
 31
0.0
  0
LINE
  5
126
330
88
100
AcDbEntity
  8
0
 62
     0
100
AcDbLine
 10
0.9871082452434849
 20
6.142093456788713
 30
0.0
 11
1.01824635163108
 21
6.173231563176308
 31
0.0
  0
LINE
  5
127
330
88
100
AcDbEntity
  8
0
 62
     0
100
AcDbLine
 10
0.9870987154706336
 20
6.142260703711158
 30
0.0
 11
1.018079104708635
 21
6.173241092949159
 31
0.0
  0
LINE
  5
128
330
88
100
AcDbEntity
  8
0
 62
     0
100
AcDbLine
 10
0.9870900961697397
 20
6.14242886110556
 30
0.0
 11
1.017910947314232
 21
6.173249712250053
 31
0.0
  0
LINE
  5
129
330
88
100
AcDbEntity
  8
0
 62
     0
100
AcDbLine
 10
0.9870824015538596
 20
6.142597943184977
 30
0.0
 11
1.017741865234815
 21
6.173257406865933
 31
0.0
  0
LINE
  5
12A
330
88
100
AcDbEntity
  8
0
 62
     0
100
AcDbLine
 10
0.98707564630343
 20
6.142767964629844
 30
0.0
 11
1.017571843789949
 21
6.173264162116363
 31
0.0
  0
LINE
  5
12B
330
88
100
AcDbEntity
  8
0
 62
     0
100
AcDbLine
 10
0.9870698455877263
 20
6.142938940609437
 30
0.0
 11
1.017400867810355
 21
6.173269962832066
 31
0.0
  0
LINE
  5
12C
330
88
100
AcDbEntity
  8
0
 62
     0
100
AcDbLine
 10
0.9870650150876198
 20
6.143110886804628
 30
0.0
 11
1.017228921615165
 21
6.173274793332173
 31
0.0
  0
LINE
  5
12D
330
88
100
AcDbEntity
  8
0
 62
     0
100
AcDbLine
 10
0.987061171019728
 20
6.143283819432032
 30
0.0
 11
1.017055988987761
 21
6.173278637400064
 31
0.0
  0
LINE
  5
12E
330
88
100
AcDbEntity
  8
0
 62
     0
100
AcDbLine
 10
0.987058330162068
 20
6.143457755269668
 30
0.0
 11
1.016882053150124
 21
6.173281478257725
 31
0.0
  0
LINE
  5
12F
330
88
100
AcDbEntity
  8
0
 62
     0
100
AcDbLine
 10
0.9870565098813248
 20
6.143632711684222
 30
0.0
 11
1.01670709673557
 21
6.173283298538468
 31
0.0
  0
LINE
  5
130
330
88
100
AcDbEntity
  8
0
 62
     0
100
AcDbLine
 10
0.9870557281618639
 20
6.143808706660058
 30
0.0
 11
1.016531101759735
 21
6.173284080257929
 31
0.0
  0
LINE
  5
131
330
88
100
AcDbEntity
  8
0
 62
     0
100
AcDbLine
 10
0.9870560036366267
 20
6.143985758830117
 30
0.0
 11
1.016354049589675
 21
6.173283804783166
 31
0.0
  0
LINE
  5
132
330
88
100
AcDbEntity
  8
0
 62
     0
100
AcDbLine
 10
0.9870573556200575
 20
6.144163887508845
 30
0.0
 11
1.016175920910947
 21
6.173282452799735
 31
0.0
  0
LINE
  5
133
330
88
100
AcDbEntity
  8
0
 62
     0
100
AcDbLine
 10
0.9870598041432321
 20
6.144343112727316
 30
0.0
 11
1.015996695692477
 21
6.173280004276561
 31
0.0
  0
LINE
  5
134
330
88
100
AcDbEntity
  8
0
 62
     0
100
AcDbLine
 10
0.9870633699913678
 20
6.144523455270748
 30
0.0
 11
1.015816353149044
 21
6.173276438428425
 31
0.0
  0
LINE
  5
135
330
88
100
AcDbEntity
  8
0
 62
     0
100
AcDbLine
 10
0.9870680747439173
 20
6.144704936718595
 30
0.0
 11
1.015634871701198
 21
6.173271733675876
 31
0.0
  0
LINE
  5
136
330
88
100
AcDbEntity
  8
0
 62
     0
100
AcDbLine
 10
0.9870739408174671
 20
6.14488757948744
 30
0.0
 11
1.015452228932352
 21
6.173265867602325
 31
0.0
  0
LINE
  5
137
330
88
100
AcDbEntity
  8
0
 62
     0
100
AcDbLine
 10
0.9870809915116851
 20
6.145071406876955
 30
0.0
 11
1.015268401542837
 21
6.173258816908107
 31
0.0
  0
LINE
  5
138
330
88
100
AcDbEntity
  8
0
 62
     0
100
AcDbLine
 10
0.9870892510585857
 20
6.145256443119153
 30
0.0
 11
1.015083365300639
 21
6.173250557361207
 31
0.0
  0
LINE
  5
139
330
88
100
AcDbEntity
  8
0
 62
     0
100
AcDbLine
 10
0.9870987446754122
 20
6.145442713431275
 30
0.0
 11
1.014897094988516
 21
6.173241063744381
 31
0.0
  0
LINE
  5
13A
330
88
100
AcDbEntity
  8
0
 62
     0
100
AcDbLine
 10
0.9871094986214663
 20
6.145630244072626
 30
0.0
 11
1.014709564347166
 21
6.173230309798326
 31
0.0
  0
LINE
  5
13B
330
88
100
AcDbEntity
  8
0
 62
     0
100
AcDbLine
 10
0.9871215402592497
 20
6.145819062405707
 30
0.0
 11
1.014520746014085
 21
6.173218268160543
 31
0.0
  0
LINE
  5
13C
330
88
100
AcDbEntity
  8
0
 62
     0
100
AcDbLine
 10
0.9871348981203315
 20
6.146009196962085
 30
0.0
 11
1.014330611457707
 21
6.173204910299461
 31
0.0
  0
LINE
  5
13D
330
88
100
AcDbEntity
  8
0
 62
     0
100
AcDbLine
 10
0.9871496019763869
 20
6.146200677513437
 30
0.0
 11
1.014139130906355
 21
6.173190206443406
 31
0.0
  0
LINE
  5
13E
330
88
100
AcDbEntity
  8
0
 62
     0
100
AcDbLine
 10
0.9871656829159224
 20
6.146393535148269
 30
0.0
 11
1.013946273271523
 21
6.17317412550387
 31
0.0
  0
LINE
  5
13F
330
88
100
AcDbEntity
  8
0
 62
     0
100
AcDbLine
 10
0.98718317342725
 20
6.146587802354893
 30
0.0
 11
1.013752006064899
 21
6.173156634992543
 31
0.0
  0
LINE
  5
140
330
88
100
AcDbEntity
  8
0
 62
     0
100
AcDbLine
 10
0.9872021074883461
 20
6.146783513111286
 30
0.0
 11
1.013556295308506
 21
6.173137700931446
 31
0.0
  0
LINE
  5
141
330
88
100
AcDbEntity
  8
0
 62
     0
100
AcDbLine
 10
0.987222520664307
 20
6.146980702982544
 30
0.0
 11
1.013359105437249
 21
6.173117287755486
 31
0.0
  0
LINE
  5
142
330
88
100
AcDbEntity
  8
0
 62
     0
100
AcDbLine
 10
0.9872444502132058
 20
6.147179409226739
 30
0.0
 11
1.013160399193053
 21
6.173095358206587
 31
0.0
  0
LINE
  5
143
330
88
100
AcDbEntity
  8
0
 62
     0
100
AcDbLine
 10
0.9872679352012502
 20
6.147379670910081
 30
0.0
 11
1.012960137509712
 21
6.173071873218543
 31
0.0
  0
LINE
  5
144
330
88
100
AcDbEntity
  8
0
 62
     0
100
AcDbLine
 10
0.987293016628265
 20
6.147581529032391
 30
0.0
 11
1.012758279387401
 21
6.173046791791528
 31
0.0
  0
LINE
  5
145
330
88
100
AcDbEntity
  8
0
 62
     0
100
AcDbLine
 10
0.9873197375646549
 20
6.147785026664078
 30
0.0
 11
1.012554781755714
 21
6.173020070855138
 31
0.0
  0
LINE
  5
146
330
88
100
AcDbEntity
  8
0
 62
     0
100
AcDbLine
 10
0.9873481433011603
 20
6.147990209095881
 30
0.0
 11
1.012349599323912
 21
6.172991665118632
 31
0.0
  0
LINE
  5
147
330
88
100
AcDbEntity
  8
0
 62
     0
100
AcDbLine
 10
0.9873782815128995
 20
6.148197124002916
 30
0.0
 11
1.012142684416877
 21
6.172961526906894
 31
0.0
  0
LINE
  5
148
330
88
100
AcDbEntity
  8
0
 62
     0
100
AcDbLine
 10
0.9874102024394048
 20
6.148405821624718
 30
0.0
 11
1.011933986795074
 21
6.172929605980388
 31
0.0
  0
LINE
  5
149
330
88
100
AcDbEntity
  8
0
 62
     0
100
AcDbLine
 10
0.9874439590825998
 20
6.14861635496321
 30
0.0
 11
1.011723453456583
 21
6.172895849337193
 31
0.0
  0
LINE
  5
14A
330
88
100
AcDbEntity
  8
0
 62
     0
100
AcDbLine
 10
0.9874796074249607
 20
6.148828780000867
 30
0.0
 11
1.011511028418925
 21
6.172860200994832
 31
0.0
  0
LINE
  5
14B
330
88
100
AcDbEntity
  8
0
 62
     0
100
AcDbLine
 10
0.9875172066704372
 20
6.14904315594164
 30
0.0
 11
1.011296652478152
 21
6.172822601749356
 31
0.0
  0
LINE
  5
14C
330
88
100
AcDbEntity
  8
0
 62
     0
100
AcDbLine
 10
0.9875568195111094
 20
6.149259545477609
 30
0.0
 11
1.011080262942183
 21
6.172782988908683
 31
0.0
  0
LINE
  5
14D
330
88
100
AcDbEntity
  8
0
 62
     0
100
AcDbLine
 10
0.9875985124230281
 20
6.149478015084824
 30
0.0
 11
1.010861793334968
 21
6.172741295996765
 31
0.0
  0
LINE
  5
14E
330
88
100
AcDbEntity
  8
0
 62
     0
100
AcDbLine
 10
0.9876423559952476
 20
6.149698635352341
 30
0.0
 11
1.010641173067452
 21
6.172697452424546
 31
0.0
  0
LINE
  5
14F
330
88
100
AcDbEntity
  8
0
 62
     0
100
AcDbLine
 10
0.9876884252967244
 20
6.149921481349114
 30
0.0
 11
1.010418327070678
 21
6.172651383123068
 31
0.0
  0
LINE
  5
150
330
88
100
AcDbEntity
  8
0
 62
     0
100
AcDbLine
 10
0.9877368002865585
 20
6.150146633034244
 30
0.0
 11
1.010193175385548
 21
6.172603008133235
 31
0.0
  0
LINE
  5
151
330
88
100
AcDbEntity
  8
0
 62
     0
100
AcDbLine
 10
0.9877875662740148
 20
6.150374175716998
 30
0.0
 11
1.009965632702795
 21
6.172552242145778
 31
0.0
  0
LINE
  5
152
330
88
100
AcDbEntity
  8
0
 62
     0
100
AcDbLine
 10
0.98784081443592
 20
6.1506042005742
 30
0.0
 11
1.009735607845593
 21
6.172498993983873
 31
0.0
  0
LINE
  5
153
330
88
100
AcDbEntity
  8
0
 62
     0
100
AcDbLine
 10
0.9878966424004509
 20
6.150836805234027
 30
0.0
 11
1.009503003185765
 21
6.172443166019342
 31
0.0
  0
LINE
  5
154
330
88
100
AcDbEntity
  8
0
 62
     0
100
AcDbLine
 10
0.9879551549080456
 20
6.151072094436918
 30
0.0
 11
1.009267713982874
 21
6.172384653511747
 31
0.0
  0
LINE
  5
155
330
88
100
AcDbEntity
  8
0
 62
     0
100
AcDbLine
 10
0.9880164645622818
 20
6.151310180786452
 30
0.0
 11
1.009029627633341
 21
6.172323343857511
 31
0.0
  0
LINE
  5
156
330
88
100
AcDbEntity
  8
0
 62
     0
100
AcDbLine
 10
0.9880806926861909
 20
6.151551185605657
 30
0.0
 11
1.008788622814135
 21
6.172259115733602
 31
0.0
  0
LINE
  5
157
330
88
100
AcDbEntity
  8
0
 62
     0
100
AcDbLine
 10
0.9881479703027052
 20
6.151795239917468
 30
0.0
 11
1.008544568502324
 21
6.172191838117088
 31
0.0
  0
LINE
  5
158
330
88
100
AcDbEntity
  8
0
 62
     0
100
AcDbLine
 10
0.9882184392619979
 20
6.152042485572057
 30
0.0
 11
1.008297322847735
 21
6.172121369157795
 31
0.0
  0
LINE
  5
159
330
88
100
AcDbEntity
  8
0
 62
     0
100
AcDbLine
 10
0.9882922535435842
 20
6.15229307654894
 30
0.0
 11
1.008046731870852
 21
6.172047554876209
 31
0.0
  0
LINE
  5
15A
330
88
100
AcDbEntity
  8
0
 62
     0
100
AcDbLine
 10
0.988369580767525
 20
6.152547180468178
 30
0.0
 11
1.007792627951615
 21
6.171970227652268
 31
0.0
  0
LINE
  5
15B
330
88
100
AcDbEntity
  8
0
 62
     0
100
AcDbLine
 10
0.9884506039573466
 20
6.152804980353296
 30
0.0
 11
1.007534828066496
 21
6.171889204462446
 31
0.0
  0
LINE
  5
15C
330
88
100
AcDbEntity
  8
0
 62
     0
100
AcDbLine
 10
0.988535523607976
 20
6.153066676699222
 30
0.0
 11
1.00727313172057
 21
6.171804284811817
 31
0.0
  0
LINE
  5
15D
330
88
100
AcDbEntity
  8
0
 62
     0
100
AcDbLine
 10
0.9886245601258554
 20
6.153332489912398
 30
0.0
 11
1.007007318507394
 21
6.171715248293938
 31
0.0
  0
LINE
  5
15E
330
88
100
AcDbEntity
  8
0
 62
     0
100
AcDbLine
 10
0.9887179567266294
 20
6.153602663208468
 30
0.0
 11
1.006737145211324
 21
6.171621851693164
 31
0.0
  0
LINE
  5
15F
330
88
100
AcDbEntity
  8
0
 62
     0
100
AcDbLine
 10
0.9888159828999945
 20
6.153877466077131
 30
0.0
 11
1.006462342342662
 21
6.171523825519798
 31
0.0
  0
LINE
  5
160
330
88
100
AcDbEntity
  8
0
 62
     0
100
AcDbLine
 10
0.9889189385837367
 20
6.15415719845617
 30
0.0
 11
1.006182609963623
 21
6.171420869836056
 31
0.0
  0
LINE
  5
161
330
88
100
AcDbEntity
  8
0
 62
     0
100
AcDbLine
 10
0.9890271592330847
 20
6.154442195800814
 30
0.0
 11
1.005897612618979
 21
6.171312649186708
 31
0.0
  0
LINE
  5
162
330
88
100
AcDbEntity
  8
0
 62
     0
100
AcDbLine
 10
0.9891410220321654
 20
6.154732835295191
 30
0.0
 11
1.005606973124601
 21
6.171198786387628
 31
0.0
  0
LINE
  5
163
330
88
100
AcDbEntity
  8
0
 62
     0
100
AcDbLine
 10
0.9892609535790672
 20
6.15502954353739
 30
0.0
 11
1.005310264882403
 21
6.171078854840725
 31
0.0
  0
LINE
  5
164
330
88
100
AcDbEntity
  8
0
 62
     0
100
AcDbLine
 10
0.9893874394961931
 20
6.155332806149812
 30
0.0
 11
1.00500700226998
 21
6.170952368923599
 31
0.0
  0
LINE
  5
165
330
88
100
AcDbEntity
  8
0
 62
     0
100
AcDbLine
 10
0.9895210365910095
 20
6.155643179939925
 30
0.0
 11
1.004696628479867
 21
6.170818771828783
 31
0.0
  0
LINE
  5
166
330
88
100
AcDbEntity
  8
0
 62
     0
100
AcDbLine
 10
0.98966238844748
 20
6.155961308491693
 30
0.0
 11
1.0043784999281
 21
6.170677419972313
 31
0.0
  0
LINE
  5
167
330
88
100
AcDbEntity
  8
0
 62
     0
100
AcDbLine
 10
0.9898122457120038
 20
6.156287942451513
 30
0.0
 11
1.00405186596828
 21
6.170527562707789
 31
0.0
  0
LINE
  5
168
330
88
100
AcDbEntity
  8
0
 62
     0
100
AcDbLine
 10
0.9899714929280666
 20
6.156623966362873
 30
0.0
 11
1.00371584205692
 21
6.170368315491726
 31
0.0
  0
LINE
  5
169
330
88
100
AcDbEntity
  8
0
 62
     0
100
AcDbLine
 10
0.9901411847074202
 20
6.156970434837522
 30
0.0
 11
1.00336937358227
 21
6.170198623712373
 31
0.0
  0
LINE
  5
16A
330
88
100
AcDbEntity
  8
0
 62
     0
100
AcDbLine
 10
0.990322595547888
 20
6.157328622373286
 30
0.0
 11
1.003011186046506
 21
6.170017212871905
 31
0.0
  0
LINE
  5
16B
330
88
100
AcDbEntity
  8
0
 62
     0
100
AcDbLine
 10
0.9905172901785896
 20
6.157700093699285
 30
0.0
 11
1.002639714720507
 21
6.169822518241203
 31
0.0
  0
LINE
  5
16C
330
88
100
AcDbEntity
  8
0
 62
     0
100
AcDbLine
 10
0.9907272258349944
 20
6.158086806050986
 30
0.0
 11
1.002253002368806
 21
6.169612582584798
 31
0.0
  0
LINE
  5
16D
330
88
100
AcDbEntity
  8
0
 62
     0
100
AcDbLine
 10
0.9909549062088593
 20
6.158491263120148
 30
0.0
 11
1.001848545299644
 21
6.169384902210933
 31
0.0
  0
LINE
  5
16E
330
88
100
AcDbEntity
  8
0
 62
     0
100
AcDbLine
 10
0.991203623114856
 20
6.158916756721441
 30
0.0
 11
1.001423051698351
 21
6.169136185304937
 31
0.0
  0
LINE
  5
16F
330
88
100
AcDbEntity
  8
0
 62
     0
100
AcDbLine
 10
0.9914778560404325
 20
6.159367766342315
 30
0.0
 11
1.000972042077478
 21
6.16886195237936
 31
0.0
  0
LINE
  5
170
330
88
100
AcDbEntity
  8
0
 62
     0
100
AcDbLine
 10
0.9917839776724971
 20
6.159850664669676
 30
0.0
 11
1.000489143750117
 21
6.168555830747296
 31
0.0
  0
LINE
  5
171
330
88
100
AcDbEntity
  8
0
 62
     0
100
AcDbLine
 10
0.9921316125092769
 20
6.160375076201752
 30
0.0
 11
0.9999647322180406
 21
6.168208195910516
 31
0.0
  0
LINE
  5
172
330
88
100
AcDbEntity
  8
0
 62
     0
100
AcDbLine
 10
0.9925365869611837
 20
6.160956827348956
 30
0.0
 11
0.9993829810708369
 21
6.167803221458609
 31
0.0
  0
LINE
  5
173
330
88
100
AcDbEntity
  8
0
 62
     0
100
AcDbLine
 10
0.9930285994991997
 20
6.161625616582268
 30
0.0
 11
0.9987141918375245
 21
6.167311208920593
 31
0.0
  0
LINE
  5
174
330
88
100
AcDbEntity
  8
0
 62
     0
100
AcDbLine
 10
0.9936784700692921
 20
6.162452263847657
 30
0.0
 11
0.9978875445721355
 21
6.1666613383505
 31
0.0
  0
LINE
  5
175
330
88
100
AcDbEntity
  8
0
 62
     0
100
AcDbLine
 10
0.9948222434657067
 20
6.163772813939369
 30
0.0
 11
0.996566994480424
 21
6.165517564954086
 31
0.0
  0
LINE
  5
176
330
88
100
AcDbEntity
  8
0
 62
     0
100
AcDbLine
 10
0.9958311869947362
 20
6.122885680683095
 30
0.0
 11
1.037454127736697
 21
6.164508621425056
 31
0.0
  0
LINE
  5
177
330
88
100
AcDbEntity
  8
0
 62
     0
100
AcDbLine
 10
0.9959204183316888
 20
6.12279813532475
 30
0.0
 11
1.037541673095041
 21
6.164419390088104
 31
0.0
  0
LINE
  5
178
330
88
100
AcDbEntity
  8
0
 62
     0
100
AcDbLine
 10
0.9960100251305378
 20
6.122710965428304
 30
0.0
 11
1.037628842991489
 21
6.164329783289255
 31
0.0
  0
LINE
  5
179
330
88
100
AcDbEntity
  8
0
 62
     0
100
AcDbLine
 10
0.9961000074572419
 20
6.122624171059711
 30
0.0
 11
1.037715637360081
 21
6.164239800962551
 31
0.0
  0
LINE
  5
17A
330
88
100
AcDbEntity
  8
0
 62
     0
100
AcDbLine
 10
0.9961903653981106
 20
6.122537752305283
 30
0.0
 11
1.03780205611451
 21
6.164149443021682
 31
0.0
  0
LINE
  5
17B
330
88
100
AcDbEntity
  8
0
 62
     0
100
AcDbLine
 10
0.9962810990598288
 20
6.122451709271705
 30
0.0
 11
1.037888099148088
 21
6.164058709359964
 31
0.0
  0
LINE
  5
17C
330
88
100
AcDbEntity
  8
0
 62
     0
100
AcDbLine
 10
0.9963722085694863
 20
6.122366042086065
 30
0.0
 11
1.037973766333727
 21
6.163967599850306
 31
0.0
  0
LINE
  5
17D
330
88
100
AcDbEntity
  8
0
 62
     0
100
AcDbLine
 10
0.9964636940746094
 20
6.122280750895892
 30
0.0
 11
1.0380590575239
 21
6.163876114345184
 31
0.0
  0
LINE
  5
17E
330
88
100
AcDbEntity
  8
0
 62
     0
100
AcDbLine
 10
0.9965555557432052
 20
6.122195835869191
 30
0.0
 11
1.038143972550601
 21
6.163784252676587
 31
0.0
  0
LINE
  5
17F
330
88
100
AcDbEntity
  8
0
 62
     0
100
AcDbLine
 10
0.9966477937638034
 20
6.122111297194493
 30
0.0
 11
1.0382285112253
 21
6.163692014655989
 31
0.0
  0
LINE
  5
180
330
88
100
AcDbEntity
  8
0
 62
     0
100
AcDbLine
 10
0.9967404083455091
 20
6.122027135080902
 30
0.0
 11
1.03831267333889
 21
6.163599400074284
 31
0.0
  0
LINE
  5
181
330
88
100
AcDbEntity
  8
0
 62
     0
100
AcDbLine
 10
0.9968333997180611
 20
6.121943349758157
 30
0.0
 11
1.038396458661635
 21
6.163506408701731
 31
0.0
  0
LINE
  5
182
330
88
100
AcDbEntity
  8
0
 62
     0
100
AcDbLine
 10
0.9969267681318919
 20
6.121859941476691
 30
0.0
 11
1.038479866943101
 21
6.163413040287901
 31
0.0
  0
LINE
  5
183
330
88
100
AcDbEntity
  8
0
 62
     0
100
AcDbLine
 10
0.9970205138581976
 20
6.1217769105077
 30
0.0
 11
1.038562897912092
 21
6.163319294561595
 31
0.0
  0
LINE
  5
184
330
88
100
AcDbEntity
  8
0
 62
     0
100
AcDbLine
 10
0.9971146371890126
 20
6.121694257143219
 30
0.0
 11
1.038645551276573
 21
6.16322517123078
 31
0.0
  0
LINE
  5
185
330
88
100
AcDbEntity
  8
0
 62
     0
100
AcDbLine
 10
0.9972091384372884
 20
6.121611981696197
 30
0.0
 11
1.038727826723595
 21
6.163130669982504
 31
0.0
  0
LINE
  5
186
330
88
100
AcDbEntity
  8
0
 62
     0
100
AcDbLine
 10
0.9973040179369792
 20
6.121530084500592
 30
0.0
 11
1.0388097239192
 21
6.163035790482814
 31
0.0
  0
LINE
  5
187
330
88
100
AcDbEntity
  8
0
 62
     0
100
AcDbLine
 10
0.9973992760431357
 20
6.121448565911451
 30
0.0
 11
1.038891242508341
 21
6.162940532376657
 31
0.0
  0
LINE
  5
188
330
88
100
AcDbEntity
  8
0
 62
     0
100
AcDbLine
 10
0.9974949131320006
 20
6.121367426305019
 30
0.0
 11
1.038972382114772
 21
6.162844895287793
 31
0.0
  0
LINE
  5
189
330
88
100
AcDbEntity
  8
0
 62
     0
100
AcDbLine
 10
0.9975909296011137
 20
6.121286666078836
 30
0.0
 11
1.039053142340956
 21
6.162748878818679
 31
0.0
  0
LINE
  5
18A
330
88
100
AcDbEntity
  8
0
 62
     0
100
AcDbLine
 10
0.9976873258694222
 20
6.121206285651848
 30
0.0
 11
1.039133522767944
 21
6.16265248255037
 31
0.0
  0
LINE
  5
18B
330
88
100
AcDbEntity
  8
0
 62
     0
100
AcDbLine
 10
0.9977841023773958
 20
6.121126285464526
 30
0.0
 11
1.039213522955267
 21
6.162555706042397
 31
0.0
  0
LINE
  5
18C
330
88
100
AcDbEntity
  8
0
 62
     0
100
AcDbLine
 10
0.9978812595871497
 20
6.121046665978982
 30
0.0
 11
1.03929314244081
 21
6.162458548832643
 31
0.0
  0
LINE
  5
18D
330
88
100
AcDbEntity
  8
0
 62
     0
100
AcDbLine
 10
0.9979787979825738
 20
6.120967427679111
 30
0.0
 11
1.039372380740682
 21
6.162361010437219
 31
0.0
  0
LINE
  5
18E
330
88
100
AcDbEntity
  8
0
 62
     0
100
AcDbLine
 10
0.9980767180694675
 20
6.120888571070707
 30
0.0
 11
1.039451237349085
 21
6.162263090350325
 31
0.0
  0
LINE
  5
18F
330
88
100
AcDbEntity
  8
0
 62
     0
100
AcDbLine
 10
0.998175020375681
 20
6.120810096681625
 30
0.0
 11
1.039529711738168
 21
6.162164788044112
 31
0.0
  0
LINE
  5
190
330
88
100
AcDbEntity
  8
0
 62
     0
100
AcDbLine
 10
0.998273705451265
 20
6.120732005061912
 30
0.0
 11
1.039607803357881
 21
6.162066102968528
 31
0.0
  0
LINE
  5
191
330
88
100
AcDbEntity
  8
0
 62
     0
100
AcDbLine
 10
0.9983727738686251
 20
6.120654296783975
 30
0.0
 11
1.039685511635818
 21
6.161967034551167
 31
0.0
  0
LINE
  5
192
330
88
100
AcDbEntity
  8
0
 62
     0
100
AcDbLine
 10
0.998472226222683
 20
6.120576972442736
 30
0.0
 11
1.039762835977056
 21
6.16186758219711
 31
0.0
  0
LINE
  5
193
330
88
100
AcDbEntity
  8
0
 62
     0
100
AcDbLine
 10
0.9985720631310472
 20
6.120500032655804
 30
0.0
 11
1.039839775763989
 21
6.161767745288745
 31
0.0
  0
LINE
  5
194
330
88
100
AcDbEntity
  8
0
 62
     0
100
AcDbLine
 10
0.9986722852341872
 20
6.120423478063647
 30
0.0
 11
1.039916330356146
 21
6.161667523185606
 31
0.0
  0
LINE
  5
195
330
88
100
AcDbEntity
  8
0
 62
     0
100
AcDbLine
 10
0.9987728931956169
 20
6.120347309329781
 30
0.0
 11
1.039992499090012
 21
6.161566915224176
 31
0.0
  0
LINE
  5
196
330
88
100
AcDbEntity
  8
0
 62
     0
100
AcDbLine
 10
0.9988738877020868
 20
6.120271527140953
 30
0.0
 11
1.040068281278839
 21
6.161465920717706
 31
0.0
  0
LINE
  5
197
330
88
100
AcDbEntity
  8
0
 62
     0
100
AcDbLine
 10
0.9989752694637791
 20
6.120196132207349
 30
0.0
 11
1.040143676212444
 21
6.161364538956013
 31
0.0
  0
LINE
  5
198
330
88
100
AcDbEntity
  8
0
 62
     0
100
AcDbLine
 10
0.9990770392145147
 20
6.120121125262788
 30
0.0
 11
1.040218683157004
 21
6.161262769205278
 31
0.0
  0
LINE
  5
199
330
88
100
AcDbEntity
  8
0
 62
     0
100
AcDbLine
 10
0.9991791977119666
 20
6.120046507064943
 30
0.0
 11
1.040293301354849
 21
6.161160610707827
 31
0.0
  0
LINE
  5
19A
330
88
100
AcDbEntity
  8
0
 62
     0
100
AcDbLine
 10
0.9992817457378794
 20
6.119972278395559
 30
0.0
 11
1.040367530024233
 21
6.161058062681913
 31
0.0
  0
LINE
  5
19B
330
88
100
AcDbEntity
  8
0
 62
     0
100
AcDbLine
 10
0.9993846840982989
 20
6.119898440060683
 30
0.0
 11
1.04044136835911
 21
6.160955124321493
 31
0.0
  0
LINE
  5
19C
330
88
100
AcDbEntity
  8
0
 62
     0
100
AcDbLine
 10
0.9994880136238107
 20
6.119824992890897
 30
0.0
 11
1.040514815528895
 21
6.160851794795982
 31
0.0
  0
LINE
  5
19D
330
88
100
AcDbEntity
  8
0
 62
     0
100
AcDbLine
 10
0.9995917351697823
 20
6.119751937741573
 30
0.0
 11
1.04058787067822
 21
6.160748073250011
 31
0.0
  0
LINE
  5
19E
330
88
100
AcDbEntity
  8
0
 62
     0
100
AcDbLine
 10
0.9996958496166209
 20
6.119679275493115
 30
0.0
 11
1.040660532926678
 21
6.160643958803172
 31
0.0
  0
LINE
  5
19F
330
88
100
AcDbEntity
  8
0
 62
     0
100
AcDbLine
 10
0.9998003578700327
 20
6.11960700705123
 30
0.0
 11
1.040732801368563
 21
6.16053945054976
 31
0.0
  0
LINE
  5
1A0
330
88
100
AcDbEntity
  8
0
 62
     0
100
AcDbLine
 10
0.9999052608612959
 20
6.119535133347197
 30
0.0
 11
1.040804675072596
 21
6.160434547558497
 31
0.0
  0
LINE
  5
1A1
330
88
100
AcDbEntity
  8
0
 62
     0
100
AcDbLine
 10
1.000010559547542
 20
6.119463655338146
 30
0.0
 11
1.040876153081646
 21
6.16032924887225
 31
0.0
  0
LINE
  5
1A2
330
88
100
AcDbEntity
  8
0
 62
     0
100
AcDbLine
 10
1.000116254912045
 20
6.119392574007352
 30
0.0
 11
1.040947234412441
 21
6.160223553507748
 31
0.0
  0
LINE
  5
1A3
330
88
100
AcDbEntity
  8
0
 62
     0
100
AcDbLine
 10
1.000222347964518
 20
6.119321890364529
 30
0.0
 11
1.041017918055263
 21
6.160117460455274
 31
0.0
  0
LINE
  5
1A4
330
88
100
AcDbEntity
  8
0
 62
     0
100
AcDbLine
 10
1.00032883974143
 20
6.119251605446144
 30
0.0
 11
1.041088202973649
 21
6.160010968678363
 31
0.0
  0
LINE
  5
1A5
330
88
100
AcDbEntity
  8
0
 62
     0
100
AcDbLine
 10
1.000435731306314
 20
6.119181720315731
 30
0.0
 11
1.041158088104061
 21
6.159904077113479
 31
0.0
  0
LINE
  5
1A6
330
88
100
AcDbEntity
  8
0
 62
     0
100
AcDbLine
 10
1.000543023750105
 20
6.119112236064226
 30
0.0
 11
1.041227572355567
 21
6.159796784669688
 31
0.0
  0
LINE
  5
1A7
330
88
100
AcDbEntity
  8
0
 62
     0
100
AcDbLine
 10
1.000650718191477
 20
6.1190431538103
 30
0.0
 11
1.041296654609491
 21
6.159689090228316
 31
0.0
  0
LINE
  5
1A8
330
88
100
AcDbEntity
  8
0
 62
     0
100
AcDbLine
 10
1.000758815777191
 20
6.118974474700719
 30
0.0
 11
1.041365333719074
 21
6.159580992642601
 31
0.0
  0
LINE
  5
1A9
330
88
100
AcDbEntity
  8
0
 62
     0
100
AcDbLine
 10
1.000867317682461
 20
6.118906199910692
 30
0.0
 11
1.041433608509101
 21
6.159472490737332
 31
0.0
  0
LINE
  5
1AA
330
88
100
AcDbEntity
  8
0
 62
     0
100
AcDbLine
 10
1.000976225111321
 20
6.118838330644255
 30
0.0
 11
1.041501477775538
 21
6.159363583308472
 31
0.0
  0
LINE
  5
1AB
330
88
100
AcDbEntity
  8
0
 62
     0
100
AcDbLine
 10
1.001085539297012
 20
6.118770868134649
 30
0.0
 11
1.041568940285143
 21
6.15925426912278
 31
0.0
  0
LINE
  5
1AC
330
88
100
AcDbEntity
  8
0
 62
     0
100
AcDbLine
 10
1.00119526150238
 20
6.118703813644722
 30
0.0
 11
1.041635994775071
 21
6.159144546917412
 31
0.0
  0
LINE
  5
1AD
330
88
100
AcDbEntity
  8
0
 62
     0
100
AcDbLine
 10
1.001305393020281
 20
6.118637168467325
 30
0.0
 11
1.041702639952467
 21
6.159034415399511
 31
0.0
  0
LINE
  5
1AE
330
88
100
AcDbEntity
  8
0
 62
     0
100
AcDbLine
 10
1.001415935174001
 20
6.118570933925749
 30
0.0
 11
1.041768874494044
 21
6.158923873245791
 31
0.0
  0
LINE
  5
1AF
330
88
100
AcDbEntity
  8
0
 62
     0
100
AcDbLine
 10
1.00152688931769
 20
6.118505111374142
 30
0.0
 11
1.041834697045651
 21
6.158812919102102
 31
0.0
  0
LINE
  5
1B0
330
88
100
AcDbEntity
  8
0
 62
     0
100
AcDbLine
 10
1.001638256836814
 20
6.118439702197968
 30
0.0
 11
1.041900106221824
 21
6.158701551582979
 31
0.0
  0
LINE
  5
1B1
330
88
100
AcDbEntity
  8
0
 62
     0
100
AcDbLine
 10
1.001750039148603
 20
6.118374707814461
 30
0.0
 11
1.041965100605331
 21
6.158589769271189
 31
0.0
  0
LINE
  5
1B2
330
88
100
AcDbEntity
  8
0
 62
     0
100
AcDbLine
 10
1.001862237702539
 20
6.1183101296731
 30
0.0
 11
1.042029678746692
 21
6.158477570717254
 31
0.0
  0
LINE
  5
1B3
330
88
100
AcDbEntity
  8
0
 62
     0
100
AcDbLine
 10
1.001974853980833
 20
6.118245969256098
 30
0.0
 11
1.042093839163695
 21
6.158364954438959
 31
0.0
  0
LINE
  5
1B4
330
88
100
AcDbEntity
  8
0
 62
     0
100
AcDbLine
 10
1.002087889498936
 20
6.118182228078903
 30
0.0
 11
1.042157580340889
 21
6.158251918920857
 31
0.0
  0
LINE
  5
1B5
330
88
100
AcDbEntity
  8
0
 62
     0
100
AcDbLine
 10
1.002201345806049
 20
6.11811890769072
 30
0.0
 11
1.042220900729072
 21
6.158138462613743
 31
0.0
  0
LINE
  5
1B6
330
88
100
AcDbEntity
  8
0
 62
     0
100
AcDbLine
 10
1.002315224485667
 20
6.118056009675041
 30
0.0
 11
1.042283798744751
 21
6.158024583934126
 31
0.0
  0
LINE
  5
1B7
330
88
100
AcDbEntity
  8
0
 62
     0
100
AcDbLine
 10
1.002429527156118
 20
6.117993535650196
 30
0.0
 11
1.042346272769596
 21
6.157910281263673
 31
0.0
  0
LINE
  5
1B8
330
88
100
AcDbEntity
  8
0
 62
     0
100
AcDbLine
 10
1.00254425547114
 20
6.117931487269921
 30
0.0
 11
1.042408321149871
 21
6.157795552948653
 31
0.0
  0
LINE
  5
1B9
330
88
100
AcDbEntity
  8
0
 62
     0
100
AcDbLine
 10
1.002659411120454
 20
6.117869866223939
 30
0.0
 11
1.042469942195853
 21
6.157680397299338
 31
0.0
  0
LINE
  5
1BA
330
88
100
AcDbEntity
  8
0
 62
     0
100
AcDbLine
 10
1.002774995830374
 20
6.117808674238562
 30
0.0
 11
1.04253113418123
 21
6.157564812589418
 31
0.0
  0
LINE
  5
1BB
330
88
100
AcDbEntity
  8
0
 62
     0
100
AcDbLine
 10
1.002891011364419
 20
6.117747913077311
 30
0.0
 11
1.042591895342481
 21
6.157448797055373
 31
0.0
  0
LINE
  5
1BC
330
88
100
AcDbEntity
  8
0
 62
     0
100
AcDbLine
 10
1.003007459523957
 20
6.117687584541552
 30
0.0
 11
1.04265222387824
 21
6.157332348895836
 31
0.0
  0
LINE
  5
1BD
330
88
100
AcDbEntity
  8
0
 62
     0
100
AcDbLine
 10
1.003124342148856
 20
6.117627690471155
 30
0.0
 11
1.042712117948638
 21
6.157215466270936
 31
0.0
  0
LINE
  5
1BE
330
88
100
AcDbEntity
  8
0
 62
     0
100
AcDbLine
 10
1.003241661118166
 20
6.117568232745168
 30
0.0
 11
1.042771575674624
 21
6.157098147301626
 31
0.0
  0
LINE
  5
1BF
330
88
100
AcDbEntity
  8
0
 62
     0
100
AcDbLine
 10
1.003359418350814
 20
6.117509213282518
 30
0.0
 11
1.042830595137274
 21
6.156980390068978
 31
0.0
  0
LINE
  5
1C0
330
88
100
AcDbEntity
  8
0
 62
     0
100
AcDbLine
 10
1.00347761580632
 20
6.117450634042729
 30
0.0
 11
1.042889174377063
 21
6.156862192613472
 31
0.0
  0
LINE
  5
1C1
330
88
100
AcDbEntity
  8
0
 62
     0
100
AcDbLine
 10
1.003596255485546
 20
6.117392497026657
 30
0.0
 11
1.042947311393135
 21
6.156743552934247
 31
0.0
  0
LINE
  5
1C2
330
88
100
AcDbEntity
  8
0
 62
     0
100
AcDbLine
 10
1.003715339431447
 20
6.117334804277263
 30
0.0
 11
1.04300500414253
 21
6.156624468988345
 31
0.0
  0
LINE
  5
1C3
330
88
100
AcDbEntity
  8
0
 62
     0
100
AcDbLine
 10
1.003834869729868
 20
6.117277557880387
 30
0.0
 11
1.043062250539405
 21
6.156504938689924
 31
0.0
  0
LINE
  5
1C4
330
88
100
AcDbEntity
  8
0
 62
     0
100
AcDbLine
 10
1.003954848510349
 20
6.117220759965571
 30
0.0
 11
1.043119048454221
 21
6.156384959909443
 31
0.0
  0
LINE
  5
1C5
330
88
100
AcDbEntity
  8
0
 62
     0
100
AcDbLine
 10
1.004075277946962
 20
6.117164412706887
 30
0.0
 11
1.043175395712905
 21
6.156264530472831
 31
0.0
  0
LINE
  5
1C6
330
88
100
AcDbEntity
  8
0
 62
     0
100
AcDbLine
 10
1.00419616025917
 20
6.117108518323798
 30
0.0
 11
1.043231290095994
 21
6.156143648160623
 31
0.0
  0
LINE
  5
1C7
330
88
100
AcDbEntity
  8
0
 62
     0
100
AcDbLine
 10
1.004317497712718
 20
6.117053079082049
 30
0.0
 11
1.043286729337743
 21
6.156022310707075
 31
0.0
  0
LINE
  5
1C8
330
88
100
AcDbEntity
  8
0
 62
     0
100
AcDbLine
 10
1.004439292620547
 20
6.116998097294582
 30
0.0
 11
1.043341711125211
 21
6.155900515799245
 31
0.0
  0
LINE
  5
1C9
330
88
100
AcDbEntity
  8
0
 62
     0
100
AcDbLine
 10
1.004561547343738
 20
6.116943575322477
 30
0.0
 11
1.043396233097315
 21
6.155778261076054
 31
0.0
  0
LINE
  5
1CA
330
88
100
AcDbEntity
  8
0
 62
     0
100
AcDbLine
 10
1.004684264292486
 20
6.116889515575929
 30
0.0
 11
1.043450292843864
 21
6.155655544127306
 31
0.0
  0
LINE
  5
1CB
330
88
100
AcDbEntity
  8
0
 62
     0
100
AcDbLine
 10
1.004807445927104
 20
6.116835920515249
 30
0.0
 11
1.043503887904543
 21
6.155532362492688
 31
0.0
  0
LINE
  5
1CC
330
88
100
AcDbEntity
  8
0
 62
     0
100
AcDbLine
 10
1.004931094759056
 20
6.116782792651905
 30
0.0
 11
1.043557015767887
 21
6.155408713660736
 31
0.0
  0
LINE
  5
1CD
330
88
100
AcDbEntity
  8
0
 62
     0
100
AcDbLine
 10
1.005055213352032
 20
6.116730134549585
 30
0.0
 11
1.043609673870208
 21
6.15528459506776
 31
0.0
  0
LINE
  5
1CE
330
88
100
AcDbEntity
  8
0
 62
     0
100
AcDbLine
 10
1.005179804323045
 20
6.116677948825301
 30
0.0
 11
1.043661859594492
 21
6.155160004096747
 31
0.0
  0
LINE
  5
1CF
330
88
100
AcDbEntity
  8
0
 62
     0
100
AcDbLine
 10
1.005304870343571
 20
6.11662623815053
 30
0.0
 11
1.043713570269262
 21
6.155034938076221
 31
0.0
  0
LINE
  5
1D0
330
88
100
AcDbEntity
  8
0
 62
     0
100
AcDbLine
 10
1.005430414140725
 20
6.116575005252387
 30
0.0
 11
1.043764803167405
 21
6.154909394279068
 31
0.0
  0
LINE
  5
1D1
330
88
100
AcDbEntity
  8
0
 62
     0
100
AcDbLine
 10
1.005556438498471
 20
6.116524252914836
 30
0.0
 11
1.043815555504957
 21
6.154783369921322
 31
0.0
  0
LINE
  5
1D2
330
88
100
AcDbEntity
  8
0
 62
     0
100
AcDbLine
 10
1.005682946258875
 20
6.116473983979943
 30
0.0
 11
1.043865824439849
 21
6.154656862160917
 31
0.0
  0
LINE
  5
1D3
330
88
100
AcDbEntity
  8
0
 62
     0
100
AcDbLine
 10
1.0058099403234
 20
6.116424201349172
 30
0.0
 11
1.04391560707062
 21
6.154529868096393
 31
0.0
  0
LINE
  5
1D4
330
88
100
AcDbEntity
  8
0
 62
     0
100
AcDbLine
 10
1.005937423654239
 20
6.116374907984714
 30
0.0
 11
1.043964900435079
 21
6.154402384765553
 31
0.0
  0
LINE
  5
1D5
330
88
100
AcDbEntity
  8
0
 62
     0
100
AcDbLine
 10
1.006065399275692
 20
6.116326106910872
 30
0.0
 11
1.044013701508921
 21
6.154274409144099
 31
0.0
  0
LINE
  5
1D6
330
88
100
AcDbEntity
  8
0
 62
     0
100
AcDbLine
 10
1.0061938702756
 20
6.116277801215482
 30
0.0
 11
1.04406200720431
 21
6.154145938144193
 31
0.0
  0
LINE
  5
1D7
330
88
100
AcDbEntity
  8
0
 62
     0
100
AcDbLine
 10
1.006322839806806
 20
6.116229994051392
 30
0.0
 11
1.044109814368401
 21
6.154016968612986
 31
0.0
  0
LINE
  5
1D8
330
88
100
AcDbEntity
  8
0
 62
     0
100
AcDbLine
 10
1.006452311088685
 20
6.116182688637974
 30
0.0
 11
1.044157119781818
 21
6.153887497331107
 31
0.0
  0
LINE
  5
1D9
330
88
100
AcDbEntity
  8
0
 62
     0
100
AcDbLine
 10
1.006582287408717
 20
6.11613588826271
 30
0.0
 11
1.044203920157083
 21
6.153757521011075
 31
0.0
  0
LINE
  5
1DA
330
88
100
AcDbEntity
  8
0
 62
     0
100
AcDbLine
 10
1.006712772124112
 20
6.116089596282808
 30
0.0
 11
1.044250212136984
 21
6.153627036295681
 31
0.0
  0
LINE
  5
1DB
330
88
100
AcDbEntity
  8
0
 62
     0
100
AcDbLine
 10
1.006843768663493
 20
6.116043816126892
 30
0.0
 11
1.0442959922929
 21
6.1534960397563
 31
0.0
  0
LINE
  5
1DC
330
88
100
AcDbEntity
  8
0
 62
     0
100
AcDbLine
 10
1.006975280528639
 20
6.11599855129674
 30
0.0
 11
1.044341257123051
 21
6.153364527891154
 31
0.0
  0
LINE
  5
1DD
330
88
100
AcDbEntity
  8
0
 62
     0
100
AcDbLine
 10
1.007107311296281
 20
6.115953805369088
 30
0.0
 11
1.044386003050705
 21
6.153232497123511
 31
0.0
  0
LINE
  5
1DE
330
88
100
AcDbEntity
  8
0
 62
     0
100
AcDbLine
 10
1.007239864619975
 20
6.115909581997484
 30
0.0
 11
1.044430226422308
 21
6.153099943799817
 31
0.0
  0
LINE
  5
1DF
330
88
100
AcDbEntity
  8
0
 62
     0
100
AcDbLine
 10
1.007372944232021
 20
6.115865884914233
 30
0.0
 11
1.044473923505559
 21
6.152966864187772
 31
0.0
  0
LINE
  5
1E0
330
88
100
AcDbEntity
  8
0
 62
     0
100
AcDbLine
 10
1.007506553945465
 20
6.115822717932381
 30
0.0
 11
1.044517090487411
 21
6.152833254474327
 31
0.0
  0
LINE
  5
1E1
330
88
100
AcDbEntity
  8
0
 62
     0
100
AcDbLine
 10
1.007640697656172
 20
6.115780084947791
 30
0.0
 11
1.044559723472
 21
6.15269911076362
 31
0.0
  0
LINE
  5
1E2
330
88
100
AcDbEntity
  8
0
 62
     0
100
AcDbLine
 10
1.007775379344961
 20
6.115737989941283
 30
0.0
 11
1.044601818478509
 21
6.152564429074831
 31
0.0
  0
LINE
  5
1E3
330
88
100
AcDbEntity
  8
0
 62
     0
100
AcDbLine
 10
1.007910603079828
 20
6.115696436980854
 30
0.0
 11
1.044643371438938
 21
6.152429205339964
 31
0.0
  0
LINE
  5
1E4
330
88
100
AcDbEntity
  8
0
 62
     0
100
AcDbLine
 10
1.00804637301825
 20
6.11565543022398
 30
0.0
 11
1.044684378195813
 21
6.152293435401542
 31
0.0
  0
LINE
  5
1E5
330
88
100
AcDbEntity
  8
0
 62
     0
100
AcDbLine
 10
1.008182693409565
 20
6.115614973919998
 30
0.0
 11
1.044724834499795
 21
6.152157115010227
 31
0.0
  0
LINE
  5
1E6
330
88
100
AcDbEntity
  8
0
 62
     0
100
AcDbLine
 10
1.008319568597449
 20
6.115575072412585
 30
0.0
 11
1.044764736007207
 21
6.152020239822344
 31
0.0
  0
LINE
  5
1E7
330
88
100
AcDbEntity
  8
0
 62
     0
100
AcDbLine
 10
1.008457003022478
 20
6.115535730142317
 30
0.0
 11
1.044804078277475
 21
6.151882805397314
 31
0.0
  0
LINE
  5
1E8
330
88
100
AcDbEntity
  8
0
 62
     0
100
AcDbLine
 10
1.008595001224791
 20
6.115496951649334
 30
0.0
 11
1.044842856770458
 21
6.151744807195001
 31
0.0
  0
LINE
  5
1E9
330
88
100
AcDbEntity
  8
0
 62
     0
100
AcDbLine
 10
1.008733567846852
 20
6.115458741576098
 30
0.0
 11
1.044881066843694
 21
6.15160624057294
 31
0.0
  0
LINE
  5
1EA
330
88
100
AcDbEntity
  8
0
 62
     0
100
AcDbLine
 10
1.008872707636315
 20
6.115421104670264
 30
0.0
 11
1.044918703749528
 21
6.151467100783477
 31
0.0
  0
LINE
  5
1EB
330
88
100
AcDbEntity
  8
0
 62
     0
100
AcDbLine
 10
1.009012425449
 20
6.115384045787653
 30
0.0
 11
1.04495576263214
 21
6.151327382970793
 31
0.0
  0
LINE
  5
1EC
330
88
100
AcDbEntity
  8
0
 62
     0
100
AcDbLine
 10
1.009152726251987
 20
6.115347569895343
 30
0.0
 11
1.044992238524449
 21
6.151187082167806
 31
0.0
  0
LINE
  5
1ED
330
88
100
AcDbEntity
  8
0
 62
     0
100
AcDbLine
 10
1.009293615126826
 20
6.115311682074886
 30
0.0
 11
1.045028126344907
 21
6.151046193292966
 31
0.0
  0
LINE
  5
1EE
330
88
100
AcDbEntity
  8
0
 62
     0
100
AcDbLine
 10
1.009435097272878
 20
6.115276387525641
 30
0.0
 11
1.045063420894152
 21
6.150904711146915
 31
0.0
  0
LINE
  5
1EF
330
88
100
AcDbEntity
  8
0
 62
     0
100
AcDbLine
 10
1.009577178010781
 20
6.115241691568247
 30
0.0
 11
1.045098116851545
 21
6.150762630409012
 31
0.0
  0
LINE
  5
1F0
330
88
100
AcDbEntity
  8
0
 62
     0
100
AcDbLine
 10
1.009719862786063
 20
6.115207599648234
 30
0.0
 11
1.045132208771559
 21
6.150619945633729
 31
0.0
  0
LINE
  5
1F1
330
88
100
AcDbEntity
  8
0
 62
     0
100
AcDbLine
 10
1.009863157172898
 20
6.115174117339771
 30
0.0
 11
1.045165691080021
 21
6.150476651246894
 31
0.0
  0
LINE
  5
1F2
330
88
100
AcDbEntity
  8
0
 62
     0
100
AcDbLine
 10
1.010007066878008
 20
6.115141250349585
 30
0.0
 11
1.045198558070208
 21
6.150332741541784
 31
0.0
  0
LINE
  5
1F3
330
88
100
AcDbEntity
  8
0
 62
     0
100
AcDbLine
 10
1.010151597744735
 20
6.115109004521015
 30
0.0
 11
1.045230803898777
 21
6.150188210675057
 31
0.0
  0
LINE
  5
1F4
330
88
100
AcDbEntity
  8
0
 62
     0
100
AcDbLine
 10
1.010296755757277
 20
6.11507738583826
 30
0.0
 11
1.045262422581533
 21
6.150043052662516
 31
0.0
  0
LINE
  5
1F5
330
88
100
AcDbEntity
  8
0
 62
     0
100
AcDbLine
 10
1.010442547045096
 20
6.115046400430783
 30
0.0
 11
1.04529340798901
 21
6.149897261374697
 31
0.0
  0
LINE
  5
1F6
330
88
100
AcDbEntity
  8
0
 62
     0
100
AcDbLine
 10
1.010588977887525
 20
6.115016054577915
 30
0.0
 11
1.045323753841878
 21
6.149750830532267
 31
0.0
  0
LINE
  5
1F7
330
88
100
AcDbEntity
  8
0
 62
     0
100
AcDbLine
 10
1.010736054718553
 20
6.114986354713646
 30
0.0
 11
1.045353453706146
 21
6.14960375370124
 31
0.0
  0
LINE
  5
1F8
330
88
100
AcDbEntity
  8
0
 62
     0
100
AcDbLine
 10
1.010883784131832
 20
6.114957307431629
 30
0.0
 11
1.045382500988164
 21
6.14945602428796
 31
0.0
  0
LINE
  5
1F9
330
88
100
AcDbEntity
  8
0
 62
     0
100
AcDbLine
 10
1.01103217288589
 20
6.11492891949039
 30
0.0
 11
1.045410888929402
 21
6.149307635533903
 31
0.0
  0
LINE
  5
1FA
330
88
100
AcDbEntity
  8
0
 62
     0
100
AcDbLine
 10
1.011181227909576
 20
6.114901197818779
 30
0.0
 11
1.045438610601013
 21
6.149158580510216
 31
0.0
  0
LINE
  5
1FB
330
88
100
AcDbEntity
  8
0
 62
     0
100
AcDbLine
 10
1.011330956307745
 20
6.114874149521653
 30
0.0
 11
1.04546565889814
 21
6.149008852112046
 31
0.0
  0
LINE
  5
1FC
330
88
100
AcDbEntity
  8
0
 62
     0
100
AcDbLine
 10
1.011481365367199
 20
6.114847781885809
 30
0.0
 11
1.045492026533983
 21
6.148858443052593
 31
0.0
  0
LINE
  5
1FD
330
88
100
AcDbEntity
  8
0
 62
     0
100
AcDbLine
 10
1.011632462562887
 20
6.114822102386201
 30
0.0
 11
1.045517706033592
 21
6.148707345856905
 31
0.0
  0
LINE
  5
1FE
330
88
100
AcDbEntity
  8
0
 62
     0
100
AcDbLine
 10
1.0117842555644
 20
6.114797118692417
 30
0.0
 11
1.045542689727376
 21
6.148555552855393
 31
0.0
  0
LINE
  5
1FF
330
88
100
AcDbEntity
  8
0
 62
     0
100
AcDbLine
 10
1.01193675224275
 20
6.114772838675469
 30
0.0
 11
1.045566969744323
 21
6.148403056177043
 31
0.0
  0
LINE
  5
200
330
88
100
AcDbEntity
  8
0
 62
     0
100
AcDbLine
 10
1.012089960677476
 20
6.1147492704149
 30
0.0
 11
1.045590538004893
 21
6.148249847742317
 31
0.0
  0
LINE
  5
201
330
88
100
AcDbEntity
  8
0
 62
     0
100
AcDbLine
 10
1.012243889164077
 20
6.114726422206204
 30
0.0
 11
1.045613386213589
 21
6.148095919255715
 31
0.0
  0
LINE
  5
202
330
88
100
AcDbEntity
  8
0
 62
     0
100
AcDbLine
 10
1.012398546221796
 20
6.114704302568625
 30
0.0
 11
1.045635505851167
 21
6.147941262197996
 31
0.0
  0
LINE
  5
203
330
88
100
AcDbEntity
  8
0
 62
     0
100
AcDbLine
 10
1.012553940601777
 20
6.114682920253311
 30
0.0
 11
1.045656888166482
 21
6.147785867818015
 31
0.0
  0
LINE
  5
204
330
88
100
AcDbEntity
  8
0
 62
     0
100
AcDbLine
 10
1.012710081295625
 20
6.114662284251862
 30
0.0
 11
1.04567752416793
 21
6.147629727124167
 31
0.0
  0
LINE
  5
205
330
88
100
AcDbEntity
  8
0
 62
     0
100
AcDbLine
 10
1.012866977544371
 20
6.114642403805311
 30
0.0
 11
1.045697404614481
 21
6.147472830875421
 31
0.0
  0
LINE
  5
206
330
88
100
AcDbEntity
  8
0
 62
     0
100
AcDbLine
 10
1.01302463884789
 20
6.114623288413533
 30
0.0
 11
1.045716520006259
 21
6.147315169571903
 31
0.0
  0
LINE
  5
207
330
88
100
AcDbEntity
  8
0
 62
     0
100
AcDbLine
 10
1.013183074974787
 20
6.114604947845133
 30
0.0
 11
1.045734860574659
 21
6.147156733445005
 31
0.0
  0
LINE
  5
208
330
88
100
AcDbEntity
  8
0
 62
     0
100
AcDbLine
 10
1.013342295972783
 20
6.114587392147833
 30
0.0
 11
1.04575241627196
 21
6.146997512447009
 31
0.0
  0
LINE
  5
209
330
88
100
AcDbEntity
  8
0
 62
     0
100
AcDbLine
 10
1.01350231217963
 20
6.114570631659384
 30
0.0
 11
1.045769176760408
 21
6.146837496240162
 31
0.0
  0
LINE
  5
20A
330
88
100
AcDbEntity
  8
0
 62
     0
100
AcDbLine
 10
1.013663134234599
 20
6.114554677019055
 30
0.0
 11
1.045785131400736
 21
6.146676674185194
 31
0.0
  0
LINE
  5
20B
330
88
100
AcDbEntity
  8
0
 62
     0
100
AcDbLine
 10
1.013824773090552
 20
6.114539539179713
 30
0.0
 11
1.04580026924008
 21
6.14651503532924
 31
0.0
  0
LINE
  5
20C
330
88
100
AcDbEntity
  8
0
 62
     0
100
AcDbLine
 10
1.013987240026674
 20
6.114525229420538
 30
0.0
 11
1.045814578999255
 21
6.146352568393119
 31
0.0
  0
LINE
  5
20D
330
88
100
AcDbEntity
  8
0
 62
     0
100
AcDbLine
 10
1.01415054666187
 20
6.114511759360437
 30
0.0
 11
1.045828049059355
 21
6.146189261757922
 31
0.0
  0
LINE
  5
20E
330
88
100
AcDbEntity
  8
0
 62
     0
100
AcDbLine
 10
1.0143147049689
 20
6.114499140972171
 30
0.0
 11
1.045840667447622
 21
6.146025103450893
 31
0.0
  0
LINE
  5
20F
330
88
100
AcDbEntity
  8
0
 62
     0
100
AcDbLine
 10
1.014479727289282
 20
6.114487386597255
 30
0.0
 11
1.045852421822537
 21
6.145860081130511
 31
0.0
  0
LINE
  5
210
330
88
100
AcDbEntity
  8
0
 62
     0
100
AcDbLine
 10
1.014645626349028
 20
6.114476508961706
 30
0.0
 11
1.045863299458087
 21
6.145694182070764
 31
0.0
  0
LINE
  5
211
330
88
100
AcDbEntity
  8
0
 62
     0
100
AcDbLine
 10
1.014812415275266
 20
6.114466521192646
 30
0.0
 11
1.045873287227146
 21
6.145527393144527
 31
0.0
  0
LINE
  5
212
330
88
100
AcDbEntity
  8
0
 62
     0
100
AcDbLine
 10
1.0149801076138
 20
6.114457436835884
 30
0.0
 11
1.045882371583908
 21
6.145359700805992
 31
0.0
  0
LINE
  5
213
330
88
100
AcDbEntity
  8
0
 62
     0
100
AcDbLine
 10
1.015148717347701
 20
6.114449269874489
 30
0.0
 11
1.045890538545304
 21
6.145191091072091
 31
0.0
  0
LINE
  5
214
330
88
100
AcDbEntity
  8
0
 62
     0
100
AcDbLine
 10
1.015318258916968
 20
6.114442034748459
 30
0.0
 11
1.045897773671334
 21
6.145021549502824
 31
0.0
  0
LINE
  5
215
330
88
100
AcDbEntity
  8
0
 62
     0
100
AcDbLine
 10
1.015488747239362
 20
6.114435746375557
 30
0.0
 11
1.045904062044236
 21
6.14485106118043
 31
0.0
  0
LINE
  5
216
330
88
100
AcDbEntity
  8
0
 62
     0
100
AcDbLine
 10
1.015660197732494
 20
6.114430420173391
 30
0.0
 11
1.045909388246401
 21
6.144679610687298
 31
0.0
  0
LINE
  5
217
330
88
100
AcDbEntity
  8
0
 62
     0
100
AcDbLine
 10
1.015832626337247
 20
6.114426072082848
 30
0.0
 11
1.045913736336944
 21
6.144507182082545
 31
0.0
  0
LINE
  5
218
330
88
100
AcDbEntity
  8
0
 62
     0
100
AcDbLine
 10
1.016006049542662
 20
6.114422718592966
 30
0.0
 11
1.045917089826826
 21
6.144333758877131
 31
0.0
  0
LINE
  5
219
330
88
100
AcDbEntity
  8
0
 62
     0
100
AcDbLine
 10
1.016180484412354
 20
6.114420376767362
 30
0.0
 11
1.04591943165243
 21
6.144159324007438
 31
0.0
  0
LINE
  5
21A
330
88
100
AcDbEntity
  8
0
 62
     0
100
AcDbLine
 10
1.016355948612635
 20
6.114419064272347
 30
0.0
 11
1.045920744147446
 21
6.143983859807157
 31
0.0
  0
LINE
  5
21B
330
88
100
AcDbEntity
  8
0
 62
     0
100
AcDbLine
 10
1.016532460442425
 20
6.114418799406839
 30
0.0
 11
1.045921009012953
 21
6.143807347977367
 31
0.0
  0
LINE
  5
21C
330
88
100
AcDbEntity
  8
0
 62
     0
100
AcDbLine
 10
1.016710038865127
 20
6.114419601134245
 30
0.0
 11
1.045920207285548
 21
6.143629769554665
 31
0.0
  0
LINE
  5
21D
330
88
100
AcDbEntity
  8
0
 62
     0
100
AcDbLine
 10
1.016888703542613
 20
6.114421489116434
 30
0.0
 11
1.045918319303358
 21
6.143451104877179
 31
0.0
  0
LINE
  5
21E
330
88
100
AcDbEntity
  8
0
 62
     0
100
AcDbLine
 10
1.017068474871502
 20
6.114424483750027
 30
0.0
 11
1.045915324669766
 21
6.14327133354829
 31
0.0
  0
LINE
  5
21F
330
88
100
AcDbEntity
  8
0
 62
     0
100
AcDbLine
 10
1.017249374021908
 20
6.114428606205136
 30
0.0
 11
1.045911202214657
 21
6.143090434397885
 31
0.0
  0
LINE
  5
220
330
88
100
AcDbEntity
  8
0
 62
     0
100
AcDbLine
 10
1.017431422978883
 20
6.114433878466814
 30
0.0
 11
1.045905929952978
 21
6.14290838544091
 31
0.0
  0
LINE
  5
221
330
88
100
AcDbEntity
  8
0
 62
     0
100
AcDbLine
 10
1.017614644586785
 20
6.11444032337942
 30
0.0
 11
1.045899485040373
 21
6.142725163833008
 31
0.0
  0
LINE
  5
222
330
88
100
AcDbEntity
  8
0
 62
     0
100
AcDbLine
 10
1.017799062596815
 20
6.114447964694153
 30
0.0
 11
1.045891843725639
 21
6.142540745822977
 31
0.0
  0
LINE
  5
223
330
88
100
AcDbEntity
  8
0
 62
     0
100
AcDbLine
 10
1.017984701718021
 20
6.114456827120063
 30
0.0
 11
1.04588298129973
 21
6.142355106701771
 31
0.0
  0
LINE
  5
224
330
88
100
AcDbEntity
  8
0
 62
     0
100
AcDbLine
 10
1.018171587672078
 20
6.114466936378822
 30
0.0
 11
1.04587287204097
 21
6.142168220747715
 31
0.0
  0
LINE
  5
225
330
88
100
AcDbEntity
  8
0
 62
     0
100
AcDbLine
 10
1.01835974725218
 20
6.114478319263628
 30
0.0
 11
1.045861489156164
 21
6.141980061167612
 31
0.0
  0
LINE
  5
226
330
88
100
AcDbEntity
  8
0
 62
     0
100
AcDbLine
 10
1.018549208386458
 20
6.114491003702609
 30
0.0
 11
1.045848804717183
 21
6.141790600033334
 31
0.0
  0
LINE
  5
227
330
88
100
AcDbEntity
  8
0
 62
     0
100
AcDbLine
 10
1.018740000206322
 20
6.114505018827177
 30
0.0
 11
1.045834789592615
 21
6.14159980821347
 31
0.0
  0
LINE
  5
228
330
88
100
AcDbEntity
  8
0
 62
     0
100
AcDbLine
 10
1.018932153120226
 20
6.114520395045783
 30
0.0
 11
1.045819413374009
 21
6.141407655299567
 31
0.0
  0
LINE
  5
229
330
88
100
AcDbEntity
  8
0
 62
     0
100
AcDbLine
 10
1.019125698893385
 20
6.114537164123647
 30
0.0
 11
1.045802644296145
 21
6.141214109526407
 31
0.0
  0
LINE
  5
22A
330
88
100
AcDbEntity
  8
0
 62
     0
100
AcDbLine
 10
1.019320670734057
 20
6.114555359269021
 30
0.0
 11
1.045784449150771
 21
6.141019137685735
 31
0.0
  0
LINE
  5
22B
330
88
100
AcDbEntity
  8
0
 62
     0
100
AcDbLine
 10
1.019517103387024
 20
6.114575015226692
 30
0.0
 11
1.045764793193101
 21
6.140822705032769
 31
0.0
  0
LINE
  5
22C
330
88
100
AcDbEntity
  8
0
 62
     0
100
AcDbLine
 10
1.019715033235077
 20
6.114596168379449
 30
0.0
 11
1.045743640040344
 21
6.140624775184715
 31
0.0
  0
LINE
  5
22D
330
88
100
AcDbEntity
  8
0
 62
     0
100
AcDbLine
 10
1.019914498409321
 20
6.114618856858396
 30
0.0
 11
1.045720951561396
 21
6.140425310010471
 31
0.0
  0
LINE
  5
22E
330
88
100
AcDbEntity
  8
0
 62
     0
100
AcDbLine
 10
1.020115538909263
 20
6.114643120663041
 30
0.0
 11
1.045696687756751
 21
6.14022426951053
 31
0.0
  0
LINE
  5
22F
330
88
100
AcDbEntity
  8
0
 62
     0
100
AcDbLine
 10
1.020318196733782
 20
6.114669001792264
 30
0.0
 11
1.045670806627529
 21
6.140021611686011
 31
0.0
  0
LINE
  5
230
330
88
100
AcDbEntity
  8
0
 62
     0
100
AcDbLine
 10
1.020522516024203
 20
6.114696544387387
 30
0.0
 11
1.045643264032405
 21
6.13981729239559
 31
0.0
  0
LINE
  5
231
330
88
100
AcDbEntity
  8
0
 62
     0
100
AcDbLine
 10
1.020728543220864
 20
6.114725794888752
 30
0.0
 11
1.04561401353104
 21
6.139611265198928
 31
0.0
  0
LINE
  5
232
330
88
100
AcDbEntity
  8
0
 62
     0
100
AcDbLine
 10
1.020936327234791
 20
6.114756802207383
 30
0.0
 11
1.04558300621241
 21
6.139403481185002
 31
0.0
  0
LINE
  5
233
330
88
100
AcDbEntity
  8
0
 62
     0
100
AcDbLine
 10
1.021145919636284
 20
6.114789617913579
 30
0.0
 11
1.045550190506214
 21
6.139193888783509
 31
0.0
  0
LINE
  5
234
330
88
100
AcDbEntity
  8
0
 62
     0
100
AcDbLine
 10
1.021357374862506
 20
6.114824296444504
 30
0.0
 11
1.045515511975289
 21
6.138982433557287
 31
0.0
  0
LINE
  5
235
330
88
100
AcDbEntity
  8
0
 62
     0
100
AcDbLine
 10
1.021570750446478
 20
6.11486089533318
 30
0.0
 11
1.045478913086613
 21
6.138769057973314
 31
0.0
  0
LINE
  5
236
330
88
100
AcDbEntity
  8
0
 62
     0
100
AcDbLine
 10
1.021786107270242
 20
6.114899475461647
 30
0.0
 11
1.045440332958145
 21
6.13855370114955
 31
0.0
  0
LINE
  5
237
330
88
100
AcDbEntity
  8
0
 62
     0
100
AcDbLine
 10
1.022003509845385
 20
6.114940101341494
 30
0.0
 11
1.045399707078299
 21
6.138336298574407
 31
0.0
  0
LINE
  5
238
330
88
100
AcDbEntity
  8
0
 62
     0
100
AcDbLine
 10
1.022223026624644
 20
6.114982841425455
 30
0.0
 11
1.045356966994337
 21
6.138116781795148
 31
0.0
  0
LINE
  5
239
330
88
100
AcDbEntity
  8
0
 62
     0
100
AcDbLine
 10
1.022444730348903
 20
6.115027768454417
 30
0.0
 11
1.045312039965375
 21
6.13789507807089
 31
0.0
  0
LINE
  5
23A
330
88
100
AcDbEntity
  8
0
 62
     0
100
AcDbLine
 10
1.02266869843464
 20
6.115074959844858
 30
0.0
 11
1.045264848574934
 21
6.137671109985153
 31
0.0
  0
LINE
  5
23B
330
88
100
AcDbEntity
  8
0
 62
     0
100
AcDbLine
 10
1.022895013407748
 20
6.11512449812267
 30
0.0
 11
1.045215310297123
 21
6.137444795012044
 31
0.0
  0
LINE
  5
23C
330
88
100
AcDbEntity
  8
0
 62
     0
100
AcDbLine
 10
1.023123763390701
 20
6.115176471410326
 30
0.0
 11
1.045163337009466
 21
6.137216045029091
 31
0.0
  0
LINE
  5
23D
330
88
100
AcDbEntity
  8
0
 62
     0
100
AcDbLine
 10
1.023355042651337
 20
6.115230973975665
 30
0.0
 11
1.045108834444127
 21
6.136984765768456
 31
0.0
  0
LINE
  5
23E
330
88
100
AcDbEntity
  8
0
 62
     0
100
AcDbLine
 10
1.023588952223057
 20
6.115288106852088
 30
0.0
 11
1.045051701567704
 21
6.136750856196736
 31
0.0
  0
LINE
  5
23F
330
88
100
AcDbEntity
  8
0
 62
     0
100
AcDbLine
 10
1.02382560060817
 20
6.115347978541905
 30
0.0
 11
1.044991829877887
 21
6.136514207811623
 31
0.0
  0
LINE
  5
240
330
88
100
AcDbEntity
  8
0
 62
     0
100
AcDbLine
 10
1.024065104578438
 20
6.115410705816877
 30
0.0
 11
1.044929102602915
 21
6.136274703841355
 31
0.0
  0
LINE
  5
241
330
88
100
AcDbEntity
  8
0
 62
     0
100
AcDbLine
 10
1.02430759008979
 20
6.115476414632932
 30
0.0
 11
1.04486339378686
 21
6.136032218330003
 31
0.0
  0
LINE
  5
242
330
88
100
AcDbEntity
  8
0
 62
     0
100
AcDbLine
 10
1.024553193331774
 20
6.11554524117962
 30
0.0
 11
1.044794567240173
 21
6.135786615088018
 31
0.0
  0
LINE
  5
243
330
88
100
AcDbEntity
  8
0
 62
     0
100
AcDbLine
 10
1.024802061936887
 20
6.115617333089436
 30
0.0
 11
1.044722475330357
 21
6.135537746482905
 31
0.0
  0
LINE
  5
244
330
88
100
AcDbEntity
  8
0
 62
     0
100
AcDbLine
 10
1.025054356380612
 20
6.115692850837864
 30
0.0
 11
1.044646957581928
 21
6.13528545203918
 31
0.0
  0
LINE
  5
245
330
88
100
AcDbEntity
  8
0
 62
     0
100
AcDbLine
 10
1.025310251610325
 20
6.11577196937228
 30
0.0
 11
1.044567839047512
 21
6.135029556809468
 31
0.0
  0
LINE
  5
246
330
88
100
AcDbEntity
  8
0
 62
     0
100
AcDbLine
 10
1.025569938950583
 20
6.115854880017241
 30
0.0
 11
1.044484928402551
 21
6.134769869469209
 31
0.0
  0
LINE
  5
247
330
88
100
AcDbEntity
  8
0
 62
     0
100
AcDbLine
 10
1.025833628344444
 20
6.115941792715806
 30
0.0
 11
1.044398015703987
 21
6.134506180075349
 31
0.0
  0
LINE
  5
248
330
88
100
AcDbEntity
  8
0
 62
     0
100
AcDbLine
 10
1.026101551006295
 20
6.11603293868236
 30
0.0
 11
1.044306869737432
 21
6.134238257413497
 31
0.0
  0
LINE
  5
249
330
88
100
AcDbEntity
  8
0
 62
     0
100
AcDbLine
 10
1.026373962582615
 20
6.116128573563385
 30
0.0
 11
1.044211234856408
 21
6.133965845837177
 31
0.0
  0
LINE
  5
24A
330
88
100
AcDbEntity
  8
0
 62
     0
100
AcDbLine
 10
1.026651146944963
 20
6.116228981230436
 30
0.0
 11
1.044110827189357
 21
6.133688661474829
 31
0.0
  0
LINE
  5
24B
330
88
100
AcDbEntity
  8
0
 62
     0
100
AcDbLine
 10
1.026933420777166
 20
6.116334478367341
 30
0.0
 11
1.044005330052451
 21
6.133406387642627
 31
0.0
  0
LINE
  5
24C
330
88
100
AcDbEntity
  8
0
 62
     0
100
AcDbLine
 10
1.027221139170172
 20
6.116445420065051
 30
0.0
 11
1.043894388354741
 21
6.13311866924962
 31
0.0
  0
LINE
  5
24D
330
88
100
AcDbEntity
  8
0
 62
     0
100
AcDbLine
 10
1.02751470250936
 20
6.116562206708942
 30
0.0
 11
1.04377760171085
 21
6.132825105910432
 31
0.0
  0
LINE
  5
24E
330
88
100
AcDbEntity
  8
0
 62
     0
100
AcDbLine
 10
1.027814565039469
 20
6.116685292543754
 30
0.0
 11
1.043654515876038
 21
6.132525243380324
 31
0.0
  0
LINE
  5
24F
330
88
100
AcDbEntity
  8
0
 62
     0
100
AcDbLine
 10
1.028121245635924
 20
6.116815196444913
 30
0.0
 11
1.043524611974879
 21
6.132218562783869
 31
0.0
  0
LINE
  5
250
330
88
100
AcDbEntity
  8
0
 62
     0
100
AcDbLine
 10
1.028435341520412
 20
6.116952515634105
 30
0.0
 11
1.043387292785687
 21
6.13190446689938
 31
0.0
  0
LINE
  5
251
330
88
100
AcDbEntity
  8
0
 62
     0
100
AcDbLine
 10
1.028757545969415
 20
6.11709794338781
 30
0.0
 11
1.043241865031982
 21
6.131582262450378
 31
0.0
  0
LINE
  5
252
330
88
100
AcDbEntity
  8
0
 62
     0
100
AcDbLine
 10
1.029088671536945
 20
6.117252292260044
 30
0.0
 11
1.043087516159748
 21
6.131251136882847
 31
0.0
  0
LINE
  5
253
330
88
100
AcDbEntity
  8
0
 62
     0
100
AcDbLine
 10
1.029429681049516
 20
6.117416525077319
 30
0.0
 11
1.042923283342473
 21
6.130910127370276
 31
0.0
  0
LINE
  5
254
330
88
100
AcDbEntity
  8
0
 62
     0
100
AcDbLine
 10
1.029781729813496
 20
6.117591797146001
 30
0.0
 11
1.042748011273791
 21
6.130558078606297
 31
0.0
  0
LINE
  5
255
330
88
100
AcDbEntity
  8
0
 62
     0
100
AcDbLine
 10
1.030146224434831
 20
6.117779515072041
 30
0.0
 11
1.042560293347752
 21
6.130193583984961
 31
0.0
  0
LINE
  5
256
330
88
100
AcDbEntity
  8
0
 62
     0
100
AcDbLine
 10
1.030524907024898
 20
6.117981420966811
 30
0.0
 11
1.042358387452982
 21
6.129814901394894
 31
0.0
  0
LINE
  5
257
330
88
100
AcDbEntity
  8
0
 62
     0
100
AcDbLine
 10
1.030919979635241
 20
6.118199716881857
 30
0.0
 11
1.042140091537935
 21
6.129419828784551
 31
0.0
  0
LINE
  5
258
330
88
100
AcDbEntity
  8
0
 62
     0
100
AcDbLine
 10
1.031334295264908
 20
6.118437255816227
 30
0.0
 11
1.041902552603565
 21
6.129005513154885
 31
0.0
  0
LINE
  5
259
330
88
100
AcDbEntity
  8
0
 62
     0
100
AcDbLine
 10
1.031771664988157
 20
6.118697848844179
 30
0.0
 11
1.041641959575613
 21
6.128568143431635
 31
0.0
  0
LINE
  5
25A
330
88
100
AcDbEntity
  8
0
 62
     0
100
AcDbLine
 10
1.032237381323376
 20
6.118986788484103
 30
0.0
 11
1.04135301993569
 21
6.128102427096417
 31
0.0
  0
LINE
  5
25B
330
88
100
AcDbEntity
  8
0
 62
     0
100
AcDbLine
 10
1.032739179508469
 20
6.119311809973899
 30
0.0
 11
1.041027998445893
 21
6.127600628911323
 31
0.0
  0
LINE
  5
25C
330
88
100
AcDbEntity
  8
0
 62
     0
100
AcDbLine
 10
1.03328919062708
 20
6.119685044397213
 30
0.0
 11
1.04065476402258
 21
6.127050617792712
 31
0.0
  0
LINE
  5
25D
330
88
100
AcDbEntity
  8
0
 62
     0
100
AcDbLine
 10
1.033908527973942
 20
6.120127605048779
 30
0.0
 11
1.040212203371013
 21
6.12643128044585
 31
0.0
  0
LINE
  5
25E
330
88
100
AcDbEntity
  8
0
 62
     0
100
AcDbLine
 10
1.034640842758801
 20
6.12068314313834
 30
0.0
 11
1.039656665281452
 21
6.125698965660991
 31
0.0
  0
LINE
  5
25F
330
88
100
AcDbEntity
  8
0
 62
     0
100
AcDbLine
 10
1.035615559218054
 20
6.121481082902297
 30
0.0
 11
1.038858725517495
 21
6.124724249201738
 31
0.0
  0
ENDBLK
  5
261
330
88
100
AcDbEntity
  8
0
100
AcDbBlockEnd
  0
BLOCK
  5
31
330
2E
100
AcDbEntity
  8
0
100
AcDbBlockBegin
  2
bubble
 70
     2
 10
0.0
 20
0.0
 30
0.0
  3
bubble
  1

  0
CIRCLE
  5
2F
330
2E
100
AcDbEntity
  8
TEXT_BUBBLES
100
AcDbCircle
 10
0.0
 20
0.0
 30
0.0
 40
0.1398891854377198
  0
ATTDEF
  5
30
330
2E
100
AcDbEntity
  8
TEXT_BUBBLES
100
AcDbText
 10
0.0
 20
0.0
 30
0.0
 40
0.125
  1

  7
ROMANS
 72
     4
 11
0.0
 21
0.0
 31
0.0
100
AcDbAttributeDefinition
  3
Number
  2
XX
 70
     0
  0
ENDBLK
  5
32
330
2E
100
AcDbEntity
  8
0
100
AcDbBlockEnd
  0
BLOCK
  5
309
330
2FD
100
AcDbEntity
  8
0
100
AcDbBlockBegin
  2
*D2
 70
     1
 10
0.0
 20
0.0
 30
0.0
  3
*D2
  1

  0
LINE
  5
2FE
330
2FD
100
AcDbEntity
  8
IMAGE
370
    -2
100
AcDbLine
 10
6.748587163538447
 20
7.406123412390041
 30
0.0
 11
6.015692396506844
 21
7.406123412390041
 31
0.0
  0
LINE
  5
2FF
330
2FD
100
AcDbEntity
  8
IMAGE
370
    -2
100
AcDbLine
 10
6.748587163538447
 20
7.682215381380583
 30
0.0
 11
6.015692396506845
 21
7.682215381380583
 31
0.0
  0
LINE
  5
300
330
2FD
100
AcDbEntity
  8
IMAGE
370
    -2
100
AcDbLine
 10
6.195692396506844
 20
7.306123412390041
 30
0.0
 11
6.195692396506844
 21
7.206123412390041
 31
0.0
  0
LINE
  5
301
330
2FD
100
AcDbEntity
  8
IMAGE
370
    -2
100
AcDbLine
 10
6.195692396506845
 20
7.782215381380582
 30
0.0
 11
6.195692396506845
 21
8.141852912576171
 31
0.0
  0
LINE
  5
302
330
2FD
100
AcDbEntity
  8
IMAGE
370
    -2
100
AcDbLine
 10
6.195692396506845
 20
8.141852912576171
 30
0.0
 11
6.295692396506844
 21
8.141852912576171
 31
0.0
  0
SOLID
  5
303
330
2FD
100
AcDbEntity
  8
IMAGE
100
AcDbTrace
 10
6.179025729840177
 20
7.306123412390041
 30
0.0
 11
6.212359063173511
 21
7.306123412390041
 31
0.0
 12
6.195692396506844
 22
7.406123412390041
 32
0.0
 13
6.195692396506844
 23
7.406123412390041
 33
0.0
  0
SOLID
  5
304
330
2FD
100
AcDbEntity
  8
IMAGE
100
AcDbTrace
 10
6.179025729840178
 20
7.782215381380582
 30
0.0
 11
6.212359063173511
 21
7.782215381380582
 31
0.0
 12
6.195692396506845
 22
7.682215381380583
 32
0.0
 13
6.195692396506845
 23
7.682215381380583
 33
0.0
  0
MTEXT
  5
305
330
2FD
100
AcDbEntity
  8
IMAGE
100
AcDbMText
 10
6.55235906317351
 20
8.141852912576172
 30
0.0
 40
0.125
 41
0.0
 71
     5
 72
     1
  1
\A1;4" \PMIN.
  7
SIMPLEX
 73
     1
 44
1.0
  0
POINT
  5
306
330
2FD
100
AcDbEntity
  8
Defpoints
 62
     0
100
AcDbPoint
 10
6.811087163538447
 20
7.406123412390041
 30
0.0
  0
POINT
  5
307
330
2FD
100
AcDbEntity
  8
Defpoints
 62
     0
100
AcDbPoint
 10
6.811087163538447
 20
7.682215381380583
 30
0.0
  0
POINT
  5
308
330
2FD
100
AcDbEntity
  8
Defpoints
 62
     0
100
AcDbPoint
 10
6.195692396506845
 20
7.682215381380583
 30
0.0
  0
ENDBLK
  5
30A
330
2FD
100
AcDbEntity
  8
0
100
AcDbBlockEnd
  0
BLOCK
  5
354
330
349
100
AcDbEntity
  8
0
100
AcDbBlockBegin
  2
TITLBLK
 70
     2
 10
0.0
 20
0.0
 30
0.0
  3
TITLBLK
  1

  0
LWPOLYLINE
  5
34A
330
349
100
AcDbEntity
  8
TITLE
 62
     3
100
AcDbPolyline
 90
        2
 70
     0
 43
0.04
 39
0.03
 10
0.3424999999999994
 20
-0.0000000000000003
 10
7.654581983261419
 20
-0.0000000000000003
  0
ATTDEF
  5
34B
330
349
100
AcDbEntity
  8
TITLE
100
AcDbText
 10
0.625
 20
0.0999999999999998
 30
0.0
 40
0.2
  1
TITLE
  7
L200
100
AcDbAttributeDefinition
  3
DETAIL TITLE TOP 2ND LINE
  2
TITLE2
 70
     0
  0
LWPOLYLINE
  5
34C
330
349
100
AcDbEntity
  8
TITLE
 62
     3
100
AcDbPolyline
 90
        2
 70
     1
 43
0.03
 10
0.0
 20
-0.3425000000000002
 42
0.9999999999999998
 10
0.0
 20
0.3425000000000002
 42
0.9999999999999998
  0
ATTDEF
  5
34D
330
349
100
AcDbEntity
  8
TITLE
100
AcDbText
 10
-0.0776944065484311
 20
-0.1000000000000003
 30
0.0
 40
0.2
  1
#
  7
L200
 72
     4
 11
0.0
 21
-0.0000000000000003
 31
0.0
100
AcDbAttributeDefinition
  3
#
  2
#
 70
     0
  0
ATTDEF
  5
34E
330
349
100
AcDbEntity
  8
TITLE
 62
     7
100
AcDbText
 10
0.625
 20
-0.1836633170828782
 30
0.0
 40
0.1
  1
N.T.S.
  7
L100
100
AcDbAttributeDefinition
  3
SCALE
  2
SCALE
 70
     0
  0
ATTDEF
  5
34F
330
349
100
AcDbEntity
  8
TITLE
100
AcDbText
 10
2.107203380653828
 20
-0.2914343300200487
 30
0.0
 40
0.2
  1
TITLE2
  7
L200
100
AcDbAttributeDefinition
  3
DETAIL TITLE BOTTOM 1
  2
TITLE3
 70
     0
  0
ATTDEF
  5
350
330
349
100
AcDbEntity
  8
TITLE
 62
     7
100
AcDbText
 10
7.570772459451895
 20
-0.1618486459795794
 30
0.0
 40
0.08
  1
-
  7
L80
 72
     2
 11
7.654581983261419
 21
-0.1618486459795794
 31
0.0
100
AcDbAttributeDefinition
  3
DWG-NAME
  2
DWG-NAME
 70
     0
  0
ATTDEF
  5
351
330
349
100
AcDbEntity
  8
TITLE
 62
     7
100
AcDbText
 10
7.570772459451895
 20
0.0853756950662722
 30
0.0
 40
0.08
  1
-
  7
L80
 72
     2
 11
7.654581983261419
 21
0.0853756950662722
 31
0.0
100
AcDbAttributeDefinition
  3
REVISION DATE
  2
REVISED
 70
     0
  0
ATTDEF
  5
352
330
349
100
AcDbEntity
  8
TITLE
100
AcDbText
 10
0.625
 20
0.459485206268383
 30
0.0
 40
0.2
  1
TITLE
  7
L200
100
AcDbAttributeDefinition
  3
DETAIL TITLE TOP LINE
  2
TITLE1
 70
     0
  0
ATTDEF
  5
353
330
349
100
AcDbEntity
  8
TITLE
100
AcDbText
 10
2.107203380653828
 20
-0.6149710156615936
 30
0.0
 40
0.2
  1
TITLE2
  7
L200
100
AcDbAttributeDefinition
  3
DETAIL TITLE BOTTOM 2
  2
TITLE4
 70
     0
  0
ENDBLK
  5
355
330
349
100
AcDbEntity
  8
0
100
AcDbBlockEnd
  0
BLOCK
  5
3AB
330
3A0
100
AcDbEntity
  8
0
100
AcDbBlockBegin
  2
*D4
 70
     1
 10
0.0
 20
0.0
 30
0.0
  3
*D4
  1

  0
LINE
  5
3DF
330
3A0
100
AcDbEntity
  8
IMAGE
 62
     0
370
    -2
100
AcDbLine
 10
2.87323057930679
 20
5.89993945087988
 30
0.0
 11
2.616660961755075
 21
6.048919523162422
 31
0.0
  0
LINE
  5
3E0
330
3A0
100
AcDbEntity
  8
IMAGE
 62
     0
370
    -2
100
AcDbLine
 10
1.670882704918344
 20
3.829287117520045
 30
0.0
 11
1.414313087366628
 21
3.978267189802586
 31
0.0
  0
LINE
  5
3E1
330
3A0
100
AcDbEntity
  8
IMAGE
 62
     0
370
    -2
100
AcDbLine
 10
2.681935591722782
 20
5.802872327115446
 30
0.0
 11
2.413329209008578
 21
5.340285379552198
 31
0.0
  0
LINE
  5
3E2
330
3A0
100
AcDbEntity
  8
IMAGE
 62
     0
370
    -2
100
AcDbLine
 10
1.660360283413604
 20
4.043541819770292
 30
0.0
 11
1.949322377690031
 21
4.541184845978796
 31
0.0
  0
SOLID
  5
3E3
330
3A0
100
AcDbEntity
  8
IMAGE
 62
     0
100
AcDbTrace
 10
2.655992106221559
 20
5.817936707622052
 30
0.0
 11
2.707879077224006
 21
5.787807946608841
 31
0.0
 12
2.772321874762416
 22
5.958533240122787
 32
0.0
 13
2.772321874762416
 23
5.958533240122787
 33
0.0
  0
SOLID
  5
3E4
330
3A0
100
AcDbEntity
  8
IMAGE
 62
     0
100
AcDbTrace
 10
1.63441679791238
 20
4.058606200276899
 30
0.0
 11
1.686303768914828
 21
4.028477439263687
 31
0.0
 12
1.56997400037397
 22
3.887880906762952
 32
0.0
 13
1.56997400037397
 23
3.887880906762952
 33
0.0
  0
MTEXT
  5
3E5
330
3A0
100
AcDbEntity
  8
IMAGE
 62
     0
100
AcDbMText
 10
2.181325793349305
 20
4.940735112765497
 30
0.0
 40
0.125
 41
0.0
 71
     5
 72
     1
  1
\A1;16 FEET 
  7
SIMPLEX
 11
0.5021460168868585
 21
0.864782850040785
 31
0.0
 73
     1
 44
1.0
  0
POINT
  5
3E6
330
3A0
100
AcDbEntity
  8
Defpoints
 62
     0
100
AcDbPoint
 10
2.927279507434339
 20
5.868555324824452
 30
0.0
  0
POINT
  5
3E7
330
3A0
100
AcDbEntity
  8
Defpoints
 62
     0
100
AcDbPoint
 10
1.724931633045893
 20
3.797902991464616
 30
0.0
  0
POINT
  5
3E8
330
3A0
100
AcDbEntity
  8
Defpoints
 62
     0
100
AcDbPoint
 10
1.56997400037397
 20
3.887880906762952
 30
0.0
  0
ENDBLK
  5
3AC
330
3A0
100
AcDbEntity
  8
0
100
AcDbBlockEnd
  0
BLOCK
  5
3B8
330
3AD
100
AcDbEntity
  8
0
100
AcDbBlockBegin
  2
*D5
 70
     1
 10
0.0
 20
0.0
 30
0.0
  3
*D5
  1

  0
LINE
  5
3D5
330
3AD
100
AcDbEntity
  8
IMAGE
 62
     0
370
    -2
100
AcDbLine
 10
3.340298546620624
 20
5.882589880831241
 30
0.0
 11
3.634772417191471
 21
6.052648091829995
 31
0.0
  0
LINE
  5
3D6
330
3AD
100
AcDbEntity
  8
IMAGE
 62
     0
370
    -2
100
AcDbLine
 10
4.537974723930221
 20
3.808686259526906
 30
0.0
 11
4.83244859450107
 21
3.978744470525661
 31
0.0
  0
LINE
  5
3D7
330
3AD
100
AcDbEntity
  8
IMAGE
 62
     0
370
    -2
100
AcDbLine
 10
3.568915174190211
 20
5.806756197810951
 30
0.0
 11
3.81482872605898
 21
5.380930740637634
 31
0.0
  0
LINE
  5
3D8
330
3AD
100
AcDbEntity
  8
IMAGE
 62
     0
370
    -2
100
AcDbLine
 10
4.586556700482026
 20
4.044601713526922
 30
0.0
 11
4.276941477778571
 21
4.580733385627183
 31
0.0
  0
SOLID
  5
3D9
330
3AD
100
AcDbEntity
  8
IMAGE
 62
     0
100
AcDbTrace
 10
3.594894268941903
 20
5.821759085395767
 30
0.0
 11
3.542936079438519
 21
5.791753310226136
 31
0.0
 12
3.478897848681319
 22
5.962630766321104
 32
0.0
 13
3.478897848681319
 23
5.962630766321104
 33
0.0
  0
SOLID
  5
3DA
330
3AD
100
AcDbEntity
  8
IMAGE
 62
     0
100
AcDbTrace
 10
4.612535795233718
 20
4.059604601111737
 30
0.0
 11
4.560577605730333
 21
4.029598825942106
 31
0.0
 12
4.676574025990918
 22
3.888727145016769
 32
0.0
 13
4.676574025990918
 23
3.888727145016769
 33
0.0
  0
MTEXT
  5
3DB
330
3AD
100
AcDbEntity
  8
IMAGE
 62
     0
100
AcDbMText
 10
4.045885101918775
 20
4.980832063132408
 30
0.0
 40
0.125
 41
0.0
 71
     5
 72
     1
  1
\A1;16 FEET
  7
SIMPLEX
 11
0.5000962528271784
 21
-0.8659698250564018
 31
0.0
 73
     1
 44
1.0
  0
POINT
  5
3DC
330
3AD
100
AcDbEntity
  8
Defpoints
 62
     0
100
AcDbPoint
 10
3.286175432554599
 20
5.851333865029542
 30
0.0
  0
POINT
  5
3DD
330
3AD
100
AcDbEntity
  8
Defpoints
 62
     0
100
AcDbPoint
 10
4.483851609864196
 20
3.777430243725207
 30
0.0
  0
POINT
  5
3DE
330
3AD
100
AcDbEntity
  8
Defpoints
 62
     0
100
AcDbPoint
 10
4.676574025990918
 20
3.888727145016769
 30
0.0
  0
ENDBLK
  5
3B9
330
3AD
100
AcDbEntity
  8
0
100
AcDbBlockEnd
  0
BLOCK
  5
3C5
330
3BA
100
AcDbEntity
  8
0
100
AcDbBlockBegin
  2
*D6
 70
     1
 10
0.0
 20
0.0
 30
0.0
  3
*D6
  1

  0
LINE
  5
3E9
330
3BA
100
AcDbEntity
  8
IMAGE
 62
     0
370
    -2
100
AcDbLine
 10
1.905959064301193
 20
3.405664280119032
 30
0.0
 11
1.905959064301193
 21
3.118555670827294
 31
0.0
  0
LINE
  5
3EA
330
3BA
100
AcDbEntity
  8
IMAGE
 62
     0
370
    -2
100
AcDbLine
 10
4.301155789041564
 20
3.414306768991268
 30
0.0
 11
4.301155789041564
 21
3.118555670827294
 31
0.0
  0
LINE
  5
3EB
330
3BA
100
AcDbEntity
  8
IMAGE
 62
     0
370
    -2
100
AcDbLine
 10
2.085959064301194
 20
3.298555670827294
 30
0.0
 11
2.641533617147569
 21
3.298555670827294
 31
0.0
  0
LINE
  5
3EC
330
3BA
100
AcDbEntity
  8
IMAGE
 62
     0
370
    -2
100
AcDbLine
 10
4.121155789041564
 20
3.298555670827294
 30
0.0
 11
3.565581236195188
 21
3.298555670827294
 31
0.0
  0
SOLID
  5
3ED
330
3BA
100
AcDbEntity
  8
IMAGE
 62
     0
100
AcDbTrace
 10
2.085959064301194
 20
3.328555670827294
 30
0.0
 11
2.085959064301194
 21
3.268555670827295
 31
0.0
 12
1.905959064301193
 22
3.298555670827294
 32
0.0
 13
1.905959064301193
 23
3.298555670827294
 33
0.0
  0
SOLID
  5
3EE
330
3BA
100
AcDbEntity
  8
IMAGE
 62
     0
100
AcDbTrace
 10
4.121155789041564
 20
3.328555670827294
 30
0.0
 11
4.121155789041564
 21
3.268555670827295
 31
0.0
 12
4.301155789041564
 22
3.298555670827294
 32
0.0
 13
4.301155789041564
 23
3.298555670827294
 33
0.0
  0
MTEXT
  5
3EF
330
3BA
100
AcDbEntity
  8
IMAGE
 62
     0
100
AcDbMText
 10
3.103557426671379
 20
3.298555670827294
 30
0.0
 40
0.125
 41
0.0
 71
     5
 72
     1
  1
\A1;16 FEET
  7
SIMPLEX
 73
     1
 44
1.0
  0
POINT
  5
3F0
330
3BA
100
AcDbEntity
  8
Defpoints
 62
     0
100
AcDbPoint
 10
1.905959064301193
 20
3.468164280119032
 30
0.0
  0
POINT
  5
3F1
330
3BA
100
AcDbEntity
  8
Defpoints
 62
     0
100
AcDbPoint
 10
4.301155789041564
 20
3.476806768991268
 30
0.0
  0
POINT
  5
3F2
330
3BA
100
AcDbEntity
  8
Defpoints
 62
     0
100
AcDbPoint
 10
4.301155789041564
 20
3.298555670827294
 30
0.0
  0
ENDBLK
  5
3C6
330
3BA
100
AcDbEntity
  8
0
100
AcDbBlockEnd
  0
ENDSEC
  0
SECTION
  2
ENTITIES
  0
LWPOLYLINE
  5
25
330
2
100
AcDbEntity
  8
IMAGE
100
AcDbPolyline
 90
        4
 70
     1
 43
0.0
 10
0.0
 20
0.0
 10
16.49
 20
0.0
 10
16.49
 20
10.44
 10
0.0
 20
10.44
  0
MTEXT
  5
26
330
2
100
AcDbEntity
  8
TEXT_BUBBLES
100
AcDbMText
 10
10.39964696431945
 20
7.763963758308168
 30
0.0
 40
0.125
 41
4.429999999999999
 71
     1
 72
     5
  3
SITECONTROL FIELD SATELLITE, WEATHER STATION OR LDI/SDI/TWI ASSEMBLY\P\PSOLID BARE COPPER WIRE (#10 AWG) FROM GROUNDING ROD TO SATELLITE OR LDI/SDI/TWI ASSEMBLY. MAKE WIRE AS SHORT AND STRAIGHT AS POSSIBLE\P\PCOVER GROUNDING ROD WITH #10 ROUND VALVE 
  3
BOX AS SHOWN\P\P5/8-INCH X 8 FT COPPER CLAD GROUNDING ROD OR GROUNDING PLATE. INSTALL RODS IN SOIL IN A TRIAGULAR PATTERN SPACED A MINIMUM OF 16 FT APART FROM EACH OTHER. GROUNDING GRID TO HAVE A RESISTANCE OF TEN (10) OHMS OR LESS\P\PBARE COPPER WIR
  1
E (#10 AWG MIN.) BETWEEN GROUNDING RODS\P\PGROUND ROD CLAMP OR WELDS\P\PFINISH GRADE
  7
SIMPLEX
 73
     1
 44
1.0
  0
INSERT
  5
29
330
2
100
AcDbEntity
  8
TEXT_BUBBLES
100
AcDbBlockReference
 66
     1
  2
bubble
 10
9.933151573931462
 20
2.757481696764392
 30
0.0
  0
ATTRIB
  5
2A
330
29
100
AcDbEntity
  8
TEXT_BUBBLES
100
AcDbText
 10
9.873627764407652
 20
2.694981696764392
 30
0.0
 40
0.125
  1
7
  7
ROMANS
 72
     4
 11
9.933151573931462
 21
2.757481696764392
 31
0.0
100
AcDbAttribute
  2
XX
 70
     0
  0
SEQEND
  5
33
330
29
100
AcDbEntity
  8
TEXT_BUBBLES
  0
INSERT
  5
34
330
2
100
AcDbEntity
  8
TEXT_BUBBLES
100
AcDbBlockReference
 66
     1
  2
bubble
 10
9.933151573931462
 20
3.166737179280965
 30
0.0
  0
ATTRIB
  5
35
330
34
100
AcDbEntity
  8
TEXT_BUBBLES
100
AcDbText
 10
9.870651573931462
 20
3.104237179280965
 30
0.0
 40
0.125
  1
6
  7
ROMANS
 72
     4
 11
9.933151573931462
 21
3.166737179280965
 31
0.0
100
AcDbAttribute
  2
XX
 70
     0
  0
SEQEND
  5
36
330
34
100
AcDbEntity
  8
TEXT_BUBBLES
  0
INSERT
  5
37
330
2
100
AcDbEntity
  8
TEXT_BUBBLES
100
AcDbBlockReference
 66
     1
  2
bubble
 10
9.933151573931462
 20
3.797006744578171
 30
0.0
  0
ATTRIB
  5
38
330
37
100
AcDbEntity
  8
TEXT_BUBBLES
100
AcDbText
 10
9.873627764407652
 20
3.734506744578171
 30
0.0
 40
0.125
  1
5
  7
ROMANS
 72
     4
 11
9.933151573931462
 21
3.797006744578171
 31
0.0
100
AcDbAttribute
  2
XX
 70
     0
  0
SEQEND
  5
39
330
37
100
AcDbEntity
  8
TEXT_BUBBLES
  0
INSERT
  5
3A
330
2
100
AcDbEntity
  8
TEXT_BUBBLES
100
AcDbBlockReference
 66
     1
  2
bubble
 10
9.933151573931462
 20
5.944306103487011
 30
0.0
  0
ATTRIB
  5
3B
330
3A
100
AcDbEntity
  8
TEXT_BUBBLES
100
AcDbText
 10
9.873627764407652
 20
5.881806103487011
 30
0.0
 40
0.125
  1
3
  7
ROMANS
 72
     4
 11
9.933151573931462
 21
5.944306103487011
 31
0.0
100
AcDbAttribute
  2
XX
 70
     0
  0
SEQEND
  5
3C
330
3A
100
AcDbEntity
  8
TEXT_BUBBLES
  0
INSERT
  5
3D
330
2
100
AcDbEntity
  8
TEXT_BUBBLES
100
AcDbBlockReference
 66
     1
  2
bubble
 10
9.933151573931462
 20
5.280354032460443
 30
0.0
  0
ATTRIB
  5
3E
330
3D
100
AcDbEntity
  8
TEXT_BUBBLES
100
AcDbText
 10
9.870651573931462
 20
5.217854032460443
 30
0.0
 40
0.125
  1
4
  7
ROMANS
 72
     4
 11
9.933151573931462
 21
5.280354032460443
 31
0.0
100
AcDbAttribute
  2
XX
 70
     0
  0
SEQEND
  5
3F
330
3D
100
AcDbEntity
  8
TEXT_BUBBLES
  0
INSERT
  5
40
330
2
100
AcDbEntity
  8
TEXT_BUBBLES
100
AcDbBlockReference
 66
     1
  2
bubble
 10
9.933151573931462
 20
7.689446915856075
 30
0.0
  0
ATTRIB
  5
41
330
40
100
AcDbEntity
  8
TEXT_BUBBLES
100
AcDbText
 10
9.882556335836225
 20
7.626946915856075
 30
0.0
 40
0.125
  1
1
  7
ROMANS
 72
     4
 11
9.933151573931462
 21
7.689446915856075
 31
0.0
100
AcDbAttribute
  2
XX
 70
     0
  0
SEQEND
  5
42
330
40
100
AcDbEntity
  8
TEXT_BUBBLES
  0
INSERT
  5
43
330
2
100
AcDbEntity
  8
TEXT_BUBBLES
100
AcDbBlockReference
 66
     1
  2
bubble
 10
9.933151573931462
 20
7.010723352560864
 30
0.0
  0
ATTRIB
  5
44
330
43
100
AcDbEntity
  8
TEXT_BUBBLES
100
AcDbText
 10
9.873627764407652
 20
6.948223352560864
 30
0.0
 40
0.125
  1
2
  7
ROMANS
 72
     4
 11
9.933151573931462
 21
7.010723352560864
 31
0.0
100
AcDbAttribute
  2
XX
 70
     0
  0
SEQEND
  5
45
330
43
100
AcDbEntity
  8
TEXT_BUBBLES
  0
INSERT
  5
46
330
2
100
AcDbEntity
  8
TEXT_BUBBLES
100
AcDbBlockReference
 66
     1
  2
bubble
 10
8.154536765006392
 20
6.824328661822873
 30
0.0
  0
ATTRIB
  5
47
330
46
100
AcDbEntity
  8
TEXT_BUBBLES
100
AcDbText
 10
8.092036765006392
 20
6.761828661822873
 30
0.0
 40
0.125
  1
4
  7
ROMANS
 72
     4
 11
8.154536765006392
 21
6.824328661822873
 31
0.0
100
AcDbAttribute
  2
XX
 70
     0
  0
SEQEND
  5
48
330
46
100
AcDbEntity
  8
TEXT_BUBBLES
  0
INSERT
  5
49
330
2
100
AcDbEntity
  8
TEXT_BUBBLES
100
AcDbBlockReference
 66
     1
  2
bubble
 10
8.142679308886792
 20
7.280589649971245
 30
0.0
  0
ATTRIB
  5
4A
330
49
100
AcDbEntity
  8
TEXT_BUBBLES
100
AcDbText
 10
8.080179308886792
 20
7.218089649971245
 30
0.0
 40
0.125
  1
6
  7
ROMANS
 72
     4
 11
8.142679308886792
 21
7.280589649971245
 31
0.0
100
AcDbAttribute
  2
XX
 70
     0
  0
SEQEND
  5
4B
330
49
100
AcDbEntity
  8
TEXT_BUBBLES
  0
HATCH
  5
4C
330
2
100
AcDbEntity
  8
IMAGE
100
AcDbHatch
 10
0.0
 20
0.0
 30
0.0
210
0.0
220
0.0
230
1.0
  2
EARTH
 70
     0
 71
     0
 91
        1
 92
        1
 93
       11
 72
     1
 10
7.016009438114215
 20
5.725220386930235
 11
7.307632902013263
 21
5.684183516490594
 72
     1
 10
7.307632902013263
 20
5.684183516490594
 11
7.444703164316905
 21
5.450485954062919
 72
     1
 10
7.444703164316905
 20
5.450485954062919
 11
7.214908945083069
 21
5.204700581973921
 72
     1
 10
7.214908945083069
 20
5.204700581973921
 11
6.811761196082702
 21
5.144261558492189
 72
     1
 10
6.811761196082702
 20
5.144261558492189
 11
6.549715170750596
 21
5.422281081403089
 72
     1
 10
6.549715170750596
 20
5.422281081403089
 11
6.690816894418857
 21
5.75671034963365
 72
     1
 10
6.690816894418857
 20
5.75671034963365
 11
6.811087163538445
 21
5.725007848884581
 72
     1
 10
6.811087163538445
 20
5.725007848884581
 11
6.811087163538445
 21
5.419364235668941
 72
     1
 10
6.811087163538445
 20
5.419364235668941
 11
6.913548300826331
 21
5.21939198976519
 72
     1
 10
6.913548300826331
 20
5.21939198976519
 11
7.016009438114215
 21
5.419364235668941
 72
     1
 10
7.016009438114215
 20
5.419364235668941
 11
7.016009438114215
 21
5.725220386930235
 97
        0
 75
     0
 76
     1
 52
45.0
 41
0.75
 77
     0
 78
     6
 53
45.0
 43
0.0
 44
0.0
 45
0.0
 46
0.2651650429449553
 79
     2
 49
0.1875
 49
-0.1875
 53
45.0
 43
-0.0497184455521791
 44
0.0497184455521791
 45
0.0
 46
0.2651650429449553
 79
     2
 49
0.1875
 49
-0.1875
 53
45.0
 43
-0.0994368911043583
 44
0.0994368911043583
 45
0.0
 46
0.2651650429449553
 79
     2
 49
0.1875
 49
-0.1875
 53
135.0
 43
-0.0994368911043583
 44
0.1325825214724777
 45
-0.2651650429449553
 46
0.0
 79
     2
 49
0.1875
 49
-0.1875
 53
135.0
 43
-0.0497184455521791
 44
0.1823009670246568
 45
-0.2651650429449553
 46
0.0
 79
     2
 49
0.1875
 49
-0.1875
 53
135.0
 43
0.0
 44
0.2320194125768359
 45
-0.2651650429449553
 46
0.0
 79
     2
 49
0.1875
 49
-0.1875
 98
        1
 10
0.0
 20
0.0
  0
DIMENSION
  5
4E
330
2
100
AcDbEntity
  8
IMAGE
100
AcDbDimension
  2
*D4
 10
1.56997400037397
 20
3.887880906762952
 30
0.0
 11
2.181325793349305
 21
4.940735112765497
 31
0.0
 70
   161
  1
16 FEET 
 71
     5
 42
2.394418822323059
  3
Standard
100
AcDbAlignedDimension
 13
2.927279507434339
 23
5.868555324824451
 33
0.0
 14
1.724931633045893
 24
3.797902991464616
 34
0.0
1001
ACAD
1000
DSTYLE
1002
{
1070
    73
1070
     0
1070
    74
1070
     0
1070
   140
1040
0.125
1070
   340
1005
28
1002
}
  0
DIMENSION
  5
5D
330
2
100
AcDbEntity
  8
IMAGE
100
AcDbDimension
  2
*D5
 10
4.676574025990918
 20
3.888727145016769
 30
0.0
 11
4.045885101918775
 21
4.980832063132408
 31
0.0
 70
   161
  1
16 FEET
 71
     5
 42
2.394891324497661
  3
Standard
100
AcDbAlignedDimension
 13
3.286175432554599
 23
5.851333865029542
 33
0.0
 14
4.483851609864196
 24
3.777430243725207
 34
0.0
1001
ACAD
1000
DSTYLE
1002
{
1070
   340
1005
28
1070
   140
1040
0.125
1070
    73
1070
     0
1070
    77
1070
     0
1070
   280
1070
     0
1070
    74
1070
     0
1002
}
  0
LINE
  5
6B
330
2
100
AcDbEntity
  8
IMAGE
100
AcDbLine
 10
1.908500968012965
 20
3.72667529279353
 30
0.0
 11
3.078783563507875
 21
5.753028908366892
 31
0.0
  0
LINE
  5
6C
330
2
100
AcDbEntity
  8
IMAGE
100
AcDbLine
 10
3.117189984288642
 20
5.752898009572992
 30
0.0
 11
4.287723055363796
 21
3.726707936005232
 31
0.0
  0
DIMENSION
  5
6D
102
{ACAD_XDICTIONARY
360
6E
102
}
102
{ACAD_REACTORS
330
6F
102
}
330
2
100
AcDbEntity
  8
IMAGE
100
AcDbDimension
  2
*D6
 10
4.301155789041564
 20
3.298555670827294
 30
0.0
 11
3.103557426671379
 21
3.298555670827294
 31
0.0
 70
    32
  1
16 FEET
 71
     5
 42
2.39519672474037
  3
Standard
100
AcDbAlignedDimension
 13
1.905959064301193
 23
3.468164280119032
 33
0.0
 14
4.301155789041564
 24
3.476806768991268
 34
0.0
100
AcDbRotatedDimension
1001
ACAD
1000
DSTYLE
1002
{
1070
    73
1070
     0
1070
    74
1070
     0
1070
   140
1040
0.125
1070
   340
1005
28
1002
}
  0
LINE
  5
7F
330
2
100
AcDbEntity
  8
IMAGE
100
AcDbLine
 10
4.268117732535889
 20
3.692783700858296
 30
0.0
 11
1.928010966463325
 21
3.692798729264306
 31
0.0
  0
INSERT
  5
80
330
2
100
AcDbEntity
  8
TEXT_BUBBLES
100
AcDbBlockReference
 66
     1
  2
bubble
 10
1.28254983670983
 20
3.508845955851611
 30
0.0
  0
ATTRIB
  5
81
330
80
100
AcDbEntity
  8
TEXT_BUBBLES
100
AcDbText
 10
1.22004983670983
 20
3.446345955851611
 30
0.0
 40
0.125
  1
4
  7
ROMANS
 72
     4
 11
1.28254983670983
 21
3.508845955851611
 31
0.0
100
AcDbAttribute
  2
XX
 70
     0
  0
SEQEND
  5
82
330
80
100
AcDbEntity
  8
TEXT_BUBBLES
  0
LINE
  5
83
102
{ACAD_REACTORS
330
6F
102
}
330
2
100
AcDbEntity
  8
IMAGE
100
AcDbLine
 10
1.905959064301193
 20
3.468164280119032
 30
0.0
 11
1.905959064301193
 21
3.200246172319386
 31
0.0
  0
CIRCLE
  5
84
330
2
100
AcDbEntity
  8
IMAGE
100
AcDbCircle
 10
1.89918729608735
 20
3.69875509002381
 30
0.0
 40
0.1930489449192528
  0
INSERT
  5
87
330
2
100
AcDbEntity
  8
IMAGE
100
AcDbBlockReference
  2
_X7
 10
0.8826989264979507
 20
-2.445096348806583
 30
0.0
1001
ACAD
1000
HATCH
1002
}
1070
    16
1000
ANSI31
1040
0.0010000000474975
1040
0.0
1002
{
  0
CIRCLE
  5
262
330
2
100
AcDbEntity
  8
IMAGE
100
AcDbCircle
 10
1.89918729608735
 20
3.69875509002381
 30
0.0
 40
0.0294326724481312
  0
SOLID
  5
263
330
2
100
AcDbEntity
  8
IMAGE
  6
Continuous
100
AcDbTrace
 10
5.438159733784615
 20
4.786564720372391
 30
0.0
 11
8.028736466980557
 21
4.786564720372391
 31
0.0
 12
5.438159733784615
 22
4.771564720372391
 32
0.0
 13
8.028736466980557
 23
4.771564720372391
 33
0.0
  0
TEXT
  5
264
330
2
100
AcDbEntity
  8
IMAGE
100
AcDbText
 10
5.514353171386808
 20
4.855219394125526
 30
0.0
 40
0.1300000011920929
  1
GROUND ROD ASSEMBLY
 41
0.9905824537210962
  7
SIMPLEX
 72
     5
 11
7.905902260158114
 21
4.855219394125526
 31
0.0
100
AcDbText
  0
INSERT
  5
265
330
2
100
AcDbEntity
  8
TEXT_BUBBLES
100
AcDbBlockReference
 66
     1
  2
bubble
 10
5.08725617543378
 20
3.421274249223844
 30
0.0
  0
ATTRIB
  5
266
330
265
100
AcDbEntity
  8
TEXT_BUBBLES
100
AcDbText
 10
5.027732365909971
 20
3.358774249223844
 30
0.0
 40
0.125
  1
3
  7
ROMANS
 72
     4
 11
5.08725617543378
 21
3.421274249223844
 31
0.0
100
AcDbAttribute
  2
XX
 70
     0
  0
SEQEND
  5
267
330
265
100
AcDbEntity
  8
TEXT_BUBBLES
  0
LINE
  5
268
102
{ACAD_REACTORS
330
6F
102
}
330
2
100
AcDbEntity
  8
IMAGE
100
AcDbLine
 10
4.301155789041564
 20
3.476806768991268
 30
0.0
 11
4.301155789041564
 21
3.200246172319386
 31
0.0
  0
INSERT
  5
26C
330
2
100
AcDbEntity
  8
TEXT_BUBBLES
100
AcDbBlockReference
 66
     1
  2
bubble
 10
3.063919722978106
 20
4.462819588048605
 30
0.0
  0
ATTRIB
  5
26D
330
26C
100
AcDbEntity
  8
TEXT_BUBBLES
100
AcDbText
 10
3.004395913454296
 20
4.400319588048605
 30
0.0
 40
0.125
  1
5
  7
ROMANS
 72
     4
 11
3.063919722978106
 21
4.462819588048605
 31
0.0
100
AcDbAttribute
  2
XX
 70
     0
  0
SEQEND
  5
26E
330
26C
100
AcDbEntity
  8
TEXT_BUBBLES
  0
CIRCLE
  5
271
330
2
100
AcDbEntity
  8
IMAGE
100
AcDbCircle
 10
4.296938293232626
 20
3.698755090023808
 30
0.0
 40
0.1930489449192527
  0
CIRCLE
  5
273
330
2
100
AcDbEntity
  8
IMAGE
100
AcDbCircle
 10
4.296938293232626
 20
3.698755090023808
 30
0.0
 40
0.0294326724481313
  0
INSERT
  5
274
330
2
100
AcDbEntity
  8
IMAGE
100
AcDbBlockReference
  2
_X7
 10
3.280449923643225
 20
-2.445096348806584
 30
0.0
1001
ACAD
1000
HATCH
1002
}
1070
    16
1000
ANSI31
1040
0.0010000000474975
1040
0.0
1002
{
  0
CIRCLE
  5
275
330
2
100
AcDbEntity
  8
IMAGE
100
AcDbCircle
 10
4.296938293232626
 20
3.698755090023808
 30
0.0
 40
0.0294326724481313
  0
INSERT
  5
277
330
2
100
AcDbEntity
  8
TEXT_BUBBLES
100
AcDbBlockReference
 66
     1
  2
bubble
 10
2.454088720590705
 20
6.507542788124822
 30
0.0
  0
ATTRIB
  5
278
330
277
100
AcDbEntity
  8
TEXT_BUBBLES
100
AcDbText
 10
2.394564911066896
 20
6.445042788124822
 30
0.0
 40
0.125
  1
2
  7
ROMANS
 72
     4
 11
2.454088720590705
 21
6.507542788124822
 31
0.0
100
AcDbAttribute
  2
XX
 70
     0
  0
SEQEND
  5
279
330
277
100
AcDbEntity
  8
TEXT_BUBBLES
  0
HATCH
  5
27B
330
2
100
AcDbEntity
  8
IMAGE
100
AcDbHatch
 10
0.0
 20
0.0
 30
0.0
210
0.0
220
0.0
230
1.0
  2
EARTH
 70
     0
 71
     0
 91
        2
 92
        1
 93
        7
 72
     1
 10
5.525858962279679
 20
6.073757787669217
 11
6.811087163538447
 21
6.073757787669217
 72
     1
 10
6.811087163538447
 20
6.073757787669217
 11
6.811087163538447
 21
5.910826658760747
 72
     1
 10
6.811087163538447
 20
5.910826658760747
 11
6.249816148539369
 21
5.800551650606722
 72
     1
 10
6.249816148539369
 20
5.800551650606722
 11
5.810921032362079
 21
5.808384772109477
 72
     1
 10
5.810921032362079
 20
5.808384772109477
 11
5.630660539589041
 21
5.886715962312137
 72
     1
 10
5.630660539589041
 20
5.886715962312137
 11
5.487984466450559
 21
5.910975748720371
 72
     1
 10
5.487984466450559
 20
5.910975748720371
 11
5.525858962279679
 21
6.073757787669217
 97
        0
 92
        1
 93
        6
 72
     1
 10
7.015777279954894
 20
6.073757787669217
 11
7.740270510135269
 21
6.073757787669217
 72
     1
 10
7.740270510135269
 20
6.073757787669217
 11
7.774562316192048
 21
5.890110322636506
 72
     1
 10
7.774562316192048
 20
5.890110322636506
 11
7.582176330876237
 21
5.839717258120496
 72
     1
 10
7.582176330876237
 20
5.839717258120496
 11
7.260842372251995
 21
5.878882840809382
 72
     1
 10
7.260842372251995
 20
5.878882840809382
 11
7.015095080422256
 21
5.910826658760748
 72
     1
 10
7.015095080422256
 20
5.910826658760748
 11
7.015777279954894
 21
6.073757787669217
 97
        0
 75
     0
 76
     1
 52
45.0
 41
0.75
 77
     0
 78
     6
 53
45.0
 43
0.0
 44
0.0
 45
0.0
 46
0.2651650429449553
 79
     2
 49
0.1875
 49
-0.1875
 53
45.0
 43
-0.0497184455521791
 44
0.0497184455521791
 45
0.0
 46
0.2651650429449553
 79
     2
 49
0.1875
 49
-0.1875
 53
45.0
 43
-0.0994368911043583
 44
0.0994368911043583
 45
0.0
 46
0.2651650429449553
 79
     2
 49
0.1875
 49
-0.1875
 53
135.0
 43
-0.0994368911043583
 44
0.1325825214724777
 45
-0.2651650429449553
 46
0.0
 79
     2
 49
0.1875
 49
-0.1875
 53
135.0
 43
-0.0497184455521791
 44
0.1823009670246568
 45
-0.2651650429449553
 46
0.0
 79
     2
 49
0.1875
 49
-0.1875
 53
135.0
 43
0.0
 44
0.2320194125768359
 45
-0.2651650429449553
 46
0.0
 79
     2
 49
0.1875
 49
-0.1875
 98
        1
 10
0.0
 20
0.0
  0
LINE
  5
27D
330
2
100
AcDbEntity
  8
IMAGE
100
AcDbLine
 10
5.70205086802372
 20
8.020537025716549
 30
0.0
 11
5.620530848537741
 21
7.682215381380583
 31
0.0
  0
LINE
  5
27E
330
2
100
AcDbEntity
  8
IMAGE
100
AcDbLine
 10
5.752528020433529
 20
8.027462436552253
 30
0.0
 11
5.642714783975035
 21
7.682215381380583
 31
0.0
  0
LINE
  5
27F
330
2
100
AcDbEntity
  8
IMAGE
100
AcDbLine
 10
5.300046029676632
 20
6.708719384240634
 30
0.0
 11
5.796153635386055
 21
6.708719384240634
 31
0.0
  0
LINE
  5
280
102
{ACAD_REACTORS
330
2FC
102
}
330
2
100
AcDbEntity
  8
IMAGE
100
AcDbLine
 10
7.594800576523981
 20
7.682215381380583
 30
0.0
 11
5.664199533506916
 21
7.682215381380583
 31
0.0
  0
SOLID
  5
281
330
2
100
AcDbEntity
  8
IMAGE
  6
Continuous
100
AcDbTrace
 10
5.452735484923184
 20
7.189923473160764
 30
0.0
 11
6.598926760379611
 21
7.189923473160764
 31
0.0
 12
5.452735484923184
 22
7.179423473160763
 32
0.0
 13
6.598926760379611
 23
7.179423473160763
 33
0.0
  0
LINE
  5
282
330
2
100
AcDbEntity
  8
IMAGE
100
AcDbLine
 10
5.525858962279679
 20
6.073757787669217
 30
0.0
 11
6.811118166992477
 21
6.073757787669217
 31
0.0
  0
SOLID
  5
283
330
2
100
AcDbEntity
  8
IMAGE
  6
Continuous
100
AcDbTrace
 10
6.589739501892339
 20
6.698219384240633
 30
0.0
 11
5.300046029676632
 21
6.698219384240633
 31
0.0
 12
6.589739501892339
 22
6.708719384240634
 32
0.0
 13
5.300046029676632
 23
6.708719384240634
 33
0.0
  0
LINE
  5
284
330
2
100
AcDbEntity
  8
IMAGE
100
AcDbLine
 10
5.3585945152789
 20
5.884897603983022
 30
0.0
 11
5.678165230647936
 21
7.764350144385609
 31
0.0
  0
LINE
  5
285
330
2
100
AcDbEntity
  8
IMAGE
100
AcDbLine
 10
5.803121162201403
 20
7.764350114634194
 30
0.0
 11
5.460838974663301
 21
5.751328334417323
 31
0.0
  0
INSERT
  5
287
330
2
100
AcDbEntity
  8
TEXT_BUBBLES
100
AcDbBlockReference
 66
     1
  2
bubble
 10
3.8023748530722
 20
6.629208917307622
 30
0.0
  0
ATTRIB
  5
288
330
287
100
AcDbEntity
  8
TEXT_BUBBLES
100
AcDbText
 10
3.751779614976962
 20
6.566708917307622
 30
0.0
 40
0.125
  1
1
  7
ROMANS
 72
     4
 11
3.8023748530722
 21
6.629208917307622
 31
0.0
100
AcDbAttribute
  2
XX
 70
     0
  0
SEQEND
  5
289
330
287
100
AcDbEntity
  8
TEXT_BUBBLES
  0
LWPOLYLINE
  5
28A
330
2
100
AcDbEntity
  8
IMAGE
100
AcDbPolyline
 90
        5
 70
     1
 43
0.0
 10
3.396601894180872
 20
6.768319187856032
 10
2.678525405014458
 20
6.768319187856032
 10
2.678525405014458
 20
6.050242698689618
 10
3.396601894180872
 20
6.050242698689618
 10
3.396601894180872
 20
6.768319187856032
  0
LINE
  5
28B
330
2
100
AcDbEntity
  8
IMAGE
100
AcDbLine
 10
3.096617837490422
 20
5.806474308014027
 30
0.0
 11
3.096617837490422
 21
6.139096791537466
 31
0.0
  0
CIRCLE
  5
28C
330
2
100
AcDbEntity
  8
IMAGE
100
AcDbCircle
 10
3.098062794659987
 20
5.775268365501088
 30
0.0
 40
0.1930489449192529
  0
CIRCLE
  5
28D
330
2
100
AcDbEntity
  8
IMAGE
100
AcDbCircle
 10
3.098062794659987
 20
5.775268365501088
 30
0.0
 40
0.0294326724481311
  0
INSERT
  5
28E
330
2
100
AcDbEntity
  8
IMAGE
100
AcDbBlockReference
  2
_X7
 10
2.081574425070587
 20
-0.3685830733293045
 30
0.0
1001
ACAD
1000
HATCH
1002
}
1070
    16
1000
ANSI31
1040
0.0010000000474975
1040
0.0
1002
{
  0
CIRCLE
  5
28F
330
2
100
AcDbEntity
  8
IMAGE
100
AcDbCircle
 10
3.098062794659987
 20
5.775268365501088
 30
0.0
 40
0.0294326724481311
  0
ARC
  5
290
330
2
100
AcDbEntity
  8
IMAGE
100
AcDbCircle
 10
3.217271317576497
 20
6.239096791537467
 30
0.0
 40
0.0499999999999998
100
AcDbArc
 50
270.0
 51
0.0
  0
LWPOLYLINE
  5
291
330
2
100
AcDbEntity
  8
IMAGE
100
AcDbPolyline
 90
        5
 70
     1
 43
0.0
 10
3.342971569687898
 20
6.714688863363057
 10
2.732155729507433
 20
6.714688863363057
 10
2.732155729507433
 20
6.103873023182594
 10
3.342971569687898
 20
6.103873023182592
 10
3.342971569687898
 20
6.714688863363057
  0
LWPOLYLINE
  5
292
330
2
100
AcDbEntity
  8
IMAGE
100
AcDbPolyline
 90
        5
 70
     1
 43
0.0
 10
3.356379154483499
 20
6.728096448158658
 10
2.718748144711832
 20
6.728096448158658
 10
2.718748144711832
 20
6.090465438386993
 10
3.356379154483499
 20
6.090465438386993
 10
3.356379154483499
 20
6.728096448158658
  0
LINE
  5
294
330
2
100
AcDbEntity
  8
IMAGE
100
AcDbLine
 10
3.146617837490421
 20
6.189096791537466
 30
0.0
 11
3.217271317576497
 21
6.189096791537466
 31
0.0
  0
ARC
  5
295
330
2
100
AcDbEntity
  8
IMAGE
100
AcDbCircle
 10
3.146617837490421
 20
6.139096791537466
 30
0.0
 40
0.0499999999999998
100
AcDbArc
 50
90.0
 51
180.0
  0
LINE
  5
297
330
2
100
AcDbEntity
  8
IMAGE
100
AcDbLine
 10
3.267271317576498
 20
6.239096791537467
 30
0.0
 11
3.267271317576498
 21
6.451861623039254
 31
0.0
  0
ARC
  5
299
330
2
100
AcDbEntity
  8
IMAGE
100
AcDbCircle
 10
3.253943727654024
 20
6.447306973883189
 30
0.0
 40
0.0140843701341766
100
AcDbArc
 50
18.86765242039117
 51
181.7515704120555
  0
ARC
  5
29A
330
2
100
AcDbEntity
  8
IMAGE
100
AcDbCircle
 10
3.280602230821467
 20
6.452384863974557
 30
0.0
 40
0.0133411779472913
100
AcDbArc
 50
182.2477166925307
 51
357.0609185946822
  0
LINE
  5
29B
330
2
100
AcDbEntity
  8
IMAGE
100
AcDbLine
 10
5.358594326574078
 20
5.884897636069245
 30
0.0
 11
5.06120343503381
 21
5.884897636069245
 31
0.0
  0
LINE
  5
29C
330
2
100
AcDbEntity
  8
IMAGE
100
AcDbLine
 10
5.06120343503381
 20
5.751328334417323
 30
0.0
 11
5.460840206679129
 21
5.751328334417323
 31
0.0
  0
LINE
  5
29D
330
2
100
AcDbEntity
  8
IMAGE
100
AcDbLine
 10
5.06120343503381
 20
5.884897636069245
 30
0.0
 11
5.06120343503381
 21
5.752481109578702
 31
0.0
  0
INSERT
  5
2A0
330
2
100
AcDbEntity
  8
TEXT_BUBBLES
100
AcDbBlockReference
 66
     1
  2
bubble
 10
4.961783645141945
 20
6.983619641301899
 30
0.0
  0
ATTRIB
  5
2A1
330
2A0
100
AcDbEntity
  8
TEXT_BUBBLES
100
AcDbText
 10
4.902259835618136
 20
6.921119641301899
 30
0.0
 40
0.125
  1
5
  7
ROMANS
 72
     4
 11
4.961783645141945
 21
6.983619641301899
 31
0.0
100
AcDbAttribute
  2
XX
 70
     0
  0
SEQEND
  5
2A2
330
2A0
100
AcDbEntity
  8
TEXT_BUBBLES
  0
LWPOLYLINE
  5
2A3
330
2
100
AcDbEntity
  8
IMAGE
  6
Continuous
100
AcDbPolyline
 90
       25
 70
     1
 43
0.0
 10
5.317311301367093
 20
7.446549624345253
 10
5.30646696315794
 20
7.417475469386804
 10
5.300756941993743
 20
7.387427720292555
 10
5.300188743453249
 20
7.356847518891235
 10
5.304778598188529
 20
7.326608391905892
 10
5.314395396508265
 20
7.297574123232406
 10
5.328764433540104
 20
7.270574079860141
 10
5.347475256204718
 20
7.246379520915205
 10
5.369993387851897
 20
7.225681566561041
 10
5.395675595643218
 20
7.209071456077063
 10
5.423788264566866
 20
7.197023659045404
 10
5.453961295977226
 20
7.189778361725638
 10
5.451509673869141
 20
7.179568584595889
 10
5.420470756962082
 20
7.187021802617527
 10
5.390721082004516
 20
7.199771145151316
 10
5.363543394391161
 20
7.217348465513524
 10
5.339714027674871
 20
7.239251665668417
 10
5.319913670264028
 20
7.264855078361408
 10
5.304707921485373
 20
7.293427339371085
 10
5.294531135178758
 20
7.324152279006407
 10
5.289674012333257
 20
7.356152236081198
 10
5.290275297182338
 20
7.388513128399782
 10
5.296317813959991
 20
7.42031056361265
 10
5.307473355741927
 20
7.450219069245545
 10
5.317311301367093
 20
7.446549624345253
1001
TCAD
1000
TCW25Brush
1002
}
1000
Solid
1071
       -5
1070
     0
1002
{
  0
INSERT
  5
2A8
330
2
100
AcDbEntity
  8
TEXT_BUBBLES
100
AcDbBlockReference
 66
     1
  2
bubble
 10
4.864430946834516
 20
8.117383366203306
 30
0.0
  0
ATTRIB
  5
2A9
330
2A8
100
AcDbEntity
  8
TEXT_BUBBLES
100
AcDbText
 10
4.804907137310706
 20
8.054883366203306
 30
0.0
 40
0.125
  1
7
  7
ROMANS
 72
     4
 11
4.864430946834516
 21
8.117383366203306
 31
0.0
100
AcDbAttribute
  2
XX
 70
     0
  0
SEQEND
  5
2AA
330
2A8
100
AcDbEntity
  8
TEXT_BUBBLES
  0
LINE
  5
2AB
330
2
100
AcDbEntity
  8
IMAGE
100
AcDbLine
 10
5.486930900945784
 20
8.009259637572021
 30
0.0
 11
5.331057457093427
 21
7.682215381380583
 31
0.0
  0
LINE
  5
2AC
330
2
100
AcDbEntity
  8
IMAGE
100
AcDbLine
 10
5.356817424921247
 20
7.997982249427476
 30
0.0
 11
5.330480187856545
 21
7.68221538138059
 31
0.0
  0
LINE
  5
2AD
330
2
100
AcDbEntity
  8
IMAGE
100
AcDbLine
 10
5.325161140958742
 20
7.977721032507798
 30
0.0
 11
5.404022437066435
 21
7.682215381380583
 31
0.0
  0
LINE
  5
2AE
330
2
100
AcDbEntity
  8
IMAGE
100
AcDbLine
 10
5.273084360862315
 20
7.949315516091562
 30
0.0
 11
5.346321494573393
 21
7.682215381380583
 31
0.0
  0
LINE
  5
2AF
330
2
100
AcDbEntity
  8
IMAGE
100
AcDbLine
 10
5.351482253184434
 20
8.020537025716549
 30
0.0
 11
5.269962233698448
 21
7.682215381380583
 31
0.0
  0
LINE
  5
2B0
330
2
100
AcDbEntity
  8
IMAGE
100
AcDbLine
 10
5.664199603663144
 20
7.682215381380583
 30
0.0
 11
5.176925630442953
 21
7.680947664576692
 31
0.0
  0
LINE
  5
2B1
330
2
100
AcDbEntity
  8
IMAGE
100
AcDbLine
 10
5.160849210800863
 20
7.955466214090325
 30
0.0
 11
5.206017143455229
 21
7.682215381380583
 31
0.0
  0
LINE
  5
2B2
330
2
100
AcDbEntity
  8
IMAGE
100
AcDbLine
 10
5.18217144348276
 20
7.975427473138417
 30
0.0
 11
5.252349547214178
 21
7.68221538138059
 31
0.0
  0
LINE
  5
2B3
330
2
100
AcDbEntity
  8
IMAGE
100
AcDbLine
 10
5.188994423532916
 20
7.972986779771755
 30
0.0
 11
5.216254242132089
 21
7.682215381380583
 31
0.0
  0
LINE
  5
2B4
330
2
100
AcDbEntity
  8
IMAGE
100
AcDbLine
 10
5.243943551786808
 20
8.031814413861077
 30
0.0
 11
5.243943551786808
 21
7.682215381380583
 31
0.0
  0
LINE
  5
2B5
330
2
100
AcDbEntity
  8
IMAGE
100
AcDbLine
 10
5.203262937663884
 20
7.996714532623578
 30
0.0
 11
5.176925700599179
 21
7.680947664576692
 31
0.0
  0
LINE
  5
2B6
330
2
100
AcDbEntity
  8
IMAGE
100
AcDbLine
 10
5.287883738114134
 20
7.991923790715912
 30
0.0
 11
5.325653056325768
 21
7.682215381380583
 31
0.0
  0
LINE
  5
2B7
330
2
100
AcDbEntity
  8
IMAGE
100
AcDbLine
 10
5.250308563242308
 20
7.972986779771755
 30
0.0
 11
5.277568381841485
 21
7.682215381380583
 31
0.0
  0
LINE
  5
2B8
330
2
100
AcDbEntity
  8
IMAGE
100
AcDbLine
 10
5.194931337754949
 20
7.98421787235075
 30
0.0
 11
5.297775706666319
 21
7.682215381380583
 31
0.0
  0
LINE
  5
2BA
330
2
100
AcDbEntity
  8
IMAGE
100
AcDbLine
 10
5.360497935639786
 20
7.930317920560291
 30
0.0
 11
5.561066125594082
 21
7.682215381380583
 31
0.0
  0
LINE
  5
2BB
330
2
100
AcDbEntity
  8
IMAGE
100
AcDbLine
 10
5.475904483489516
 20
7.949315516091559
 30
0.0
 11
5.549141617200598
 21
7.682215381380583
 31
0.0
  0
LINE
  5
2BC
330
2
100
AcDbEntity
  8
IMAGE
100
AcDbLine
 10
5.559637547548456
 20
7.997982249427472
 30
0.0
 11
5.533300310483754
 21
7.682215381380586
 31
0.0
  0
LINE
  5
2BD
330
2
100
AcDbEntity
  8
IMAGE
100
AcDbLine
 10
5.527981263585948
 20
7.977721032507794
 30
0.0
 11
5.603729307362582
 21
7.688931615609405
 31
0.0
  0
LINE
  5
2BE
330
2
100
AcDbEntity
  8
IMAGE
100
AcDbLine
 10
5.536374779790088
 20
7.949315516091559
 30
0.0
 11
5.609611913501163
 21
7.682215381380583
 31
0.0
  0
LINE
  5
2BF
330
2
100
AcDbEntity
  8
IMAGE
100
AcDbLine
 10
5.550257191196346
 20
7.991923790715908
 30
0.0
 11
5.588026509407976
 21
7.682215381380583
 31
0.0
  0
LINE
  5
2C0
330
2
100
AcDbEntity
  8
IMAGE
100
AcDbLine
 10
5.397966391042677
 20
7.975427473138413
 30
0.0
 11
5.468144494774096
 21
7.682215381380583
 31
0.0
  0
LINE
  5
2C1
330
2
100
AcDbEntity
  8
IMAGE
100
AcDbLine
 10
5.428647690004074
 20
7.949315516091555
 30
0.0
 11
5.501884823715156
 21
7.682215381380583
 31
0.0
  0
LINE
  5
2C2
330
2
100
AcDbEntity
  8
IMAGE
100
AcDbLine
 10
5.482404993218013
 20
8.031814413861074
 30
0.0
 11
5.482404993218013
 21
7.682215381380583
 31
0.0
  0
LINE
  5
2C3
330
2
100
AcDbEntity
  8
IMAGE
100
AcDbLine
 10
5.507233970714574
 20
8.031814413861074
 30
0.0
 11
5.507233970714574
 21
7.682215381380583
 31
0.0
  0
LINE
  5
2C4
330
2
100
AcDbEntity
  8
IMAGE
100
AcDbLine
 10
5.399081450444944
 20
7.991923790715908
 30
0.0
 11
5.436850768656571
 21
7.682215381380583
 31
0.0
  0
LINE
  5
2C5
330
2
100
AcDbEntity
  8
IMAGE
100
AcDbLine
 10
5.446763674414013
 20
8.031814413861074
 30
0.0
 11
5.446763674414013
 21
7.682215381380583
 31
0.0
  0
LINE
  5
2C6
330
2
100
AcDbEntity
  8
IMAGE
100
AcDbLine
 10
5.387601892587449
 20
7.968252527035712
 30
0.0
 11
5.360544324755212
 21
7.682215381380583
 31
0.0
  0
LINE
  5
2C7
330
2
100
AcDbEntity
  8
IMAGE
100
AcDbLine
 10
5.396036258383768
 20
8.031814413861077
 30
0.0
 11
5.396036258383768
 21
7.682215381380583
 31
0.0
  0
LINE
  5
2C8
330
2
100
AcDbEntity
  8
IMAGE
100
AcDbLine
 10
5.658409711465976
 20
8.031814413861074
 30
0.0
 11
5.658409711465976
 21
7.682215381380583
 31
0.0
  0
LINE
  5
2C9
330
2
100
AcDbEntity
  8
IMAGE
100
AcDbLine
 10
5.658710084728076
 20
7.968252527035712
 30
0.0
 11
5.631652516895835
 21
7.682215381380583
 31
0.0
  0
LINE
  5
2CA
330
2
100
AcDbEntity
  8
IMAGE
100
AcDbLine
 10
5.620107843849011
 20
7.997982249427472
 30
0.0
 11
5.593770606784316
 21
7.682215381380586
 31
0.0
  0
LINE
  5
2CB
330
2
100
AcDbEntity
  8
IMAGE
100
AcDbLine
 10
5.588451559886509
 20
7.977721032507794
 30
0.0
 11
5.664199603663144
 21
7.682215381380583
 31
0.0
  0
LINE
  5
2CC
330
2
100
AcDbEntity
  8
IMAGE
100
AcDbLine
 10
7.015095080422256
 20
6.523218040261987
 30
0.0
 11
7.015095080422256
 21
6.894953033514466
 31
0.0
  0
LINE
  5
2CD
330
2
100
AcDbEntity
  8
IMAGE
100
AcDbLine
 10
6.811087163538447
 20
6.894953033514466
 30
0.0
 11
6.811087163538447
 21
6.523218040261987
 31
0.0
  0
LINE
  5
2CE
330
2
100
AcDbEntity
  8
IMAGE
100
AcDbLine
 10
7.580834949539189
 20
7.764349691369009
 30
0.0
 11
7.900405739673251
 21
5.884897636069245
 31
0.0
  0
LINE
  5
2CF
330
2
100
AcDbEntity
  8
IMAGE
100
AcDbLine
 10
7.798159859568199
 20
5.751328334417323
 30
0.0
 11
7.455879423184596
 21
7.764349721120325
 31
0.0
  0
LINE
  5
2D0
330
2
100
AcDbEntity
  8
IMAGE
100
AcDbLine
 10
6.675840619961268
 20
6.523218040261987
 30
0.0
 11
7.152586336658336
 21
6.523218040261987
 31
0.0
  0
LINE
  5
2D1
330
2
100
AcDbEntity
  8
IMAGE
100
AcDbLine
 10
7.152586336658336
 20
6.362536765497889
 30
0.0
 11
6.675840619961268
 21
6.362536765497889
 31
0.0
  0
LINE
  5
2D2
330
2
100
AcDbEntity
  8
IMAGE
100
AcDbLine
 10
7.016009438114215
 20
5.419364235668941
 30
0.0
 11
6.913548300826331
 21
5.21939198976519
 31
0.0
  0
LINE
  5
2D3
330
2
100
AcDbEntity
  8
IMAGE
100
AcDbLine
 10
6.811087163538447
 20
5.419364235668941
 30
0.0
 11
7.016009438114215
 21
5.419364235668941
 31
0.0
  0
ARC
  5
2D4
330
2
100
AcDbEntity
  8
IMAGE
100
AcDbCircle
 10
6.961751712945506
 20
5.918850050258809
 30
0.0
 40
0.0539433931532925
100
AcDbArc
 50
188.2000754341179
 51
351.4462450453797
  0
ARC
  5
2D5
330
2
100
AcDbEntity
  8
IMAGE
100
AcDbCircle
 10
6.961751712945506
 20
5.733031240382642
 30
0.0
 40
0.0539433931532925
100
AcDbArc
 50
188.2000754341179
 51
351.4462450453797
  0
ARC
  5
2D6
330
2
100
AcDbEntity
  8
IMAGE
100
AcDbCircle
 10
6.961751712945506
 20
5.902803267262687
 30
0.0
 40
0.0539433931532925
100
AcDbArc
 50
8.553754954620282
 51
171.799924565882
  0
LINE
  5
2D7
330
2
100
AcDbEntity
  8
IMAGE
100
AcDbLine
 10
6.811087163538447
 20
6.362536765497889
 30
0.0
 11
6.811087163538447
 21
5.910826658760747
 31
0.0
  0
LINE
  5
2D8
330
2
100
AcDbEntity
  8
IMAGE
100
AcDbLine
 10
6.811087163538447
 20
5.725220386930235
 30
0.0
 11
6.811087163538447
 21
5.419364235668941
 31
0.0
  0
LINE
  5
2D9
330
2
100
AcDbEntity
  8
IMAGE
100
AcDbLine
 10
6.811087163538447
 20
5.419364235668941
 30
0.0
 11
6.913548300826331
 21
5.21939198976519
 31
0.0
  0
ARC
  5
2DA
330
2
100
AcDbEntity
  8
IMAGE
100
AcDbCircle
 10
6.859655108155026
 20
5.704649097545601
 30
0.0
 40
0.052662358477015
100
AcDbArc
 50
22.35441212888535
 51
157.2575030615998
  0
ARC
  5
2DB
330
2
100
AcDbEntity
  8
IMAGE
100
AcDbCircle
 10
6.85974200730485
 20
5.730308104909536
 30
0.0
 40
0.048942686234648
100
AcDbArc
 50
186.2170483143422
 51
353.3948668761427
  0
ARC
  5
2DC
330
2
100
AcDbEntity
  8
IMAGE
100
AcDbCircle
 10
6.85974200730485
 20
5.916126914785703
 30
0.0
 40
0.048942686234648
100
AcDbArc
 50
186.2170483143422
 51
353.3948668761427
  0
LINE
  5
2DD
330
2
100
AcDbEntity
  8
IMAGE
100
AcDbLine
 10
6.675840619961268
 20
6.362536765497889
 30
0.0
 11
6.675840619961268
 21
6.523218040261987
 31
0.0
  0
LWPOLYLINE
  5
2DE
330
2
100
AcDbEntity
  8
IMAGE
  6
Continuous
100
AcDbPolyline
 90
       22
 70
     0
 43
0.0
 10
6.802065655753075
 20
6.523218040261987
 10
6.796709960022424
 20
6.553493269464883
 10
6.78780717263559
 20
6.58293380493284
 10
6.774153903846945
 20
6.610494519787145
 10
6.756126854962523
 20
6.635414998522795
 10
6.734223402322294
 20
6.657007671222869
 10
6.709047874409346
 20
6.674676783996281
 10
6.681294878089746
 20
6.687934836160136
 10
6.651730134021439
 20
6.69641603065566
 10
6.621169349993932
 20
6.699886366593196
 10
6.590018799947252
 20
6.698226818781192
 10
6.589460203837425
 20
6.708711949700074
 10
6.62148458417983
 20
6.710418050884431
 10
6.653784331311657
 20
6.706750246644068
 10
6.685031362034557
 20
6.697786457058871
 10
6.71436355333131
 20
6.683773998086364
 10
6.74097161367317
 20
6.665099481290221
 10
6.764121411824833
 20
6.642278147011465
 10
6.783174231934937
 20
6.615939648599871
 10
6.797604396062897
 20
6.586810679926648
 10
6.807013767926667
 20
6.555694925494933
 10
6.81125738211327
 20
6.523218040261987
1001
TCAD
1000
TCW25Brush
1002
}
1000
Solid
1071
       -5
1070
     0
1002
{
  0
LINE
  5
2E0
330
2
100
AcDbEntity
  8
IMAGE
100
AcDbLine
 10
7.015095080422256
 20
5.910826658760747
 30
0.0
 11
7.015095080422256
 21
6.362536765497889
 31
0.0
  0
LINE
  5
2E1
330
2
100
AcDbEntity
  8
IMAGE
100
AcDbLine
 10
7.016009438114215
 20
5.419364235668941
 30
0.0
 11
7.016009438114215
 21
5.725220386930235
 31
0.0
  0
LINE
  5
2E2
330
2
100
AcDbEntity
  8
IMAGE
100
AcDbLine
 10
8.197796631213517
 20
5.751328334417323
 30
0.0
 11
7.798159859568199
 21
5.751328334417323
 31
0.0
  0
LINE
  5
2E3
330
2
100
AcDbEntity
  8
IMAGE
100
AcDbLine
 10
7.900405739673251
 20
5.884897636069245
 30
0.0
 11
8.197796631213517
 21
5.884897636069245
 31
0.0
  0
LINE
  5
2E4
330
2
100
AcDbEntity
  8
IMAGE
100
AcDbLine
 10
8.197796631213517
 20
5.884897636069245
 30
0.0
 11
8.197796631213517
 21
5.752481109578702
 31
0.0
  0
LINE
  5
2E6
330
2
100
AcDbEntity
  8
IMAGE
100
AcDbLine
 10
7.015777279954894
 20
6.073757787669217
 30
0.0
 11
7.740270510135269
 21
6.073757787669217
 31
0.0
  0
LINE
  5
2E7
330
2
100
AcDbEntity
  8
IMAGE
100
AcDbLine
 10
7.152586336658336
 20
6.363522135509867
 30
0.0
 11
7.230196098540949
 21
6.402307258470861
 31
0.0
  0
LINE
  5
2E8
330
2
100
AcDbEntity
  8
IMAGE
100
AcDbLine
 10
7.152586336658336
 20
6.523218040261987
 30
0.0
 11
7.152586336658336
 21
6.362536765497889
 31
0.0
  0
LWPOLYLINE
  5
2E9
330
2
100
AcDbEntity
  8
IMAGE
100
AcDbPolyline
 90
        5
 70
     0
 43
0.0
 10
7.258988267783427
 20
6.51496424917598
 10
7.258988267783427
 20
6.378168117823628
 10
7.295485795396162
 20
6.378168117823628
 10
7.295485795396162
 20
6.51496424917598
 10
7.258988267783427
 20
6.51496424917598
  0
LINE
  5
2EA
330
2
100
AcDbEntity
  8
IMAGE
100
AcDbLine
 10
7.258670638999442
 20
6.412321749655545
 30
0.0
 11
7.295820278530056
 21
6.412321749655545
 31
0.0
  0
LINE
  5
2EB
330
2
100
AcDbEntity
  8
IMAGE
100
AcDbLine
 10
7.258670638999442
 20
6.480538676878671
 30
0.0
 11
7.295820278530056
 21
6.480538676878671
 31
0.0
  0
LINE
  5
2ED
330
2
100
AcDbEntity
  8
IMAGE
100
AcDbLine
 10
7.230196098540949
 20
6.484432917300994
 30
0.0
 11
7.230196098540949
 21
6.402307258470861
 31
0.0
  0
LINE
  5
2EE
330
2
100
AcDbEntity
  8
IMAGE
100
AcDbLine
 10
7.258988267783427
 20
6.425957584220521
 30
0.0
 11
7.230245065924044
 21
6.425957584220521
 31
0.0
  0
LINE
  5
2EF
330
2
100
AcDbEntity
  8
IMAGE
100
AcDbLine
 10
7.230245065924044
 20
6.460149028382177
 30
0.0
 11
7.258988267783427
 21
6.460149028382177
 31
0.0
  0
LINE
  5
2F0
330
2
100
AcDbEntity
  8
IMAGE
100
AcDbLine
 10
7.152586336658336
 20
6.523218040261987
 30
0.0
 11
7.230196098540949
 21
6.484432917300994
 31
0.0
  0
INSERT
  5
2F2
330
2
100
AcDbEntity
  8
TEXT_BUBBLES
100
AcDbBlockReference
 66
     1
  2
bubble
 10
7.095957241741896
 20
8.217299861985855
 30
0.0
  0
ATTRIB
  5
2F3
330
2F2
100
AcDbEntity
  8
TEXT_BUBBLES
100
AcDbText
 10
7.036433432218086
 20
8.154799861985855
 30
0.0
 40
0.125
  1
3
  7
ROMANS
 72
     4
 11
7.095957241741896
 21
8.217299861985855
 31
0.0
100
AcDbAttribute
  2
XX
 70
     0
  0
SEQEND
  5
2F4
330
2F2
100
AcDbEntity
  8
TEXT_BUBBLES
  0
LINE
  5
2F6
330
2
100
AcDbEntity
  8
IMAGE
100
AcDbLine
 10
5.678165230647936
 20
7.764350144385609
 30
0.0
 11
7.580834949539189
 21
7.764349691369009
 31
0.0
  0
LINE
  5
2F7
330
2
100
AcDbEntity
  8
IMAGE
100
AcDbLine
 10
7.152586336658336
 20
6.894953033514466
 30
0.0
 11
6.675840619961268
 21
6.894953033514466
 31
0.0
  0
LINE
  5
2F8
330
2
100
AcDbEntity
  8
IMAGE
100
AcDbLine
 10
6.675840619961268
 20
7.055634308278563
 30
0.0
 11
7.152586336658336
 21
7.055634308278563
 31
0.0
  0
LINE
  5
2F9
102
{ACAD_REACTORS
330
2FC
102
}
330
2
100
AcDbEntity
  8
IMAGE
100
AcDbLine
 10
7.015095080422256
 20
7.406123412390041
 30
0.0
 11
6.811087163538447
 21
7.406123412390041
 31
0.0
  0
DIMENSION
  5
2FA
102
{ACAD_XDICTIONARY
360
2FB
102
}
102
{ACAD_REACTORS
330
2FC
102
}
330
2
100
AcDbEntity
  8
IMAGE
100
AcDbDimension
  2
*D2
 10
6.195692396506845
 20
7.682215381380583
 30
0.0
 11
6.55235906317351
 21
8.141852912576172
 31
0.0
 70
   128
  1
4" \PMIN.
 71
     5
 42
0.2760919689905421
  3
Standard
100
AcDbAlignedDimension
 13
6.811087163538447
 23
7.406123412390041
 33
0.0
 14
6.811087163538447
 24
7.682215381380583
 34
0.0
 50
90.0
100
AcDbRotatedDimension
1001
ACAD
1000
DSTYLE
1002
{
1070
   340
1005
28
1070
    41
1040
0.1
1070
   140
1040
0.125
1070
   143
1040
25.0
1070
   176
1070
   256
1070
   177
1070
   256
1070
   178
1070
   256
1070
   289
1070
     1
1002
}
  0
LINE
  5
30B
330
2
100
AcDbEntity
  8
IMAGE
100
AcDbLine
 10
6.811087163538447
 20
7.406123412390041
 30
0.0
 11
6.811087163538447
 21
7.055634308278563
 31
0.0
  0
LWPOLYLINE
  5
30C
330
2
100
AcDbEntity
  8
IMAGE
  6
Continuous
100
AcDbPolyline
 90
       20
 70
     0
 43
0.0
 10
6.800117577134495
 20
7.055634308278563
 10
6.797555183591197
 20
7.06410786096678
 10
6.783901914802553
 20
7.091668575821085
 10
6.765874865918131
 20
7.116589054556735
 10
6.743971413277901
 20
7.138181727256808
 10
6.718795885364953
 20
7.15585084003022
 10
6.691042889045353
 20
7.169108892194076
 10
6.661478144977047
 20
7.177590086689599
 10
6.630917360949539
 20
7.181060422627135
 10
6.599766810902859
 20
7.179400874815131
 10
6.599208214793033
 20
7.189886005734013
 10
6.631232595135437
 20
7.191592106918371
 10
6.663532342267264
 20
7.187924302678007
 10
6.694779372990164
 20
7.17896051309281
 10
6.724111564286917
 20
7.164948054120303
 10
6.750719624628778
 20
7.146273537324161
 10
6.77386942278044
 20
7.123452203045404
 10
6.792922242890544
 20
7.097113704633811
 10
6.807352407018504
 20
7.067984735960587
 10
6.811087163538447
 20
7.055634308278562
1001
TCAD
1000
TCW25Brush
1002
}
1000
Solid
1071
       -5
1070
     0
1002
{
  0
LINE
  5
30D
330
2
100
AcDbEntity
  8
IMAGE
100
AcDbLine
 10
6.675840619961268
 20
6.894953033514466
 30
0.0
 11
6.675840619961268
 21
7.055634308278563
 31
0.0
  0
LINE
  5
311
330
2
100
AcDbEntity
  8
IMAGE
100
AcDbLine
 10
7.015095080422256
 20
7.055634308278563
 30
0.0
 11
7.015095080422256
 21
7.406123412390041
 31
0.0
  0
LWPOLYLINE
  5
312
330
2
100
AcDbEntity
  8
IMAGE
100
AcDbPolyline
 90
        5
 70
     0
 43
0.0
 10
7.258988267783427
 20
7.047380517192557
 10
7.258988267783427
 20
6.910584385840204
 10
7.295485795396162
 20
6.910584385840204
 10
7.295485795396162
 20
7.047380517192557
 10
7.258988267783427
 20
7.047380517192557
  0
LINE
  5
313
330
2
100
AcDbEntity
  8
IMAGE
100
AcDbLine
 10
7.258670638999442
 20
7.012954944895247
 30
0.0
 11
7.295820278530056
 21
7.012954944895247
 31
0.0
  0
LINE
  5
314
330
2
100
AcDbEntity
  8
IMAGE
100
AcDbLine
 10
7.258670638999442
 20
6.94473801767212
 30
0.0
 11
7.295820278530056
 21
6.94473801767212
 31
0.0
  0
LINE
  5
315
330
2
100
AcDbEntity
  8
IMAGE
100
AcDbLine
 10
7.230196098540949
 20
7.016849185317571
 30
0.0
 11
7.230196098540949
 21
6.934723526487436
 31
0.0
  0
LINE
  5
316
330
2
100
AcDbEntity
  8
IMAGE
100
AcDbLine
 10
7.152586336658336
 20
7.055634308278563
 30
0.0
 11
7.152586336658336
 21
6.894953033514466
 31
0.0
  0
LINE
  5
317
330
2
100
AcDbEntity
  8
IMAGE
100
AcDbLine
 10
7.258988267783427
 20
6.958373852237096
 30
0.0
 11
7.230245065924044
 21
6.958373852237096
 31
0.0
  0
LINE
  5
318
330
2
100
AcDbEntity
  8
IMAGE
100
AcDbLine
 10
7.230245065924044
 20
6.992565296398753
 30
0.0
 11
7.258988267783427
 21
6.992565296398753
 31
0.0
  0
LINE
  5
319
330
2
100
AcDbEntity
  8
IMAGE
100
AcDbLine
 10
7.152586336658336
 20
6.895938403526445
 30
0.0
 11
7.230196098540949
 21
6.934723526487436
 31
0.0
  0
LINE
  5
31A
330
2
100
AcDbEntity
  8
IMAGE
100
AcDbLine
 10
7.152586336658336
 20
7.055634308278563
 30
0.0
 11
7.230196098540949
 21
7.016849185317571
 31
0.0
  0
LINE
  5
31C
330
2
100
AcDbEntity
  8
IMAGE
100
AcDbLine
 10
7.506472159753596
 20
8.027462436552253
 30
0.0
 11
7.61628539621209
 21
7.682215381380583
 31
0.0
  0
LINE
  5
31D
330
2
100
AcDbEntity
  8
IMAGE
100
AcDbLine
 10
7.670548620300616
 20
7.977721032507794
 30
0.0
 11
7.594800576523981
 21
7.682215381380583
 31
0.0
  0
LINE
  5
31E
330
2
100
AcDbEntity
  8
IMAGE
100
AcDbLine
 10
7.600290095459049
 20
7.968252527035712
 30
0.0
 11
7.62734766329129
 21
7.682215381380583
 31
0.0
  0
LINE
  5
31F
330
2
100
AcDbEntity
  8
IMAGE
100
AcDbLine
 10
7.556949312163405
 20
8.020537025716549
 30
0.0
 11
7.638469331649384
 21
7.682215381380583
 31
0.0
  0
LINE
  5
320
330
2
100
AcDbEntity
  8
IMAGE
100
AcDbLine
 10
7.594800576523981
 20
7.682215381380583
 30
0.0
 11
8.082074479587946
 21
7.680947664576692
 31
0.0
  0
LINE
  5
321
330
2
100
AcDbEntity
  8
IMAGE
100
AcDbLine
 10
7.600590468721149
 20
8.031814413861074
 30
0.0
 11
7.600590468721149
 21
7.682215381380583
 31
0.0
  0
LINE
  5
322
330
2
100
AcDbEntity
  8
IMAGE
100
AcDbLine
 10
7.772069279241341
 20
8.009259637572021
 30
0.0
 11
7.927942723093698
 21
7.682215381380583
 31
0.0
  0
LINE
  5
323
330
2
100
AcDbEntity
  8
IMAGE
100
AcDbLine
 10
7.902182755265878
 20
7.997982249427476
 30
0.0
 11
7.92851999233058
 21
7.68221538138059
 31
0.0
  0
LINE
  5
324
330
2
100
AcDbEntity
  8
IMAGE
100
AcDbLine
 10
7.933839039228383
 20
7.977721032507798
 30
0.0
 11
7.85497774312069
 21
7.682215381380583
 31
0.0
  0
LINE
  5
325
330
2
100
AcDbEntity
  8
IMAGE
100
AcDbLine
 10
7.98591581932481
 20
7.949315516091562
 30
0.0
 11
7.912678685613732
 21
7.682215381380583
 31
0.0
  0
LINE
  5
326
330
2
100
AcDbEntity
  8
IMAGE
100
AcDbLine
 10
7.907517927002691
 20
8.020537025716549
 30
0.0
 11
7.989037946488677
 21
7.682215381380583
 31
0.0
  0
LINE
  5
327
330
2
100
AcDbEntity
  8
IMAGE
100
AcDbLine
 10
7.898502244547339
 20
7.930317920560291
 30
0.0
 11
7.697934054593043
 21
7.682215381380583
 31
0.0
  0
LINE
  5
328
330
2
100
AcDbEntity
  8
IMAGE
100
AcDbLine
 10
7.861033789144448
 20
7.975427473138413
 30
0.0
 11
7.790855685413029
 21
7.682215381380583
 31
0.0
  0
LINE
  5
329
330
2
100
AcDbEntity
  8
IMAGE
100
AcDbLine
 10
7.830352490183051
 20
7.949315516091555
 30
0.0
 11
7.757115356471969
 21
7.682215381380583
 31
0.0
  0
LINE
  5
32A
330
2
100
AcDbEntity
  8
IMAGE
100
AcDbLine
 10
7.699362632638669
 20
7.997982249427472
 30
0.0
 11
7.725699869703371
 21
7.682215381380586
 31
0.0
  0
LINE
  5
32B
330
2
100
AcDbEntity
  8
IMAGE
100
AcDbLine
 10
7.731018916601177
 20
7.977721032507794
 30
0.0
 11
7.655270872824543
 21
7.688931615609405
 31
0.0
  0
LINE
  5
32C
330
2
100
AcDbEntity
  8
IMAGE
100
AcDbLine
 10
7.722625400397037
 20
7.949315516091559
 30
0.0
 11
7.649388266685962
 21
7.682215381380583
 31
0.0
  0
LINE
  5
32D
330
2
100
AcDbEntity
  8
IMAGE
100
AcDbLine
 10
7.708742988990779
 20
7.991923790715908
 30
0.0
 11
7.670973670779149
 21
7.682215381380583
 31
0.0
  0
LINE
  5
32E
330
2
100
AcDbEntity
  8
IMAGE
100
AcDbLine
 10
7.638892336338114
 20
7.997982249427472
 30
0.0
 11
7.665229573402809
 21
7.682215381380586
 31
0.0
  0
LINE
  5
32F
330
2
100
AcDbEntity
  8
IMAGE
100
AcDbLine
 10
7.776595186969112
 20
8.031814413861074
 30
0.0
 11
7.776595186969112
 21
7.682215381380583
 31
0.0
  0
LINE
  5
330
330
2
100
AcDbEntity
  8
IMAGE
100
AcDbLine
 10
7.751766209472551
 20
8.031814413861074
 30
0.0
 11
7.751766209472551
 21
7.682215381380583
 31
0.0
  0
LINE
  5
331
330
2
100
AcDbEntity
  8
IMAGE
100
AcDbLine
 10
7.783095696697609
 20
7.949315516091559
 30
0.0
 11
7.709858562986527
 21
7.682215381380583
 31
0.0
  0
LINE
  5
332
330
2
100
AcDbEntity
  8
IMAGE
100
AcDbLine
 10
7.859918729742181
 20
7.991923790715908
 30
0.0
 11
7.822149411530554
 21
7.682215381380583
 31
0.0
  0
LINE
  5
333
330
2
100
AcDbEntity
  8
IMAGE
100
AcDbLine
 10
7.812236505773112
 20
8.031814413861074
 30
0.0
 11
7.812236505773112
 21
7.682215381380583
 31
0.0
  0
LINE
  5
334
330
2
100
AcDbEntity
  8
IMAGE
100
AcDbLine
 10
7.871398287599676
 20
7.968252527035712
 30
0.0
 11
7.898455855431913
 21
7.682215381380583
 31
0.0
  0
LINE
  5
335
330
2
100
AcDbEntity
  8
IMAGE
100
AcDbLine
 10
7.862963921803357
 20
8.031814413861077
 30
0.0
 11
7.862963921803357
 21
7.682215381380583
 31
0.0
  0
LINE
  5
336
330
2
100
AcDbEntity
  8
IMAGE
100
AcDbLine
 10
8.076828736704365
 20
7.975427473138417
 30
0.0
 11
8.006650632972947
 21
7.68221538138059
 31
0.0
  0
LINE
  5
337
330
2
100
AcDbEntity
  8
IMAGE
100
AcDbLine
 10
8.055737242523241
 20
7.996714532623578
 30
0.0
 11
8.082074479587946
 21
7.680947664576692
 31
0.0
  0
LINE
  5
338
330
2
100
AcDbEntity
  8
IMAGE
100
AcDbLine
 10
8.070005756654209
 20
7.972986779771755
 30
0.0
 11
8.042745938055036
 21
7.682215381380583
 31
0.0
  0
LINE
  5
339
330
2
100
AcDbEntity
  8
IMAGE
100
AcDbLine
 10
8.015056628400317
 20
8.031814413861077
 30
0.0
 11
8.015056628400317
 21
7.682215381380583
 31
0.0
  0
LINE
  5
33A
330
2
100
AcDbEntity
  8
IMAGE
100
AcDbLine
 10
8.008691616944817
 20
7.972986779771755
 30
0.0
 11
7.98143179834564
 21
7.682215381380583
 31
0.0
  0
LINE
  5
33B
330
2
100
AcDbEntity
  8
IMAGE
100
AcDbLine
 10
8.098150969386262
 20
7.955466214090325
 30
0.0
 11
8.052983036731896
 21
7.682215381380583
 31
0.0
  0
LINE
  5
33C
330
2
100
AcDbEntity
  8
IMAGE
100
AcDbLine
 10
7.971116442072991
 20
7.991923790715912
 30
0.0
 11
7.933347123861357
 21
7.682215381380583
 31
0.0
  0
LINE
  5
33D
330
2
100
AcDbEntity
  8
IMAGE
100
AcDbLine
 10
8.064068842432176
 20
7.98421787235075
 30
0.0
 11
7.961224473520806
 21
7.682215381380583
 31
0.0
  0
SOLID
  5
33E
330
2
100
AcDbEntity
  8
IMAGE
  6
Continuous
100
AcDbTrace
 10
1.864490686606607
 20
2.581581412087787
 30
0.0
 11
4.264583826416126
 21
2.581581412087787
 31
0.0
 12
1.864490686606607
 22
2.566581412087787
 32
0.0
 13
4.264583826416126
 23
2.566581412087787
 33
0.0
  0
TEXT
  5
33F
330
2
100
AcDbEntity
  8
IMAGE
100
AcDbText
 10
1.978780829851845
 20
2.650236062093628
 30
0.0
 40
0.1300000011920929
  1
GROUND ROD LAYOUT
 41
0.9989623152329293
  7
SIMPLEX
 72
     5
 11
4.130831094402109
 21
2.650236062093628
 31
0.0
100
AcDbText
  0
INSERT
  5
369
330
2
100
AcDbEntity
  8
TEXT_BUBBLES
 62
    42
100
AcDbBlockReference
 66
     1
  2
TITLBLK
 10
0.6064423705144839
 20
0.8842270964783676
 30
0.0
  0
ATTRIB
  5
36A
330
369
100
AcDbEntity
  8
TITLE
100
AcDbText
 10
1.231442370514483
 20
0.9842270964783672
 30
0.0
 40
0.2
  1
OR WEATHER STATION GROUNDING GRID
  7
L200
100
AcDbAttribute
  2
TITLE2
 70
     0
  0
ATTRIB
  5
36B
330
369
100
AcDbEntity
  8
TITLE
100
AcDbText
 10
0.2799757947982491
 20
0.7855913529585854
 30
0.0
 40
0.2
  1
305A
  7
L200
 72
     4
 11
0.6064423705144839
 21
0.8842270964783672
 31
0.0
100
AcDbAttribute
  2
#
 70
     0
  0
ATTRIB
  5
36C
330
369
100
AcDbEntity
  8
TITLE
 62
     7
100
AcDbText
 10
1.231442370514483
 20
0.7005637793954893
 30
0.0
 40
0.1
  1
N.T.S.
  7
L100
100
AcDbAttribute
  2
SCALE
 70
     0
  0
ATTRIB
  5
36D
330
369
100
AcDbEntity
  8
TITLE
100
AcDbText
 10
2.713645751168312
 20
0.5927927664583188
 30
0.0
 40
0.2
  1
Y DESIGN LAYOUT
  7
L200
100
AcDbAttribute
  2
TITLE3
 70
     0
  0
ATTRIB
  5
36E
330
369
100
AcDbEntity
  8
TITLE
 62
     7
100
AcDbText
 10
0.2674446419517409
 20
0.0369896682792554
 30
0.0
 40
0.08
  1
305A-GROUNDING ROD GRID.DWG
  7
L80
 72
     2
 11
2.301730356237454
 21
0.0369896682792554
 31
0.0
100
AcDbAttribute
  2
DWG-NAME
 70
     0
  0
ATTRIB
  5
36F
330
369
100
AcDbEntity
  8
TITLE
 62
     7
100
AcDbText
 10
7.689595782347334
 20
0.9696027915446396
 30
0.0
 40
0.08
  1
1-21-04
  7
L80
 72
     2
 11
8.261024353775905
 21
0.9696027915446396
 31
0.0
100
AcDbAttribute
  2
REVISED
 70
     0
  0
ATTRIB
  5
370
330
369
100
AcDbEntity
  8
TITLE
100
AcDbText
 10
1.231442370514483
 20
1.34371230274675
 30
0.0
 40
0.2
  1
MAXICOM LDI/SDI/TWI, SATELLITE CONTROLLER
  7
L200
100
AcDbAttribute
  2
TITLE1
 70
     0
  0
ATTRIB
  5
371
330
369
100
AcDbEntity
  8
TITLE
100
AcDbText
 10
2.713645751168312
 20
0.2692560808167741
 30
0.0
 40
0.2
  1

  7
L200
100
AcDbAttribute
  2
TITLE4
 70
     0
  0
SEQEND
  5
372
330
369
100
AcDbEntity
  8
TEXT_BUBBLES
 62
    40
  0
HATCH
  5
387
330
2
100
AcDbEntity
  8
IMAGE
100
AcDbHatch
 10
0.0
 20
0.0
 30
0.0
210
0.0
220
0.0
230
1.0
  2
EARTH
 70
     0
 71
     0
 91
        2
 92
        1
 93
        6
 72
     1
 10
7.594800576523981
 20
7.682215381380583
 11
8.082074479587946
 21
7.680947664576692
 72
     1
 10
8.082074479587946
 20
7.680947664576692
 11
8.057574941199344
 21
7.565282243309033
 72
     1
 10
8.057574941199344
 20
7.565282243309033
 11
7.850956700810659
 21
7.455956036642974
 72
     1
 10
7.850956700810659
 20
7.455956036642974
 11
7.682826144765437
 21
7.500496356854085
 72
     1
 10
7.682826144765437
 20
7.500496356854085
 11
7.623646126543992
 21
7.512569625432051
 72
     1
 10
7.623646126543992
 20
7.512569625432051
 11
7.594800576523981
 21
7.682215381380583
 97
        0
 92
        1
 93
        5
 72
     1
 10
5.664199603663144
 20
7.682215381380583
 11
5.631875992761412
 21
7.492114856372243
 72
     1
 10
5.631875992761412
 20
7.492114856372243
 11
5.395996607740872
 21
7.514056927908828
 72
     1
 10
5.395996607740872
 20
7.514056927908828
 11
5.149544328564819
 21
7.506592753913556
 72
     1
 10
5.149544328564819
 20
7.506592753913556
 11
5.176925630442953
 21
7.680947664576692
 72
     1
 10
5.176925630442953
 20
7.680947664576692
 11
5.664199603663144
 21
7.682215381380583
 97
        0
 75
     0
 76
     1
 52
45.0
 41
0.75
 77
     0
 78
     6
 53
45.0
 43
0.0
 44
0.0
 45
0.0
 46
0.2651650429449553
 79
     2
 49
0.1875
 49
-0.1875
 53
45.0
 43
-0.0497184455521791
 44
0.0497184455521791
 45
0.0
 46
0.2651650429449553
 79
     2
 49
0.1875
 49
-0.1875
 53
45.0
 43
-0.0994368911043583
 44
0.0994368911043583
 45
0.0
 46
0.2651650429449553
 79
     2
 49
0.1875
 49
-0.1875
 53
135.0
 43
-0.0994368911043583
 44
0.1325825214724777
 45
-0.2651650429449553
 46
0.0
 79
     2
 49
0.1875
 49
-0.1875
 53
135.0
 43
-0.0497184455521791
 44
0.1823009670246568
 45
-0.2651650429449553
 46
0.0
 79
     2
 49
0.1875
 49
-0.1875
 53
135.0
 43
0.0
 44
0.2320194125768359
 45
-0.2651650429449553
 46
0.0
 79
     2
 49
0.1875
 49
-0.1875
 98
        1
 10
0.0
 20
0.0
  0
MTEXT
  5
3C7
330
2
100
AcDbEntity
  8
TEXT_BUBBLES
100
AcDbMText
 10
10.39964696431945
 20
2.173834542922307
 30
0.0
 40
0.125
 41
4.429999999999999
 71
     1
 72
     5
  1
NOTE: \PREFER TO RAIN BIRD CENTRAL CONTROL TECHNICAL BULLETIN TB-9001-MULTI FOR INSTALLATION GUIDELINES.
  7
SIMPLEX
 73
     1
 44
1.0
  0
LEADER
  5
43A
330
2
100
AcDbEntity
  8
TEXT_BUBBLES
100
AcDbLeader
  3
Standard
 76
     2
 10
7.295820278530056
 20
6.94473801767212
 30
0.0
 10
8.020791286484756
 20
7.211943497876977
 30
0.0
  0
LEADER
  5
43B
330
2
100
AcDbEntity
  8
TEXT_BUBBLES
100
AcDbLeader
  3
Standard
 76
     2
 10
6.834955039148169
 20
7.764349868959463
 30
0.0
 10
7.032831354720882
 20
8.092463542790524
 30
0.0
  0
LEADER
  5
43C
330
2
100
AcDbEntity
  8
TEXT_BUBBLES
100
AcDbLeader
  3
Standard
 76
     2
 10
7.015095080422256
 20
6.568711582782232
 30
0.0
 10
8.019230990873795
 20
6.788813430036959
 30
0.0
  0
LEADER
  5
43D
330
2
100
AcDbEntity
  8
TEXT_BUBBLES
100
AcDbLeader
  3
Standard
 76
     2
 10
5.179550090325046
 20
7.680954492505283
 30
0.0
 10
4.94838263464867
 20
8.005485652573474
 30
0.0
  0
LEADER
  5
43F
330
2
100
AcDbEntity
  8
TEXT_BUBBLES
100
AcDbLeader
  3
Standard
 76
     2
 10
3.359516447231496
 20
6.322784155284753
 30
0.0
 10
3.700307128392959
 20
6.533547201970548
 30
0.0
  0
LEADER
  5
441
330
2
100
AcDbEntity
  8
TEXT_BUBBLES
100
AcDbLeader
  3
Standard
 76
     2
 10
3.09911918808829
 20
6.154713395040576
 30
0.0
 10
2.570840463527411
 20
6.430484273191882
 30
0.0
  0
LEADER
  5
442
330
2
100
AcDbEntity
  8
TEXT_BUBBLES
100
AcDbLeader
  3
Standard
 76
     2
 10
4.476442082062312
 20
3.622797254993678
 30
0.0
 10
4.950717508958958
 20
3.451707401536842
 30
0.0
  0
LEADER
  5
443
330
2
100
AcDbEntity
  8
TEXT_BUBBLES
100
AcDbLeader
  3
Standard
 76
     2
 10
3.661242777539752
 20
4.811143866591213
 30
0.0
 10
3.188466760250559
 20
4.526514326521126
 30
0.0
  0
LEADER
  5
444
330
2
100
AcDbEntity
  8
TEXT_BUBBLES
100
AcDbLeader
  3
Standard
 76
     2
 10
3.065345840443462
 20
3.692791425182927
 30
0.0
 10
3.063919722978106
 20
4.322930402610885
 30
0.0
  0
LEADER
  5
445
330
2
100
AcDbEntity
  8
TEXT_BUBBLES
100
AcDbLeader
  3
Standard
 76
     2
 10
1.870665091245513
 20
3.691491066455528
 30
0.0
 10
1.417634324445599
 20
3.545193794516291
 30
0.0
  0
LEADER
  5
446
330
2
100
AcDbEntity
  8
TEXT_BUBBLES
100
AcDbLeader
  3
Standard
 76
     2
 10
2.493183862816252
 20
4.739058372238972
 30
0.0
 10
2.946006697062287
 20
4.538089120542199
 30
0.0
  0
LEADER
  5
447
330
2
100
AcDbEntity
  8
TEXT_BUBBLES
100
AcDbLeader
  3
Standard
 76
     2
 10
5.36759218173544
 20
7.21472988981859
 30
0.0
 10
5.101672830579665
 20
6.983619641301899
 30
0.0
1001
ACAD
1000
DSTYLE
1002
{
1070
   147
1040
0.09
1070
    77
1070
     0
1070
    41
1040
0.1
1070
   140
1040
0.125
1070
   143
1040
25.0
1070
   176
1070
   256
1070
   177
1070
   256
1070
   178
1070
   256
1070
   289
1070
     1
1002
}
  0
LEADER
  5
448
330
2
100
AcDbEntity
  8
TEXT_BUBBLES
100
AcDbLeader
  3
Standard
 76
     2
 10
5.406125025452745
 20
6.708719384240634
 30
0.0
 10
5.101672830579665
 20
6.983619641301899
 30
0.0
1001
ACAD
1000
DSTYLE
1002
{
1070
   147
1040
0.09
1070
    77
1070
     0
1070
    41
1040
0.1
1070
   140
1040
0.125
1070
   143
1040
25.0
1070
   176
1070
   256
1070
   177
1070
   256
1070
   178
1070
   256
1070
   289
1070
     1
1002
}
  0
ENDSEC
  0
SECTION
  2
OBJECTS
  0
DICTIONARY
  5
7
330
0
100
AcDbDictionary
281
     1
  3
ACAD_GROUP
350
20
  3
ACAD_LAYOUT
350
B
  3
ACAD_MLINESTYLE
350
21
  3
ACAD_PLOTSETTINGS
350
22
  3
ACAD_PLOTSTYLENAME
350
6
  3
AcDbVariableDictionary
350
342
  3
ASE_INDEX_DICTIONARY
350
389
  0
DICTIONARY
  5
3FB
330
10
100
AcDbDictionary
280
     1
281
     1
  3
ACAD_LAYERFILTERS
360
403
  3
ACAD_LAYERSTATES
360
3FC
  0
DICTIONARY
  5
6E
330
6D
100
AcDbDictionary
280
     1
281
     1
  3
ACAD_DIMASSOC
360
6F
  0
DICTIONARY
  5
2FB
330
2FA
100
AcDbDictionary
280
     1
281
     1
  3
ACAD_DIMASSOC
360
2FC
  0
DICTIONARY
  5
20
102
{ACAD_REACTORS
330
7
102
}
330
7
100
AcDbDictionary
281
     1
  0
DICTIONARY
  5
B
102
{ACAD_REACTORS
330
7
102
}
330
7
100
AcDbDictionary
281
     1
  3
Layout1
350
F
  3
Model
350
A
  0
DICTIONARY
  5
21
102
{ACAD_REACTORS
330
7
102
}
330
7
100
AcDbDictionary
281
     1
  3
Standard
350
24
  0
DICTIONARY
  5
22
102
{ACAD_REACTORS
330
7
102
}
330
7
100
AcDbDictionary
281
     1
  3
1055 B&W Full Shaded Draft
350
40A
  3
1055 B&W Full Shaded Final
350
40B
  3
1055 Color Full Shaded Draft
350
40C
  3
1055 Color Full Shaded Final
350
40D
  3
1055 PLUS B&W Full Shaded Draft
350
40E
  3
1055 PLUS B&W Full Shaded Final
350
40F
  3
1055 PLUS Color Full Shaded Draft
350
410
  3
1055 PLUS Color Full Shaded Final
350
411
  3
1055-B&W-Shaded-Draft
350
412
  3
1055-B&W-Shaded-Final
350
413
  3
1055-Color-Shaded-Draft
350
414
  3
1055-Color-Shaded-Final
350
415
  3
1055-PLUS-B&W-Shaded-Draft
350
416
  3
1055-PLUS-B&W-Shaded-Final
350
417
  3
1055-PLUS-Color-Shaded-Draft
350
418
  3
1055-PLUS-Color-Shaded-Final
350
419
  3
2200 Color Inkjet
350
41A
  3
2200-Color-Inkjet
350
41B
  3
24x36 PDF
350
41C
  3
8500 B&W Shaded 11x17
350
41D
  3
8500 B&W Shaded 8.5x11
350
41E
  3
8500 Color Shaded 11x17
350
41F
  3
8500 Color Shaded 8.5x11
350
420
  3
8500-B&W-Shaded-11x17
350
421
  3
8500-B&W-Shaded-8.5x11
350
422
  3
8500-Color-Shaded-11x17
350
423
  3
8500-Color-Shaded-8.5x11
350
424
  3
Laser Jet 5 Shaded 11x17
350
425
  3
Laser Jet 5 Shaded 8.5x11
350
426
  3
LaserJet5-Shaded-11x17
350
427
  3
LaserJet5-Shaded-8.5x11
350
428
  3
Oki Doki B&W Shaded 11x17
350
429
  3
Oki Doki B&W Shaded 8.5x11
350
42A
  3
Oki Doki Color Laser
350
42B
  3
Oki Doki Color Shaded 11x17
350
42C
  3
Oki Doki Color Shaded 8.5x11
350
42D
  3
Oki-Doki-B&W-Shaded-11x17
350
42E
  3
Oki-Doki-B&W-Shaded-8.5x11
350
42F
  3
Oki-Doki-Color-Laser
350
430
  3
Oki-Doki-Color-Shaded-11x17
350
431
  3
Oki-Doki-Color-Shaded-8.5x11
350
432
  0
ACDBDICTIONARYWDFLT
  5
6
102
{ACAD_REACTORS
330
7
102
}
330
7
100
AcDbDictionary
281
     1
  3
Normal
350
5
100
AcDbDictionaryWithDefault
340
5
  0
DICTIONARY
  5
342
102
{ACAD_REACTORS
330
7
102
}
330
7
100
AcDbDictionary
281
     1
  3
DIMASSOC
350
344
  3
HIDETEXT
350
343
  3
SORTENTS
350
3FA
  0
DICTIONARY
  5
389
102
{ACAD_REACTORS
330
7
102
}
330
7
100
AcDbDictionary
281
     1
  3
ASEBlockHierarchyIndexRecord
350
38B
1001
DCO15
1040
1449391489.062
  0
DICTIONARY
  5
403
102
{ACAD_REACTORS
330
3FB
102
}
330
3FB
100
AcDbDictionary
280
     1
281
     1
  0
DICTIONARY
  5
3FC
102
{ACAD_REACTORS
330
3FB
102
}
330
3FB
100
AcDbDictionary
281
     1
  0
DIMASSOC
  5
6F
102
{ACAD_REACTORS
330
6E
102
}
330
6E
100
AcDbDimAssoc
330
6D
 90
        3
 70
     0
 71
     0
  1
AcDbOsnapPointRef
 72
    13
331
83
 73
     2
 91
        0
 40
0.0
 10
1.905959064301193
 20
3.468164280119032
 30
0.0
 75
     0
  1
AcDbOsnapPointRef
 72
    13
331
268
 73
     2
 91
        0
 40
0.0
 10
4.301155789041564
 20
3.476806768991268
 30
0.0
 75
     0
  0
DIMASSOC
  5
2FC
102
{ACAD_REACTORS
330
2FB
102
}
330
2FB
100
AcDbDimAssoc
330
2FA
 90
        3
 70
     0
 71
     0
  1
AcDbOsnapPointRef
 72
     1
331
2F9
 73
     2
 91
        0
 40
1.0
 10
6.811087163538447
 20
7.406123412390041
 30
0.0
 75
     0
  1
AcDbOsnapPointRef
 72
     8
331
280
 73
     2
 91
        0
 40
0.4059427067131275
 10
6.811087163538447
 20
7.682215381380583
 30
0.0
 75
     1
  1
AcDbOsnapPointRef
 72
     1
331
2F9
 73
     2
 91
        0
 40
1.0
 10
6.811087163538447
 20
7.406123412390041
 30
0.0
 75
     0
  0
LAYOUT
  5
F
102
{ACAD_REACTORS
330
B
102
}
330
B
100
AcDbPlotSettings
  1

  2
S:\AutoCAD 2002\Plotters\1055ColorDraftShaded.pc3
  4

  6

 40
0.0
 41
0.0
 42
0.0
 43
0.0
 44
0.0
 45
0.0
 46
0.0
 47
0.0
 48
0.0
 49
0.0
140
0.0
141
0.0
142
1.0
143
1.0
 70
   688
 72
     0
 73
     0
 74
     5
  7
8500Color.ctb
 75
    16
147
1.0
148
0.0
149
0.0
100
AcDbLayout
  1
Layout1
 70
     0
 71
     1
 10
0.0
 20
0.0
 11
12.0
 21
9.0
 12
0.0
 22
0.0
 32
0.0
 14
1.000000000000000E+20
 24
1.000000000000000E+20
 34
1.000000000000000E+20
 15
-1.000000000000000E+20
 25
-1.000000000000000E+20
 35
-1.000000000000000E+20
146
0.0
 13
0.0
 23
0.0
 33
0.0
 16
1.0
 26
0.0
 36
0.0
 17
0.0
 27
1.0
 37
0.0
 76
     0
330
C
  0
LAYOUT
  5
A
102
{ACAD_REACTORS
330
B
102
}
330
B
100
AcDbPlotSettings
  1

  2
8500ColorShaded.pc3
  4
11x17
  6
PS1
 40
5.027083396911621
 41
5.027085304260253
 42
5.027099609375
 43
5.027069091796875
 44
279.3999938964843
 45
431.7999877929687
 46
1.27
 47
0.0
 48
180360.0524337165
 49
80033.77936194791
140
180369.1574725906
141
80037.61796031875
142
1.0
143
0.9931848311513203
 70
 11956
 72
     0
 73
     1
 74
     1
  7
8500Color.ctb
 75
     0
147
1.006861934088118
148
0.0127811903403488
149
0.0080813305310877
100
AcDbLayout
  1
Model
 70
     1
 71
     0
 10
0.0
 20
0.0
 11
12.0
 21
9.0
 12
0.0
 22
0.0
 32
0.0
 14
0.0
 24
0.0
 34
0.0
 15
0.0
 25
0.0
 35
0.0
146
0.0
 13
0.0
 23
0.0
 33
0.0
 16
1.0
 26
0.0
 36
0.0
 17
0.0
 27
1.0
 37
0.0
 76
     0
330
2
  0
MLINESTYLE
  5
24
102
{ACAD_REACTORS
330
21
102
}
330
21
100
AcDbMlineStyle
  2
STANDARD
 70
     0
  3

 62
   256
 51
90.0
 52
90.0
 71
     2
 49
0.5
 62
   256
  6
BYLAYER
 49
-0.5
 62
   256
  6
BYLAYER
  0
PLOTSETTINGS
  5
40A
102
{ACAD_REACTORS
330
22
102
}
330
22
100
AcDbPlotSettings
  1
1055 B&W Full Shaded Draft
  2
1055B&WDraftShaded.pc3
  4
User607
  6
ps1
 40
0.0
 41
0.0
 42
0.0
 43
0.0
 44
901.7000122070312
 45
1155.700073242187
 46
0.0
 47
0.0
 48
180377.877572
 49
80019.819395
140
180380.8390819999
141
80022.26069
142
1.0
143
1.0
 70
   688
 72
     0
 73
     2
 74
     3
  7
1055B&WFullDraftShaded.ctb
 75
    16
147
1.0
148
-4581603.303200401
149
-2032962.095032944
  0
PLOTSETTINGS
  5
40B
102
{ACAD_REACTORS
330
22
102
}
330
22
100
AcDbPlotSettings
  1
1055 B&W Full Shaded Final
  2
1055B&WFinalShaded.pc3
  4
User257
  6
PS1
 40
4.995333194732666
 41
8.297271728515625
 42
4.99530029296875
 43
8.29736328125
 44
911.6906738281249
 45
1172.294677734375
 46
0.0
 47
0.0
 48
180377.877572
 49
80019.819395
140
180380.8390819999
141
80022.26069
142
1.0
143
1.0
 70
   688
 72
     0
 73
     3
 74
     3
  7
1055B&WFullFinalShaded.ctb
 75
    16
147
1.0
148
-4581603.303200401
149
-2032962.095032944
  0
PLOTSETTINGS
  5
40C
102
{ACAD_REACTORS
330
22
102
}
330
22
100
AcDbPlotSettings
  1
1055 Color Full Shaded Draft
  2
1055ColorDraftShaded.pc3
  4
User607
  6
PS1
 40
0.0
 41
0.0
 42
0.0
 43
0.0
 44
901.7000122070312
 45
1155.700073242187
 46
0.0
 47
0.0
 48
180377.877572
 49
80019.819395
140
180380.8390819999
141
80022.26069
142
1.0
143
1.0
 70
   688
 72
     0
 73
     2
 74
     3
  7
1055ColorFullDraftShaded.ctb
 75
    16
147
1.0
148
-4581603.303200401
149
-2032962.095032944
  0
PLOTSETTINGS
  5
40D
102
{ACAD_REACTORS
330
22
102
}
330
22
100
AcDbPlotSettings
  1
1055 Color Full Shaded Final
  2
1055ColorFinalShaded.pc3
  4
User607
  6
PS1
 40
0.0
 41
0.0
 42
0.0
 43
0.0
 44
901.7000122070312
 45
1155.700073242187
 46
0.0
 47
0.0
 48
180377.877572
 49
80019.819395
140
180380.8390819999
141
80022.26069
142
1.0
143
1.0
 70
   688
 72
     0
 73
     2
 74
     3
  7
1055ColorFullFinalShaded.ctb
 75
    16
147
1.0
148
-4581603.303200401
149
-2032962.095032944
  0
PLOTSETTINGS
  5
40E
102
{ACAD_REACTORS
330
22
102
}
330
22
100
AcDbPlotSettings
  1
1055 PLUS B&W Full Shaded Draft
  2
1055_PLUS_B&WDraftShaded.pc3
  4
User257
  6
ps1
 40
4.995333194732666
 41
8.297393798828125
 42
4.99530029296875
 43
8.29736328125
 44
901.6152954101562
 45
1155.615356445312
 46
0.0
 47
0.0
 48
180377.877572
 49
80019.819395
140
180380.8390819999
141
80022.26069
142
1.0
143
1.0
 70
   688
 72
     0
 73
     3
 74
     5
  7
1055B&WFullDraftShaded.ctb
 75
    16
147
1.0
148
-4581603.303200401
149
-2032962.095032944
  0
PLOTSETTINGS
  5
40F
102
{ACAD_REACTORS
330
22
102
}
330
22
100
AcDbPlotSettings
  1
1055 PLUS B&W Full Shaded Final
  2
1055_PLUS_B&WFinalShaded.pc3
  4
User257
  6
PS1
 40
4.995333194732666
 41
8.297271728515625
 42
4.99530029296875
 43
8.29736328125
 44
901.6576538085937
 45
1155.657592773437
 46
0.0
 47
0.0
 48
180377.877572
 49
80019.819395
140
180380.8390819999
141
80022.26069
142
1.0
143
1.0
 70
   688
 72
     0
 73
     3
 74
     5
  7
1055B&WFullFinalShaded.ctb
 75
    16
147
1.0
148
-4581603.303200401
149
-2032962.095032944
  0
PLOTSETTINGS
  5
410
102
{ACAD_REACTORS
330
22
102
}
330
22
100
AcDbPlotSettings
  1
1055 PLUS Color Full Shaded Draft
  2
1055_PLUS_ColorDraftShaded.pc3
  4
User257
  6
PS1
 40
4.995333194732666
 41
8.297393798828125
 42
4.99530029296875
 43
8.29736328125
 44
901.6152954101562
 45
1155.615356445312
 46
0.0
 47
0.0
 48
180377.877572
 49
80019.819395
140
180380.8390819999
141
80022.26069
142
1.0
143
1.0
 70
   688
 72
     0
 73
     3
 74
     5
  7
1055ColorFullDraftShaded.ctb
 75
    16
147
1.0
148
-4581603.303200401
149
-2032962.095032944
  0
PLOTSETTINGS
  5
411
102
{ACAD_REACTORS
330
22
102
}
330
22
100
AcDbPlotSettings
  1
1055 PLUS Color Full Shaded Final
  2
1055_PLUS_ColorFinalShaded.pc3
  4
User257
  6
PS1
 40
4.995333194732666
 41
8.297271728515625
 42
4.99530029296875
 43
8.29736328125
 44
901.6576538085937
 45
1155.657592773437
 46
0.0
 47
0.0
 48
180377.877572
 49
80019.819395
140
180380.8390819999
141
80022.26069
142
1.0
143
1.0
 70
   688
 72
     0
 73
     3
 74
     5
  7
1055ColorFullFinalShaded.ctb
 75
    16
147
1.0
148
-4581603.303200401
149
-2032962.095032944
  0
PLOTSETTINGS
  5
412
102
{ACAD_REACTORS
330
22
102
}
330
22
100
AcDbPlotSettings
  1
1055-B&W-Shaded-Draft
  2
1055B&WDraftShaded.pc3
  4
User257
  6

 40
4.995333194732666
 41
8.297393798828125
 42
4.99530029296875
 43
8.29736328125
 44
901.6152954101562
 45
1155.615356445312
 46
0.0
 47
0.0
 48
180360.0524337165
 49
80033.77936194791
140
180369.1574725906
141
80037.61796031875
142
1.0
143
30.0
 70
  1696
 72
     0
 73
     1
 74
     1
  7
1055B&WFullDraftShaded.ctb
 75
     0
147
0.0333333333333333
148
-190.0773302744904
149
-129.2444057835751
  0
PLOTSETTINGS
  5
413
102
{ACAD_REACTORS
330
22
102
}
330
22
100
AcDbPlotSettings
  1
1055-B&W-Shaded-Final
  2
1055B&WFinalShaded.pc3
  4
User607
  6

 40
0.0
 41
0.0
 42
0.0
 43
0.0
 44
901.7000122070312
 45
1155.700073242187
 46
0.0
 47
0.0
 48
180360.0524337165
 49
80033.77936194791
140
180369.1574725906
141
80037.61796031875
142
1.0
143
30.0
 70
  1696
 72
     0
 73
     1
 74
     1
  7
1055B&WFullFinalShaded.ctb
 75
     0
147
0.0333333333333333
148
-190.0773302744904
149
-129.2444057835751
  0
PLOTSETTINGS
  5
414
102
{ACAD_REACTORS
330
22
102
}
330
22
100
AcDbPlotSettings
  1
1055-Color-Shaded-Draft
  2
1055ColorDraftShaded.pc3
  4
User257
  6

 40
4.995333194732666
 41
8.297393798828125
 42
4.99530029296875
 43
8.29736328125
 44
901.6152954101562
 45
1155.615356445312
 46
0.0
 47
0.0
 48
180360.0524337165
 49
80033.77936194791
140
180369.1574725906
141
80037.61796031875
142
1.0
143
30.0
 70
  1696
 72
     0
 73
     1
 74
     1
  7
1055ColorFullDraftShaded.ctb
 75
     0
147
0.0333333333333333
148
-190.0773302744904
149
-129.2444057835751
  0
PLOTSETTINGS
  5
415
102
{ACAD_REACTORS
330
22
102
}
330
22
100
AcDbPlotSettings
  1
1055-Color-Shaded-Final
  2
1055ColorDraftShaded.pc3
  4
User257
  6

 40
4.995333194732666
 41
8.297393798828125
 42
4.99530029296875
 43
8.29736328125
 44
901.6152954101562
 45
1155.615356445312
 46
0.0
 47
0.0
 48
180360.0524337165
 49
80033.77936194791
140
180369.1574725906
141
80037.61796031875
142
1.0
143
30.0
 70
  1696
 72
     0
 73
     1
 74
     1
  7
1055ColorFullFinalShaded.ctb
 75
     0
147
0.0333333333333333
148
-190.0773302744904
149
-129.2444057835751
  0
PLOTSETTINGS
  5
416
102
{ACAD_REACTORS
330
22
102
}
330
22
100
AcDbPlotSettings
  1
1055-PLUS-B&W-Shaded-Draft
  2
1055_PLUS_B&WDraftShaded.pc3
  4
User257
  6

 40
4.995333194732666
 41
8.297393798828125
 42
4.99530029296875
 43
8.29736328125
 44
901.6152954101562
 45
1155.615356445312
 46
0.0
 47
0.0
 48
180360.0524337165
 49
80033.77936194791
140
180369.1574725906
141
80037.61796031875
142
1.0
143
30.0
 70
  1696
 72
     0
 73
     1
 74
     0
  7
1055B&WFullDraftShaded.ctb
 75
     0
147
0.0333333333333333
148
0.9506237099442845
149
8.593888772447144
  0
PLOTSETTINGS
  5
417
102
{ACAD_REACTORS
330
22
102
}
330
22
100
AcDbPlotSettings
  1
1055-PLUS-B&W-Shaded-Final
  2
1055_PLUS_B&WFinalShaded.pc3
  4
User257
  6

 40
4.995333194732666
 41
8.297271728515625
 42
4.99530029296875
 43
8.29736328125
 44
901.6576538085937
 45
1155.657592773437
 46
0.0
 47
0.0
 48
180360.0524337165
 49
80033.77936194791
140
180369.1574725906
141
80037.61796031875
142
1.0
143
30.0
 70
  1696
 72
     0
 73
     1
 74
     0
  7
1055B&WFullFinalShaded.ctb
 75
     0
147
0.0333333333333333
148
0.9506237099442845
149
8.593888772447144
  0
PLOTSETTINGS
  5
418
102
{ACAD_REACTORS
330
22
102
}
330
22
100
AcDbPlotSettings
  1
1055-PLUS-Color-Shaded-Draft
  2
1055_PLUS_ColorDraftShaded.pc3
  4
User257
  6

 40
4.995333194732666
 41
8.297393798828125
 42
4.99530029296875
 43
8.29736328125
 44
901.6152954101562
 45
1155.615356445312
 46
0.0
 47
0.0
 48
180360.0524337165
 49
80033.77936194791
140
180369.1574725906
141
80037.61796031875
142
1.0
143
30.0
 70
  1696
 72
     0
 73
     1
 74
     0
  7
1055ColorFullDraftShaded.ctb
 75
     0
147
0.0333333333333333
148
0.9506237099442845
149
8.593888772447144
  0
PLOTSETTINGS
  5
419
102
{ACAD_REACTORS
330
22
102
}
330
22
100
AcDbPlotSettings
  1
1055-PLUS-Color-Shaded-Final
  2
1055_PLUS_ColorFinalShaded.pc3
  4
User257
  6

 40
4.995333194732666
 41
8.297271728515625
 42
4.99530029296875
 43
8.29736328125
 44
901.6576538085937
 45
1155.657592773437
 46
0.0
 47
0.0
 48
180360.0524337165
 49
80033.77936194791
140
180369.1574725906
141
80037.61796031875
142
1.0
143
30.0
 70
  1696
 72
     0
 73
     1
 74
     0
  7
1055ColorFullFinalShaded.ctb
 75
     0
147
0.0333333333333333
148
0.9506237099442845
149
8.593888772447144
  0
PLOTSETTINGS
  5
41A
102
{ACAD_REACTORS
330
22
102
}
330
22
100
AcDbPlotSettings
  1
2200 Color Inkjet
  2
HP  2200 Color Inkjet.pc3
  4
Letter
  6
PS1
 40
7.143749713897705
 41
12.47775650024414
 42
7.14373779296875
 43
3.17498779296875
 44
215.8999938964843
 45
279.3999938964843
 46
0.0
 47
0.0
 48
180377.877572
 49
80019.819395
140
180380.8390819999
141
80022.26069
142
1.0
143
0.3486331030131726
 70
   688
 72
     0
 73
     1
 74
     3
  7
Color.ctb
 75
     0
147
2.868344948764708
148
-4581603.303200401
149
-2032962.095032944
  0
PLOTSETTINGS
  5
41B
102
{ACAD_REACTORS
330
22
102
}
330
22
100
AcDbPlotSettings
  1
2200-Color-Inkjet
  2
HP  2200 Color Inkjet.pc3
  4
Letter
  6

 40
7.143749713897705
 41
12.47775650024414
 42
7.14373779296875
 43
3.17498779296875
 44
215.8999938964843
 45
279.3999938964843
 46
0.0
 47
0.0
 48
180360.0524337165
 49
80033.77936194791
140
180369.1574725906
141
80037.61796031875
142
1.0
143
0.069393053089765
 70
  1712
 72
     0
 73
     1
 74
     1
  7
Color.ctb
 75
     0
147
14.41066440334347
148
-190.0773302744904
149
-129.2444057835751
  0
PLOTSETTINGS
  5
41C
102
{ACAD_REACTORS
330
22
102
}
330
22
100
AcDbPlotSettings
  1
24x36 PDF
  2
Bluebeam PDF Printer.pc3
  4
User128
  6
PS1
 40
3.174999952316284
 41
3.174999952316284
 42
3.17498779296875
 43
3.17498779296875
 44
609.5999755859375
 45
914.3999633789062
 46
270.5099999999999
 47
416.3059999999999
 48
180377.877572
 49
80019.819395
140
180380.8390819999
141
80022.26069
142
1.0
143
1.0
 70
   692
 72
     0
 73
     1
 74
     4
  7
1055B&WFullDraftShaded.ctb
 75
    16
147
1.0
148
-4581598.0903288
149
-2032503.412632999
  0
PLOTSETTINGS
  5
41D
102
{ACAD_REACTORS
330
22
102
}
330
22
100
AcDbPlotSettings
  1
8500 B&W Shaded 11x17
  2
8500B&WShaded.pc3
  4
11x17
  6
PS1
 40
5.027083396911621
 41
5.027085304260253
 42
5.027099609375
 43
5.027069091796875
 44
279.3999938964843
 45
431.7999877929687
 46
0.0
 47
92.964
 48
180377.877572
 49
80019.819395
140
180380.8390819999
141
80022.26069
142
1.0
143
0.0116192543742624
 70
   692
 72
     0
 73
     1
 74
     3
  7
8500B&WShaded.ctb
 75
     0
147
86.06404230335863
148
-4581651.879813895
149
-2032998.63613423
  0
PLOTSETTINGS
  5
41E
102
{ACAD_REACTORS
330
22
102
}
330
22
100
AcDbPlotSettings
  1
8500 B&W Shaded 8.5x11
  2
8500B&WShaded.pc3
  4
Letter
  6
PS1
 40
5.027083396911621
 41
5.027085304260253
 42
5.027084350585937
 43
5.027069091796875
 44
215.8999938964843
 45
279.3999938964843
 46
0.0
 47
44.44999999999999
 48
180377.877572
 49
80019.819395
140
180380.8390819999
141
80022.26069
142
1.0
143
0.0152035994604527
 70
   692
 72
     0
 73
     1
 74
     3
  7
8500B&WShaded.ctb
 75
     0
147
65.77389799048455
148
-4581651.879813895
149
-2032998.63613423
  0
PLOTSETTINGS
  5
41F
102
{ACAD_REACTORS
330
22
102
}
330
22
100
AcDbPlotSettings
  1
8500 Color Shaded 11x17
  2
8500ColorShaded.pc3
  4
11x17
  6
PS1
 40
5.027083396911621
 41
5.027085304260253
 42
5.027099609375
 43
5.027069091796875
 44
279.3999938964843
 45
431.7999877929687
 46
0.0
 47
92.964
 48
180377.877572
 49
80019.819395
140
180380.8390819999
141
80022.26069
142
1.0
143
0.0116192543742624
 70
   692
 72
     0
 73
     1
 74
     3
  7
8500ColorShaded.ctb
 75
     0
147
86.06404230335863
148
-4581651.879813895
149
-2032998.63613423
  0
PLOTSETTINGS
  5
420
102
{ACAD_REACTORS
330
22
102
}
330
22
100
AcDbPlotSettings
  1
8500 Color Shaded 8.5x11
  2
8500ColorShaded.pc3
  4
Letter
  6
PS1
 40
5.027083396911621
 41
5.027085304260253
 42
5.027084350585937
 43
5.027069091796875
 44
215.8999938964843
 45
279.3999938964843
 46
0.0
 47
44.44999999999999
 48
180377.877572
 49
80019.819395
140
180380.8390819999
141
80022.26069
142
1.0
143
0.0152035994604527
 70
   692
 72
     0
 73
     1
 74
     3
  7
8500ColorShaded.ctb
 75
     0
147
65.77389799048455
148
-4581651.879813895
149
-2032998.63613423
  0
PLOTSETTINGS
  5
421
102
{ACAD_REACTORS
330
22
102
}
330
22
100
AcDbPlotSettings
  1
8500-B&W-Shaded-11x17
  2
8500B&WShaded.pc3
  4
11x17
  6

 40
5.027083396911621
 41
5.027085304260253
 42
5.027099609375
 43
5.027069091796875
 44
279.3999938964843
 45
431.7999877929687
 46
0.0
 47
0.0
 48
180360.0524337165
 49
80033.77936194791
140
180369.1574725906
141
80037.61796031875
142
1.0
143
0.0519425466957002
 70
  1712
 72
     0
 73
     1
 74
     1
  7
8500B&WShaded.ctb
 75
     0
147
19.252040256293
148
-190.0773302744904
149
-129.2444057835751
  0
PLOTSETTINGS
  5
422
102
{ACAD_REACTORS
330
22
102
}
330
22
100
AcDbPlotSettings
  1
8500-B&W-Shaded-8.5x11
  2
8500B&WShaded.pc3
  4
Letter
  6

 40
5.027083396911621
 41
5.027085304260253
 42
5.027084350585937
 43
5.027069091796875
 44
215.8999938964843
 45
279.3999938964843
 46
0.0
 47
0.0
 48
180360.0524337165
 49
80033.77936194791
140
180369.1574725906
141
80037.61796031875
142
1.0
143
0.0679659511256221
 70
  1712
 72
     0
 73
     1
 74
     1
  7
8500B&WShaded.ctb
 75
     0
147
14.71324955273106
148
-190.0773302744904
149
-129.2444057835751
  0
PLOTSETTINGS
  5
423
102
{ACAD_REACTORS
330
22
102
}
330
22
100
AcDbPlotSettings
  1
8500-Color-Shaded-11x17
  2
8500ColorShaded.pc3
  4
11x17
  6

 40
5.027083396911621
 41
5.027085304260253
 42
5.027099609375
 43
5.027069091796875
 44
279.3999938964843
 45
431.7999877929687
 46
0.0
 47
0.0
 48
180360.0524337165
 49
80033.77936194791
140
180369.1574725906
141
80037.61796031875
142
1.0
143
0.0519425466957002
 70
  1712
 72
     0
 73
     1
 74
     1
  7
8500ColorShaded.ctb
 75
     0
147
19.252040256293
148
-190.0773302744904
149
-129.2444057835751
  0
PLOTSETTINGS
  5
424
102
{ACAD_REACTORS
330
22
102
}
330
22
100
AcDbPlotSettings
  1
8500-Color-Shaded-8.5x11
  2
8500ColorShaded.pc3
  4
Letter
  6

 40
5.027083396911621
 41
5.027085304260253
 42
5.027084350585937
 43
5.027069091796875
 44
215.8999938964843
 45
279.3999938964843
 46
0.0
 47
0.0
 48
180360.0524337165
 49
80033.77936194791
140
180369.1574725906
141
80037.61796031875
142
1.0
143
0.0679659511256221
 70
  1712
 72
     0
 73
     1
 74
     1
  7
8500ColorShaded.ctb
 75
     0
147
14.71324955273106
148
-190.0773302744904
149
-129.2444057835751
  0
PLOTSETTINGS
  5
425
102
{ACAD_REACTORS
330
22
102
}
330
22
100
AcDbPlotSettings
  1
Laser Jet 5 Shaded 11x17
  2
LaserJet5Shaded.pc3
  4
11x17
  6
PS1
 40
7.143749713897705
 41
5.873736858367919
 42
7.143768310546875
 43
7.14373779296875
 44
279.3999938964843
 45
431.7999877929687
 46
0.0
 47
29.71799999999999
 48
180377.877572
 49
80019.819395
140
180380.8390819999
141
80022.26069
142
1.0
143
0.2557442899420743
 70
   692
 72
     0
 73
     1
 74
     3
  7
LaserJet5Shaded.ctb
 75
     0
147
3.910155727138614
148
-4581603.303200401
149
-2032962.095032944
  0
PLOTSETTINGS
  5
426
102
{ACAD_REACTORS
330
22
102
}
330
22
100
AcDbPlotSettings
  1
Laser Jet 5 Shaded 8.5x11
  2
LaserJet5Shaded.pc3
  4
Letter
  6
PS1
 40
7.143749713897705
 41
6.974400997161865
 42
7.14373779296875
 43
6.297088623046875
 44
215.8999938964843
 45
279.3999938964843
 46
2.794
 47
0.0
 48
180377.877572
 49
80019.819395
140
180380.8390819999
141
80022.26069
142
1.0
143
0.345513616778612
 70
   692
 72
     0
 73
     1
 74
     3
  7
LaserJet5Shaded.ctb
 75
     0
147
2.894241938489939
148
-4581603.303200401
149
-2032962.095032944
  0
PLOTSETTINGS
  5
427
102
{ACAD_REACTORS
330
22
102
}
330
22
100
AcDbPlotSettings
  1
LaserJet5-Shaded-11x17
  2
LaserJet5Shaded.pc3
  4
11x17
  6

 40
7.143749713897705
 41
5.873736858367919
 42
7.143768310546875
 43
7.14373779296875
 44
279.3999938964843
 45
431.7999877929687
 46
0.0
 47
0.0
 48
180360.0524337165
 49
80033.77936194791
140
180369.1574725906
141
80037.61796031875
142
1.0
143
0.0527719690046124
 70
  1712
 72
     0
 73
     1
 74
     1
  7
LaserJet5Shaded.ctb
 75
     0
147
18.9494540162524
148
-190.0773302744904
149
-129.2444057835751
  0
PLOTSETTINGS
  5
428
102
{ACAD_REACTORS
330
22
102
}
330
22
100
AcDbPlotSettings
  1
LaserJet5-Shaded-8.5x11
  2
LaserJet5Shaded.pc3
  4
Letter
  6

 40
7.143749713897705
 41
6.974400997161865
 42
7.14373779296875
 43
6.297088623046875
 44
215.8999938964843
 45
279.3999938964843
 46
0.0
 47
0.0
 48
180360.0524337165
 49
80033.77936194791
140
180369.1574725906
141
80037.61796031875
142
1.0
143
0.069393053089765
 70
  1712
 72
     0
 73
     1
 74
     1
  7
LaserJet5Shaded.ctb
 75
     0
147
14.41066440334347
148
-190.0773302744904
149
-129.2444057835751
  0
PLOTSETTINGS
  5
429
102
{ACAD_REACTORS
330
22
102
}
330
22
100
AcDbPlotSettings
  1
Oki Doki B&W Shaded 11x17
  2
OKI DOKI Color Laser.pc3
  4
Tabloid
  6
PS1
 40
5.027083396911621
 41
5.027085304260253
 42
5.027099609375
 43
5.027069091796875
 44
279.3999938964843
 45
431.7999877929687
 46
0.0
 47
47.49799999999999
 48
180377.877572
 49
80019.819395
140
180380.8390819999
141
80022.26069
142
1.0
143
0.2302203728173071
 70
   692
 72
     0
 73
     1
 74
     4
  7
OKIB&WShaded.ctb
 75
     0
147
4.343664236846477
148
-4581598.0903288
149
-2032503.412632999
  0
PLOTSETTINGS
  5
42A
102
{ACAD_REACTORS
330
22
102
}
330
22
100
AcDbPlotSettings
  1
Oki Doki B&W Shaded 8.5x11
  2
OKI DOKI Color Laser.pc3
  4
Letter
  6
PS1
 40
5.027083396911621
 41
5.027085304260253
 42
5.027084350585937
 43
5.027069091796875
 44
215.8999938964843
 45
279.3999938964843
 46
0.0
 47
9.906
 48
180377.877572
 49
80019.819395
140
180380.8390819999
141
80022.26069
142
1.0
143
0.3012394963745367
 70
   692
 72
     0
 73
     1
 74
     4
  7
OKIB&WShaded.ctb
 75
     0
147
3.319617819161008
148
-4581598.0903288
149
-2032503.412632999
  0
PLOTSETTINGS
  5
42B
102
{ACAD_REACTORS
330
22
102
}
330
22
100
AcDbPlotSettings
  1
Oki Doki Color Laser
  2
OKI DOKI Color Laser.pc3
  4
Letter
  6
PS1
 40
5.027083396911621
 41
5.027085304260253
 42
5.027084350585937
 43
5.027069091796875
 44
215.8999938964843
 45
279.3999938964843
 46
71.88199999999999
 47
97.02799999999999
 48
180377.877572
 49
80019.819395
140
180380.8390819999
141
80022.26069
142
1.0
143
1.0
 70
   692
 72
     0
 73
     1
 74
     4
  7
Color.ctb
 75
    16
147
1.0
148
-4581598.0903288
149
-2032503.412632999
  0
PLOTSETTINGS
  5
42C
102
{ACAD_REACTORS
330
22
102
}
330
22
100
AcDbPlotSettings
  1
Oki Doki Color Shaded 11x17
  2
OKI DOKI Color Laser.pc3
  4
Tabloid
  6
PS1
 40
5.027083396911621
 41
5.027085304260253
 42
5.027099609375
 43
5.027069091796875
 44
279.3999938964843
 45
431.7999877929687
 46
0.0
 47
47.49799999999999
 48
180377.877572
 49
80019.819395
140
180380.8390819999
141
80022.26069
142
1.0
143
0.2302203728173071
 70
   692
 72
     0
 73
     1
 74
     4
  7
OKIColorShaded.ctb
 75
     0
147
4.343664236846477
148
-4581598.0903288
149
-2032503.412632999
  0
PLOTSETTINGS
  5
42D
102
{ACAD_REACTORS
330
22
102
}
330
22
100
AcDbPlotSettings
  1
Oki Doki Color Shaded 8.5x11
  2
OKI DOKI Color Laser.pc3
  4
Letter
  6
PS1
 40
5.027083396911621
 41
5.027085304260253
 42
5.027084350585937
 43
5.027069091796875
 44
215.8999938964843
 45
279.3999938964843
 46
0.0
 47
9.906
 48
180377.877572
 49
80019.819395
140
180380.8390819999
141
80022.26069
142
1.0
143
0.3012394963745367
 70
   692
 72
     0
 73
     1
 74
     4
  7
OKIColorShaded.ctb
 75
     0
147
3.319617819161008
148
-4581598.0903288
149
-2032503.412632999
  0
PLOTSETTINGS
  5
42E
102
{ACAD_REACTORS
330
22
102
}
330
22
100
AcDbPlotSettings
  1
Oki-Doki-B&W-Shaded-11x17
  2
OKI DOKI Color Laser.pc3
  4
Tabloid
  6

 40
5.027083396911621
 41
5.027085304260253
 42
5.027099609375
 43
5.027069091796875
 44
279.3999938964843
 45
431.7999877929687
 46
45.72
 47
0.0
 48
180360.0524337165
 49
80033.77936194791
140
180369.1574725906
141
80037.61796031875
142
1.0
143
0.5483586774064594
 70
  1716
 72
     0
 73
     1
 74
     4
  7
OKIB&WShaded.ctb
 75
     0
147
1.823623918435361
148
-4581145.331816398
149
-2032857.995793476
  0
PLOTSETTINGS
  5
42F
102
{ACAD_REACTORS
330
22
102
}
330
22
100
AcDbPlotSettings
  1
Oki-Doki-B&W-Shaded-8.5x11
  2
OKI DOKI Color Laser.pc3
  4
Letter
  6

 40
5.027083396911621
 41
5.027085304260253
 42
5.027084350585937
 43
5.027069091796875
 44
215.8999938964843
 45
279.3999938964843
 46
46.228
 47
0.0
 48
180360.0524337165
 49
80033.77936194791
140
180369.1574725906
141
80037.61796031875
142
1.0
143
0.8586284006917006
 70
  1716
 72
     0
 73
     1
 74
     4
  7
OKIB&WShaded.ctb
 75
     0
147
1.16464817515285
148
-4581145.331816398
149
-2032857.995793476
  0
PLOTSETTINGS
  5
430
102
{ACAD_REACTORS
330
22
102
}
330
22
100
AcDbPlotSettings
  1
Oki-Doki-Color-Laser
  2
OKI DOKI Color Laser.pc3
  4
Letter
  6

 40
5.027083396911621
 41
5.027085304260253
 42
5.027084350585937
 43
5.027069091796875
 44
215.8999938964843
 45
279.3999938964843
 46
17.018
 47
0.0
 48
180360.0524337165
 49
80033.77936194791
140
180369.1574725906
141
80037.61796031875
142
1.0
143
1.429088128819241
 70
  1716
 72
     0
 73
     1
 74
     0
  7
Color.ctb
 75
     0
147
0.6997469084193093
148
0.9506237099442977
149
8.593888772447144
  0
PLOTSETTINGS
  5
431
102
{ACAD_REACTORS
330
22
102
}
330
22
100
AcDbPlotSettings
  1
Oki-Doki-Color-Shaded-11x17
  2
OKI DOKI Color Laser.pc3
  4
Tabloid
  6

 40
5.027083396911621
 41
5.027085304260253
 42
5.027099609375
 43
5.027069091796875
 44
279.3999938964843
 45
431.7999877929687
 46
45.72
 47
0.0
 48
180360.0524337165
 49
80033.77936194791
140
180369.1574725906
141
80037.61796031875
142
1.0
143
0.5483586774064594
 70
  1716
 72
     0
 73
     1
 74
     4
  7
OKIColorShaded.ctb
 75
     0
147
1.823623918435361
148
-4581145.331816398
149
-2032857.995793476
  0
PLOTSETTINGS
  5
432
102
{ACAD_REACTORS
330
22
102
}
330
22
100
AcDbPlotSettings
  1
Oki-Doki-Color-Shaded-8.5x11
  2
OKI DOKI Color Laser.pc3
  4
Letter
  6

 40
5.027083396911621
 41
5.027085304260253
 42
5.027084350585937
 43
5.027069091796875
 44
215.8999938964843
 45
279.3999938964843
 46
46.228
 47
0.0
 48
180360.0524337165
 49
80033.77936194791
140
180369.1574725906
141
80037.61796031875
142
1.0
143
0.8586284006917006
 70
  1716
 72
     0
 73
     1
 74
     4
  7
OKIColorShaded.ctb
 75
     0
147
1.16464817515285
148
-4581145.331816398
149
-2032857.995793476
  0
ACDBPLACEHOLDER
  5
5
102
{ACAD_REACTORS
330
6
102
}
330
6
  0
DICTIONARYVAR
  5
344
102
{ACAD_REACTORS
330
342
102
}
330
342
100
DictionaryVariables
280
     0
  1
1
  0
DICTIONARYVAR
  5
343
102
{ACAD_REACTORS
330
342
102
}
330
342
100
DictionaryVariables
280
     0
  1
1
  0
DICTIONARYVAR
  5
3FA
102
{ACAD_REACTORS
330
342
102
}
330
342
100
DictionaryVariables
280
     0
  1
1
  0
XRECORD
  5
38B
102
{ACAD_REACTORS
330
389
102
}
330
389
100
AcDbXrecord
280
     1
330
265
330
26C
330
274
330
277
330
287
330
28E
330
2A0
330
2A8
330
2F2
330
369
330
80
330
87
330
29
330
34
330
37
330
3A
330
3D
330
40
330
43
330
46
330
49
  0
ENDSEC
  0
EOF
